  0
SECTION
  2
HEADER
  9
$ACADVER
  1
AC1018
  9
$ACADMAINTVER
 70
   104
  9
$DWGCODEPAGE
  3
ANSI_932
  9
$LASTSAVEDBY
  1
DELL3-2
  9
$INSBASE
 10
0.0
 20
0.0
 30
0.0
  9
$EXTMIN
 10
-512.4265927146791
 20
-517.6422283956228
 30
0.0
  9
$EXTMAX
 10
805.8154461273876
 20
427.6344004389228
 30
0.0
  9
$LIMMIN
 10
-557.9060175872
 20
-716.1621230817691
  9
$LIMMAX
 10
993.3726610401754
 20
648.0513690781918
  9
$ORTHOMODE
 70
     0
  9
$REGENMODE
 70
     1
  9
$FILLMODE
 70
     1
  9
$QTEXTMODE
 70
     0
  9
$MIRRTEXT
 70
     0
  9
$LTSCALE
 40
20.0
  9
$ATTMODE
 70
     1
  9
$TEXTSIZE
 40
64.0
  9
$TRACEWID
 40
0.05
  9
$TEXTSTYLE
  7
STANDARD
  9
$CLAYER
  8
SIZE
  9
$CELTYPE
  6
BYLAYER
  9
$CECOLOR
 62
   256
  9
$CELTSCALE
 40
1.0
  9
$DISPSILH
 70
     0
  9
$DIMSCALE
 40
1.0
  9
$DIMASZ
 40
10.0
  9
$DIMEXO
 40
20.0
  9
$DIMDLI
 40
200.0
  9
$DIMRND
 40
0.0
  9
$DIMDLE
 40
0.0
  9
$DIMEXE
 40
20.0
  9
$DIMTP
 40
0.0
  9
$DIMTM
 40
0.0
  9
$DIMTXT
 40
50.0
  9
$DIMCEN
 40
0.082
  9
$DIMTSZ
 40
0.0
  9
$DIMTOL
 70
     0
  9
$DIMLIM
 70
     0
  9
$DIMTIH
 70
     0
  9
$DIMTOH
 70
     0
  9
$DIMSE1
 70
     0
  9
$DIMSE2
 70
     0
  9
$DIMTAD
 70
     1
  9
$DIMZIN
 70
     8
  9
$DIMBLK
  1
ORIGIN
  9
$DIMASO
 70
     1
  9
$DIMSHO
 70
     0
  9
$DIMPOST
  1

  9
$DIMAPOST
  1

  9
$DIMALT
 70
     0
  9
$DIMALTD
 70
     2
  9
$DIMALTF
 40
25.4
  9
$DIMLFAC
 40
1.0
  9
$DIMTOFL
 70
     1
  9
$DIMTVP
 40
0.0
  9
$DIMTIX
 70
     0
  9
$DIMSOXD
 70
     0
  9
$DIMSAH
 70
     0
  9
$DIMBLK1
  1

  9
$DIMBLK2
  1

  9
$DIMSTYLE
  2
STANDARD
  9
$DIMCLRD
 70
     0
  9
$DIMCLRE
 70
     0
  9
$DIMCLRT
 70
     0
  9
$DIMTFAC
 40
1.0
  9
$DIMGAP
 40
10.0
  9
$DIMJUST
 70
     0
  9
$DIMSD1
 70
     0
  9
$DIMSD2
 70
     0
  9
$DIMTOLJ
 70
     1
  9
$DIMTZIN
 70
     0
  9
$DIMALTZ
 70
     0
  9
$DIMALTTZ
 70
     0
  9
$DIMUPT
 70
     0
  9
$DIMDEC
 70
     0
  9
$DIMTDEC
 70
     0
  9
$DIMALTU
 70
     2
  9
$DIMALTTD
 70
     2
  9
$DIMTXSTY
  7
STANDARD
  9
$DIMAUNIT
 70
     0
  9
$DIMADEC
 70
     0
  9
$DIMALTRND
 40
0.0
  9
$DIMAZIN
 70
     0
  9
$DIMDSEP
 70
    46
  9
$DIMATFIT
 70
     3
  9
$DIMFRAC
 70
     0
  9
$DIMLDRBLK
  1
ORIGIN
  9
$DIMLUNIT
 70
     2
  9
$DIMLWD
 70
    -2
  9
$DIMLWE
 70
    -2
  9
$DIMTMOVE
 70
     0
  9
$LUNITS
 70
     2
  9
$LUPREC
 70
     4
  9
$SKETCHINC
 40
0.1
  9
$FILLETRAD
 40
10.0
  9
$AUNITS
 70
     1
  9
$AUPREC
 70
     3
  9
$MENU
  1
ACAD
  9
$ELEVATION
 40
0.0
  9
$PELEVATION
 40
0.0
  9
$THICKNESS
 40
0.0
  9
$LIMCHECK
 70
     0
  9
$CHAMFERA
 40
0.0
  9
$CHAMFERB
 40
0.0
  9
$CHAMFERC
 40
0.0
  9
$CHAMFERD
 40
0.0
  9
$SKPOLY
 70
     0
  9
$TDCREATE
 40
2450330.393205995
  9
$TDUCREATE
 40
2450330.018205995
  9
$TDUPDATE
 40
2457442.861979850
  9
$TDUUPDATE
 40
2457442.486979850
  9
$TDINDWG
 40
3.0544808796
  9
$TDUSRTIMER
 40
3.0544799074
  9
$USRTIMER
 70
     1
  9
$ANGBASE
 50
0.0
  9
$ANGDIR
 70
     0
  9
$PDMODE
 70
     3
  9
$PDSIZE
 40
-2.0
  9
$PLINEWID
 40
0.0
  9
$SPLFRAME
 70
     0
  9
$SPLINETYPE
 70
     6
  9
$SPLINESEGS
 70
     8
  9
$HANDSEED
  5
9481C
  9
$SURFTAB1
 70
     6
  9
$SURFTAB2
 70
     6
  9
$SURFTYPE
 70
     6
  9
$SURFU
 70
     6
  9
$SURFV
 70
     6
  9
$UCSBASE
  2

  9
$UCSNAME
  2

  9
$UCSORG
 10
0.0
 20
0.0
 30
0.0
  9
$UCSXDIR
 10
1.0
 20
0.0
 30
0.0
  9
$UCSYDIR
 10
0.0
 20
1.0
 30
0.0
  9
$UCSORTHOREF
  2

  9
$UCSORTHOVIEW
 70
     0
  9
$UCSORGTOP
 10
0.0
 20
0.0
 30
0.0
  9
$UCSORGBOTTOM
 10
0.0
 20
0.0
 30
0.0
  9
$UCSORGLEFT
 10
0.0
 20
0.0
 30
0.0
  9
$UCSORGRIGHT
 10
0.0
 20
0.0
 30
0.0
  9
$UCSORGFRONT
 10
0.0
 20
0.0
 30
0.0
  9
$UCSORGBACK
 10
0.0
 20
0.0
 30
0.0
  9
$PUCSBASE
  2

  9
$PUCSNAME
  2

  9
$PUCSORG
 10
0.0
 20
0.0
 30
0.0
  9
$PUCSXDIR
 10
1.0
 20
0.0
 30
0.0
  9
$PUCSYDIR
 10
0.0
 20
1.0
 30
0.0
  9
$PUCSORTHOREF
  2

  9
$PUCSORTHOVIEW
 70
     0
  9
$PUCSORGTOP
 10
0.0
 20
0.0
 30
0.0
  9
$PUCSORGBOTTOM
 10
0.0
 20
0.0
 30
0.0
  9
$PUCSORGLEFT
 10
0.0
 20
0.0
 30
0.0
  9
$PUCSORGRIGHT
 10
0.0
 20
0.0
 30
0.0
  9
$PUCSORGFRONT
 10
0.0
 20
0.0
 30
0.0
  9
$PUCSORGBACK
 10
0.0
 20
0.0
 30
0.0
  9
$USERI1
 70
     0
  9
$USERI2
 70
     0
  9
$USERI3
 70
     0
  9
$USERI4
 70
     0
  9
$USERI5
 70
     0
  9
$USERR1
 40
20.0
  9
$USERR2
 40
0.0
  9
$USERR3
 40
0.0
  9
$USERR4
 40
0.0
  9
$USERR5
 40
0.0
  9
$WORLDVIEW
 70
     1
  9
$SHADEDGE
 70
     3
  9
$SHADEDIF
 70
    70
  9
$TILEMODE
 70
     1
  9
$MAXACTVP
 70
    64
  9
$PINSBASE
 10
0.0
 20
0.0
 30
0.0
  9
$PLIMCHECK
 70
     0
  9
$PEXTMIN
 10
1.000000000000000E+20
 20
1.000000000000000E+20
 30
1.000000000000000E+20
  9
$PEXTMAX
 10
-1.000000000000000E+20
 20
-1.000000000000000E+20
 30
-1.000000000000000E+20
  9
$PLIMMIN
 10
0.0
 20
0.0
  9
$PLIMMAX
 10
12.0
 20
9.0
  9
$UNITMODE
 70
     0
  9
$VISRETAIN
 70
     1
  9
$PLINEGEN
 70
     0
  9
$PSLTSCALE
 70
     1
  9
$TREEDEPTH
 70
  3020
  9
$CMLSTYLE
  2
STANDARD
  9
$CMLJUST
 70
     0
  9
$CMLSCALE
 40
1.0
  9
$PROXYGRAPHICS
 70
     1
  9
$MEASUREMENT
 70
     0
  9
$CELWEIGHT
370
    -1
  9
$ENDCAPS
280
     0
  9
$JOINSTYLE
280
     0
  9
$LWDISPLAY
290
     0
  9
$INSUNITS
 70
     0
  9
$HYPERLINKBASE
  1

  9
$STYLESHEET
  1
monochrome.ctb
  9
$XEDIT
290
     1
  9
$CEPSNTYPE
380
     0
  9
$PSTYLEMODE
290
     1
  9
$FINGERPRINTGUID
  2
{97DA8DB6-C4F0-4C3D-ABEB-53C4FBBC7EFF}
  9
$VERSIONGUID
  2
{0D89780B-C866-4BA8-9D2E-190E68B45F77}
  9
$EXTNAMES
290
     1
  9
$PSVPSCALE
 40
0.0
  9
$OLESTARTUP
290
     0
  9
$SORTENTS
280
   127
  9
$INDEXCTL
280
     0
  9
$HIDETEXT
280
     0
  9
$XCLIPFRAME
290
     0
  9
$HALOGAP
280
     0
  9
$OBSCOLOR
 70
   257
  9
$OBSLTYPE
280
     0
  9
$INTERSECTIONDISPLAY
280
     0
  9
$INTERSECTIONCOLOR
 70
   257
  9
$DIMASSOC
280
     1
  9
$PROJECTNAME
  1

  0
ENDSEC
  0
SECTION
  2
CLASSES
  0
CLASS
  1
ACDBDICTIONARYWDFLT
  2
AcDbDictionaryWithDefault
  3
ObjectDBX Classes
 90
        0
 91
        1
280
     0
281
     0
  0
CLASS
  1
MATERIAL
  2
AcDbMaterial
  3
ObjectDBX Classes
 90
     1153
 91
        3
280
     0
281
     0
  0
CLASS
  1
VISUALSTYLE
  2
AcDbVisualStyle
  3
ObjectDBX Classes
 90
     4095
 91
       24
280
     0
281
     0
  0
CLASS
  1
TABLESTYLE
  2
AcDbTableStyle
  3
ObjectDBX Classes
 90
     4095
 91
        1
280
     0
281
     0
  0
CLASS
  1
SCALE
  2
AcDbScale
  3
ObjectDBX Classes
 90
     1153
 91
       17
280
     0
281
     0
  0
CLASS
  1
MLEADERSTYLE
  2
AcDbMLeaderStyle
  3
ACDB_MLEADERSTYLE_CLASS
 90
     4095
 91
        1
280
     0
281
     0
  0
CLASS
  1
ACDBSECTIONVIEWSTYLE
  2
AcDbSectionViewStyle
  3
ObjectDBX Classes
 90
     1025
 91
        2
280
     0
281
     0
  0
CLASS
  1
ACDBDETAILVIEWSTYLE
  2
AcDbDetailViewStyle
  3
ObjectDBX Classes
 90
     1025
 91
        2
280
     0
281
     0
  0
CLASS
  1
DICTIONARYVAR
  2
AcDbDictionaryVar
  3
ObjectDBX Classes
 90
        0
 91
       15
280
     0
281
     0
  0
CLASS
  1
CELLSTYLEMAP
  2
AcDbCellStyleMap
  3
ObjectDBX Classes
 90
     1152
 91
        2
280
     0
281
     0
  0
CLASS
  1
SORTENTSTABLE
  2
AcDbSortentsTable
  3
ObjectDBX Classes
 90
        0
 91
        1
280
     0
281
     0
  0
CLASS
  1
PLOTSETTINGS
  2
AcDbPlotSettings
  3
ObjectDBX Classes
 90
        0
 91
        1
280
     0
281
     0
  0
ENDSEC
  0
SECTION
  2
TABLES
  0
TABLE
  2
VPORT
  5
8
330
0
100
AcDbSymbolTable
 70
     1
  0
VPORT
  5
92920
330
8
100
AcDbSymbolTableRecord
100
AcDbViewportTableRecord
  2
*Active
 70
     0
 10
0.0
 20
0.0
 11
1.0
 21
1.0
 12
-166.1080857054282
 22
-193.3722181028231
 13
0.0
 23
0.0
 14
50.0
 24
50.0
 15
100.0
 25
100.0
 16
0.0
 26
0.0
 36
1.0
 17
0.0
 27
0.0
 37
0.0
 40
755.3390967771058
 41
1.822344322344322
 42
50.0
 43
0.0
 44
0.0
 50
0.0
 51
0.0
 71
     0
 72
   500
 73
     1
 74
     0
 75
     0
 76
     0
 77
     0
 78
     0
281
     0
 65
     1
110
0.0
120
0.0
130
0.0
111
1.0
121
0.0
131
0.0
112
0.0
122
1.0
132
0.0
 79
     0
146
0.0
1001
ACAD_NAV_VCDISPLAY
1070
     3
  0
ENDTAB
  0
TABLE
  2
LTYPE
  5
5
330
0
100
AcDbSymbolTable
 70
     4
  0
LTYPE
  5
13
330
5
100
AcDbSymbolTableRecord
100
AcDbLinetypeTableRecord
  2
BYBLOCK
 70
     0
  3

 72
    65
 73
     0
 40
0.0
  0
LTYPE
  5
14
330
5
100
AcDbSymbolTableRecord
100
AcDbLinetypeTableRecord
  2
BYLAYER
 70
     0
  3

 72
    65
 73
     0
 40
0.0
  0
LTYPE
  5
15
330
5
100
AcDbSymbolTableRecord
100
AcDbLinetypeTableRecord
  2
CONTINUOUS
 70
     0
  3
実線
 72
    65
 73
     0
 40
0.0
  0
LTYPE
  5
23
330
5
100
AcDbSymbolTableRecord
100
AcDbLinetypeTableRecord
  2
DASHDOT
 70
     0
  3
____ _ ____ _ ____ _ ____ _ ____ _ ____ _ ____
 72
    65
 73
     4
 40
5.5
 49
4.0
 74
     0
 49
-0.6
 74
     0
 49
0.3
 74
     0
 49
-0.6
 74
     0
  0
LTYPE
  5
92977
330
5
100
AcDbSymbolTableRecord
100
AcDbLinetypeTableRecord
  2
CENTER
 70
     0
  3
____ _ ____ _ ____ _ ____ _ ____ _ ____ _ ____
 72
    65
 73
     4
 40
0.6
 49
0.375
 74
     0
 49
-0.075
 74
     0
 49
0.075
 74
     0
 49
-0.075
 74
     0
  0
LTYPE
  5
930C0
330
5
100
AcDbSymbolTableRecord
100
AcDbLinetypeTableRecord
  2
AI-Linetype-1
 70
     0
  3
Adobe Illustrator Linetype No. 1
 72
    65
 73
     4
 40
952.7777605853732
 49
352.7777776895833
 74
     0
 49
-239.999993158316
 74
     0
 49
119.999996579158
 74
     0
 49
-239.999993158316
 74
     0
  0
ENDTAB
  0
TABLE
  2
LAYER
  5
2
102
{ACAD_XDICTIONARY
360
92981
102
}
330
0
100
AcDbSymbolTable
 70
    11
  0
LAYER
  5
10
102
{ACAD_XDICTIONARY
360
92BDC
102
}
330
2
100
AcDbSymbolTableRecord
100
AcDbLayerTableRecord
  2
0
 70
     0
 62
     7
  6
CONTINUOUS
370
    -3
390
F
  0
LAYER
  5
22
102
{ACAD_XDICTIONARY
360
92BDE
102
}
330
2
100
AcDbSymbolTableRecord
100
AcDbLayerTableRecord
  2
SIZE
 70
     0
 62
    32
  6
CONTINUOUS
370
    -3
390
F
  0
LAYER
  5
31
102
{ACAD_XDICTIONARY
360
92BE0
102
}
330
2
100
AcDbSymbolTableRecord
100
AcDbLayerTableRecord
  2
DETAIL
 70
     0
 62
     5
  6
CONTINUOUS
370
    -3
390
F
  0
LAYER
  5
32
102
{ACAD_XDICTIONARY
360
92BE2
102
}
330
2
100
AcDbSymbolTableRecord
100
AcDbLayerTableRecord
  2
OUTLINE
 70
     0
 62
     3
  6
CONTINUOUS
370
    -3
390
F
  0
LAYER
  5
33
102
{ACAD_XDICTIONARY
360
92BE4
102
}
330
2
100
AcDbSymbolTableRecord
100
AcDbLayerTableRecord
  2
BASIS
 70
     0
 62
     6
  6
CONTINUOUS
370
    -3
390
F
  0
LAYER
  5
34
102
{ACAD_XDICTIONARY
360
92BE6
102
}
330
2
100
AcDbSymbolTableRecord
100
AcDbLayerTableRecord
  2
NOTE
 70
     0
 62
     4
  6
CONTINUOUS
370
    -3
390
F
  0
LAYER
  5
35
102
{ACAD_XDICTIONARY
360
92BE8
102
}
330
2
100
AcDbSymbolTableRecord
100
AcDbLayerTableRecord
  2
ARRANGE
 70
     0
 62
     1
  6
CONTINUOUS
370
    -3
390
F
  0
LAYER
  5
37
102
{ACAD_XDICTIONARY
360
92BEA
102
}
330
2
100
AcDbSymbolTableRecord
100
AcDbLayerTableRecord
  2
ETC
 70
     0
 62
    83
  6
CONTINUOUS
370
    -3
390
F
  0
LAYER
  5
3A
330
2
100
AcDbSymbolTableRecord
100
AcDbLayerTableRecord
  2
DEFPOINTS
 70
     0
 62
     7
  6
CONTINUOUS
290
     0
370
    -3
390
F
  0
LAYER
  5
92978
102
{ACAD_XDICTIONARY
360
92BEC
102
}
330
2
100
AcDbSymbolTableRecord
100
AcDbLayerTableRecord
  2
DEFAULT_1
 70
     0
 62
     7
  6
CENTER
370
    -3
390
F
  0
LAYER
  5
93FD5
330
2
100
AcDbSymbolTableRecord
100
AcDbLayerTableRecord
  2
_SURFACE
 70
     0
 62
     7
  6
CONTINUOUS
370
    -3
390
F
  0
ENDTAB
  0
TABLE
  2
STYLE
  5
3
330
0
100
AcDbSymbolTable
 70
     1
  0
STYLE
  5
11
330
3
100
AcDbSymbolTableRecord
100
AcDbTextStyleTableRecord
  2
STANDARD
 70
     0
 40
0.0
 41
0.9
 50
0.0
 71
     0
 42
64.0
  3
SIMPLEX
  4
BIGFONT
  0
ENDTAB
  0
TABLE
  2
VIEW
  5
6
330
0
100
AcDbSymbolTable
 70
     3
  0
VIEW
  5
3C
330
6
100
AcDbSymbolTableRecord
100
AcDbViewTableRecord
  2
ALL
 70
     0
 40
4282.62
 10
0.0
 20
41.30990399999999
 41
5940.0
 11
0.0
 21
0.0
 31
1.0
 12
0.0
 22
0.0
 32
0.0
 42
50.0
 43
0.0
 44
0.0
 50
0.0
 71
     0
281
     0
 72
     0
  0
ENDTAB
  0
TABLE
  2
UCS
  5
7
330
0
100
AcDbSymbolTable
 70
     0
  0
ENDTAB
  0
TABLE
  2
APPID
  5
9
330
0
100
AcDbSymbolTable
 70
     9
  0
APPID
  5
12
330
9
100
AcDbSymbolTableRecord
100
AcDbRegAppTableRecord
  2
ACAD
 70
     0
  0
APPID
  5
9297D
330
9
100
AcDbSymbolTableRecord
100
AcDbRegAppTableRecord
  2
ACAD_NAV_VCDISPLAY
 70
     0
  0
APPID
  5
9297E
330
9
100
AcDbSymbolTableRecord
100
AcDbRegAppTableRecord
  2
ACAD_DSTYLE_DIMJAG
 70
     0
  0
APPID
  5
9297F
330
9
100
AcDbSymbolTableRecord
100
AcDbRegAppTableRecord
  2
ACAD_DSTYLE_DIMBREAK
 70
     0
  0
APPID
  5
92980
330
9
100
AcDbSymbolTableRecord
100
AcDbRegAppTableRecord
  2
ACAD_DSTYLE_DIMTALN
 70
     0
  0
APPID
  5
92BD3
330
9
100
AcDbSymbolTableRecord
100
AcDbRegAppTableRecord
  2
ACAD_EXEMPT_FROM_CAD_STANDARDS
 70
     0
  0
APPID
  5
93DF3
330
9
100
AcDbSymbolTableRecord
100
AcDbRegAppTableRecord
  2
AcadAnnoMonitorAlertIconDisabled
 70
     0
  0
APPID
  5
93F12
330
9
100
AcDbSymbolTableRecord
100
AcDbRegAppTableRecord
  2
ACAD_MLEADERVER
 70
     0
  0
APPID
  5
93F25
330
9
100
AcDbSymbolTableRecord
100
AcDbRegAppTableRecord
  2
ACAD_PSEXT
 70
     0
  0
ENDTAB
  0
TABLE
  2
DIMSTYLE
  5
A
330
0
100
AcDbSymbolTable
 70
     5
100
AcDbDimStyleTable
 71
     1
340
213
  0
DIMSTYLE
105
213
102
{ACAD_REACTORS
330
93E09
330
93E69
330
945DB
330
94659
330
9469C
330
946D7
330
946E5
102
}
330
A
100
AcDbSymbolTableRecord
100
AcDbDimStyleTableRecord
  2
STANDARD
 70
     0
340
11
  0
DIMSTYLE
105
92979
330
A
100
AcDbSymbolTableRecord
100
AcDbDimStyleTableRecord
  2
DIMSTYLE_1
 70
     0
 41
3.5
 42
1.0
 44
1.5
 47
0.3
 48
0.3
 73
     0
 74
     0
 77
     1
 78
     8
140
3.5
147
0.875
271
     2
272
     2
278
    44
284
     8
340
11
341
92973
342
92973
343
92973
344
92973
  0
DIMSTYLE
105
9297A
330
A
100
AcDbSymbolTableRecord
100
AcDbDimStyleTableRecord
  2
DIMSTYLE_2
 70
     0
 41
3.5
 42
1.0
 44
1.5
 47
0.5
 48
0.5
 73
     0
 74
     0
 77
     1
 78
     8
140
3.5
147
0.875
271
     2
272
     2
278
    44
284
     8
340
11
341
92973
342
92973
343
92973
344
92973
  0
DIMSTYLE
105
9297B
330
A
100
AcDbSymbolTableRecord
100
AcDbDimStyleTableRecord
  2
DIMSTYLE_3
 70
     0
 41
3.5
 42
1.0
 44
1.5
 47
0.8
 48
0.8
 73
     0
 74
     0
 77
     1
 78
     8
140
3.5
147
0.875
271
     2
272
     2
278
    44
284
     8
340
11
341
92973
342
92973
343
92973
344
92973
  0
DIMSTYLE
105
9297C
330
A
100
AcDbSymbolTableRecord
100
AcDbDimStyleTableRecord
  2
STANDARD-140913
 70
     0
 41
10.0
 42
20.0
 43
200.0
 44
50.0
 47
0.01
 48
0.01
 73
     0
 74
     0
 77
     1
 78
     8
140
50.0
141
0.082
147
10.0
172
     1
271
     1
272
     1
340
11
341
46
342
46
1001
ACAD_DSTYLE_DIMBREAK
1070
   391
1040
0.125
1001
ACAD_DSTYLE_DIMJAG
1070
   388
1040
1.5
1001
ACAD_DSTYLE_DIMTALN
1070
   392
1070
     0
  0
ENDTAB
  0
TABLE
  2
BLOCK_RECORD
  5
1
330
0
100
AcDbSymbolTable
 70
    12
  0
BLOCK_RECORD
  5
1E
102
{ACAD_XDICTIONARY
360
66E76
102
}
330
1
100
AcDbSymbolTableRecord
100
AcDbBlockTableRecord
  2
*MODEL_SPACE
340
92440
  0
BLOCK_RECORD
  5
1A
102
{ACAD_XDICTIONARY
360
66E74
102
}
330
1
100
AcDbSymbolTableRecord
100
AcDbBlockTableRecord
  2
*PAPER_SPACE
340
92441
  0
BLOCK_RECORD
  5
46
330
1
100
AcDbSymbolTableRecord
100
AcDbBlockTableRecord
  2
_ORIGIN
340
0
102
{BLKREFS
331
94727
331
94728
331
94730
331
94731
331
9473B
331
9473C
331
94746
331
94747
331
9474F
331
94750
331
94759
331
9475A
331
94763
331
94764
102
}
  0
BLOCK_RECORD
  5
92973
330
1
100
AcDbSymbolTableRecord
100
AcDbBlockTableRecord
  2
_FILLED
340
0
  0
BLOCK_RECORD
  5
930AA
330
1
100
AcDbSymbolTableRecord
100
AcDbBlockTableRecord
  2
block 4
340
0
  0
BLOCK_RECORD
  5
930AE
330
1
100
AcDbSymbolTableRecord
100
AcDbBlockTableRecord
  2
block 5
340
0
  0
BLOCK_RECORD
  5
930B9
330
1
100
AcDbSymbolTableRecord
100
AcDbBlockTableRecord
  2
block 116
340
0
  0
BLOCK_RECORD
  5
93E0A
330
1
100
AcDbSymbolTableRecord
100
AcDbBlockTableRecord
  2
*D5
340
0
  0
BLOCK_RECORD
  5
93E6A
330
1
100
AcDbSymbolTableRecord
100
AcDbBlockTableRecord
  2
*D6
340
0
  0
BLOCK_RECORD
  5
945DC
330
1
100
AcDbSymbolTableRecord
100
AcDbBlockTableRecord
  2
*D7
340
0
  0
BLOCK_RECORD
  5
9465A
330
1
100
AcDbSymbolTableRecord
100
AcDbBlockTableRecord
  2
*D8
340
0
  0
BLOCK_RECORD
  5
9469D
330
1
100
AcDbSymbolTableRecord
100
AcDbBlockTableRecord
  2
*D9
340
0
  0
BLOCK_RECORD
  5
946D8
330
1
100
AcDbSymbolTableRecord
100
AcDbBlockTableRecord
  2
*D10
340
0
  0
BLOCK_RECORD
  5
946E6
330
1
100
AcDbSymbolTableRecord
100
AcDbBlockTableRecord
  2
*D11
340
0
  0
ENDTAB
  0
ENDSEC
  0
SECTION
  2
BLOCKS
  0
BLOCK
  5
1F
330
1E
100
AcDbEntity
  8
0
100
AcDbBlockBegin
  2
*MODEL_SPACE
 70
     0
 10
0.0
 20
0.0
 30
0.0
  3
*MODEL_SPACE
  1

  0
ENDBLK
  5
20
330
1E
100
AcDbEntity
  8
0
100
AcDbBlockEnd
  0
BLOCK
  5
1B
330
1A
100
AcDbEntity
 67
     1
  8
0
100
AcDbBlockBegin
  2
*PAPER_SPACE
 70
     0
 10
0.0
 20
0.0
 30
0.0
  3
*PAPER_SPACE
  1

  0
ENDBLK
  5
1C
330
1A
100
AcDbEntity
 67
     1
  8
0
100
AcDbBlockEnd
  0
BLOCK
  5
47
330
46
100
AcDbEntity
  8
0
100
AcDbBlockBegin
  2
_ORIGIN
 70
     0
 10
0.0
 20
0.0
 30
0.0
  3
_ORIGIN
  1

  0
CIRCLE
  5
48
330
46
100
AcDbEntity
  8
0
  6
ByBlock
 62
     0
100
AcDbCircle
 10
0.0
 20
0.0
 30
0.0
 40
0.5
  0
LINE
  5
49
330
46
100
AcDbEntity
  8
0
  6
ByBlock
 62
     0
100
AcDbLine
 10
0.0
 20
0.0
 30
0.0
 11
-1.0
 21
0.0
 31
0.0
  0
ENDBLK
  5
4A
330
46
100
AcDbEntity
  8
0
100
AcDbBlockEnd
  0
BLOCK
  5
92974
330
92973
100
AcDbEntity
  8
0
100
AcDbBlockBegin
  2
_FILLED
 70
     0
 10
0.0
 20
0.0
 30
0.0
  3
_FILLED
  1

  0
SOLID
  5
92975
330
92973
100
AcDbEntity
  8
0
  6
ByBlock
 62
     0
100
AcDbTrace
 10
0.0
 20
0.0
 30
0.0
 11
-1.0
 21
0.2142857143
 31
0.0
 12
-1.0
 22
-0.2142857143
 32
0.0
 13
-1.0
 23
-0.2142857143
 33
0.0
  0
ENDBLK
  5
92976
330
92973
100
AcDbEntity
  8
0
  6
ByBlock
 62
     0
100
AcDbBlockEnd
  0
BLOCK
  5
930AB
330
930AA
100
AcDbEntity
  8
0
100
AcDbBlockBegin
  2
block 4
 70
     0
 10
0.0
 20
0.0
 30
0.0
  3
block 4
  1

  0
SPLINE
  5
930AC
330
930AA
100
AcDbEntity
  8
ARRANGE
 62
     1
370
    25
100
AcDbSpline
210
0.0
220
0.0
230
1.0
 70
     9
 71
     3
 72
    20
 73
    16
 74
     0
 42
0.000000001
 43
0.0000000001
 40
0.0
 40
0.0
 40
0.0
 40
0.0
 40
1.0
 40
1.0
 40
1.0
 40
2.0
 40
2.0
 40
2.0
 40
3.0
 40
3.0
 40
3.0
 40
4.0
 40
4.0
 40
4.0
 40
5.0
 40
5.0
 40
5.0
 40
5.0
 10
-57.38685030032343
 20
263.6297308368704
 30
0.0
 10
-57.38685030032343
 20
270.8101711020024
 30
0.0
 10
-63.20785588697582
 20
276.6311766886547
 30
0.0
 10
-70.38829615210778
 20
276.6311766886547
 30
0.0
 10
-77.56873641723976
 20
276.6311766886547
 30
0.0
 10
-83.38956974911786
 20
270.8101711020024
 30
0.0
 10
-83.38956974911786
 20
263.6297308368704
 30
0.0
 10
-83.38956974911786
 20
256.4492905717384
 30
0.0
 10
-77.56873641723976
 20
250.6284572398603
 30
0.0
 10
-70.38829615210778
 20
250.6284572398603
 30
0.0
 10
-63.20785588697582
 20
250.6284572398603
 30
0.0
 10
-57.38685030032343
 20
256.4492905717384
 30
0.0
 10
-57.38685030032343
 20
263.6297308368704
 30
0.0
 10
-57.38685030032343
 20
263.6297308368704
 30
0.0
 10
-57.38685030032343
 20
263.6297308368704
 30
0.0
 10
-57.38685030032343
 20
263.6297308368704
 30
0.0
  0
ENDBLK
  5
930AD
330
930AA
100
AcDbEntity
  8
0
100
AcDbBlockEnd
  0
BLOCK
  5
930AF
330
930AE
100
AcDbEntity
  8
0
100
AcDbBlockBegin
  2
block 5
 70
     0
 10
0.0
 20
0.0
 30
0.0
  3
block 5
  1

  0
POLYLINE
  5
930B0
330
930AE
100
AcDbEntity
  8
ARRANGE
370
     0
100
AcDb2dPolyline
 66
     1
 10
0.0
 20
0.0
 30
0.0
  0
VERTEX
  5
930B1
330
930B0
100
AcDbEntity
  8
ARRANGE
370
     0
100
AcDbVertex
100
AcDb2dVertex
 10
-77.19821639780116
 20
256.819810591177
 30
0.0
  0
VERTEX
  5
930B2
330
930B0
100
AcDbEntity
  8
ARRANGE
370
     0
100
AcDbVertex
100
AcDb2dVertex
 10
-63.57820365164016
 20
270.439823337338
 30
0.0
  0
SEQEND
  5
930B3
330
930B0
100
AcDbEntity
  8
ARRANGE
370
     0
  0
POLYLINE
  5
930B4
330
930AE
100
AcDbEntity
  8
ARRANGE
370
     0
100
AcDb2dPolyline
 66
     1
 10
0.0
 20
0.0
 30
0.0
  0
VERTEX
  5
930B5
330
930B4
100
AcDbEntity
  8
ARRANGE
370
     0
100
AcDbVertex
100
AcDb2dVertex
 10
-77.19821639780116
 20
270.439823337338
 30
0.0
  0
VERTEX
  5
930B6
330
930B4
100
AcDbEntity
  8
ARRANGE
370
     0
100
AcDbVertex
100
AcDb2dVertex
 10
-63.57820365164016
 20
256.819810591177
 30
0.0
  0
SEQEND
  5
930B7
330
930B4
100
AcDbEntity
  8
ARRANGE
370
     0
  0
ENDBLK
  5
930B8
330
930AE
100
AcDbEntity
  8
0
100
AcDbBlockEnd
  0
BLOCK
  5
930BA
330
930B9
100
AcDbEntity
  8
0
100
AcDbBlockBegin
  2
block 116
 70
     0
 10
0.0
 20
0.0
 30
0.0
  3
block 116
  1

  0
POLYLINE
  5
930BB
330
930B9
100
AcDbEntity
  8
NOTE
  6
AI-Linetype-1
 62
     4
370
    25
100
AcDb2dPolyline
 66
     1
 10
0.0
 20
0.0
 30
0.0
  0
VERTEX
  5
930BC
330
930BB
100
AcDbEntity
  8
NOTE
  6
AI-Linetype-1
 62
     4
370
    25
100
AcDbVertex
100
AcDb2dVertex
 10
-70.38829615210778
 20
39.22999130963696
 30
0.0
  0
VERTEX
  5
930BD
330
930BB
100
AcDbEntity
  8
NOTE
  6
AI-Linetype-1
 62
     4
370
    25
100
AcDbVertex
100
AcDb2dVertex
 10
-70.38829615210778
 20
-0.7703233505018636
 30
0.0
  0
SEQEND
  5
930BE
330
930BB
100
AcDbEntity
  8
NOTE
  6
AI-Linetype-1
370
    25
  0
ENDBLK
  5
930BF
330
930B9
100
AcDbEntity
  8
0
100
AcDbBlockEnd
  0
BLOCK
  5
93E0B
330
93E0A
100
AcDbEntity
  8
0
100
AcDbBlockBegin
  2
*D5
 70
     1
 10
0.0
 20
0.0
 30
0.0
  3
*D5
  1

  0
LINE
  5
94723
330
93E0A
100
AcDbEntity
  8
SIZE
 62
     0
440
 16777216
370
    -2
100
AcDbLine
 10
10.10671905550657
 20
-237.0224832578017
 30
0.0
 11
257.2534116131854
 21
-237.0224832578018
 31
0.0
  0
LINE
  5
94724
330
93E0A
100
AcDbEntity
  8
SIZE
 62
     0
440
 16777216
370
    -2
100
AcDbLine
 10
11.26362706431951
 20
-293.976801819952
 30
0.0
 11
257.2534116131854
 21
-293.9768018199521
 31
0.0
  0
LINE
  5
94725
330
93E0A
100
AcDbEntity
  8
SIZE
 62
     0
440
 16777216
370
    -2
100
AcDbLine
 10
237.2534116131854
 20
-247.0224832578018
 30
0.0
 11
237.2534116131854
 21
-283.9768018199521
 31
0.0
  0
LINE
  5
94726
330
93E0A
100
AcDbEntity
  8
SIZE
 62
     0
440
 16777216
370
    -2
100
AcDbLine
 10
237.2534116131854
 20
-293.9768018199521
 30
0.0
 11
237.2534116131853
 21
-396.833944677095
 31
0.0
  0
INSERT
  5
94727
330
93E0A
100
AcDbEntity
  8
SIZE
 62
     0
440
 16777216
370
    -2
100
AcDbBlockReference
  2
_ORIGIN
 10
237.2534116131854
 20
-237.0224832578018
 30
0.0
 41
10.0
 42
10.0
 43
10.0
 50
90.0
  0
INSERT
  5
94728
330
93E0A
100
AcDbEntity
  8
SIZE
 62
     0
440
 16777216
370
    -2
100
AcDbBlockReference
  2
_ORIGIN
 10
237.2534116131854
 20
-293.9768018199521
 30
0.0
 41
10.0
 42
10.0
 43
10.0
 50
270.0
  0
MTEXT
  5
94729
330
93E0A
100
AcDbEntity
  8
SIZE
 62
     0
440
 16777216
100
AcDbMText
 10
202.2534116131854
 20
-350.4053732485234
 30
0.0
 40
50.0
 41
0.0
 71
     5
 72
     1
  1
\A1;57
 11
0.0000000000000001
 21
1.0
 31
0.0
 73
     1
 44
1.0
  0
POINT
  5
9472A
330
93E0A
100
AcDbEntity
  8
DEFPOINTS
 62
     0
440
 16777216
100
AcDbPoint
 10
-9.893280944493426
 20
-237.0224832578017
 30
0.0
  0
POINT
  5
9472B
330
93E0A
100
AcDbEntity
  8
DEFPOINTS
 62
     0
440
 16777216
100
AcDbPoint
 10
-8.736372935680492
 20
-293.976801819952
 30
0.0
  0
POINT
  5
9472C
330
93E0A
100
AcDbEntity
  8
DEFPOINTS
 62
     0
440
 16777216
100
AcDbPoint
 10
237.2534116131854
 20
-293.9768018199521
 30
0.0
  0
ENDBLK
  5
93E0C
330
93E0A
100
AcDbEntity
  8
0
100
AcDbBlockEnd
  0
BLOCK
  5
93E6B
330
93E6A
100
AcDbEntity
  8
0
100
AcDbBlockBegin
  2
*D6
 70
     1
 10
0.0
 20
0.0
 30
0.0
  3
*D6
  1

  0
LINE
  5
9472D
330
93E6A
100
AcDbEntity
  8
SIZE
 62
     0
440
 16777216
370
    -2
100
AcDbLine
 10
-20.0
 20
0.0000000000000057
 30
0.0
 11
-472.4265927146791
 21
0.0000000000001338
 31
0.0
  0
LINE
  5
9472E
330
93E6A
100
AcDbEntity
  8
SIZE
 62
     0
440
 16777216
370
    -2
100
AcDbLine
 10
-250.2978291253685
 20
-307.1263481452342
 30
0.0
 11
-472.4265927146791
 21
-307.1263481452342
 31
0.0
  0
LINE
  5
9472F
330
93E6A
100
AcDbEntity
  8
SIZE
 62
     0
440
 16777216
370
    -2
100
AcDbLine
 10
-452.4265927146791
 20
-9.99999999999987
 30
0.0
 11
-452.4265927146791
 21
-297.1263481452341
 31
0.0
  0
INSERT
  5
94730
330
93E6A
100
AcDbEntity
  8
SIZE
 62
     0
440
 16777216
370
    -2
100
AcDbBlockReference
  2
_ORIGIN
 10
-452.4265927146791
 20
0.0000000000001282
 30
0.0
 41
10.0
 42
10.0
 43
10.0
 50
90.0
  0
INSERT
  5
94731
330
93E6A
100
AcDbEntity
  8
SIZE
 62
     0
440
 16777216
370
    -2
100
AcDbBlockReference
  2
_ORIGIN
 10
-452.4265927146791
 20
-307.1263481452342
 30
0.0
 41
10.0
 42
10.0
 43
10.0
 50
270.0
  0
MTEXT
  5
94732
330
93E6A
100
AcDbEntity
  8
SIZE
 62
     0
440
 16777216
100
AcDbMText
 10
-487.426592714679
 20
-153.5631740726171
 30
0.0
 40
50.0
 41
0.0
 71
     5
 72
     1
  1
\A1;307
 11
0.0000000000000001
 21
1.0
 31
0.0
 73
     1
 44
1.0
  0
POINT
  5
94733
330
93E6A
100
AcDbEntity
  8
DEFPOINTS
 62
     0
440
 16777216
100
AcDbPoint
 10
0.0
 20
0.0
 30
0.0
  0
POINT
  5
94734
330
93E6A
100
AcDbEntity
  8
DEFPOINTS
 62
     0
440
 16777216
100
AcDbPoint
 10
-230.2978291253685
 20
-307.1263481452342
 30
0.0
  0
POINT
  5
94735
330
93E6A
100
AcDbEntity
  8
DEFPOINTS
 62
     0
440
 16777216
100
AcDbPoint
 10
-452.4265927146791
 20
-307.1263481452342
 30
0.0
  0
ENDBLK
  5
93E6C
330
93E6A
100
AcDbEntity
  8
0
100
AcDbBlockEnd
  0
BLOCK
  5
945DD
330
945DC
100
AcDbEntity
  8
0
100
AcDbBlockBegin
  2
*D7
 70
     1
 10
0.0
 20
0.0
 30
0.0
  3
*D7
  1

  0
LINE
  5
94736
330
945DC
100
AcDbEntity
  8
SIZE
 62
     0
440
 16777216
370
    -2
100
AcDbLine
 10
-222.883579237867
 20
-340.4993712527658
 30
0.0
 11
-472.4265927146791
 21
-340.4993712527657
 31
0.0
  0
LINE
  5
94737
330
945DC
100
AcDbEntity
  8
SIZE
 62
     0
440
 16777216
370
    -2
100
AcDbLine
 10
-250.2978291253685
 20
-307.1508469555474
 30
0.0
 11
-472.4265927146791
 21
-307.1508469555474
 31
0.0
  0
LINE
  5
94738
330
945DC
100
AcDbEntity
  8
SIZE
 62
     0
440
 16777216
370
    -2
100
AcDbLine
 10
-452.4265927146791
 20
-297.1508469555474
 30
0.0
 11
-452.4265927146791
 21
-287.1508469555474
 31
0.0
  0
LINE
  5
94739
330
945DC
100
AcDbEntity
  8
SIZE
 62
     0
440
 16777216
370
    -2
100
AcDbLine
 10
-452.4265927146791
 20
-350.4993712527658
 30
0.0
 11
-452.4265927146791
 21
-517.6422283956228
 31
0.0
  0
LINE
  5
9473A
330
945DC
100
AcDbEntity
  8
SIZE
 62
     0
440
 16777216
370
    -2
100
AcDbLine
 10
-452.4265927146791
 20
-307.1508469555474
 30
0.0
 11
-452.4265927146791
 21
-340.4993712527657
 31
0.0
  0
INSERT
  5
9473B
330
945DC
100
AcDbEntity
  8
SIZE
 62
     0
440
 16777216
370
    -2
100
AcDbBlockReference
  2
_ORIGIN
 10
-452.4265927146791
 20
-307.1508469555474
 30
0.0
 41
10.0
 42
10.0
 43
10.0
 50
270.0
  0
INSERT
  5
9473C
330
945DC
100
AcDbEntity
  8
SIZE
 62
     0
440
 16777216
370
    -2
100
AcDbBlockReference
  2
_ORIGIN
 10
-452.4265927146791
 20
-340.4993712527657
 30
0.0
 41
10.0
 42
10.0
 43
10.0
 50
90.0
  0
MTEXT
  5
9473D
330
945DC
100
AcDbEntity
  8
SIZE
 62
     0
440
 16777216
100
AcDbMText
 10
-487.426592714679
 20
-439.0707998241943
 30
0.0
 40
50.0
 41
0.0
 71
     5
 72
     1
  1
\A1;33.5
 11
0.0000000000000001
 21
1.0
 31
0.0
 73
     1
 44
1.0
  0
POINT
  5
9473E
330
945DC
100
AcDbEntity
  8
DEFPOINTS
 62
     0
440
 16777216
100
AcDbPoint
 10
-202.883579237867
 20
-340.4993712527658
 30
0.0
  0
POINT
  5
9473F
330
945DC
100
AcDbEntity
  8
DEFPOINTS
 62
     0
440
 16777216
100
AcDbPoint
 10
-230.2978291253685
 20
-307.1508469555474
 30
0.0
  0
POINT
  5
94740
330
945DC
100
AcDbEntity
  8
DEFPOINTS
 62
     0
440
 16777216
100
AcDbPoint
 10
-452.4265927146791
 20
-307.1508469555474
 30
0.0
  0
ENDBLK
  5
945DE
330
945DC
100
AcDbEntity
  8
0
100
AcDbBlockEnd
  0
BLOCK
  5
9465B
330
9465A
100
AcDbEntity
  8
0
100
AcDbBlockBegin
  2
*D8
 70
     1
 10
0.0
 20
0.0
 30
0.0
  3
*D8
  1

  0
LINE
  5
94741
330
9465A
100
AcDbEntity
  8
SIZE
 62
     0
440
 16777216
370
    -2
100
AcDbLine
 10
-4.997886147839381
 20
-313.976801819952
 30
0.0
 11
-4.997886147839391
 21
-464.1713319957419
 31
0.0
  0
LINE
  5
94742
330
9465A
100
AcDbEntity
  8
SIZE
 62
     0
440
 16777216
370
    -2
100
AcDbLine
 10
-43.47719115124028
 20
-294.0000711391823
 30
0.0
 11
-43.47719115124029
 21
-464.1713319957419
 31
0.0
  0
LINE
  5
94743
330
9465A
100
AcDbEntity
  8
SIZE
 62
     0
440
 16777216
370
    -2
100
AcDbLine
 10
5.00211385216061
 20
-444.1713319957419
 30
0.0
 11
15.00211385216061
 21
-444.1713319957419
 31
0.0
  0
LINE
  5
94744
330
9465A
100
AcDbEntity
  8
SIZE
 62
     0
440
 16777216
370
    -2
100
AcDbLine
 10
-53.47719115124029
 20
-444.1713319957419
 30
0.0
 11
-220.6200482940974
 21
-444.1713319957419
 31
0.0
  0
LINE
  5
94745
330
9465A
100
AcDbEntity
  8
SIZE
 62
     0
440
 16777216
370
    -2
100
AcDbLine
 10
-4.997886147839389
 20
-444.1713319957419
 30
0.0
 11
-43.47719115124028
 21
-444.1713319957419
 31
0.0
  0
INSERT
  5
94746
330
9465A
100
AcDbEntity
  8
SIZE
 62
     0
440
 16777216
370
    -2
100
AcDbBlockReference
  2
_ORIGIN
 10
-4.997886147839389
 20
-444.1713319957419
 30
0.0
 41
10.0
 42
10.0
 43
10.0
 50
180.0
  0
INSERT
  5
94747
330
9465A
100
AcDbEntity
  8
SIZE
 62
     0
440
 16777216
370
    -2
100
AcDbBlockReference
  2
_ORIGIN
 10
-43.47719115124028
 20
-444.1713319957419
 30
0.0
 41
10.0
 42
10.0
 43
10.0
  0
MTEXT
  5
94748
330
9465A
100
AcDbEntity
  8
SIZE
 62
     0
440
 16777216
100
AcDbMText
 10
-142.0486197226688
 20
-409.171331995742
 30
0.0
 40
50.0
 41
0.0
 71
     5
 72
     1
  1
\A1;38.5
 73
     1
 44
1.0
  0
POINT
  5
94749
330
9465A
100
AcDbEntity
  8
DEFPOINTS
 62
     0
440
 16777216
100
AcDbPoint
 10
-4.997886147839381
 20
-293.976801819952
 30
0.0
  0
POINT
  5
9474A
330
9465A
100
AcDbEntity
  8
DEFPOINTS
 62
     0
440
 16777216
100
AcDbPoint
 10
-43.47719115124028
 20
-274.0000711391823
 30
0.0
  0
POINT
  5
9474B
330
9465A
100
AcDbEntity
  8
DEFPOINTS
 62
     0
440
 16777216
100
AcDbPoint
 10
-43.47719115124028
 20
-444.1713319957419
 30
0.0
  0
ENDBLK
  5
9465C
330
9465A
100
AcDbEntity
  8
0
100
AcDbBlockEnd
  0
BLOCK
  5
9469E
330
9469D
100
AcDbEntity
  8
0
100
AcDbBlockBegin
  2
*D9
 70
     1
 10
0.0
 20
0.0
 30
0.0
  3
*D9
  1

  0
LINE
  5
9474C
330
9469D
100
AcDbEntity
  8
SIZE
 62
     0
440
 16777216
370
    -2
100
AcDbLine
 10
0.0000000000000012
 20
20.0
 30
0.0
 11
0.0000000000000059
 21
96.32946939327087
 31
0.0
  0
LINE
  5
9474D
330
9469D
100
AcDbEntity
  8
SIZE
 62
     0
440
 16777216
370
    -2
100
AcDbLine
 10
-238.3976271993125
 20
11.36036588513377
 30
0.0
 11
-238.3976271993125
 21
96.32946939327087
 31
0.0
  0
LINE
  5
9474E
330
9469D
100
AcDbEntity
  8
SIZE
 62
     0
440
 16777216
370
    -2
100
AcDbLine
 10
-9.999999999999994
 20
76.32946939327087
 30
0.0
 11
-228.3976271993125
 21
76.32946939327087
 31
0.0
  0
INSERT
  5
9474F
330
9469D
100
AcDbEntity
  8
SIZE
 62
     0
440
 16777216
370
    -2
100
AcDbBlockReference
  2
_ORIGIN
 10
0.0000000000000047
 20
76.32946939327087
 30
0.0
 41
10.0
 42
10.0
 43
10.0
  0
INSERT
  5
94750
330
9469D
100
AcDbEntity
  8
SIZE
 62
     0
440
 16777216
370
    -2
100
AcDbBlockReference
  2
_ORIGIN
 10
-238.3976271993125
 20
76.32946939327087
 30
0.0
 41
10.0
 42
10.0
 43
10.0
 50
180.0
  0
MTEXT
  5
94751
330
9469D
100
AcDbEntity
  8
SIZE
 62
     0
440
 16777216
100
AcDbMText
 10
-119.1988135996562
 20
111.3294693932708
 30
0.0
 40
50.0
 41
0.0
 71
     5
 72
     1
  1
\A1;238
 73
     1
 44
1.0
  0
POINT
  5
94752
330
9469D
100
AcDbEntity
  8
DEFPOINTS
 62
     0
440
 16777216
100
AcDbPoint
 10
0.0
 20
0.0
 30
0.0
  0
POINT
  5
94753
330
9469D
100
AcDbEntity
  8
DEFPOINTS
 62
     0
440
 16777216
100
AcDbPoint
 10
-238.3976271993125
 20
-8.639634114866225
 30
0.0
  0
POINT
  5
94754
330
9469D
100
AcDbEntity
  8
DEFPOINTS
 62
     0
440
 16777216
100
AcDbPoint
 10
-238.3976271993125
 20
76.32946939327087
 30
0.0
  0
ENDBLK
  5
9469F
330
9469D
100
AcDbEntity
  8
0
100
AcDbBlockEnd
  0
BLOCK
  5
946D9
330
946D8
100
AcDbEntity
  8
0
100
AcDbBlockBegin
  2
*D10
 70
     1
 10
0.0
 20
0.0
 30
0.0
  3
*D10
  1

  0
LINE
  5
94755
330
946D8
100
AcDbEntity
  8
SIZE
 62
     0
440
 16777216
370
    -2
100
AcDbLine
 10
-210.2978291253685
 20
-307.1508469555474
 30
0.0
 11
413.9622891200904
 21
-307.1508469555476
 31
0.0
  0
LINE
  5
94756
330
946D8
100
AcDbEntity
  8
SIZE
 62
     0
440
 16777216
370
    -2
100
AcDbLine
 10
40.00008612738726
 20
-262.9999999999999
 30
0.0
 11
413.9622891200904
 21
-263.0000000000001
 31
0.0
  0
LINE
  5
94757
330
946D8
100
AcDbEntity
  8
SIZE
 62
     0
440
 16777216
370
    -2
100
AcDbLine
 10
393.9622891200904
 20
-297.1508469555477
 30
0.0
 11
393.9622891200904
 21
-273.0
 31
0.0
  0
LINE
  5
94758
330
946D8
100
AcDbEntity
  8
SIZE
 62
     0
440
 16777216
370
    -2
100
AcDbLine
 10
393.9622891200904
 20
-263.0000000000001
 30
0.0
 11
393.9622891200904
 21
-158.0
 31
0.0
  0
INSERT
  5
94759
330
946D8
100
AcDbEntity
  8
SIZE
 62
     0
440
 16777216
370
    -2
100
AcDbBlockReference
  2
_ORIGIN
 10
393.9622891200904
 20
-307.1508469555476
 30
0.0
 41
10.0
 42
10.0
 43
10.0
 50
270.0
  0
INSERT
  5
9475A
330
946D8
100
AcDbEntity
  8
SIZE
 62
     0
440
 16777216
370
    -2
100
AcDbBlockReference
  2
_ORIGIN
 10
393.9622891200904
 20
-263.0000000000001
 30
0.0
 41
10.0
 42
10.0
 43
10.0
 50
90.0
  0
MTEXT
  5
9475B
330
946D8
100
AcDbEntity
  8
SIZE
 62
     0
440
 16777216
100
AcDbMText
 10
358.9622891200905
 20
-205.5
 30
0.0
 40
50.0
 41
0.0
 71
     5
 72
     1
  1
\A1;44
 11
0.0000000000000001
 21
1.0
 31
0.0
 73
     1
 44
1.0
  0
POINT
  5
9475C
330
946D8
100
AcDbEntity
  8
DEFPOINTS
 62
     0
440
 16777216
100
AcDbPoint
 10
-230.2978291253685
 20
-307.1508469555474
 30
0.0
  0
POINT
  5
9475D
330
946D8
100
AcDbEntity
  8
DEFPOINTS
 62
     0
440
 16777216
100
AcDbPoint
 10
20.00008612738726
 20
-262.9999999999999
 30
0.0
  0
POINT
  5
9475E
330
946D8
100
AcDbEntity
  8
DEFPOINTS
 62
     0
440
 16777216
100
AcDbPoint
 10
393.9622891200904
 20
-263.0000000000001
 30
0.0
  0
ENDBLK
  5
946DA
330
946D8
100
AcDbEntity
  8
0
100
AcDbBlockEnd
  0
BLOCK
  5
946E7
330
946E6
100
AcDbEntity
  8
0
100
AcDbBlockBegin
  2
*D11
 70
     1
 10
0.0
 20
0.0
 30
0.0
  3
*D11
  1

  0
LINE
  5
9475F
330
946E6
100
AcDbEntity
  8
SIZE
 62
     0
440
 16777216
370
    -2
100
AcDbLine
 10
-210.2978291253685
 20
-307.1508469555474
 30
0.0
 11
492.6995845707131
 21
-307.1508469555476
 31
0.0
  0
LINE
  5
94760
330
946E6
100
AcDbEntity
  8
SIZE
 62
     0
440
 16777216
370
    -2
100
AcDbLine
 10
40.00008612738726
 20
-262.0
 30
0.0
 11
492.6995845707131
 21
-262.0000000000001
 31
0.0
  0
LINE
  5
94761
330
946E6
100
AcDbEntity
  8
SIZE
 62
     0
440
 16777216
370
    -2
100
AcDbLine
 10
472.6995845707131
 20
-297.1508469555477
 30
0.0
 11
472.6995845707131
 21
-272.0000000000001
 31
0.0
  0
LINE
  5
94762
330
946E6
100
AcDbEntity
  8
SIZE
 62
     0
440
 16777216
370
    -2
100
AcDbLine
 10
472.6995845707131
 20
-262.0
 30
0.0
 11
472.6995845707131
 21
-159.1428571428572
 31
0.0
  0
INSERT
  5
94763
330
946E6
100
AcDbEntity
  8
SIZE
 62
     0
440
 16777216
370
    -2
100
AcDbBlockReference
  2
_ORIGIN
 10
472.6995845707131
 20
-307.1508469555476
 30
0.0
 41
10.0
 42
10.0
 43
10.0
 50
270.0
  0
INSERT
  5
94764
330
946E6
100
AcDbEntity
  8
SIZE
 62
     0
440
 16777216
370
    -2
100
AcDbBlockReference
  2
_ORIGIN
 10
472.6995845707131
 20
-262.0
 30
0.0
 41
10.0
 42
10.0
 43
10.0
 50
90.0
  0
MTEXT
  5
94765
330
946E6
100
AcDbEntity
  8
SIZE
 62
     0
440
 16777216
100
AcDbMText
 10
437.6995845707131
 20
-205.5714285714286
 30
0.0
 40
50.0
 41
0.0
 71
     5
 72
     1
  1
\A1;45
 11
0.0000000000000001
 21
1.0
 31
0.0
 73
     1
 44
1.0
  0
POINT
  5
94766
330
946E6
100
AcDbEntity
  8
DEFPOINTS
 62
     0
440
 16777216
100
AcDbPoint
 10
-230.2978291253685
 20
-307.1508469555474
 30
0.0
  0
POINT
  5
94767
330
946E6
100
AcDbEntity
  8
DEFPOINTS
 62
     0
440
 16777216
100
AcDbPoint
 10
20.00008612738726
 20
-262.0
 30
0.0
  0
POINT
  5
94768
330
946E6
100
AcDbEntity
  8
DEFPOINTS
 62
     0
440
 16777216
100
AcDbPoint
 10
472.6995845707131
 20
-262.0
 30
0.0
  0
ENDBLK
  5
946E8
330
946E6
100
AcDbEntity
  8
0
100
AcDbBlockEnd
  0
ENDSEC
  0
SECTION
  2
ENTITIES
  0
MTEXT
  5
38341
330
1E
100
AcDbEntity
  8
0
  6
Continuous
100
AcDbMText
 10
383.9605305094082
 20
4023.282340837186
 30
0.0
 40
64.0
 41
187.9848
 71
     1
 72
     5
  1

 73
     1
 44
1.0
  0
CIRCLE
  5
92F6D
330
1E
100
AcDbEntity
  8
ARRANGE
  6
Continuous
100
AcDbCircle
 10
0.0
 20
0.0
 30
0.0
 40
13.00138232471456
  0
POINT
  5
92F6E
330
1E
100
AcDbEntity
  8
ARRANGE
  6
Continuous
100
AcDbPoint
 10
0.0
 20
0.0
 30
0.0
  0
LINE
  5
92F6F
330
1E
100
AcDbEntity
  8
BASIS
100
AcDbLine
 10
-262.2967643219683
 20
-168.9999999999999
 30
0.0
 11
18.65249298109097
 21
-168.9999999999999
 31
0.0
  0
LINE
  5
92F9E
330
1E
100
AcDbEntity
  8
NOTE
  6
Continuous
 62
     4
100
AcDbLine
 10
0.0000861273872488
 20
-262.0
 30
0.0
 11
288.3621949830884
 21
51.10428993675111
 31
0.0
  0
LINE
  5
92F9F
330
1E
100
AcDbEntity
  8
NOTE
  6
Continuous
 62
     4
100
AcDbLine
 10
0.0000861273872488
 20
-262.9999999999999
 30
0.0
 11
263.2261801134843
 21
-471.1246400634967
 31
0.0
  0
LINE
  5
92FA0
330
1E
100
AcDbEntity
  8
NOTE
  6
Continuous
 62
     4
100
AcDbLine
 10
17.62804612738525
 20
-226.0938000000004
 30
0.0
 11
0.0000861273872488
 21
-262.0
 31
0.0
  0
LINE
  5
92FA3
330
1E
100
AcDbEntity
  8
NOTE
  6
Continuous
 62
     4
100
AcDbLine
 10
0.0000861273872488
 20
-262.0
 30
0.0
 11
33.21944612738636
 21
-239.7183000000004
 31
0.0
  0
LINE
  5
92FA4
330
1E
100
AcDbEntity
  8
NOTE
  6
Continuous
 62
     4
100
AcDbLine
 10
36.74589612738755
 20
-278.8033500000003
 30
0.0
 11
0.0000861273872488
 21
-262.9999999999999
 31
0.0
  0
LINE
  5
92FA5
330
1E
100
AcDbEntity
  8
NOTE
  6
DASHDOT
 62
     4
100
AcDbLine
 10
20.00008612738726
 20
-262.0
 30
0.0
 11
-19.99991387261275
 21
-262.0
 31
0.0
  0
LINE
  5
92FA6
330
1E
100
AcDbEntity
  8
NOTE
  6
DASHDOT
 62
     4
100
AcDbLine
 10
20.00008612738726
 20
-262.0
 30
0.0
 11
-19.99991387261275
 21
-262.0
 31
0.0
  0
LINE
  5
92FA7
330
1E
100
AcDbEntity
  8
NOTE
  6
DASHDOT
 62
     4
100
AcDbLine
 10
20.00008612738726
 20
-262.9999999999999
 30
0.0
 11
-19.99991387261275
 21
-262.9999999999999
 31
0.0
  0
LINE
  5
92FA8
330
1E
100
AcDbEntity
  8
NOTE
  6
Continuous
 62
     4
100
AcDbLine
 10
0.0000861273872488
 20
-262.9999999999999
 30
0.0
 11
23.92121612738606
 21
-295.0589999999993
 31
0.0
  0
LINE
  5
92FA9
330
1E
100
AcDbEntity
  8
NOTE
  6
Continuous
 62
     4
100
AcDbLine
 10
263.2261801134843
 20
-471.1246400634967
 30
0.0
 11
781.7722961273862
 21
-471.1246400634967
 31
0.0
  0
TEXT
  5
92FAA
330
1E
100
AcDbEntity
  8
NOTE
 62
     4
100
AcDbText
 10
295.7861532702439
 20
-449.9295700634975
 30
0.0
 40
64.0
  1
D,RL,RG%%C65
 41
0.9
100
AcDbText
  0
LINE
  5
92FAB
330
1E
100
AcDbEntity
  8
NOTE
  6
Continuous
 62
     4
100
AcDbLine
 10
288.3621949830884
 20
51.10428993675111
 30
0.0
 11
805.8154461273876
 21
51.10428993675111
 31
0.0
  0
TEXT
  5
92FAC
330
1E
100
AcDbEntity
  8
NOTE
 62
     4
100
AcDbText
 10
319.8293032702456
 20
72.29934993675112
 30
0.0
 40
64.0
  1
D,RL,RG%%C65
 41
0.9
100
AcDbText
  0
TEXT
  5
9300E
330
1E
100
AcDbEntity
  8
ETC
100
AcDbText
 10
277.2485532973533
 20
268.6105369936962
 30
0.0
 40
64.0
  1
SMSZ6964
 41
0.8805031515330238
 72
     5
 11
703.9152232973555
 21
268.6105369936962
 31
0.0
100
AcDbText
  0
TEXT
  5
9300F
330
1E
100
AcDbEntity
  8
ETC
100
AcDbText
 10
277.2945162032116
 20
363.6344004389229
 30
0.0
 40
64.0
  1
室内機
 41
0.7499999999999992
 72
     5
 11
437.2945162032114
 21
363.6344004389229
 31
0.0
100
AcDbText
  0
DIMENSION
  5
93E09
330
1E
100
AcDbEntity
  8
SIZE
100
AcDbDimension
  2
*D5
 10
237.2534116131854
 20
-293.9768018199521
 30
0.0
 11
202.2534116131854
 21
-350.4053732485234
 31
0.0
 70
    32
 71
     5
 42
56.95431856215032
  3
STANDARD
100
AcDbAlignedDimension
 13
-9.893280944493426
 23
-237.0224832578017
 33
0.0
 14
-8.736372935680492
 24
-293.976801819952
 34
0.0
 50
90.0
100
AcDbRotatedDimension
1001
ACAD
1000
DSTYLE
1002
{
1070
    41
1040
10.0
1070
    42
1040
20.0
1070
    43
1040
200.0
1070
    44
1040
20.0
1070
    73
1070
     0
1070
    74
1070
     0
1070
    77
1070
     1
1070
    78
1070
     8
1070
   140
1040
50.0
1070
   141
1040
0.082
1070
   147
1040
10.0
1070
   172
1070
     1
1070
   271
1070
     0
1070
   272
1070
     0
1070
   341
1005
46
1070
   342
1005
46
1002
}
  0
DIMENSION
  5
93E69
330
1E
100
AcDbEntity
  8
SIZE
100
AcDbDimension
  2
*D6
 10
-452.4265927146791
 20
-307.1263481452342
 30
0.0
 11
-487.426592714679
 21
-153.5631740726171
 31
0.0
 70
    32
 71
     5
 42
307.1263481452342
  3
STANDARD
100
AcDbAlignedDimension
 13
0.0
 23
0.0
 33
0.0
 14
-230.2978291253685
 24
-307.1263481452342
 34
0.0
 50
90.0
100
AcDbRotatedDimension
1001
ACAD
1000
DSTYLE
1002
{
1070
    41
1040
10.0
1070
    42
1040
20.0
1070
    43
1040
200.0
1070
    44
1040
20.0
1070
    73
1070
     0
1070
    74
1070
     0
1070
    77
1070
     1
1070
    78
1070
     8
1070
   140
1040
50.0
1070
   141
1040
0.082
1070
   147
1040
10.0
1070
   172
1070
     1
1070
   271
1070
     0
1070
   272
1070
     0
1070
   341
1005
46
1070
   342
1005
46
1002
}
  0
SPLINE
  5
941A6
330
1E
100
AcDbEntity
  8
DETAIL
 62
     5
370
     9
100
AcDbSpline
210
0.0
220
0.0
230
1.0
 70
    11
 71
     3
 72
   416
 73
   412
 74
     0
 42
0.000000001
 43
0.0000000001
 40
0.0
 40
0.0
 40
0.0
 40
0.0
 40
1.0
 40
1.0
 40
1.0
 40
2.0
 40
2.0
 40
2.0
 40
3.0
 40
3.0
 40
3.0
 40
4.0
 40
4.0
 40
4.0
 40
5.0
 40
5.0
 40
5.0
 40
6.0
 40
6.0
 40
6.0
 40
7.0
 40
7.0
 40
7.0
 40
8.0
 40
8.0
 40
8.0
 40
9.0
 40
9.0
 40
9.0
 40
10.0
 40
10.0
 40
10.0
 40
11.0
 40
11.0
 40
11.0
 40
12.0
 40
12.0
 40
12.0
 40
13.0
 40
13.0
 40
13.0
 40
14.0
 40
14.0
 40
14.0
 40
15.0
 40
15.0
 40
15.0
 40
16.0
 40
16.0
 40
16.0
 40
17.0
 40
17.0
 40
17.0
 40
18.0
 40
18.0
 40
18.0
 40
19.0
 40
19.0
 40
19.0
 40
20.0
 40
20.0
 40
20.0
 40
21.0
 40
21.0
 40
21.0
 40
22.0
 40
22.0
 40
22.0
 40
23.0
 40
23.0
 40
23.0
 40
24.0
 40
24.0
 40
24.0
 40
25.0
 40
25.0
 40
25.0
 40
26.0
 40
26.0
 40
26.0
 40
27.0
 40
27.0
 40
27.0
 40
28.0
 40
28.0
 40
28.0
 40
29.0
 40
29.0
 40
29.0
 40
30.0
 40
30.0
 40
30.0
 40
31.0
 40
31.0
 40
31.0
 40
32.0
 40
32.0
 40
32.0
 40
33.0
 40
33.0
 40
33.0
 40
34.0
 40
34.0
 40
34.0
 40
35.0
 40
35.0
 40
35.0
 40
36.0
 40
36.0
 40
36.0
 40
37.0
 40
37.0
 40
37.0
 40
38.0
 40
38.0
 40
38.0
 40
39.0
 40
39.0
 40
39.0
 40
40.0
 40
40.0
 40
40.0
 40
41.0
 40
41.0
 40
41.0
 40
42.0
 40
42.0
 40
42.0
 40
43.0
 40
43.0
 40
43.0
 40
44.0
 40
44.0
 40
44.0
 40
45.0
 40
45.0
 40
45.0
 40
46.0
 40
46.0
 40
46.0
 40
47.0
 40
47.0
 40
47.0
 40
48.0
 40
48.0
 40
48.0
 40
49.0
 40
49.0
 40
49.0
 40
50.0
 40
50.0
 40
50.0
 40
51.0
 40
51.0
 40
51.0
 40
52.0
 40
52.0
 40
52.0
 40
53.0
 40
53.0
 40
53.0
 40
54.0
 40
54.0
 40
54.0
 40
55.0
 40
55.0
 40
55.0
 40
56.0
 40
56.0
 40
56.0
 40
57.0
 40
57.0
 40
57.0
 40
58.0
 40
58.0
 40
58.0
 40
59.0
 40
59.0
 40
59.0
 40
60.0
 40
60.0
 40
60.0
 40
61.0
 40
61.0
 40
61.0
 40
62.0
 40
62.0
 40
62.0
 40
63.0
 40
63.0
 40
63.0
 40
64.0
 40
64.0
 40
64.0
 40
65.0
 40
65.0
 40
65.0
 40
66.0
 40
66.0
 40
66.0
 40
67.0
 40
67.0
 40
67.0
 40
68.0
 40
68.0
 40
68.0
 40
69.0
 40
69.0
 40
69.0
 40
70.0
 40
70.0
 40
70.0
 40
71.0
 40
71.0
 40
71.0
 40
72.0
 40
72.0
 40
72.0
 40
73.0
 40
73.0
 40
73.0
 40
74.0
 40
74.0
 40
74.0
 40
75.0
 40
75.0
 40
75.0
 40
76.0
 40
76.0
 40
76.0
 40
77.0
 40
77.0
 40
77.0
 40
78.0
 40
78.0
 40
78.0
 40
79.0
 40
79.0
 40
79.0
 40
80.0
 40
80.0
 40
80.0
 40
81.0
 40
81.0
 40
81.0
 40
82.0
 40
82.0
 40
82.0
 40
83.0
 40
83.0
 40
83.0
 40
84.0
 40
84.0
 40
84.0
 40
85.0
 40
85.0
 40
85.0
 40
86.0
 40
86.0
 40
86.0
 40
87.0
 40
87.0
 40
87.0
 40
88.0
 40
88.0
 40
88.0
 40
89.0
 40
89.0
 40
89.0
 40
90.0
 40
90.0
 40
90.0
 40
91.0
 40
91.0
 40
91.0
 40
92.0
 40
92.0
 40
92.0
 40
93.0
 40
93.0
 40
93.0
 40
94.0
 40
94.0
 40
94.0
 40
95.0
 40
95.0
 40
95.0
 40
96.0
 40
96.0
 40
96.0
 40
97.0
 40
97.0
 40
97.0
 40
98.0
 40
98.0
 40
98.0
 40
99.0
 40
99.0
 40
99.0
 40
100.0
 40
100.0
 40
100.0
 40
101.0
 40
101.0
 40
101.0
 40
102.0
 40
102.0
 40
102.0
 40
103.0
 40
103.0
 40
103.0
 40
104.0
 40
104.0
 40
104.0
 40
105.0
 40
105.0
 40
105.0
 40
106.0
 40
106.0
 40
106.0
 40
107.0
 40
107.0
 40
107.0
 40
108.0
 40
108.0
 40
108.0
 40
109.0
 40
109.0
 40
109.0
 40
110.0
 40
110.0
 40
110.0
 40
111.0
 40
111.0
 40
111.0
 40
112.0
 40
112.0
 40
112.0
 40
113.0
 40
113.0
 40
113.0
 40
114.0
 40
114.0
 40
114.0
 40
115.0
 40
115.0
 40
115.0
 40
116.0
 40
116.0
 40
116.0
 40
117.0
 40
117.0
 40
117.0
 40
118.0
 40
118.0
 40
118.0
 40
119.0
 40
119.0
 40
119.0
 40
120.0
 40
120.0
 40
120.0
 40
121.0
 40
121.0
 40
121.0
 40
122.0
 40
122.0
 40
122.0
 40
123.0
 40
123.0
 40
123.0
 40
124.0
 40
124.0
 40
124.0
 40
125.0
 40
125.0
 40
125.0
 40
126.0
 40
126.0
 40
126.0
 40
127.0
 40
127.0
 40
127.0
 40
128.0
 40
128.0
 40
128.0
 40
129.0
 40
129.0
 40
129.0
 40
130.0
 40
130.0
 40
130.0
 40
131.0
 40
131.0
 40
131.0
 40
132.0
 40
132.0
 40
132.0
 40
133.0
 40
133.0
 40
133.0
 40
134.0
 40
134.0
 40
134.0
 40
135.0
 40
135.0
 40
135.0
 40
136.0
 40
136.0
 40
136.0
 40
137.0
 40
137.0
 40
137.0
 40
137.0
 10
-230.2978291253685
 20
-307.1508469555474
 30
0.0
 10
-230.2978291253685
 20
-307.1508469555474
 30
0.0
 10
-237.4543259768779
 20
-306.7787766431404
 30
0.0
 10
-237.4543259768779
 20
-306.7787766431404
 30
0.0
 10
-237.9828036243152
 20
-306.7512158792585
 30
0.0
 10
-238.4006937066761
 20
-306.3102436571464
 30
0.0
 10
-238.4006937066761
 20
-305.7776318951268
 30
0.0
 10
-238.4006937066761
 20
-305.7776318951268
 30
0.0
 10
-238.4006937066761
 20
-165.5160813659561
 30
0.0
 10
-238.4006937066761
 20
-165.5160813659561
 30
0.0
 10
-238.4006937066761
 20
-164.9879482280672
 30
0.0
 10
-237.9828036243152
 20
-164.5469760059553
 30
0.0
 10
-237.4543259768779
 20
-164.5194152420733
 30
0.0
 10
-237.4543259768779
 20
-164.5194152420733
 30
0.0
 10
-235.0014179913801
 20
-164.3909131804735
 30
0.0
 10
-235.0014179913801
 20
-164.3909131804735
 30
0.0
 10
-235.0014179913801
 20
-164.3909131804735
 30
0.0
 10
-235.0014179913801
 20
-150.105135731788
 30
0.0
 10
-235.0014179913801
 20
-150.105135731788
 30
0.0
 10
-235.0014179913801
 20
-150.105135731788
 30
0.0
 10
-237.4543259768779
 20
-149.9766336701881
 30
0.0
 10
-237.4543259768779
 20
-149.9766336701881
 30
0.0
 10
-237.9828036243152
 20
-149.9490729063061
 30
0.0
 10
-238.4006937066761
 20
-149.512579308325
 30
0.0
 10
-238.4006937066761
 20
-148.9796230367568
 30
0.0
 10
-238.4006937066761
 20
-148.9796230367568
 30
0.0
 10
-238.4006937066761
 20
-8.718417017134697
 30
0.0
 10
-238.4006937066761
 20
-8.718417017134697
 30
0.0
 10
-238.4006937066761
 20
-8.185633000340772
 30
0.0
 10
-237.9828036243152
 20
-7.74913940235956
 30
0.0
 10
-237.4543259768779
 20
-7.721578638477581
 30
0.0
 10
-237.4543259768779
 20
-7.721578638477581
 30
0.0
 10
-230.2978291253685
 20
-7.345029701939779
 30
0.0
 10
-230.2978291253685
 20
-7.345029701939779
 30
0.0
 10
-230.2978291253685
 20
-7.345029701939779
 30
0.0
 10
-230.2978291253685
 20
-7.501092527421633
 30
0.0
 10
-230.2978291253685
 20
-7.501092527421633
 30
0.0
 10
-230.2978291253685
 20
-7.501092527421633
 30
0.0
 10
-229.7603942296695
 20
-7.491963024385654
 30
0.0
 10
-229.7603942296695
 20
-7.491963024385654
 30
0.0
 10
-229.7603942296695
 20
-7.491963024385654
 30
0.0
 10
-229.7603942296695
 20
-7.556214055185591
 30
0.0
 10
-229.7603942296695
 20
-7.556214055185591
 30
0.0
 10
-229.7603942296695
 20
-7.556214055185591
 30
0.0
 10
-229.2918612436755
 20
-7.560864934090659
 30
0.0
 10
-229.2918612436755
 20
-7.560864934090659
 30
0.0
 10
-229.1785176022108
 20
-7.562759736607631
 30
0.0
 10
-229.0741312090077
 20
-7.603239608559306
 30
0.0
 10
-228.9907598982647
 20
-7.669557696650372
 30
0.0
 10
-228.9907598982647
 20
-7.669557696650372
 30
0.0
 10
-228.9931714651044
 20
-7.67110798961869
 30
0.0
 10
-228.9931714651044
 20
-7.67110798961869
 30
0.0
 10
-228.9931714651044
 20
-7.67110798961869
 30
0.0
 10
-228.7912888696687
 20
-7.675758868523757
 30
0.0
 10
-228.7912888696687
 20
-7.675758868523757
 30
0.0
 10
-228.6304029105076
 20
-7.675758868523757
 30
0.0
 10
-228.4970777152283
 20
-7.8089118090287
 30
0.0
 10
-228.4970777152283
 20
-7.974276392320689
 30
0.0
 10
-228.4970777152283
 20
-7.974276392320689
 30
0.0
 10
-228.4970777152283
 20
-14.43176336987301
 30
0.0
 10
-228.4970777152283
 20
-14.43176336987301
 30
0.0
 10
-228.4970777152283
 20
-14.43176336987301
 30
0.0
 10
-228.4970777152283
 20
-16.48142292882232
 30
0.0
 10
-228.4970777152283
 20
-16.48142292882232
 30
0.0
 10
-228.4970777152283
 20
-16.48142292882232
 30
0.0
 10
-227.9276034315166
 20
-16.25163505995624
 30
0.0
 10
-227.9276034315166
 20
-16.25163505995624
 30
0.0
 10
-227.5462313612994
 20
-16.10005085860519
 30
0.0
 10
-227.3030076200408
 20
-15.73263142510336
 30
0.0
 10
-227.3030076200408
 20
-15.3238708457784
 30
0.0
 10
-227.3030076200408
 20
-15.3238708457784
 30
0.0
 10
-227.3030076200408
 20
-15.27133313962838
 30
0.0
 10
-227.3030076200408
 20
-15.27133313962838
 30
0.0
 10
-227.3030076200408
 20
-15.27133313962838
 30
0.0
 10
-227.3030076200408
 20
-10.03220418043463
 30
0.0
 10
-227.3030076200408
 20
-10.03220418043463
 30
0.0
 10
-227.3030076200408
 20
-9.885098603214487
 30
0.0
 10
-227.2661450983486
 20
-9.742816159673679
 30
0.0
 10
-227.2065449464538
 20
-9.609490964394467
 30
0.0
 10
-227.2065449464538
 20
-9.609490964394467
 30
0.0
 10
-226.1268520213765
 20
-7.294386798306618
 30
0.0
 10
-226.1268520213765
 20
-7.294386798306618
 30
0.0
 10
-226.0534714875407
 20
-7.133673093919696
 30
0.0
 10
-225.8974086620589
 20
-7.023430038391779
 30
0.0
 10
-225.7134405631465
 20
-7.009649656450733
 30
0.0
 10
-225.7134405631465
 20
-7.009649656450733
 30
0.0
 10
-193.6833543081331
 20
-4.203102619391984
 30
0.0
 10
-193.6833543081331
 20
-4.203102619391984
 30
0.0
 10
-193.6833543081331
 20
-4.203102619391984
 30
0.0
 10
-67.49639687440208
 20
0.2021409775969687
 30
0.0
 10
-67.49639687440208
 20
0.2021409775969687
 30
0.0
 10
-67.49639687440208
 20
0.2021409775969687
 30
0.0
 10
-67.48261649246114
 20
0.2021409775969687
 30
0.0
 10
-67.48261649246114
 20
0.2021409775969687
 30
0.0
 10
-67.48261649246114
 20
0.2021409775969687
 30
0.0
 10
-38.17174410395546
 20
0.2021409775969687
 30
0.0
 10
-38.17174410395546
 20
0.2021409775969687
 30
0.0
 10
-38.01568127847372
 20
0.2021409775969687
 30
0.0
 10
-37.86857570125358
 20
0.1285881889868961
 30
0.0
 10
-37.77659165179739
 20
-0.0000861273871351
 30
0.0
 10
-37.77659165179739
 20
-0.0000861273871351
 30
0.0
 10
-12.99946492188064
 20
-0.0000861273871351
 30
0.0
 10
-12.99946492188064
 20
-0.0000861273871351
 30
0.0
 10
-12.99946492188064
 20
-0.0000861273871351
 30
0.0
 10
-4.997886147839381
 20
-7.997186277297601
 30
0.0
 10
-4.997886147839381
 20
-7.997186277297601
 30
0.0
 10
-4.997886147839381
 20
-7.997186277297601
 30
0.0
 10
-4.997886147839381
 20
-10.96461927351754
 30
0.0
 10
-4.997886147839381
 20
-10.96461927351754
 30
0.0
 10
-4.997886147839381
 20
-10.96461927351754
 30
0.0
 10
-3.491001382591093
 20
-10.99218003739952
 30
0.0
 10
-3.491001382591093
 20
-10.99218003739952
 30
0.0
 10
-3.215393743771073
 20
-10.99683091630459
 30
0.0
 10
-2.99973076639435
 20
-11.21731702736065
 30
0.0
 10
-2.99973076639435
 20
-11.48827378727549
 30
0.0
 10
-2.99973076639435
 20
-11.48827378727549
 30
0.0
 10
-2.99973076639435
 20
-12.50802205090951
 30
0.0
 10
-2.99973076639435
 20
-12.50802205090951
 30
0.0
 10
-2.99973076639435
 20
-12.77897881082435
 30
0.0
 10
-3.215393743771073
 20
-13.00411580078548
 30
0.0
 10
-3.491001382591093
 20
-13.00876667969055
 30
0.0
 10
-3.491001382591093
 20
-13.00876667969055
 30
0.0
 10
-4.997886147839381
 20
-13.03167656466746
 30
0.0
 10
-4.997886147839381
 20
-13.03167656466746
 30
0.0
 10
-4.997886147839381
 20
-13.03167656466746
 30
0.0
 10
-4.997886147839381
 20
-16.15982326527432
 30
0.0
 10
-4.997886147839381
 20
-16.15982326527432
 30
0.0
 10
-4.997886147839381
 20
-16.15982326527432
 30
0.0
 10
-3.086891682171199
 20
-18.88368801068714
 30
0.0
 10
-3.086891682171199
 20
-18.88368801068714
 30
0.0
 10
-3.03177015440724
 20
-18.97102118123814
 30
0.0
 10
-2.99973076639435
 20
-19.07213473373019
 30
0.0
 10
-2.99973076639435
 20
-19.17307603144809
 30
0.0
 10
-2.99973076639435
 20
-19.17307603144809
 30
0.0
 10
-2.99973076639435
 20
-21.49748195534619
 30
0.0
 10
-2.99973076639435
 20
-21.49748195534619
 30
0.0
 10
-2.99973076639435
 20
-21.49748195534619
 30
0.0
 10
-1.4976691348254
 20
-21.49748195534619
 30
0.0
 10
-1.4976691348254
 20
-21.49748195534619
 30
0.0
 10
-0.6708462183655684
 20
-21.49748195534619
 30
0.0
 10
-0.0000861273872488
 20
-22.16806979155001
 30
0.0
 10
-0.0000861273872488
 20
-22.99954358691502
 30
0.0
 10
-0.0000861273872488
 20
-22.99954358691502
 30
0.0
 10
-0.0000861273872488
 20
-295.1436556608062
 30
0.0
 10
-0.0000861273872488
 20
-295.1436556608062
 30
0.0
 10
-0.0000861273872488
 20
-295.6766119323743
 30
0.0
 10
-0.2663920083971334
 20
-296.1771843063811
 30
0.0
 10
-0.7121873641885941
 20
-296.4758740849522
 30
0.0
 10
-0.7121873641885941
 20
-296.4758740849522
 30
0.0
 10
-3.013511148335282
 20
-298.0054964804032
 30
0.0
 10
-3.013511148335282
 20
-298.0054964804032
 30
0.0
 10
-3.013511148335282
 20
-298.0054964804032
 30
0.0
 10
-2.99973076639435
 20
-298.120218160062
 30
0.0
 10
-2.99973076639435
 20
-298.120218160062
 30
0.0
 10
-2.99973076639435
 20
-298.120218160062
 30
0.0
 10
-2.99973076639435
 20
-302.9984733671757
 30
0.0
 10
-2.99973076639435
 20
-302.9984733671757
 30
0.0
 10
-2.99973076639435
 20
-302.9984733671757
 30
0.0
 10
-66.00811562477429
 20
-302.9984733671757
 30
0.0
 10
-66.00811562477429
 20
-302.9984733671757
 30
0.0
 10
-66.00363700064349
 20
-302.9984733671757
 30
0.0
 10
-65.99881386696416
 20
-302.5023796172998
 30
0.0
 10
-65.99881386696416
 20
-301.671078076709
 30
0.0
 10
-65.99881386696416
 20
-301.671078076709
 30
0.0
 10
-67.49639687440208
 20
-301.698638840591
 30
0.0
 10
-67.49639687440208
 20
-301.698638840591
 30
0.0
 10
-67.49639687440208
 20
-301.698638840591
 30
0.0
 10
-67.49639687440208
 20
-303.20070047216
 30
0.0
 10
-67.49639687440208
 20
-303.20070047216
 30
0.0
 10
-67.49639687440208
 20
-303.20070047216
 30
0.0
 10
-85.98036768141311
 20
-303.20070047216
 30
0.0
 10
-85.98036768141311
 20
-303.20070047216
 30
0.0
 10
-85.98036768141311
 20
-303.20070047216
 30
0.0
 10
-85.99897119703337
 20
-303.7260775336605
 30
0.0
 10
-85.99897119703337
 20
-303.7260775336605
 30
0.0
 10
-85.99897119703337
 20
-303.7260775336605
 30
0.0
 10
-85.99897119703337
 20
-305.9915723247608
 30
0.0
 10
-85.99897119703337
 20
-305.9915723247608
 30
0.0
 10
-85.99897119703337
 20
-305.9915723247608
 30
0.0
 10
-85.99897119703337
 20
-305.9981180061828
 30
0.0
 10
-85.99897119703337
 20
-305.9981180061828
 30
0.0
 10
-85.99897119703337
 20
-306.5493332838228
 30
0.0
 10
-86.44890066740709
 20
-306.9992627541964
 30
0.0
 10
-87.00011594504713
 20
-306.9992627541964
 30
0.0
 10
-87.00011594504713
 20
-306.9992627541964
 30
0.0
 10
-151.1663973960194
 20
-306.9992627541964
 30
0.0
 10
-151.1663973960194
 20
-306.9992627541964
 30
0.0
 10
-151.1663973960194
 20
-306.9992627541964
 30
0.0
 10
-151.1663973960194
 20
-307.0178662698168
 30
0.0
 10
-151.1663973960194
 20
-307.0178662698168
 30
0.0
 10
-151.2673386937372
 20
-307.4540153582494
 30
0.0
 10
-151.5016051867342
 20
-307.8491678104076
 30
0.0
 10
-151.8368129774489
 20
-308.1523362131095
 30
0.0
 10
-151.8368129774489
 20
-308.1523362131095
 30
0.0
 10
-158.2539923378238
 20
-313.9356180041984
 30
0.0
 10
-158.2539923378238
 20
-313.9356180041984
 30
0.0
 10
-158.6581020382436
 20
-314.2983865587952
 30
0.0
 10
-159.1865796856809
 20
-314.5006136637794
 30
0.0
 10
-159.7284932055108
 20
-314.5006136637794
 30
0.0
 10
-159.7284932055108
 20
-314.5006136637794
 30
0.0
 10
-184.5056199354276
 20
-314.5006136637794
 30
0.0
 10
-184.5056199354276
 20
-314.5006136637794
 30
0.0
 10
-184.5056199354276
 20
-314.5006136637794
 30
0.0
 10
-184.6479023789684
 20
-322.5848747294667
 30
0.0
 10
-184.6479023789684
 20
-322.5848747294667
 30
0.0
 10
-184.6479023789684
 20
-322.5848747294667
 30
0.0
 10
-185.2084194144186
 20
-338.5701177810259
 30
0.0
 10
-185.2084194144186
 20
-338.5701177810259
 30
0.0
 10
-185.2452819361108
 20
-339.6449875724239
 30
0.0
 10
-186.1272263803348
 20
-340.4993712527658
 30
0.0
 10
-187.2020961717326
 20
-340.4993712527658
 30
0.0
 10
-187.2020961717326
 20
-340.4993712527658
 30
0.0
 10
-203.3516702779384
 20
-340.4993712527658
 30
0.0
 10
-203.3516702779384
 20
-340.4993712527658
 30
0.0
 10
-203.3516702779384
 20
-340.4993712527658
 30
0.0
 10
-203.6558722092859
 20
-340.4993712527658
 30
0.0
 10
-203.6558722092859
 20
-340.4993712527658
 30
0.0
 10
-203.6558722092859
 20
-340.4993712527658
 30
0.0
 10
-203.7475117491936
 20
-340.494892628635
 30
0.0
 10
-203.7475117491936
 20
-340.494892628635
 30
0.0
 10
-203.7475117491936
 20
-340.494892628635
 30
0.0
 10
-203.8670565625316
 20
-340.4904140045041
 30
0.0
 10
-203.8670565625316
 20
-340.4904140045041
 30
0.0
 10
-203.8670565625316
 20
-340.4904140045041
 30
0.0
 10
-204.0782409157775
 20
-340.4718104888838
 30
0.0
 10
-204.0782409157775
 20
-340.4718104888838
 30
0.0
 10
-204.0782409157775
 20
-340.4718104888838
 30
0.0
 10
-204.1426642013516
 20
-340.4628532406221
 30
0.0
 10
-204.1426642013516
 20
-340.4628532406221
 30
0.0
 10
-204.1426642013516
 20
-340.4628532406221
 30
0.0
 10
-204.5653774173918
 20
-340.370869191166
 30
0.0
 10
-204.5653774173918
 20
-340.370869191166
 30
0.0
 10
-204.5653774173918
 20
-340.370869191166
 30
0.0
 10
-204.9601853600016
 20
-340.2237636139458
 30
0.0
 10
-204.9601853600016
 20
-340.2237636139458
 30
0.0
 10
-204.9601853600016
 20
-340.2237636139458
 30
0.0
 10
-205.0890319311498
 20
-340.1596848379202
 30
0.0
 10
-205.0890319311498
 20
-340.1596848379202
 30
0.0
 10
-205.0890319311498
 20
-340.1596848379202
 30
0.0
 10
-205.3646395699697
 20
-339.9894971209489
 30
0.0
 10
-205.3646395699697
 20
-339.9894971209489
 30
0.0
 10
-205.3646395699697
 20
-339.9894971209489
 30
0.0
 10
-205.5940829292874
 20
-339.805873531585
 30
0.0
 10
-205.5940829292874
 20
-339.805873531585
 30
0.0
 10
-205.5940829292874
 20
-339.805873531585
 30
0.0
 10
-205.8331725559638
 20
-339.5533480325162
 30
0.0
 10
-205.8331725559638
 20
-339.5533480325162
 30
0.0
 10
-205.8331725559638
 20
-339.5533480325162
 30
0.0
 10
-205.9616746175636
 20
-339.364901309473
 30
0.0
 10
-205.9616746175636
 20
-339.364901309473
 30
0.0
 10
-205.9616746175636
 20
-339.364901309473
 30
0.0
 10
-206.0812194309017
 20
-339.1351134406069
 30
0.0
 10
-206.0812194309017
 20
-339.1351134406069
 30
0.0
 10
-206.0812194309017
 20
-339.1351134406069
 30
0.0
 10
-206.1683803466785
 20
-338.9008469476099
 30
0.0
 10
-206.1683803466785
 20
-338.9008469476099
 30
0.0
 10
-206.1683803466785
 20
-338.9008469476099
 30
0.0
 10
-206.2190232503117
 20
-338.6621018304821
 30
0.0
 10
-206.2190232503117
 20
-338.6621018304821
 30
0.0
 10
-206.2190232503117
 20
-338.6621018304821
 30
0.0
 10
-206.2279804985735
 20
-338.593199920777
 30
0.0
 10
-206.2279804985735
 20
-338.593199920777
 30
0.0
 10
-206.2279804985735
 20
-338.593199920777
 30
0.0
 10
-206.2279804985735
 20
-338.5656391568951
 30
0.0
 10
-206.2279804985735
 20
-338.5656391568951
 30
0.0
 10
-206.2279804985735
 20
-338.5656391568951
 30
0.0
 10
-206.3568270697217
 20
-337.0590989011954
 30
0.0
 10
-206.3568270697217
 20
-337.0590989011954
 30
0.0
 10
-206.3568270697217
 20
-337.0590989011954
 30
0.0
 10
-206.3568270697217
 20
-337.068056149457
 30
0.0
 10
-206.3568270697217
 20
-337.068056149457
 30
0.0
 10
-206.3568270697217
 20
-337.068056149457
 30
0.0
 10
-206.5035881373933
 20
-335.3641119224524
 30
0.0
 10
-206.5035881373933
 20
-335.3641119224524
 30
0.0
 10
-206.5035881373933
 20
-335.3641119224524
 30
0.0
 10
-206.6506937146137
 20
-333.6277837978865
 30
0.0
 10
-206.6506937146137
 20
-333.6277837978865
 30
0.0
 10
-206.6506937146137
 20
-333.6277837978865
 30
0.0
 10
-206.7977992918338
 20
-331.8545931516284
 30
0.0
 10
-206.7977992918338
 20
-331.8545931516284
 30
0.0
 10
-206.7977992918338
 20
-331.8545931516284
 30
0.0
 10
-206.7977992918338
 20
-331.8590717757592
 30
0.0
 10
-206.7977992918338
 20
-331.8590717757592
 30
0.0
 10
-206.7977992918338
 20
-331.8590717757592
 30
0.0
 10
-206.9445603595054
 20
-330.0400613595473
 30
0.0
 10
-206.9445603595054
 20
-330.0400613595473
 30
0.0
 10
-206.9445603595054
 20
-330.0400613595473
 30
0.0
 10
-206.9400817353746
 20
-330.0448844932267
 30
0.0
 10
-206.9400817353746
 20
-330.0448844932267
 30
0.0
 10
-206.9400817353746
 20
-330.0448844932267
 30
0.0
 10
-207.0734069306539
 20
-328.3498975144838
 30
0.0
 10
-207.0734069306539
 20
-328.3498975144838
 30
0.0
 10
-207.0734069306539
 20
-328.3498975144838
 30
0.0
 10
-207.0734069306539
 20
-328.3543761386146
 30
0.0
 10
-207.0734069306539
 20
-328.3543761386146
 30
0.0
 10
-207.0734069306539
 20
-328.3543761386146
 30
0.0
 10
-207.1009676945357
 20
-328.1614507914406
 30
0.0
 10
-207.1009676945357
 20
-328.1614507914406
 30
0.0
 10
-207.1009676945357
 20
-328.1614507914406
 30
0.0
 10
-207.1009676945357
 20
-328.1707525492508
 30
0.0
 10
-207.1009676945357
 20
-328.1707525492508
 30
0.0
 10
-207.1009676945357
 20
-328.1707525492508
 30
0.0
 10
-207.1467874644895
 20
-327.9778272020767
 30
0.0
 10
-207.1467874644895
 20
-327.9778272020767
 30
0.0
 10
-207.1467874644895
 20
-327.9778272020767
 30
0.0
 10
-207.1467874644895
 20
-327.9823058262076
 30
0.0
 10
-207.1467874644895
 20
-327.9823058262076
 30
0.0
 10
-207.1467874644895
 20
-327.9823058262076
 30
0.0
 10
-207.2112107500636
 20
-327.7986822368438
 30
0.0
 10
-207.2112107500636
 20
-327.7986822368438
 30
0.0
 10
-207.2112107500636
 20
-327.7986822368438
 30
0.0
 10
-207.2063876163843
 20
-327.8076394851054
 30
0.0
 10
-207.2063876163843
 20
-327.8076394851054
 30
0.0
 10
-207.2063876163843
 20
-327.8076394851054
 30
0.0
 10
-207.2801126597688
 20
-327.6377962776826
 30
0.0
 10
-207.2801126597688
 20
-327.6377962776826
 30
0.0
 10
-207.2801126597688
 20
-327.6377962776826
 30
0.0
 10
-207.3579718177354
 20
-327.4955138341418
 30
0.0
 10
-207.3579718177354
 20
-327.4955138341418
 30
0.0
 10
-207.3579718177354
 20
-327.4955138341418
 30
0.0
 10
-207.3579718177354
 20
-327.4999924582726
 30
0.0
 10
-207.3579718177354
 20
-327.4999924582726
 30
0.0
 10
-207.3579718177354
 20
-327.4999924582726
 30
0.0
 10
-207.4406541093813
 20
-327.3759690208036
 30
0.0
 10
-207.4406541093813
 20
-327.3759690208036
 30
0.0
 10
-207.4406541093813
 20
-327.3759690208036
 30
0.0
 10
-208.5479077983407
 20
-327.3163688689088
 30
0.0
 10
-208.5479077983407
 20
-327.3163688689088
 30
0.0
 10
-208.6719312358098
 20
-327.3070671110986
 30
0.0
 10
-208.7866529154685
 20
-327.2564242074655
 30
0.0
 10
-208.8738138312453
 20
-327.1647846675578
 30
0.0
 10
-208.8738138312453
 20
-327.1647846675578
 30
0.0
 10
-209.0715623120987
 20
-326.9625575625736
 30
0.0
 10
-209.0715623120987
 20
-326.9625575625736
 30
0.0
 10
-209.0715623120987
 20
-326.9625575625736
 30
0.0
 10
-209.1218607061833
 20
-326.9029574106788
 30
0.0
 10
-209.1218607061833
 20
-326.9029574106788
 30
0.0
 10
-209.1218607061833
 20
-326.9029574106788
 30
0.0
 10
-209.1769822339472
 20
-326.8016716034125
 30
0.0
 10
-209.1769822339472
 20
-326.8016716034125
 30
0.0
 10
-209.1769822339472
 20
-326.8016716034125
 30
0.0
 10
-209.2045429978293
 20
-326.6914285478845
 30
0.0
 10
-209.2045429978293
 20
-326.6914285478845
 30
0.0
 10
-209.2045429978293
 20
-326.6914285478845
 30
0.0
 10
-209.2138447556394
 20
-326.6318283959896
 30
0.0
 10
-209.2138447556394
 20
-326.6318283959896
 30
0.0
 10
-209.2138447556394
 20
-326.6318283959896
 30
0.0
 10
-209.3516485750495
 20
-322.5848747294667
 30
0.0
 10
-209.3516485750495
 20
-322.5848747294667
 30
0.0
 10
-209.3516485750495
 20
-322.5848747294667
 30
0.0
 10
-209.4939310185903
 20
-314.5006136637794
 30
0.0
 10
-209.4939310185903
 20
-314.5006136637794
 30
0.0
 10
-209.4939310185903
 20
-314.5006136637794
 30
0.0
 10
-212.7691832964174
 20
-314.5006136637794
 30
0.0
 10
-212.7691832964174
 20
-314.5006136637794
 30
0.0
 10
-213.3110968162471
 20
-314.5006136637794
 30
0.0
 10
-213.834751330005
 20
-314.2983865587952
 30
0.0
 10
-214.2392055399735
 20
-313.9356180041984
 30
0.0
 10
-214.2392055399735
 20
-313.9356180041984
 30
0.0
 10
-220.6608635244791
 20
-308.1523362131095
 30
0.0
 10
-220.6608635244791
 20
-308.1523362131095
 30
0.0
 10
-221.0005499393247
 20
-307.8491678104076
 30
0.0
 10
-221.2303378081909
 20
-307.4540153582494
 30
0.0
 10
-221.3312791059087
 20
-307.0178662698168
 30
0.0
 10
-221.3312791059087
 20
-307.0178662698168
 30
0.0
 10
-225.3644523904906
 20
-306.9992627541964
 30
0.0
 10
-225.3644523904906
 20
-306.9992627541964
 30
0.0
 10
-225.7503030848387
 20
-306.9992627541964
 30
0.0
 10
-226.1041143911739
 20
-306.7742980190096
 30
0.0
 10
-226.2694789744659
 20
-306.4204867126744
 30
0.0
 10
-226.2694789744659
 20
-306.4204867126744
 30
0.0
 10
-227.2568433405385
 20
-304.3076096515707
 30
0.0
 10
-227.2568433405385
 20
-304.3076096515707
 30
0.0
 10
-227.2568433405385
 20
-304.3076096515707
 30
0.0
 10
-227.2844041044205
 20
-304.1880648382325
 30
0.0
 10
-227.2844041044205
 20
-304.1880648382325
 30
0.0
 10
-227.2844041044205
 20
-304.1880648382325
 30
0.0
 10
-227.3030076200408
 20
-304.1377664441479
 30
0.0
 10
-227.3030076200408
 20
-304.1377664441479
 30
0.0
 10
-227.3030076200408
 20
-304.1377664441479
 30
0.0
 10
-227.3030076200408
 20
-302.9388732152809
 30
0.0
 10
-227.3030076200408
 20
-302.9388732152809
 30
0.0
 10
-227.3030076200408
 20
-302.9388732152809
 30
0.0
 10
-228.4970777152283
 20
-303.6323709364617
 30
0.0
 10
-228.4970777152283
 20
-303.6323709364617
 30
0.0
 10
-228.4970777152283
 20
-303.6323709364617
 30
0.0
 10
-228.4970777152283
 20
-306.5217725199408
 30
0.0
 10
-228.4970777152283
 20
-306.5217725199408
 30
0.0
 10
-228.4970777152283
 20
-306.6871371032328
 30
0.0
 10
-228.6304029105076
 20
-306.8201177889634
 30
0.0
 10
-228.7912888696687
 20
-306.8249409226428
 30
0.0
 10
-228.7912888696687
 20
-306.8249409226428
 30
0.0
 10
-228.9931714651044
 20
-306.8249409226428
 30
0.0
 10
-228.9931714651044
 20
-306.8249409226428
 30
0.0
 10
-228.9931714651044
 20
-306.8249409226428
 30
0.0
 10
-228.9917934269102
 20
-306.8270079799339
 30
0.0
 10
-228.9917934269102
 20
-306.8270079799339
 30
0.0
 10
-229.0748202281047
 20
-306.8928093037022
 30
0.0
 10
-229.1788621117594
 20
-306.9331169208796
 30
0.0
 10
-229.2918612436755
 20
-306.9351839781707
 30
0.0
 10
-229.2918612436755
 20
-306.9351839781707
 30
0.0
 10
-229.7603942296695
 20
-306.9441412264324
 30
0.0
 10
-229.7603942296695
 20
-306.9441412264324
 30
0.0
 10
-229.7603942296695
 20
-306.9441412264324
 30
0.0
 10
-229.7603942296695
 20
-307.0040858878757
 30
0.0
 10
-229.7603942296695
 20
-307.0040858878757
 30
0.0
 10
-229.7603942296695
 20
-307.0040858878757
 30
0.0
 10
-230.2978291253685
 20
-306.9947841300656
 30
0.0
 10
-230.2978291253685
 20
-306.9947841300656
 30
0.0
 10
-230.2978291253685
 20
-306.9947841300656
 30
0.0
 10
-230.2978291253685
 20
-307.1508469555474
 30
0.0
 10
-230.2978291253685
 20
-307.1508469555474
 30
0.0
  0
POLYLINE
  5
941A7
330
1E
100
AcDbEntity
  8
DETAIL
 62
     5
370
     9
100
AcDb2dPolyline
 66
     1
 10
0.0
 20
0.0
 30
0.0
  0
VERTEX
  5
941A8
330
941A7
100
AcDbEntity
  8
DETAIL
 62
     5
370
     9
100
AcDbVertex
100
AcDb2dVertex
 10
-4.997886147839381
 20
-227.0179259686362
 30
0.0
  0
VERTEX
  5
941A9
330
941A7
100
AcDbEntity
  8
DETAIL
 62
     5
370
     9
100
AcDbVertex
100
AcDb2dVertex
 10
-4.134200709687092
 20
-226.7058003176725
 30
0.0
  0
SEQEND
  5
941AA
330
941A7
100
AcDbEntity
  8
DETAIL
 62
     5
370
     9
  0
POLYLINE
  5
941AB
330
1E
100
AcDbEntity
  8
DETAIL
 62
     5
370
     9
100
AcDb2dPolyline
 66
     1
 10
0.0
 20
0.0
 30
0.0
  0
VERTEX
  5
941AC
330
941AB
100
AcDbEntity
  8
DETAIL
 62
     5
370
     9
100
AcDbVertex
100
AcDb2dVertex
 10
-227.2844041044205
 20
-10.31229044338545
 30
0.0
  0
VERTEX
  5
941AD
330
941AB
100
AcDbEntity
  8
DETAIL
 62
     5
370
     9
100
AcDbVertex
100
AcDb2dVertex
 10
-227.3030076200408
 20
-10.35828246811354
 30
0.0
  0
SEQEND
  5
941AE
330
941AB
100
AcDbEntity
  8
DETAIL
 62
     5
370
     9
  0
POLYLINE
  5
941AF
330
1E
100
AcDbEntity
  8
DETAIL
 62
     5
370
     9
100
AcDb2dPolyline
 66
     1
 10
0.0
 20
0.0
 30
0.0
  0
VERTEX
  5
941B0
330
941AF
100
AcDbEntity
  8
DETAIL
 62
     5
370
     9
100
AcDbVertex
100
AcDb2dVertex
 10
-227.2065449464538
 20
-10.06424356844752
 30
0.0
  0
VERTEX
  5
941B1
330
941AF
100
AcDbEntity
  8
DETAIL
 62
     5
370
     9
100
AcDbVertex
100
AcDb2dVertex
 10
-227.0639179933645
 20
-9.756596541614726
 30
0.0
  0
SEQEND
  5
941B2
330
941AF
100
AcDbEntity
  8
DETAIL
 62
     5
370
     9
  0
POLYLINE
  5
941B3
330
1E
100
AcDbEntity
  8
DETAIL
 62
     5
370
     9
100
AcDb2dPolyline
 66
     1
 10
0.0
 20
0.0
 30
0.0
  0
VERTEX
  5
941B4
330
941B3
100
AcDbEntity
  8
DETAIL
 62
     5
370
     9
100
AcDbVertex
100
AcDb2dVertex
 10
-105.9805250114825
 20
-163.9819803463743
 30
0.0
  0
VERTEX
  5
941B5
330
941B3
100
AcDbEntity
  8
DETAIL
 62
     5
370
     9
100
AcDbVertex
100
AcDb2dVertex
 10
-105.9805250114825
 20
-163.9819803463743
 30
0.0
  0
SEQEND
  5
941B6
330
941B3
100
AcDbEntity
  8
DETAIL
 62
     5
370
     9
  0
POLYLINE
  5
941B7
330
1E
100
AcDbEntity
  8
DETAIL
 62
     5
370
     9
100
AcDb2dPolyline
 66
     1
 10
0.0
 20
0.0
 30
0.0
  0
VERTEX
  5
941B8
330
941B7
100
AcDbEntity
  8
DETAIL
 62
     5
370
     9
100
AcDbVertex
100
AcDb2dVertex
 10
-4.997886147839381
 20
-227.1605529217255
 30
0.0
  0
VERTEX
  5
941B9
330
941B7
100
AcDbEntity
  8
DETAIL
 62
     5
370
     9
100
AcDbVertex
100
AcDb2dVertex
 10
-5.043705917793204
 20
-227.2018940675485
 30
0.0
  0
SEQEND
  5
941BA
330
941B7
100
AcDbEntity
  8
DETAIL
 62
     5
370
     9
  0
POLYLINE
  5
941BB
330
1E
100
AcDbEntity
  8
DETAIL
 62
     5
370
     9
100
AcDb2dPolyline
 66
     1
 10
0.0
 20
0.0
 30
0.0
  0
VERTEX
  5
941BC
330
941BB
100
AcDbEntity
  8
DETAIL
 62
     5
370
     9
100
AcDbVertex
100
AcDb2dVertex
 10
-1.272359890090001
 20
-239.9256652232217
 30
0.0
  0
VERTEX
  5
941BD
330
941BB
100
AcDbEntity
  8
DETAIL
 62
     5
370
     9
100
AcDbVertex
100
AcDb2dVertex
 10
-2.508115640649293
 20
-241.1614209737809
 30
0.0
  0
SEQEND
  5
941BE
330
941BB
100
AcDbEntity
  8
DETAIL
 62
     5
370
     9
  0
POLYLINE
  5
941C3
330
1E
100
AcDbEntity
  8
DETAIL
 62
     5
370
     9
100
AcDb2dPolyline
 66
     1
 10
0.0
 20
0.0
 30
0.0
  0
VERTEX
  5
941C4
330
941C3
100
AcDbEntity
  8
DETAIL
 62
     5
370
     9
100
AcDbVertex
100
AcDb2dVertex
 10
-1.378124321487348
 20
-295.4743848273901
 30
0.0
  0
VERTEX
  5
941C5
330
941C3
100
AcDbEntity
  8
DETAIL
 62
     5
370
     9
100
AcDbVertex
100
AcDb2dVertex
 10
-3.895455592559301
 20
-297.155591424192
 30
0.0
  0
SEQEND
  5
941C6
330
941C3
100
AcDbEntity
  8
DETAIL
 62
     5
370
     9
  0
POLYLINE
  5
941C7
330
1E
100
AcDbEntity
  8
DETAIL
 62
     5
370
     9
100
AcDb2dPolyline
 66
     1
 10
0.0
 20
0.0
 30
0.0
  0
VERTEX
  5
941C8
330
941C7
100
AcDbEntity
  8
DETAIL
 62
     5
370
     9
100
AcDbVertex
100
AcDb2dVertex
 10
-230.2978291253685
 20
-307.1508469555474
 30
0.0
  0
VERTEX
  5
941C9
330
941C7
100
AcDbEntity
  8
DETAIL
 62
     5
370
     9
100
AcDbVertex
100
AcDb2dVertex
 10
-230.2978291253685
 20
-164.1473449296663
 30
0.0
  0
SEQEND
  5
941CA
330
941C7
100
AcDbEntity
  8
DETAIL
 62
     5
370
     9
  0
POLYLINE
  5
941CB
330
1E
100
AcDbEntity
  8
DETAIL
 62
     5
370
     9
100
AcDb2dPolyline
 66
     1
 10
0.0
 20
0.0
 30
0.0
  0
VERTEX
  5
941CC
330
941CB
100
AcDbEntity
  8
DETAIL
 62
     5
370
     9
100
AcDbVertex
100
AcDb2dVertex
 10
-230.2978291253685
 20
-150.3531826067259
 30
0.0
  0
VERTEX
  5
941CD
330
941CB
100
AcDbEntity
  8
DETAIL
 62
     5
370
     9
100
AcDbVertex
100
AcDb2dVertex
 10
-230.2978291253685
 20
-7.345029701939779
 30
0.0
  0
SEQEND
  5
941CE
330
941CB
100
AcDbEntity
  8
DETAIL
 62
     5
370
     9
  0
POLYLINE
  5
941CF
330
1E
100
AcDbEntity
  8
DETAIL
 62
     5
370
     9
100
AcDb2dPolyline
 66
     1
 10
0.0
 20
0.0
 30
0.0
  0
VERTEX
  5
941D0
330
941CF
100
AcDbEntity
  8
DETAIL
 62
     5
370
     9
100
AcDbVertex
100
AcDb2dVertex
 10
-229.7603942296695
 20
-164.3540506587813
 30
0.0
  0
VERTEX
  5
941D1
330
941CF
100
AcDbEntity
  8
DETAIL
 62
     5
370
     9
100
AcDbVertex
100
AcDb2dVertex
 10
-229.7603942296695
 20
-150.1419982534801
 30
0.0
  0
SEQEND
  5
941D2
330
941CF
100
AcDbEntity
  8
DETAIL
 62
     5
370
     9
  0
POLYLINE
  5
941D3
330
1E
100
AcDbEntity
  8
DETAIL
 62
     5
370
     9
100
AcDb2dPolyline
 66
     1
 10
0.0
 20
0.0
 30
0.0
  0
VERTEX
  5
941D4
330
941D3
100
AcDbEntity
  8
DETAIL
 62
     5
370
     9
100
AcDbVertex
100
AcDb2dVertex
 10
-228.8002461179303
 20
-8.061609562871808
 30
0.0
  0
VERTEX
  5
941D5
330
941D3
100
AcDbEntity
  8
DETAIL
 62
     5
370
     9
100
AcDbVertex
100
AcDb2dVertex
 10
-228.8002461179303
 20
-149.636602745794
 30
0.0
  0
SEQEND
  5
941D6
330
941D3
100
AcDbEntity
  8
DETAIL
 62
     5
370
     9
  0
POLYLINE
  5
941D7
330
1E
100
AcDbEntity
  8
DETAIL
 62
     5
370
     9
100
AcDb2dPolyline
 66
     1
 10
0.0
 20
0.0
 30
0.0
  0
VERTEX
  5
941D8
330
941D7
100
AcDbEntity
  8
DETAIL
 62
     5
370
     9
100
AcDbVertex
100
AcDb2dVertex
 10
-228.8002461179303
 20
-164.8639247905983
 30
0.0
  0
VERTEX
  5
941D9
330
941D7
100
AcDbEntity
  8
DETAIL
 62
     5
370
     9
100
AcDbVertex
100
AcDb2dVertex
 10
-228.8002461179303
 20
-306.8249409226428
 30
0.0
  0
SEQEND
  5
941DA
330
941D7
100
AcDbEntity
  8
DETAIL
 62
     5
370
     9
  0
POLYLINE
  5
941DB
330
1E
100
AcDbEntity
  8
DETAIL
 62
     5
370
     9
100
AcDb2dPolyline
 66
     1
 10
0.0
 20
0.0
 30
0.0
  0
VERTEX
  5
941DC
330
941DB
100
AcDbEntity
  8
DETAIL
 62
     5
370
     9
100
AcDbVertex
100
AcDb2dVertex
 10
-227.0825215089848
 20
-163.6832905678032
 30
0.0
  0
VERTEX
  5
941DD
330
941DB
100
AcDbEntity
  8
DETAIL
 62
     5
370
     9
100
AcDbVertex
100
AcDb2dVertex
 10
-227.0825215089848
 20
-150.8172369685891
 30
0.0
  0
SEQEND
  5
941DE
330
941DB
100
AcDbEntity
  8
DETAIL
 62
     5
370
     9
  0
POLYLINE
  5
941E7
330
1E
100
AcDbEntity
  8
DETAIL
 62
     5
370
     9
100
AcDb2dPolyline
 66
     1
 10
0.0
 20
0.0
 30
0.0
  0
VERTEX
  5
941E8
330
941E7
100
AcDbEntity
  8
DETAIL
 62
     5
370
     9
100
AcDbVertex
100
AcDb2dVertex
 10
-4.997886147839381
 20
-226.7195806996135
 30
0.0
  0
VERTEX
  5
941E9
330
941E7
100
AcDbEntity
  8
DETAIL
 62
     5
370
     9
100
AcDbVertex
100
AcDb2dVertex
 10
-3.491001382591093
 20
-226.6920199357315
 30
0.0
  0
SEQEND
  5
941EA
330
941E7
100
AcDbEntity
  8
DETAIL
 62
     5
370
     9
  0
POLYLINE
  5
941EF
330
1E
100
AcDbEntity
  8
DETAIL
 62
     5
370
     9
100
AcDb2dPolyline
 66
     1
 10
0.0
 20
0.0
 30
0.0
  0
VERTEX
  5
941F0
330
941EF
100
AcDbEntity
  8
DETAIL
 62
     5
370
     9
100
AcDbVertex
100
AcDb2dVertex
 10
-230.2978291253685
 20
-150.1509555017418
 30
0.0
  0
VERTEX
  5
941F1
330
941EF
100
AcDbEntity
  8
DETAIL
 62
     5
370
     9
100
AcDbVertex
100
AcDb2dVertex
 10
-229.2918612436755
 20
-150.1326964956699
 30
0.0
  0
SEQEND
  5
941F2
330
941EF
100
AcDbEntity
  8
DETAIL
 62
     5
370
     9
  0
POLYLINE
  5
941F3
330
1E
100
AcDbEntity
  8
DETAIL
 62
     5
370
     9
100
AcDb2dPolyline
 66
     1
 10
0.0
 20
0.0
 30
0.0
  0
VERTEX
  5
941F4
330
941F3
100
AcDbEntity
  8
DETAIL
 62
     5
370
     9
100
AcDbVertex
100
AcDb2dVertex
 10
-154.2118618049803
 20
-163.8992980547283
 30
0.0
  0
VERTEX
  5
941F5
330
941F3
100
AcDbEntity
  8
DETAIL
 62
     5
370
     9
100
AcDbVertex
100
AcDb2dVertex
 10
-148.5388230694193
 20
-163.8810390486565
 30
0.0
  0
SEQEND
  5
941F6
330
941F3
100
AcDbEntity
  8
DETAIL
 62
     5
370
     9
  0
POLYLINE
  5
941F7
330
1E
100
AcDbEntity
  8
DETAIL
 62
     5
370
     9
100
AcDb2dPolyline
 66
     1
 10
0.0
 20
0.0
 30
0.0
  0
VERTEX
  5
941F8
330
941F7
100
AcDbEntity
  8
DETAIL
 62
     5
370
     9
100
AcDbVertex
100
AcDb2dVertex
 10
-159.9489793165667
 20
-150.6012294816639
 30
0.0
  0
VERTEX
  5
941F9
330
941F7
100
AcDbEntity
  8
DETAIL
 62
     5
370
     9
100
AcDbVertex
100
AcDb2dVertex
 10
-164.7583326139756
 20
-150.615009863605
 30
0.0
  0
SEQEND
  5
941FA
330
941F7
100
AcDbEntity
  8
DETAIL
 62
     5
370
     9
  0
POLYLINE
  5
941FB
330
1E
100
AcDbEntity
  8
DETAIL
 62
     5
370
     9
100
AcDb2dPolyline
 66
     1
 10
0.0
 20
0.0
 30
0.0
  0
VERTEX
  5
941FC
330
941FB
100
AcDbEntity
  8
DETAIL
 62
     5
370
     9
100
AcDbVertex
100
AcDb2dVertex
 10
-93.80762462390066
 20
-150.5002881839461
 30
0.0
  0
VERTEX
  5
941FD
330
941FB
100
AcDbEntity
  8
DETAIL
 62
     5
370
     9
100
AcDbVertex
100
AcDb2dVertex
 10
-101.0009839971024
 20
-150.5140685658871
 30
0.0
  0
SEQEND
  5
941FE
330
941FB
100
AcDbEntity
  8
DETAIL
 62
     5
370
     9
  0
POLYLINE
  5
941FF
330
1E
100
AcDbEntity
  8
DETAIL
 62
     5
370
     9
100
AcDb2dPolyline
 66
     1
 10
0.0
 20
0.0
 30
0.0
  0
VERTEX
  5
94200
330
941FF
100
AcDbEntity
  8
DETAIL
 62
     5
370
     9
100
AcDbVertex
100
AcDb2dVertex
 10
-184.6479023789684
 20
-322.5848747294667
 30
0.0
  0
VERTEX
  5
94201
330
941FF
100
AcDbEntity
  8
DETAIL
 62
     5
370
     9
100
AcDbVertex
100
AcDb2dVertex
 10
-209.3516485750495
 20
-322.5848747294667
 30
0.0
  0
SEQEND
  5
94202
330
941FF
100
AcDbEntity
  8
DETAIL
 62
     5
370
     9
  0
POLYLINE
  5
94203
330
1E
100
AcDbEntity
  8
DETAIL
 62
     5
370
     9
100
AcDb2dPolyline
 66
     1
 10
0.0
 20
0.0
 30
0.0
  0
VERTEX
  5
94204
330
94203
100
AcDbEntity
  8
DETAIL
 62
     5
370
     9
100
AcDbVertex
100
AcDb2dVertex
 10
-221.3312791059087
 20
-306.9992627541964
 30
0.0
  0
VERTEX
  5
94205
330
94203
100
AcDbEntity
  8
DETAIL
 62
     5
370
     9
100
AcDbVertex
100
AcDb2dVertex
 10
-151.1663973960194
 20
-306.9992627541964
 30
0.0
  0
SEQEND
  5
94206
330
94203
100
AcDbEntity
  8
DETAIL
 62
     5
370
     9
  0
POLYLINE
  5
94207
330
1E
100
AcDbEntity
  8
DETAIL
 62
     5
370
     9
100
AcDb2dPolyline
 66
     1
 10
0.0
 20
0.0
 30
0.0
  0
VERTEX
  5
94208
330
94207
100
AcDbEntity
  8
DETAIL
 62
     5
370
     9
100
AcDbVertex
100
AcDb2dVertex
 10
-85.99897119703337
 20
-302.8927089357786
 30
0.0
  0
VERTEX
  5
94209
330
94207
100
AcDbEntity
  8
DETAIL
 62
     5
370
     9
100
AcDbVertex
100
AcDb2dVertex
 10
-67.49639687440208
 20
-302.8927089357786
 30
0.0
  0
SEQEND
  5
9420A
330
94207
100
AcDbEntity
  8
DETAIL
 62
     5
370
     9
  0
POLYLINE
  5
9420B
330
1E
100
AcDbEntity
  8
DETAIL
 62
     5
370
     9
100
AcDb2dPolyline
 66
     1
 10
0.0
 20
0.0
 30
0.0
  0
VERTEX
  5
94380
330
9420B
100
AcDbEntity
  8
DETAIL
 62
     5
370
     9
100
AcDbVertex
100
AcDb2dVertex
 10
-4.997886147839381
 20
-227.0179259686362
 30
0.0
  0
VERTEX
  5
94381
330
9420B
100
AcDbEntity
  8
DETAIL
 62
     5
370
     9
100
AcDbVertex
100
AcDb2dVertex
 10
-4.997886147839381
 20
-293.976801819952
 30
0.0
  0
VERTEX
  5
94382
330
9420B
100
AcDbEntity
  8
DETAIL
 62
     5
370
     9
100
AcDbVertex
100
AcDb2dVertex
 10
-23.50011596092213
 20
-293.976801819952
 30
0.0
  0
SEQEND
  5
94383
330
9420B
100
AcDbEntity
  8
DETAIL
 62
     5
370
     9
  0
POLYLINE
  5
94217
330
1E
100
AcDbEntity
  8
DETAIL
 62
     5
370
     9
100
AcDb2dPolyline
 66
     1
 10
0.0
 20
0.0
 30
0.0
  0
VERTEX
  5
94218
330
94217
100
AcDbEntity
  8
DETAIL
 62
     5
370
     9
100
AcDbVertex
100
AcDb2dVertex
 10
-4.997886147839381
 20
-237.0224832578017
 30
0.0
  0
VERTEX
  5
94219
330
94217
100
AcDbEntity
  8
DETAIL
 62
     5
370
     9
100
AcDbVertex
100
AcDb2dVertex
 10
-23.50011596092213
 20
-237.0224832578017
 30
0.0
  0
SEQEND
  5
9421A
330
94217
100
AcDbEntity
  8
DETAIL
 62
     5
370
     9
  0
POLYLINE
  5
9421B
330
1E
100
AcDbEntity
  8
DETAIL
 62
     5
370
     9
100
AcDb2dPolyline
 66
     1
 10
0.0
 20
0.0
 30
0.0
  0
VERTEX
  5
9421C
330
9421B
100
AcDbEntity
  8
DETAIL
 62
     5
370
     9
100
AcDbVertex
100
AcDb2dVertex
 10
-5.043705917793204
 20
-227.2018940675485
 30
0.0
  0
VERTEX
  5
9421D
330
9421B
100
AcDbEntity
  8
DETAIL
 62
     5
370
     9
100
AcDbVertex
100
AcDb2dVertex
 10
-65.99881386696416
 20
-227.2018940675485
 30
0.0
  0
SEQEND
  5
9421E
330
9421B
100
AcDbEntity
  8
DETAIL
 62
     5
370
     9
  0
POLYLINE
  5
9421F
330
1E
100
AcDbEntity
  8
DETAIL
 62
     5
370
     9
100
AcDb2dPolyline
 66
     1
 10
0.0
 20
0.0
 30
0.0
  0
VERTEX
  5
94220
330
9421F
100
AcDbEntity
  8
DETAIL
 62
     5
370
     9
100
AcDbVertex
100
AcDb2dVertex
 10
-65.99881386696416
 20
-227.1970709338692
 30
0.0
  0
VERTEX
  5
94221
330
9421F
100
AcDbEntity
  8
DETAIL
 62
     5
370
     9
100
AcDbVertex
100
AcDb2dVertex
 10
-60.31233925901074
 20
-227.1970709338692
 30
0.0
  0
SEQEND
  5
94222
330
9421F
100
AcDbEntity
  8
DETAIL
 62
     5
370
     9
  0
POLYLINE
  5
94223
330
1E
100
AcDbEntity
  8
DETAIL
 62
     5
370
     9
100
AcDb2dPolyline
 66
     1
 10
0.0
 20
0.0
 30
0.0
  0
VERTEX
  5
94224
330
94223
100
AcDbEntity
  8
DETAIL
 62
     5
370
     9
100
AcDbVertex
100
AcDb2dVertex
 10
-65.99881386696416
 20
-226.9996669625643
 30
0.0
  0
VERTEX
  5
94225
330
94223
100
AcDbEntity
  8
DETAIL
 62
     5
370
     9
100
AcDbVertex
100
AcDb2dVertex
 10
-4.997886147839381
 20
-226.9996669625643
 30
0.0
  0
SEQEND
  5
94226
330
94223
100
AcDbEntity
  8
DETAIL
 62
     5
370
     9
  0
POLYLINE
  5
9422B
330
1E
100
AcDbEntity
  8
DETAIL
 62
     5
370
     9
100
AcDb2dPolyline
 66
     1
 10
0.0
 20
0.0
 30
0.0
  0
VERTEX
  5
9422C
330
9422B
100
AcDbEntity
  8
DETAIL
 62
     5
370
     9
100
AcDbVertex
100
AcDb2dVertex
 10
-86.29140933788347
 20
-164.0002393524461
 30
0.0
  0
VERTEX
  5
9422D
330
9422B
100
AcDbEntity
  8
DETAIL
 62
     5
370
     9
100
AcDbVertex
100
AcDb2dVertex
 10
-93.80762462390066
 20
-164.0002393524461
 30
0.0
  0
SEQEND
  5
9422E
330
9422B
100
AcDbEntity
  8
DETAIL
 62
     5
370
     9
  0
POLYLINE
  5
94237
330
1E
100
AcDbEntity
  8
DETAIL
 62
     5
370
     9
100
AcDb2dPolyline
 66
     1
 10
0.0
 20
0.0
 30
0.0
  0
VERTEX
  5
94238
330
94237
100
AcDbEntity
  8
DETAIL
 62
     5
370
     9
100
AcDbVertex
100
AcDb2dVertex
 10
-101.0009839971024
 20
-163.9819803463743
 30
0.0
  0
VERTEX
  5
94239
330
94237
100
AcDbEntity
  8
DETAIL
 62
     5
370
     9
100
AcDbVertex
100
AcDb2dVertex
 10
-105.9805250114825
 20
-163.9819803463743
 30
0.0
  0
SEQEND
  5
9423A
330
94237
100
AcDbEntity
  8
DETAIL
 62
     5
370
     9
  0
POLYLINE
  5
9423B
330
1E
100
AcDbEntity
  8
DETAIL
 62
     5
370
     9
100
AcDb2dPolyline
 66
     1
 10
0.0
 20
0.0
 30
0.0
  0
VERTEX
  5
9423C
330
9423B
100
AcDbEntity
  8
DETAIL
 62
     5
370
     9
100
AcDbVertex
100
AcDb2dVertex
 10
-159.0901170120939
 20
-163.8992980547283
 30
0.0
  0
VERTEX
  5
9423D
330
9423B
100
AcDbEntity
  8
DETAIL
 62
     5
370
     9
100
AcDbVertex
100
AcDb2dVertex
 10
-154.2118618049803
 20
-163.8992980547283
 30
0.0
  0
SEQEND
  5
9423E
330
9423B
100
AcDbEntity
  8
DETAIL
 62
     5
370
     9
  0
POLYLINE
  5
9423F
330
1E
100
AcDbEntity
  8
DETAIL
 62
     5
370
     9
100
AcDb2dPolyline
 66
     1
 10
0.0
 20
0.0
 30
0.0
  0
VERTEX
  5
94240
330
9423F
100
AcDbEntity
  8
DETAIL
 62
     5
370
     9
100
AcDbVertex
100
AcDb2dVertex
 10
-226.8802944040007
 20
-163.8810390486565
 30
0.0
  0
VERTEX
  5
94241
330
9423F
100
AcDbEntity
  8
DETAIL
 62
     5
370
     9
100
AcDbVertex
100
AcDb2dVertex
 10
-164.7583326139756
 20
-163.8810390486565
 30
0.0
  0
SEQEND
  5
94242
330
9423F
100
AcDbEntity
  8
DETAIL
 62
     5
370
     9
  0
POLYLINE
  5
94243
330
1E
100
AcDbEntity
  8
DETAIL
 62
     5
370
     9
100
AcDb2dPolyline
 66
     1
 10
0.0
 20
0.0
 30
0.0
  0
VERTEX
  5
94244
330
94243
100
AcDbEntity
  8
DETAIL
 62
     5
370
     9
100
AcDbVertex
100
AcDb2dVertex
 10
-148.5388230694193
 20
-163.8810390486565
 30
0.0
  0
VERTEX
  5
94245
330
94243
100
AcDbEntity
  8
DETAIL
 62
     5
370
     9
100
AcDbVertex
100
AcDb2dVertex
 10
-86.4168612793942
 20
-163.8810390486565
 30
0.0
  0
SEQEND
  5
94246
330
94243
100
AcDbEntity
  8
DETAIL
 62
     5
370
     9
  0
POLYLINE
  5
94247
330
1E
100
AcDbEntity
  8
DETAIL
 62
     5
370
     9
100
AcDb2dPolyline
 66
     1
 10
0.0
 20
0.0
 30
0.0
  0
VERTEX
  5
94248
330
94247
100
AcDbEntity
  8
DETAIL
 62
     5
370
     9
100
AcDbVertex
100
AcDb2dVertex
 10
-226.8802944040007
 20
-150.615009863605
 30
0.0
  0
VERTEX
  5
94249
330
94247
100
AcDbEntity
  8
DETAIL
 62
     5
370
     9
100
AcDbVertex
100
AcDb2dVertex
 10
-164.7583326139756
 20
-150.615009863605
 30
0.0
  0
SEQEND
  5
9424A
330
94247
100
AcDbEntity
  8
DETAIL
 62
     5
370
     9
  0
POLYLINE
  5
9424B
330
1E
100
AcDbEntity
  8
DETAIL
 62
     5
370
     9
100
AcDb2dPolyline
 66
     1
 10
0.0
 20
0.0
 30
0.0
  0
VERTEX
  5
9424C
330
9424B
100
AcDbEntity
  8
DETAIL
 62
     5
370
     9
100
AcDbVertex
100
AcDb2dVertex
 10
-148.5388230694193
 20
-150.615009863605
 30
0.0
  0
VERTEX
  5
9424D
330
9424B
100
AcDbEntity
  8
DETAIL
 62
     5
370
     9
100
AcDbVertex
100
AcDb2dVertex
 10
-86.4168612793942
 20
-150.615009863605
 30
0.0
  0
SEQEND
  5
9424E
330
9424B
100
AcDbEntity
  8
DETAIL
 62
     5
370
     9
  0
POLYLINE
  5
9424F
330
1E
100
AcDbEntity
  8
DETAIL
 62
     5
370
     9
100
AcDb2dPolyline
 66
     1
 10
0.0
 20
0.0
 30
0.0
  0
VERTEX
  5
94250
330
9424F
100
AcDbEntity
  8
DETAIL
 62
     5
370
     9
100
AcDbVertex
100
AcDb2dVertex
 10
-155.084504491394
 20
-150.5967508575331
 30
0.0
  0
VERTEX
  5
94251
330
9424F
100
AcDbEntity
  8
DETAIL
 62
     5
370
     9
100
AcDbVertex
100
AcDb2dVertex
 10
-158.212651192001
 20
-150.5967508575331
 30
0.0
  0
SEQEND
  5
94252
330
9424F
100
AcDbEntity
  8
DETAIL
 62
     5
370
     9
  0
POLYLINE
  5
94253
330
1E
100
AcDbEntity
  8
DETAIL
 62
     5
370
     9
100
AcDb2dPolyline
 66
     1
 10
0.0
 20
0.0
 30
0.0
  0
VERTEX
  5
94254
330
94253
100
AcDbEntity
  8
DETAIL
 62
     5
370
     9
100
AcDbVertex
100
AcDb2dVertex
 10
-226.3015183624787
 20
-150.5140685658871
 30
0.0
  0
VERTEX
  5
94255
330
94253
100
AcDbEntity
  8
DETAIL
 62
     5
370
     9
100
AcDbVertex
100
AcDb2dVertex
 10
-207.3993129635585
 20
-150.5140685658871
 30
0.0
  0
VERTEX
  5
94256
330
94253
100
AcDbEntity
  8
DETAIL
 62
     5
370
     9
100
AcDbVertex
100
AcDb2dVertex
 10
-101.0009839971024
 20
-150.5140685658871
 30
0.0
  0
SEQEND
  5
94257
330
94253
100
AcDbEntity
  8
DETAIL
 62
     5
370
     9
  0
POLYLINE
  5
94258
330
1E
100
AcDbEntity
  8
DETAIL
 62
     5
370
     9
100
AcDb2dPolyline
 66
     1
 10
0.0
 20
0.0
 30
0.0
  0
VERTEX
  5
94259
330
94258
100
AcDbEntity
  8
DETAIL
 62
     5
370
     9
100
AcDbVertex
100
AcDb2dVertex
 10
-87.57889198656902
 20
-150.5002881839461
 30
0.0
  0
VERTEX
  5
9425A
330
94258
100
AcDbEntity
  8
DETAIL
 62
     5
370
     9
100
AcDbVertex
100
AcDb2dVertex
 10
-87.78111909155313
 20
-150.5002881839461
 30
0.0
  0
SEQEND
  5
9425B
330
94258
100
AcDbEntity
  8
DETAIL
 62
     5
370
     9
  0
POLYLINE
  5
9425C
330
1E
100
AcDbEntity
  8
DETAIL
 62
     5
370
     9
100
AcDb2dPolyline
 66
     1
 10
0.0
 20
0.0
 30
0.0
  0
VERTEX
  5
9425D
330
9425C
100
AcDbEntity
  8
DETAIL
 62
     5
370
     9
100
AcDbVertex
100
AcDb2dVertex
 10
-86.80271197374214
 20
-150.4954650502668
 30
0.0
  0
VERTEX
  5
9425E
330
9425C
100
AcDbEntity
  8
DETAIL
 62
     5
370
     9
100
AcDbVertex
100
AcDb2dVertex
 10
-86.94499441728316
 20
-150.4954650502668
 30
0.0
  0
VERTEX
  5
9425F
330
9425C
100
AcDbEntity
  8
DETAIL
 62
     5
370
     9
100
AcDbVertex
100
AcDb2dVertex
 10
-87.00011594504713
 20
-150.5002881839461
 30
0.0
  0
VERTEX
  5
94260
330
9425C
100
AcDbEntity
  8
DETAIL
 62
     5
370
     9
100
AcDbVertex
100
AcDb2dVertex
 10
-93.80762462390066
 20
-150.5002881839461
 30
0.0
  0
SEQEND
  5
94261
330
9425C
100
AcDbEntity
  8
DETAIL
 62
     5
370
     9
  0
POLYLINE
  5
94262
330
1E
100
AcDbEntity
  8
DETAIL
 62
     5
370
     9
100
AcDb2dPolyline
 66
     1
 10
0.0
 20
0.0
 30
0.0
  0
VERTEX
  5
94263
330
94262
100
AcDbEntity
  8
DETAIL
 62
     5
370
     9
100
AcDbVertex
100
AcDb2dVertex
 10
-0.5971211749811119
 20
-149.2965718213999
 30
0.0
  0
VERTEX
  5
94264
330
94262
100
AcDbEntity
  8
DETAIL
 62
     5
370
     9
100
AcDbVertex
100
AcDb2dVertex
 10
-1.198979356254312
 20
-149.2965718213999
 30
0.0
  0
SEQEND
  5
94265
330
94262
100
AcDbEntity
  8
DETAIL
 62
     5
370
     9
  0
POLYLINE
  5
94266
330
1E
100
AcDbEntity
  8
DETAIL
 62
     5
370
     9
100
AcDb2dPolyline
 66
     1
 10
0.0
 20
0.0
 30
0.0
  0
VERTEX
  5
94267
330
94266
100
AcDbEntity
  8
DETAIL
 62
     5
370
     9
100
AcDbVertex
100
AcDb2dVertex
 10
-93.80762462390066
 20
-164.0002393524461
 30
0.0
  0
VERTEX
  5
94268
330
94266
100
AcDbEntity
  8
DETAIL
 62
     5
370
     9
100
AcDbVertex
100
AcDb2dVertex
 10
-101.0009839971024
 20
-163.9819803463743
 30
0.0
  0
SEQEND
  5
94269
330
94266
100
AcDbEntity
  8
DETAIL
 62
     5
370
     9
  0
POLYLINE
  5
9426A
330
1E
100
AcDbEntity
  8
DETAIL
 62
     5
370
     9
100
AcDb2dPolyline
 66
     1
 10
0.0
 20
0.0
 30
0.0
  0
VERTEX
  5
9426B
330
9426A
100
AcDbEntity
  8
DETAIL
 62
     5
370
     9
100
AcDbVertex
100
AcDb2dVertex
 10
-164.7583326139756
 20
-163.8810390486565
 30
0.0
  0
VERTEX
  5
9426C
330
9426A
100
AcDbEntity
  8
DETAIL
 62
     5
370
     9
100
AcDbVertex
100
AcDb2dVertex
 10
-159.0901170120939
 20
-163.8992980547283
 30
0.0
  0
SEQEND
  5
9426D
330
9426A
100
AcDbEntity
  8
DETAIL
 62
     5
370
     9
  0
POLYLINE
  5
9426E
330
1E
100
AcDbEntity
  8
DETAIL
 62
     5
370
     9
100
AcDb2dPolyline
 66
     1
 10
0.0
 20
0.0
 30
0.0
  0
VERTEX
  5
9426F
330
9426E
100
AcDbEntity
  8
DETAIL
 62
     5
370
     9
100
AcDbVertex
100
AcDb2dVertex
 10
-148.5388230694193
 20
-150.615009863605
 30
0.0
  0
VERTEX
  5
94270
330
9426E
100
AcDbEntity
  8
DETAIL
 62
     5
370
     9
100
AcDbVertex
100
AcDb2dVertex
 10
-153.348176366828
 20
-150.6012294816639
 30
0.0
  0
SEQEND
  5
94271
330
9426E
100
AcDbEntity
  8
DETAIL
 62
     5
370
     9
  0
POLYLINE
  5
94272
330
1E
100
AcDbEntity
  8
DETAIL
 62
     5
370
     9
100
AcDb2dPolyline
 66
     1
 10
0.0
 20
0.0
 30
0.0
  0
VERTEX
  5
94273
330
94272
100
AcDbEntity
  8
DETAIL
 62
     5
370
     9
100
AcDbVertex
100
AcDb2dVertex
 10
-21.00138820547045
 20
-226.9996669625643
 30
0.0
  0
VERTEX
  5
94274
330
94272
100
AcDbEntity
  8
DETAIL
 62
     5
370
     9
100
AcDbVertex
100
AcDb2dVertex
 10
-20.22520819264355
 20
-227.0041455866952
 30
0.0
  0
SEQEND
  5
94275
330
94272
100
AcDbEntity
  8
DETAIL
 62
     5
370
     9
  0
POLYLINE
  5
9427E
330
1E
100
AcDbEntity
  8
DETAIL
 62
     5
370
     9
100
AcDb2dPolyline
 66
     1
 10
0.0
 20
0.0
 30
0.0
  0
VERTEX
  5
9427F
330
9427E
100
AcDbEntity
  8
DETAIL
 62
     5
370
     9
100
AcDbVertex
100
AcDb2dVertex
 10
-229.2918612436755
 20
-164.3633524165915
 30
0.0
  0
VERTEX
  5
94280
330
9427E
100
AcDbEntity
  8
DETAIL
 62
     5
370
     9
100
AcDbVertex
100
AcDb2dVertex
 10
-230.2978291253685
 20
-164.3447489009711
 30
0.0
  0
SEQEND
  5
94281
330
9427E
100
AcDbEntity
  8
DETAIL
 62
     5
370
     9
  0
POLYLINE
  5
9428E
330
1E
100
AcDbEntity
  8
DETAIL
 62
     5
370
     9
100
AcDb2dPolyline
 66
     1
 10
0.0
 20
0.0
 30
0.0
  0
VERTEX
  5
9428F
330
9428E
100
AcDbEntity
  8
DETAIL
 62
     5
370
     9
100
AcDbVertex
100
AcDb2dVertex
 10
-105.9805250114825
 20
-163.8717372908463
 30
0.0
  0
VERTEX
  5
94290
330
9428E
100
AcDbEntity
  8
DETAIL
 62
     5
370
     9
100
AcDbVertex
100
AcDb2dVertex
 10
-105.9805250114825
 20
-163.9819803463743
 30
0.0
  0
SEQEND
  5
94291
330
9428E
100
AcDbEntity
  8
DETAIL
 62
     5
370
     9
  0
POLYLINE
  5
94292
330
1E
100
AcDbEntity
  8
DETAIL
 62
     5
370
     9
100
AcDb2dPolyline
 66
     1
 10
0.0
 20
0.0
 30
0.0
  0
VERTEX
  5
94293
330
94292
100
AcDbEntity
  8
DETAIL
 62
     5
370
     9
100
AcDbVertex
100
AcDb2dVertex
 10
-97.99686073396447
 20
-163.9864589705051
 30
0.0
  0
VERTEX
  5
94294
330
94292
100
AcDbEntity
  8
DETAIL
 62
     5
370
     9
100
AcDbVertex
100
AcDb2dVertex
 10
-97.99686073396447
 20
-163.8810390486565
 30
0.0
  0
SEQEND
  5
94295
330
94292
100
AcDbEntity
  8
DETAIL
 62
     5
370
     9
  0
POLYLINE
  5
9429E
330
1E
100
AcDbEntity
  8
DETAIL
 62
     5
370
     9
100
AcDb2dPolyline
 66
     1
 10
0.0
 20
0.0
 30
0.0
  0
VERTEX
  5
9429F
330
9429E
100
AcDbEntity
  8
DETAIL
 62
     5
370
     9
100
AcDbVertex
100
AcDb2dVertex
 10
-86.21945730808944
 20
-163.6832905678032
 30
0.0
  0
VERTEX
  5
942A0
330
9429E
100
AcDbEntity
  8
DETAIL
 62
     5
370
     9
100
AcDbVertex
100
AcDb2dVertex
 10
-86.21945730808944
 20
-150.8172369685891
 30
0.0
  0
SEQEND
  5
942A1
330
9429E
100
AcDbEntity
  8
DETAIL
 62
     5
370
     9
  0
POLYLINE
  5
942A2
330
1E
100
AcDbEntity
  8
DETAIL
 62
     5
370
     9
100
AcDb2dPolyline
 66
     1
 10
0.0
 20
0.0
 30
0.0
  0
VERTEX
  5
942A3
330
942A2
100
AcDbEntity
  8
DETAIL
 62
     5
370
     9
100
AcDbVertex
100
AcDb2dVertex
 10
-85.99897119703337
 20
-302.8927089357786
 30
0.0
  0
VERTEX
  5
942A4
330
942A2
100
AcDbEntity
  8
DETAIL
 62
     5
370
     9
100
AcDbVertex
100
AcDb2dVertex
 10
-85.99897119703337
 20
-164.9972499858774
 30
0.0
  0
SEQEND
  5
942A5
330
942A2
100
AcDbEntity
  8
DETAIL
 62
     5
370
     9
  0
POLYLINE
  5
942A6
330
1E
100
AcDbEntity
  8
DETAIL
 62
     5
370
     9
100
AcDb2dPolyline
 66
     1
 10
0.0
 20
0.0
 30
0.0
  0
VERTEX
  5
942A7
330
942A6
100
AcDbEntity
  8
DETAIL
 62
     5
370
     9
100
AcDbVertex
100
AcDb2dVertex
 10
-85.98036768141311
 20
-150.2015984053749
 30
0.0
  0
VERTEX
  5
942A8
330
942A6
100
AcDbEntity
  8
DETAIL
 62
     5
370
     9
100
AcDbVertex
100
AcDb2dVertex
 10
-85.98036768141311
 20
-8.479499645232522
 30
0.0
  0
SEQEND
  5
942A9
330
942A6
100
AcDbEntity
  8
DETAIL
 62
     5
370
     9
  0
POLYLINE
  5
942AA
330
1E
100
AcDbEntity
  8
DETAIL
 62
     5
370
     9
100
AcDb2dPolyline
 66
     1
 10
0.0
 20
0.0
 30
0.0
  0
VERTEX
  5
942AB
330
942AA
100
AcDbEntity
  8
DETAIL
 62
     5
370
     9
100
AcDbVertex
100
AcDb2dVertex
 10
-67.49639687440208
 20
-301.698638840591
 30
0.0
  0
VERTEX
  5
942AC
330
942AA
100
AcDbEntity
  8
DETAIL
 62
     5
370
     9
100
AcDbVertex
100
AcDb2dVertex
 10
-67.49639687440208
 20
0.2021409775969687
 30
0.0
  0
SEQEND
  5
942AD
330
942AA
100
AcDbEntity
  8
DETAIL
 62
     5
370
     9
  0
POLYLINE
  5
942AE
330
1E
100
AcDbEntity
  8
DETAIL
 62
     5
370
     9
100
AcDb2dPolyline
 66
     1
 10
0.0
 20
0.0
 30
0.0
  0
VERTEX
  5
942AF
330
942AE
100
AcDbEntity
  8
DETAIL
 62
     5
370
     9
100
AcDbVertex
100
AcDb2dVertex
 10
-65.99881386696416
 20
-226.9996669625643
 30
0.0
  0
VERTEX
  5
942B0
330
942AE
100
AcDbEntity
  8
DETAIL
 62
     5
370
     9
100
AcDbVertex
100
AcDb2dVertex
 10
-65.99881386696416
 20
-0.0000861273871351
 30
0.0
  0
SEQEND
  5
942B1
330
942AE
100
AcDbEntity
  8
DETAIL
 62
     5
370
     9
  0
POLYLINE
  5
942B2
330
1E
100
AcDbEntity
  8
DETAIL
 62
     5
370
     9
100
AcDb2dPolyline
 66
     1
 10
0.0
 20
0.0
 30
0.0
  0
VERTEX
  5
942B3
330
942B2
100
AcDbEntity
  8
DETAIL
 62
     5
370
     9
100
AcDbVertex
100
AcDb2dVertex
 10
-65.99881386696416
 20
-227.2018940675485
 30
0.0
  0
VERTEX
  5
942B4
330
942B2
100
AcDbEntity
  8
DETAIL
 62
     5
370
     9
100
AcDbVertex
100
AcDb2dVertex
 10
-65.99881386696416
 20
-301.6249137972067
 30
0.0
  0
VERTEX
  5
942B5
330
942B2
100
AcDbEntity
  8
DETAIL
 62
     5
370
     9
100
AcDbVertex
100
AcDb2dVertex
 10
-67.49639687440208
 20
-301.6524745610886
 30
0.0
  0
SEQEND
  5
942B6
330
942B2
100
AcDbEntity
  8
DETAIL
 62
     5
370
     9
  0
POLYLINE
  5
942B7
330
1E
100
AcDbEntity
  8
DETAIL
 62
     5
370
     9
100
AcDb2dPolyline
 66
     1
 10
0.0
 20
0.0
 30
0.0
  0
VERTEX
  5
942B8
330
942B7
100
AcDbEntity
  8
DETAIL
 62
     5
370
     9
100
AcDbVertex
100
AcDb2dVertex
 10
-43.47719115124028
 20
-256.9995584481199
 30
0.0
  0
VERTEX
  5
942B9
330
942B7
100
AcDbEntity
  8
DETAIL
 62
     5
370
     9
100
AcDbVertex
100
AcDb2dVertex
 10
-43.47719115124028
 20
-274.0000711391823
 30
0.0
  0
SEQEND
  5
942BA
330
942B7
100
AcDbEntity
  8
DETAIL
 62
     5
370
     9
  0
POLYLINE
  5
942BF
330
1E
100
AcDbEntity
  8
DETAIL
 62
     5
370
     9
100
AcDb2dPolyline
 66
     1
 10
0.0
 20
0.0
 30
0.0
  0
VERTEX
  5
942C0
330
942BF
100
AcDbEntity
  8
DETAIL
 62
     5
370
     9
100
AcDbVertex
100
AcDb2dVertex
 10
-4.997886147839381
 20
-226.9996669625643
 30
0.0
  0
VERTEX
  5
942C1
330
942BF
100
AcDbEntity
  8
DETAIL
 62
     5
370
     9
100
AcDbVertex
100
AcDb2dVertex
 10
-4.997886147839381
 20
-16.15982326527432
 30
0.0
  0
SEQEND
  5
942C2
330
942BF
100
AcDbEntity
  8
DETAIL
 62
     5
370
     9
  0
POLYLINE
  5
942C3
330
1E
100
AcDbEntity
  8
DETAIL
 62
     5
370
     9
100
AcDb2dPolyline
 66
     1
 10
0.0
 20
0.0
 30
0.0
  0
VERTEX
  5
942C4
330
942C3
100
AcDbEntity
  8
DETAIL
 62
     5
370
     9
100
AcDbVertex
100
AcDb2dVertex
 10
-4.997886147839381
 20
-13.03167656466746
 30
0.0
  0
VERTEX
  5
942C5
330
942C3
100
AcDbEntity
  8
DETAIL
 62
     5
370
     9
100
AcDbVertex
100
AcDb2dVertex
 10
-4.997886147839381
 20
-10.96461927351754
 30
0.0
  0
SEQEND
  5
942C6
330
942C3
100
AcDbEntity
  8
DETAIL
 62
     5
370
     9
  0
POLYLINE
  5
942C7
330
1E
100
AcDbEntity
  8
DETAIL
 62
     5
370
     9
100
AcDb2dPolyline
 66
     1
 10
0.0
 20
0.0
 30
0.0
  0
VERTEX
  5
942C8
330
942C7
100
AcDbEntity
  8
DETAIL
 62
     5
370
     9
100
AcDbVertex
100
AcDb2dVertex
 10
-2.99973076639435
 20
-225.6905306781694
 30
0.0
  0
VERTEX
  5
942C9
330
942C7
100
AcDbEntity
  8
DETAIL
 62
     5
370
     9
100
AcDbVertex
100
AcDb2dVertex
 10
-2.99973076639435
 20
-226.1911030521762
 30
0.0
  0
SEQEND
  5
942CA
330
942C7
100
AcDbEntity
  8
DETAIL
 62
     5
370
     9
  0
POLYLINE
  5
942CB
330
1E
100
AcDbEntity
  8
DETAIL
 62
     5
370
     9
100
AcDb2dPolyline
 66
     1
 10
0.0
 20
0.0
 30
0.0
  0
VERTEX
  5
942CC
330
942CB
100
AcDbEntity
  8
DETAIL
 62
     5
370
     9
100
AcDbVertex
100
AcDb2dVertex
 10
-2.99973076639435
 20
-225.615427596591
 30
0.0
  0
VERTEX
  5
942CD
330
942CB
100
AcDbEntity
  8
DETAIL
 62
     5
370
     9
100
AcDbVertex
100
AcDb2dVertex
 10
-2.99973076639435
 20
-21.59928452693532
 30
0.0
  0
SEQEND
  5
942CE
330
942CB
100
AcDbEntity
  8
DETAIL
 62
     5
370
     9
  0
POLYLINE
  5
942CF
330
1E
100
AcDbEntity
  8
DETAIL
 62
     5
370
     9
100
AcDb2dPolyline
 66
     1
 10
0.0
 20
0.0
 30
0.0
  0
VERTEX
  5
942D0
330
942CF
100
AcDbEntity
  8
DETAIL
 62
     5
370
     9
100
AcDbVertex
100
AcDb2dVertex
 10
-1.198979356254312
 20
-22.99954358691502
 30
0.0
  0
VERTEX
  5
942D1
330
942CF
100
AcDbEntity
  8
DETAIL
 62
     5
370
     9
100
AcDbVertex
100
AcDb2dVertex
 10
-1.198979356254312
 20
-133.6973517189628
 30
0.0
  0
SEQEND
  5
942D2
330
942CF
100
AcDbEntity
  8
DETAIL
 62
     5
370
     9
  0
POLYLINE
  5
942D3
330
1E
100
AcDbEntity
  8
DETAIL
 62
     5
370
     9
100
AcDb2dPolyline
 66
     1
 10
0.0
 20
0.0
 30
0.0
  0
VERTEX
  5
942D4
330
942D3
100
AcDbEntity
  8
DETAIL
 62
     5
370
     9
100
AcDbVertex
100
AcDb2dVertex
 10
-1.198979356254312
 20
-149.2965718213999
 30
0.0
  0
VERTEX
  5
942D5
330
942D3
100
AcDbEntity
  8
DETAIL
 62
     5
370
     9
100
AcDbVertex
100
AcDb2dVertex
 10
-1.198979356254312
 20
-251.119813983444
 30
0.0
  0
VERTEX
  5
942D6
330
942D3
100
AcDbEntity
  8
DETAIL
 62
     5
370
     9
100
AcDbVertex
100
AcDb2dVertex
 10
-1.198979356254312
 20
-284.6292242398236
 30
0.0
  0
VERTEX
  5
942D7
330
942D3
100
AcDbEntity
  8
DETAIL
 62
     5
370
     9
100
AcDbVertex
100
AcDb2dVertex
 10
-1.198979356254312
 20
-295.1436556608062
 30
0.0
  0
SEQEND
  5
942D8
330
942D3
100
AcDbEntity
  8
DETAIL
 62
     5
370
     9
  0
POLYLINE
  5
942D9
330
1E
100
AcDbEntity
  8
DETAIL
 62
     5
370
     9
100
AcDb2dPolyline
 66
     1
 10
0.0
 20
0.0
 30
0.0
  0
VERTEX
  5
942DA
330
942D9
100
AcDbEntity
  8
DETAIL
 62
     5
370
     9
100
AcDbVertex
100
AcDb2dVertex
 10
-0.5971211749811119
 20
-149.2965718213999
 30
0.0
  0
VERTEX
  5
942DB
330
942D9
100
AcDbEntity
  8
DETAIL
 62
     5
370
     9
100
AcDbVertex
100
AcDb2dVertex
 10
-0.5971211749811119
 20
-133.6973517189628
 30
0.0
  0
SEQEND
  5
942DC
330
942D9
100
AcDbEntity
  8
DETAIL
 62
     5
370
     9
  0
POLYLINE
  5
942E1
330
1E
100
AcDbEntity
  8
DETAIL
 62
     5
370
     9
100
AcDb2dPolyline
 66
     1
 10
0.0
 20
0.0
 30
0.0
  0
VERTEX
  5
942E2
330
942E1
100
AcDbEntity
  8
DETAIL
 62
     5
370
     9
100
AcDbVertex
100
AcDb2dVertex
 10
-0.5971211749811119
 20
-133.6973517189628
 30
0.0
  0
VERTEX
  5
942E3
330
942E1
100
AcDbEntity
  8
DETAIL
 62
     5
370
     9
100
AcDbVertex
100
AcDb2dVertex
 10
-1.198979356254312
 20
-133.6973517189628
 30
0.0
  0
SEQEND
  5
942E4
330
942E1
100
AcDbEntity
  8
DETAIL
 62
     5
370
     9
  0
POLYLINE
  5
942E5
330
1E
100
AcDbEntity
  8
DETAIL
 62
     5
370
     9
100
AcDb2dPolyline
 66
     1
 10
0.0
 20
0.0
 30
0.0
  0
VERTEX
  5
942E6
330
942E5
100
AcDbEntity
  8
DETAIL
 62
     5
370
     9
100
AcDbVertex
100
AcDb2dVertex
 10
-2.99973076639435
 20
-22.69637518421303
 30
0.0
  0
VERTEX
  5
942E7
330
942E5
100
AcDbEntity
  8
DETAIL
 62
     5
370
     9
100
AcDbVertex
100
AcDb2dVertex
 10
-1.4976691348254
 20
-22.69637518421303
 30
0.0
  0
SEQEND
  5
942E8
330
942E5
100
AcDbEntity
  8
DETAIL
 62
     5
370
     9
  0
POLYLINE
  5
942E9
330
1E
100
AcDbEntity
  8
DETAIL
 62
     5
370
     9
100
AcDb2dPolyline
 66
     1
 10
0.0
 20
0.0
 30
0.0
  0
VERTEX
  5
942EA
330
942E9
100
AcDbEntity
  8
DETAIL
 62
     5
370
     9
100
AcDbVertex
100
AcDb2dVertex
 10
-86.98185693897517
 20
-7.482833521349789
 30
0.0
  0
VERTEX
  5
942EB
330
942E9
100
AcDbEntity
  8
DETAIL
 62
     5
370
     9
100
AcDbVertex
100
AcDb2dVertex
 10
-225.3644523904906
 20
-7.482833521349789
 30
0.0
  0
SEQEND
  5
942EC
330
942E9
100
AcDbEntity
  8
DETAIL
 62
     5
370
     9
  0
POLYLINE
  5
942ED
330
1E
100
AcDbEntity
  8
DETAIL
 62
     5
370
     9
100
AcDb2dPolyline
 66
     1
 10
0.0
 20
0.0
 30
0.0
  0
VERTEX
  5
942EE
330
942ED
100
AcDbEntity
  8
DETAIL
 62
     5
370
     9
100
AcDbVertex
100
AcDb2dVertex
 10
-65.99881386696416
 20
-0.0000861273871351
 30
0.0
  0
VERTEX
  5
942EF
330
942ED
100
AcDbEntity
  8
DETAIL
 62
     5
370
     9
100
AcDbVertex
100
AcDb2dVertex
 10
-37.77659165179739
 20
-0.0000861273871351
 30
0.0
  0
SEQEND
  5
942F0
330
942ED
100
AcDbEntity
  8
DETAIL
 62
     5
370
     9
  0
POLYLINE
  5
942F1
330
1E
100
AcDbEntity
  8
DETAIL
 62
     5
370
     9
100
AcDb2dPolyline
 66
     1
 10
0.0
 20
0.0
 30
0.0
  0
VERTEX
  5
942F2
330
942F1
100
AcDbEntity
  8
DETAIL
 62
     5
370
     9
100
AcDbVertex
100
AcDb2dVertex
 10
-4.997886147839381
 20
-19.46246405220904
 30
0.0
  0
VERTEX
  5
942F3
330
942F1
100
AcDbEntity
  8
DETAIL
 62
     5
370
     9
100
AcDbVertex
100
AcDb2dVertex
 10
-3.491001382591093
 20
-19.49002481609102
 30
0.0
  0
SEQEND
  5
942F4
330
942F1
100
AcDbEntity
  8
DETAIL
 62
     5
370
     9
  0
POLYLINE
  5
942FD
330
1E
100
AcDbEntity
  8
DETAIL
 62
     5
370
     9
100
AcDb2dPolyline
 66
     1
 10
0.0
 20
0.0
 30
0.0
  0
VERTEX
  5
942FE
330
942FD
100
AcDbEntity
  8
DETAIL
 62
     5
370
     9
100
AcDbVertex
100
AcDb2dVertex
 10
-181.8322258388737
 20
-150.5140685658871
 30
0.0
  0
VERTEX
  5
942FF
330
942FD
100
AcDbEntity
  8
DETAIL
 62
     5
370
     9
100
AcDbVertex
100
AcDb2dVertex
 10
-181.8322258388737
 20
-150.5140685658871
 30
0.0
  0
SEQEND
  5
94300
330
942FD
100
AcDbEntity
  8
DETAIL
 62
     5
370
     9
  0
POLYLINE
  5
94305
330
1E
100
AcDbEntity
  8
DETAIL
 62
     5
370
     9
100
AcDb2dPolyline
 66
     1
 10
0.0
 20
0.0
 30
0.0
  0
VERTEX
  5
94306
330
94305
100
AcDbEntity
  8
DETAIL
 62
     5
370
     9
100
AcDbVertex
100
AcDb2dVertex
 10
-58.43820731503479
 20
-231.9699062191343
 30
0.0
  0
VERTEX
  5
94307
330
94305
100
AcDbEntity
  8
DETAIL
 62
     5
370
     9
100
AcDbVertex
100
AcDb2dVertex
 10
-56.49965208548474
 20
-229.2000494489934
 30
0.0
  0
VERTEX
  5
94308
330
94305
100
AcDbEntity
  8
DETAIL
 62
     5
370
     9
100
AcDbVertex
100
AcDb2dVertex
 10
-54.56109685593469
 20
-231.9699062191343
 30
0.0
  0
VERTEX
  5
94309
330
94305
100
AcDbEntity
  8
DETAIL
 62
     5
370
     9
100
AcDbVertex
100
AcDb2dVertex
 10
-58.43820731503479
 20
-231.9699062191343
 30
0.0
  0
SEQEND
  5
9430A
330
94305
100
AcDbEntity
  8
DETAIL
 62
     5
370
     9
  0
POLYLINE
  5
9430B
330
1E
100
AcDbEntity
  8
DETAIL
 62
     5
370
     9
100
AcDb2dPolyline
 66
     1
 10
0.0
 20
0.0
 30
0.0
  0
VERTEX
  5
9430C
330
9430B
100
AcDbEntity
  8
DETAIL
 62
     5
370
     9
100
AcDbVertex
100
AcDb2dVertex
 10
-13.25681355462871
 20
-231.9699062191343
 30
0.0
  0
VERTEX
  5
9430D
330
9430B
100
AcDbEntity
  8
DETAIL
 62
     5
370
     9
100
AcDbVertex
100
AcDb2dVertex
 10
-15.19984740830955
 20
-229.2000494489934
 30
0.0
  0
VERTEX
  5
9430E
330
9430B
100
AcDbEntity
  8
DETAIL
 62
     5
370
     9
100
AcDbVertex
100
AcDb2dVertex
 10
-17.1384026378596
 20
-231.9699062191343
 30
0.0
  0
VERTEX
  5
9430F
330
9430B
100
AcDbEntity
  8
DETAIL
 62
     5
370
     9
100
AcDbVertex
100
AcDb2dVertex
 10
-13.25681355462871
 20
-231.9699062191343
 30
0.0
  0
SEQEND
  5
94310
330
9430B
100
AcDbEntity
  8
DETAIL
 62
     5
370
     9
  0
POLYLINE
  5
94311
330
1E
100
AcDbEntity
  8
DETAIL
 62
     5
370
     9
100
AcDb2dPolyline
 66
     1
 10
0.0
 20
0.0
 30
0.0
  0
VERTEX
  5
94312
330
94311
100
AcDbEntity
  8
DETAIL
 62
     5
370
     9
100
AcDbVertex
100
AcDb2dVertex
 10
-65.99881386696416
 20
-227.2018940675485
 30
0.0
  0
VERTEX
  5
94313
330
94311
100
AcDbEntity
  8
DETAIL
 62
     5
370
     9
100
AcDbVertex
100
AcDb2dVertex
 10
-65.99881386696416
 20
-227.1970709338692
 30
0.0
  0
SEQEND
  5
94314
330
94311
100
AcDbEntity
  8
DETAIL
 62
     5
370
     9
  0
POLYLINE
  5
94315
330
1E
100
AcDbEntity
  8
DETAIL
 62
     5
370
     9
100
AcDb2dPolyline
 66
     1
 10
0.0
 20
0.0
 30
0.0
  0
VERTEX
  5
94316
330
94315
100
AcDbEntity
  8
DETAIL
 62
     5
370
     9
100
AcDbVertex
100
AcDb2dVertex
 10
-3.004209390525147
 20
-300.4859652297831
 30
0.0
  0
VERTEX
  5
94317
330
94315
100
AcDbEntity
  8
DETAIL
 62
     5
370
     9
100
AcDbVertex
100
AcDb2dVertex
 10
-4.749839272901226
 20
-293.976801819952
 30
0.0
  0
SEQEND
  5
94318
330
94315
100
AcDbEntity
  8
DETAIL
 62
     5
370
     9
  0
SPLINE
  5
9431C
330
1E
100
AcDbEntity
  8
DETAIL
 62
     5
370
     9
100
AcDbSpline
210
0.0
220
0.0
230
1.0
 70
     8
 71
     3
 72
     8
 73
     4
 74
     0
 42
0.000000001
 43
0.0000000001
 40
0.0
 40
0.0
 40
0.0
 40
0.0
 40
1.0
 40
1.0
 40
1.0
 40
1.0
 10
-43.47719115124028
 20
-274.0000711391823
 30
0.0
 10
-43.47719115124028
 20
-285.0333339402435
 30
0.0
 10
-34.5337232715317
 20
-293.976801819952
 30
0.0
 10
-23.50011596092213
 20
-293.976801819952
 30
0.0
  0
SPLINE
  5
9431D
330
1E
100
AcDbEntity
  8
DETAIL
 62
     5
370
     9
100
AcDbSpline
210
0.0
220
0.0
230
1.0
 70
     8
 71
     3
 72
     8
 73
     4
 74
     0
 42
0.000000001
 43
0.0000000001
 40
0.0
 40
0.0
 40
0.0
 40
0.0
 40
1.0
 40
1.0
 40
1.0
 40
1.0
 10
-23.50011596092213
 20
-237.0224832578017
 30
0.0
 10
-34.5337232715317
 20
-237.0224832578017
 30
0.0
 10
-43.47719115124028
 20
-245.9659511375103
 30
0.0
 10
-43.47719115124028
 20
-256.9995584481199
 30
0.0
  0
SPLINE
  5
9431E
330
1E
100
AcDbEntity
  8
DETAIL
 62
     5
370
     9
100
AcDbSpline
210
0.0
220
0.0
230
1.0
 70
     8
 71
     3
 72
     8
 73
     4
 74
     0
 42
0.000000001
 43
0.0000000001
 40
0.0
 40
0.0
 40
0.0
 40
0.0
 40
1.0
 40
1.0
 40
1.0
 40
1.0
 10
-2.508115640649293
 20
-241.1614209737809
 30
0.0
 10
-3.013511148335282
 20
-241.6664719719185
 30
0.0
 10
-3.298076035417125
 20
-242.3510124448376
 30
0.0
 10
-3.298076035417125
 20
-243.0675923057696
 30
0.0
  0
SPLINE
  5
9431F
330
1E
100
AcDbEntity
  8
DETAIL
 62
     5
370
     9
100
AcDbSpline
210
0.0
220
0.0
230
1.0
 70
     8
 71
     3
 72
     8
 73
     4
 74
     0
 42
0.000000001
 43
0.0000000001
 40
0.0
 40
0.0
 40
0.0
 40
0.0
 40
1.0
 40
1.0
 40
1.0
 40
1.0
 10
-1.272359890090001
 20
-239.9256652232217
 30
0.0
 10
-1.249622259887473
 20
-239.8981044593397
 30
0.0
 10
-1.22206149600538
 20
-239.8705436954577
 30
0.0
 10
-1.198979356254312
 20
-239.8429829315757
 30
0.0
  0
SPLINE
  5
94320
330
1E
100
AcDbEntity
  8
DETAIL
 62
     5
370
     9
100
AcDbSpline
210
0.0
220
0.0
230
1.0
 70
     8
 71
     3
 72
     8
 73
     4
 74
     0
 42
0.000000001
 43
0.0000000001
 40
0.0
 40
0.0
 40
0.0
 40
0.0
 40
1.0
 40
1.0
 40
1.0
 40
1.0
 10
-229.2918612436755
 20
-150.1326964956699
 30
0.0
 10
-229.0207322289864
 20
-150.1282178715391
 30
0.0
 10
-228.8002461179303
 20
-149.9077317604831
 30
0.0
 10
-228.8002461179303
 20
-149.636602745794
 30
0.0
  0
SPLINE
  5
94321
330
1E
100
AcDbEntity
  8
DETAIL
 62
     5
370
     9
100
AcDbSpline
210
0.0
220
0.0
230
1.0
 70
     8
 71
     3
 72
     8
 73
     4
 74
     0
 42
0.000000001
 43
0.0000000001
 40
0.0
 40
0.0
 40
0.0
 40
0.0
 40
1.0
 40
1.0
 40
1.0
 40
1.0
 10
-228.8002461179303
 20
-164.8639247905983
 30
0.0
 10
-228.8002461179303
 20
-164.5883171517782
 30
0.0
 10
-229.0207322289864
 20
-164.3678310407223
 30
0.0
 10
-229.2918612436755
 20
-164.3633524165915
 30
0.0
  0
SPLINE
  5
94325
330
1E
100
AcDbEntity
  8
DETAIL
 62
     5
370
     9
100
AcDbSpline
210
0.0
220
0.0
230
1.0
 70
     8
 71
     3
 72
     8
 73
     4
 74
     0
 42
0.000000001
 43
0.0000000001
 40
0.0
 40
0.0
 40
0.0
 40
0.0
 40
1.0
 40
1.0
 40
1.0
 40
1.0
 10
-3.491001382591093
 20
-226.6920199357315
 30
0.0
 10
-3.215393743771073
 20
-226.6871968020522
 30
0.0
 10
-2.99973076639435
 20
-226.4667106909962
 30
0.0
 10
-2.99973076639435
 20
-226.1911030521762
 30
0.0
  0
SPLINE
  5
94327
330
1E
100
AcDbEntity
  8
DETAIL
 62
     5
370
     9
100
AcDbSpline
210
0.0
220
0.0
230
1.0
 70
     8
 71
     3
 72
     8
 73
     4
 74
     0
 42
0.000000001
 43
0.0000000001
 40
0.0
 40
0.0
 40
0.0
 40
0.0
 40
1.0
 40
1.0
 40
1.0
 40
1.0
 10
-1.378124321487348
 20
-295.4743848273901
 30
0.0
 10
-1.267881265959204
 20
-295.4010042935543
 30
0.0
 10
-1.198979356254312
 20
-295.2769808560853
 30
0.0
 10
-1.198979356254312
 20
-295.1436556608062
 30
0.0
  0
SPLINE
  5
94328
330
1E
100
AcDbEntity
  8
DETAIL
 62
     5
370
     9
100
AcDbSpline
210
0.0
220
0.0
230
1.0
 70
     8
 71
     3
 72
     8
 73
     4
 74
     0
 42
0.000000001
 43
0.0000000001
 40
0.0
 40
0.0
 40
0.0
 40
0.0
 40
1.0
 40
1.0
 40
1.0
 40
1.0
 10
-86.20085379246916
 20
-150.4865078020051
 30
0.0
 10
-86.16881440445627
 20
-150.477206044195
 30
0.0
 10
-86.14125364057418
 20
-150.4634256622539
 30
0.0
 10
-86.11817150082311
 20
-150.4451666561821
 30
0.0
  0
SPLINE
  5
9432E
330
1E
100
AcDbEntity
  8
DETAIL
 62
     5
370
     9
100
AcDbSpline
210
0.0
220
0.0
230
1.0
 70
     8
 71
     3
 72
     8
 73
     4
 74
     0
 42
0.000000001
 43
0.0000000001
 40
0.0
 40
0.0
 40
0.0
 40
0.0
 40
1.0
 40
1.0
 40
1.0
 40
1.0
 10
-225.3644523904906
 20
-7.482833521349789
 30
0.0
 10
-225.4195739182547
 20
-7.482833521349789
 30
0.0
 10
-225.4746954460187
 20
-7.487312145480586
 30
0.0
 10
-225.5253383496519
 20
-7.491963024385654
 30
0.0
  0
SPLINE
  5
9432F
330
1E
100
AcDbEntity
  8
DETAIL
 62
     5
370
     9
100
AcDbSpline
210
0.0
220
0.0
230
1.0
 70
     8
 71
     3
 72
     8
 73
     4
 74
     0
 42
0.000000001
 43
0.0000000001
 40
0.0
 40
0.0
 40
0.0
 40
0.0
 40
1.0
 40
1.0
 40
1.0
 40
1.0
 10
-226.1912753069506
 20
-7.91915486455673
 30
0.0
 10
-226.2050556888917
 20
-7.942064749533642
 30
0.0
 10
-226.2188360708327
 20
-7.965146889284824
 30
0.0
 10
-226.2326164527737
 20
-7.988056774261735
 30
0.0
  0
SPLINE
  5
94330
330
1E
100
AcDbEntity
  8
DETAIL
 62
     5
370
     9
100
AcDbSpline
210
0.0
220
0.0
230
1.0
 70
     8
 71
     3
 72
    14
 73
    10
 74
     0
 42
0.000000001
 43
0.0000000001
 40
0.0
 40
0.0
 40
0.0
 40
0.0
 40
1.0
 40
1.0
 40
1.0
 40
2.0
 40
2.0
 40
2.0
 40
3.0
 40
3.0
 40
3.0
 40
3.0
 10
-226.2326164527737
 20
-7.988056774261735
 30
0.0
 10
-226.2463968347147
 20
-8.010966659238647
 30
0.0
 10
-226.2556985925248
 20
-8.034048798989715
 30
0.0
 10
-226.2694789744659
 20
-8.056958683966627
 30
0.0
 10
-226.2694789744659
 20
-8.056958683966627
 30
0.0
 10
-226.2694789744659
 20
-8.070739065907673
 30
0.0
 10
-226.2694789744659
 20
-8.070739065907673
 30
0.0
 10
-226.2694789744659
 20
-8.070739065907673
 30
0.0
 10
-227.0549607451028
 20
-9.761075165745523
 30
0.0
 10
-227.0549607451028
 20
-9.761075165745523
 30
0.0
  0
SPLINE
  5
94331
330
1E
100
AcDbEntity
  8
DETAIL
 62
     5
370
     9
100
AcDbSpline
210
0.0
220
0.0
230
1.0
 70
     8
 71
     3
 72
     8
 73
     4
 74
     0
 42
0.000000001
 43
0.0000000001
 40
0.0
 40
0.0
 40
0.0
 40
0.0
 40
1.0
 40
1.0
 40
1.0
 40
1.0
 10
-228.8002461179303
 20
-8.061609562871808
 30
0.0
 10
-228.8002461179303
 20
-7.903824189647366
 30
0.0
 10
-228.8750046899603
 20
-7.761714000880829
 30
0.0
 10
-228.9907598982647
 20
-7.669557696650372
 30
0.0
  0
SPLINE
  5
94334
330
1E
100
AcDbEntity
  8
DETAIL
 62
     5
370
     9
100
AcDbSpline
210
0.0
220
0.0
230
1.0
 70
     8
 71
     3
 72
     8
 73
     4
 74
     0
 42
0.000000001
 43
0.0000000001
 40
0.0
 40
0.0
 40
0.0
 40
0.0
 40
1.0
 40
1.0
 40
1.0
 40
1.0
 10
-227.2568433405385
 20
-10.18826700591648
 30
0.0
 10
-227.2568433405385
 20
-10.19756876372662
 30
0.0
 10
-227.2616664742178
 20
-10.2066982667626
 30
0.0
 10
-227.2661450983486
 20
-10.21582776979846
 30
0.0
  0
SPLINE
  5
94335
330
1E
100
AcDbEntity
  8
DETAIL
 62
     5
370
     9
100
AcDbSpline
210
0.0
220
0.0
230
1.0
 70
     8
 71
     3
 72
     8
 73
     4
 74
     0
 42
0.000000001
 43
0.0000000001
 40
0.0
 40
0.0
 40
0.0
 40
0.0
 40
1.0
 40
1.0
 40
1.0
 40
1.0
 10
-86.80719059787316
 20
-7.496613903290835
 30
0.0
 10
-86.86713525931645
 20
-7.487312145480586
 30
0.0
 10
-86.92673541121122
 20
-7.482833521349789
 30
0.0
 10
-86.98185693897517
 20
-7.482833521349789
 30
0.0
  0
SPLINE
  5
94336
330
1E
100
AcDbEntity
  8
DETAIL
 62
     5
370
     9
100
AcDbSpline
210
0.0
220
0.0
230
1.0
 70
     8
 71
     3
 72
     8
 73
     4
 74
     0
 42
0.000000001
 43
0.0000000001
 40
0.0
 40
0.0
 40
0.0
 40
0.0
 40
1.0
 40
1.0
 40
1.0
 40
1.0
 10
-85.98036768141311
 20
-8.479499645232522
 30
0.0
 10
-85.98036768141311
 20
-8.424378117468563
 30
0.0
 10
-85.98966943922324
 20
-8.364777965573807
 30
0.0
 10
-85.99897119703337
 20
-8.309656437809735
 30
0.0
  0
SPLINE
  5
94337
330
1E
100
AcDbEntity
  8
DETAIL
 62
     5
370
     9
100
AcDbSpline
210
0.0
220
0.0
230
1.0
 70
     8
 71
     3
 72
     8
 73
     4
 74
     0
 42
0.000000001
 43
0.0000000001
 40
0.0
 40
0.0
 40
0.0
 40
0.0
 40
1.0
 40
1.0
 40
1.0
 40
1.0
 10
-85.99897119703337
 20
-8.309656437809735
 30
0.0
 10
-86.07235173086928
 20
-7.891594100674637
 30
0.0
 10
-86.39377913964313
 20
-7.569994437126638
 30
0.0
 10
-86.80719059787316
 20
-7.496613903290835
 30
0.0
  0
SPLINE
  5
94338
330
1E
100
AcDbEntity
  8
DETAIL
 62
     5
370
     9
100
AcDbSpline
210
0.0
220
0.0
230
1.0
 70
     8
 71
     3
 72
     8
 73
     4
 74
     0
 42
0.000000001
 43
0.0000000001
 40
0.0
 40
0.0
 40
0.0
 40
0.0
 40
1.0
 40
1.0
 40
1.0
 40
1.0
 10
-2.99973076639435
 20
-19.99076944487217
 30
0.0
 10
-2.99973076639435
 20
-19.71516180605215
 30
0.0
 10
-3.215393743771073
 20
-19.49467569499609
 30
0.0
 10
-3.491001382591093
 20
-19.49002481609102
 30
0.0
  0
SPLINE
  5
9433A
330
1E
100
AcDbEntity
  8
DETAIL
 62
     5
370
     9
100
AcDbSpline
210
0.0
220
0.0
230
1.0
 70
     8
 71
     3
 72
     8
 73
     4
 74
     0
 42
0.000000001
 43
0.0000000001
 40
0.0
 40
0.0
 40
0.0
 40
0.0
 40
1.0
 40
1.0
 40
1.0
 40
1.0
 10
-1.198979356254312
 20
-22.99954358691502
 30
0.0
 10
-1.198979356254312
 20
-22.83417900362303
 30
0.0
 10
-1.332304551533525
 20
-22.69637518421303
 30
0.0
 10
-1.4976691348254
 20
-22.69637518421303
 30
0.0
  0
SPLINE
  5
9433B
330
1E
100
AcDbEntity
  8
DETAIL
 62
     5
370
     9
100
AcDbSpline
210
0.0
220
0.0
230
1.0
 70
     8
 71
     3
 72
     8
 73
     4
 74
     0
 42
0.000000001
 43
0.0000000001
 40
0.0
 40
0.0
 40
0.0
 40
0.0
 40
1.0
 40
1.0
 40
1.0
 40
1.0
 10
-226.1912753069506
 20
-7.91915486455673
 30
0.0
 10
-226.0441697297305
 20
-7.698668753500669
 30
0.0
 10
-225.7871656065308
 20
-7.537955049113747
 30
0.0
 10
-225.5253383496519
 20
-7.491963024385654
 30
0.0
  0
SPLINE
  5
9433C
330
1E
100
AcDbEntity
  8
DETAIL
 62
     5
370
     9
100
AcDbSpline
210
0.0
220
0.0
230
1.0
 70
     8
 71
     3
 72
    14
 73
    10
 74
     0
 42
0.000000001
 43
0.0000000001
 40
0.0
 40
0.0
 40
0.0
 40
0.0
 40
1.0
 40
1.0
 40
1.0
 40
2.0
 40
2.0
 40
2.0
 40
3.0
 40
3.0
 40
3.0
 40
3.0
 10
-86.793410215932
 20
-150.5002881839461
 30
0.0
 10
-86.793410215932
 20
-150.5002881839461
 30
0.0
 10
-86.29283784192535
 20
-150.5002881839461
 30
0.0
 10
-86.29283784192535
 20
-150.5002881839461
 30
0.0
 10
-86.29283784192535
 20
-150.5002881839461
 30
0.0
 10
-86.28353608411499
 20
-150.5002881839461
 30
0.0
 10
-86.28353608411499
 20
-150.5002881839461
 30
0.0
 10
-86.25597532023311
 20
-150.5002881839461
 30
0.0
 10
-86.22841455635102
 20
-150.4954650502668
 30
0.0
 10
-86.20085379246916
 20
-150.4865078020051
 30
0.0
  0
SPLINE
  5
9433D
330
1E
100
AcDbEntity
  8
DETAIL
 62
     5
370
     9
100
AcDbSpline
210
0.0
220
0.0
230
1.0
 70
     8
 71
     3
 72
     8
 73
     4
 74
     0
 42
0.000000001
 43
0.0000000001
 40
0.0
 40
0.0
 40
0.0
 40
0.0
 40
1.0
 40
1.0
 40
1.0
 40
1.0
 10
-86.11817150082311
 20
-150.4451666561821
 30
0.0
 10
-86.09061073694102
 20
-150.4265631405618
 30
0.0
 10
-86.06304997305915
 20
-150.4038255103591
 30
0.0
 10
-86.04479096698719
 20
-150.3762647464771
 30
0.0
  0
SPLINE
  5
9433E
330
1E
100
AcDbEntity
  8
DETAIL
 62
     5
370
     9
100
AcDbSpline
210
0.0
220
0.0
230
1.0
 70
     8
 71
     3
 72
     8
 73
     4
 74
     0
 42
0.000000001
 43
0.0000000001
 40
0.0
 40
0.0
 40
0.0
 40
0.0
 40
1.0
 40
1.0
 40
1.0
 40
1.0
 10
-86.04479096698719
 20
-150.3762647464771
 30
0.0
 10
-86.0079284452952
 20
-150.3301004669748
 30
0.0
 10
-85.98966943922324
 20
-150.2660216909491
 30
0.0
 10
-85.98519081509243
 20
-150.2060770295057
 30
0.0
  0
POLYLINE
  5
94341
330
1E
100
AcDbEntity
  8
DETAIL
 62
     5
370
     9
100
AcDb2dPolyline
 66
     1
 10
0.0
 20
0.0
 30
0.0
  0
VERTEX
  5
94342
330
94341
100
AcDbEntity
  8
DETAIL
 62
     5
370
     9
100
AcDbVertex
100
AcDb2dVertex
 10
-87.78111909155313
 20
-150.5002881839461
 30
0.0
  0
VERTEX
  5
94343
330
94341
100
AcDbEntity
  8
DETAIL
 62
     5
370
     9
100
AcDbVertex
100
AcDb2dVertex
 10
-87.82693886150696
 20
-150.5002881839461
 30
0.0
  0
SEQEND
  5
94344
330
94341
100
AcDbEntity
  8
DETAIL
 62
     5
370
     9
  0
SPLINE
  5
94345
330
1E
100
AcDbEntity
  8
DETAIL
 62
     5
370
     9
100
AcDbSpline
210
0.0
220
0.0
230
1.0
 70
     8
 71
     3
 72
     8
 73
     4
 74
     0
 42
0.000000001
 43
0.0000000001
 40
0.0
 40
0.0
 40
0.0
 40
0.0
 40
1.0
 40
1.0
 40
1.0
 40
1.0
 10
-227.2844041044205
 20
-10.30781181925465
 30
0.0
 10
-227.2844041044205
 20
-10.2756001764676
 30
0.0
 10
-227.2754468561587
 20
-10.24338853368044
 30
0.0
 10
-227.2661450983486
 20
-10.21582776979846
 30
0.0
  0
SPLINE
  5
94346
330
1E
100
AcDbEntity
  8
DETAIL
 62
     5
370
     9
100
AcDbSpline
210
0.0
220
0.0
230
1.0
 70
     8
 71
     3
 72
     8
 73
     4
 74
     0
 42
0.000000001
 43
0.0000000001
 40
0.0
 40
0.0
 40
0.0
 40
0.0
 40
1.0
 40
1.0
 40
1.0
 40
1.0
 10
-227.2568433405385
 20
-304.3076096515707
 30
0.0
 10
-227.2706237224794
 20
-304.2707471298785
 30
0.0
 10
-227.2844041044205
 20
-304.2294059840555
 30
0.0
 10
-227.2844041044205
 20
-304.1880648382325
 30
0.0
  0
SPLINE
  5
94347
330
1E
100
AcDbEntity
  8
DETAIL
 62
     5
370
     9
100
AcDbSpline
210
0.0
220
0.0
230
1.0
 70
     8
 71
     3
 72
    17
 73
    13
 74
     0
 42
0.000000001
 43
0.0000000001
 40
0.0
 40
0.0
 40
0.0
 40
0.0
 40
1.0
 40
1.0
 40
1.0
 40
2.0
 40
2.0
 40
2.0
 40
3.0
 40
3.0
 40
3.0
 40
4.0
 40
4.0
 40
4.0
 40
4.0
 10
-106.4948777674303
 20
-163.9957607283153
 30
0.0
 10
-106.4397562396664
 20
-163.9957607283153
 30
0.0
 10
-106.375332954092
 20
-163.9957607283153
 30
0.0
 10
-106.3157328021973
 20
-163.9957607283153
 30
0.0
 10
-106.2606112744333
 20
-163.9912821041845
 30
0.0
 10
-106.2054897466694
 20
-163.9957607283153
 30
0.0
 10
-106.1548468430362
 20
-163.9912821041845
 30
0.0
 10
-106.1135056972132
 20
-163.9864589705051
 30
0.0
 10
-106.0769876850695
 20
-163.9819803463743
 30
0.0
 10
-106.0356465392465
 20
-163.9864589705051
 30
0.0
 10
-106.0170430236262
 20
-163.9864589705051
 30
0.0
 10
-105.9943053934234
 20
-163.9912821041845
 30
0.0
 10
-105.9805250114825
 20
-163.9819803463743
 30
0.0
  0
POLYLINE
  5
94348
330
1E
100
AcDbEntity
  8
DETAIL
 62
     5
370
     9
100
AcDb2dPolyline
 66
     1
 10
0.0
 20
0.0
 30
0.0
  0
VERTEX
  5
94349
330
94348
100
AcDbEntity
  8
DETAIL
 62
     5
370
     9
100
AcDbVertex
100
AcDb2dVertex
 10
-2.34929673877923
 20
-265.0610818836046
 30
0.0
  0
VERTEX
  5
9434A
330
94348
100
AcDbEntity
  8
DETAIL
 62
     5
370
     9
100
AcDbVertex
100
AcDb2dVertex
 10
-2.34929673877923
 20
-272.465625610052
 30
0.0
  0
SEQEND
  5
9434B
330
94348
100
AcDbEntity
  8
DETAIL
 62
     5
370
     9
  0
POLYLINE
  5
9434C
330
1E
100
AcDbEntity
  8
DETAIL
 62
     5
370
     9
100
AcDb2dPolyline
 66
     1
 10
0.0
 20
0.0
 30
0.0
  0
VERTEX
  5
9434D
330
9434C
100
AcDbEntity
  8
DETAIL
 62
     5
370
     9
100
AcDbVertex
100
AcDb2dVertex
 10
-1.272359890090001
 20
-266.1404302991333
 30
0.0
  0
VERTEX
  5
9434E
330
9434C
100
AcDbEntity
  8
DETAIL
 62
     5
370
     9
100
AcDbVertex
100
AcDb2dVertex
 10
-2.507771131100753
 20
-264.9050190581227
 30
0.0
  0
SEQEND
  5
9434F
330
9434C
100
AcDbEntity
  8
DETAIL
 62
     5
370
     9
  0
SPLINE
  5
94350
330
1E
100
AcDbEntity
  8
DETAIL
 62
     5
370
     9
100
AcDbSpline
210
0.0
220
0.0
230
1.0
 70
     8
 71
     3
 72
    14
 73
    10
 74
     0
 42
0.000000001
 43
0.0000000001
 40
0.0
 40
0.0
 40
0.0
 40
0.0
 40
1.0
 40
1.0
 40
1.0
 40
2.0
 40
2.0
 40
2.0
 40
3.0
 40
3.0
 40
3.0
 40
3.0
 10
-2.507771131100753
 20
-264.9050190581227
 30
0.0
 10
-3.013166638786742
 20
-264.3996235504366
 30
0.0
 10
-3.298076035417125
 20
-263.7106044533866
 30
0.0
 10
-3.298076035417125
 20
-262.9940245924546
 30
0.0
 10
-3.298076035417125
 20
-262.9940245924546
 30
0.0
 10
-3.298076035417125
 20
-251.491884295851
 30
0.0
 10
-3.298076035417125
 20
-251.491884295851
 30
0.0
 10
-3.298076035417125
 20
-251.491884295851
 30
0.0
 10
-3.298076035417125
 20
-243.0675923057696
 30
0.0
 10
-3.298076035417125
 20
-243.0675923057696
 30
0.0
  0
SPLINE
  5
94351
330
1E
100
AcDbEntity
  8
DETAIL
 62
     5
370
     9
100
AcDbSpline
210
0.0
220
0.0
230
1.0
 70
     8
 71
     3
 72
     8
 73
     4
 74
     0
 42
0.000000001
 43
0.0000000001
 40
0.0
 40
0.0
 40
0.0
 40
0.0
 40
1.0
 40
1.0
 40
1.0
 40
1.0
 10
-1.272359890090001
 20
-266.1404302991333
 30
0.0
 10
-1.24686618349915
 20
-266.1635124388845
 30
0.0
 10
-1.22171698645684
 20
-266.1910732027665
 30
0.0
 10
-1.19656778941453
 20
-266.2186339666485
 30
0.0
  0
SPLINE
  5
94352
330
1E
100
AcDbEntity
  8
DETAIL
 62
     5
370
     9
100
AcDbSpline
210
0.0
220
0.0
230
1.0
 70
     8
 71
     3
 72
     8
 73
     4
 74
     0
 42
0.000000001
 43
0.0000000001
 40
0.0
 40
0.0
 40
0.0
 40
0.0
 40
1.0
 40
1.0
 40
1.0
 40
1.0
 10
-1.198634846705772
 20
-273.664518838919
 30
0.0
 10
-1.841834173801998
 20
-273.636958075037
 30
0.0
 10
-2.34929673877923
 20
-273.1088249371481
 30
0.0
 10
-2.34929673877923
 20
-272.465625610052
 30
0.0
  0
SPLINE
  5
94353
330
1E
100
AcDbEntity
  8
DETAIL
 62
     5
370
     9
100
AcDbSpline
210
0.0
220
0.0
230
1.0
 70
     8
 71
     3
 72
     8
 73
     4
 74
     0
 42
0.000000001
 43
0.0000000001
 40
0.0
 40
0.0
 40
0.0
 40
0.0
 40
1.0
 40
1.0
 40
1.0
 40
1.0
 10
-227.0825215089848
 20
-163.6832905678032
 30
0.0
 10
-227.0825215089848
 20
-163.7935336233312
 30
0.0
 10
-226.9905374595286
 20
-163.8810390486565
 30
0.0
 10
-226.8802944040007
 20
-163.8810390486565
 30
0.0
  0
SPLINE
  5
94354
330
1E
100
AcDbEntity
  8
DETAIL
 62
     5
370
     9
100
AcDbSpline
210
0.0
220
0.0
230
1.0
 70
     8
 71
     3
 72
     8
 73
     4
 74
     0
 42
0.000000001
 43
0.0000000001
 40
0.0
 40
0.0
 40
0.0
 40
0.0
 40
1.0
 40
1.0
 40
1.0
 40
1.0
 10
-226.8802944040007
 20
-150.615009863605
 30
0.0
 10
-226.9905374595286
 20
-150.615009863605
 30
0.0
 10
-227.0825215089848
 20
-150.7069939130611
 30
0.0
 10
-227.0825215089848
 20
-150.8172369685891
 30
0.0
  0
SPLINE
  5
94355
330
1E
100
AcDbEntity
  8
DETAIL
 62
     5
370
     9
100
AcDbSpline
210
0.0
220
0.0
230
1.0
 70
     8
 71
     3
 72
     8
 73
     4
 74
     0
 42
0.000000001
 43
0.0000000001
 40
0.0
 40
0.0
 40
0.0
 40
0.0
 40
1.0
 40
1.0
 40
1.0
 40
1.0
 10
-86.21945730808944
 20
-150.8172369685891
 30
0.0
 10
-86.21945730808944
 20
-150.7069939130611
 30
0.0
 10
-86.30661822386628
 20
-150.615009863605
 30
0.0
 10
-86.4168612793942
 20
-150.615009863605
 30
0.0
  0
SPLINE
  5
94356
330
1E
100
AcDbEntity
  8
DETAIL
 62
     5
370
     9
100
AcDbSpline
210
0.0
220
0.0
230
1.0
 70
     8
 71
     3
 72
     8
 73
     4
 74
     0
 42
0.000000001
 43
0.0000000001
 40
0.0
 40
0.0
 40
0.0
 40
0.0
 40
1.0
 40
1.0
 40
1.0
 40
1.0
 10
-86.4168612793942
 20
-163.8810390486565
 30
0.0
 10
-86.30661822386628
 20
-163.8810390486565
 30
0.0
 10
-86.21945730808944
 20
-163.7935336233312
 30
0.0
 10
-86.21945730808944
 20
-163.6832905678032
 30
0.0
  0
SPLINE
  5
94357
330
1E
100
AcDbEntity
  8
DETAIL
 62
     5
370
     9
100
AcDbSpline
210
0.0
220
0.0
230
1.0
 70
     8
 71
     3
 72
     8
 73
     4
 74
     0
 42
0.000000001
 43
0.0000000001
 40
0.0
 40
0.0
 40
0.0
 40
0.0
 40
1.0
 40
1.0
 40
1.0
 40
1.0
 10
-153.348176366828
 20
-150.6012294816639
 30
0.0
 10
-153.9224737842191
 20
-150.6012294816639
 30
0.0
 10
-154.5057284498721
 20
-150.5967508575331
 30
0.0
 10
-155.084504491394
 20
-150.5967508575331
 30
0.0
  0
SPLINE
  5
94358
330
1E
100
AcDbEntity
  8
DETAIL
 62
     5
370
     9
100
AcDbSpline
210
0.0
220
0.0
230
1.0
 70
     8
 71
     3
 72
     8
 73
     4
 74
     0
 42
0.000000001
 43
0.0000000001
 40
0.0
 40
0.0
 40
0.0
 40
0.0
 40
1.0
 40
1.0
 40
1.0
 40
1.0
 10
-158.212651192001
 20
-150.5967508575331
 30
0.0
 10
-158.7959058576537
 20
-150.5967508575331
 30
0.0
 10
-159.3746818991756
 20
-150.6012294816639
 30
0.0
 10
-159.9489793165667
 20
-150.6012294816639
 30
0.0
  0
SPLINE
  5
94359
330
1E
100
AcDbEntity
  8
DETAIL
 62
     5
370
     9
100
AcDbSpline
210
0.0
220
0.0
230
1.0
 70
     8
 71
     3
 72
     8
 73
     4
 74
     0
 42
0.000000001
 43
0.0000000001
 40
0.0
 40
0.0
 40
0.0
 40
0.0
 40
1.0
 40
1.0
 40
1.0
 40
1.0
 10
-227.2523647164077
 20
-304.3120882757015
 30
0.0
 10
-227.2385843344666
 20
-304.3534294215245
 30
0.0
 10
-227.2248039525256
 20
-304.3947705673475
 30
0.0
 10
-227.2065449464538
 20
-304.4316330890397
 30
0.0
  0
SPLINE
  5
9435A
330
1E
100
AcDbEntity
  8
DETAIL
 62
     5
370
     9
100
AcDbSpline
210
0.0
220
0.0
230
1.0
 70
     8
 71
     3
 72
     8
 73
     4
 74
     0
 42
0.000000001
 43
0.0000000001
 40
0.0
 40
0.0
 40
0.0
 40
0.0
 40
1.0
 40
1.0
 40
1.0
 40
1.0
 10
-227.2065449464538
 20
-10.06424356844752
 30
0.0
 10
-227.2248039525256
 20
-10.10558471427055
 30
0.0
 10
-227.2385843344666
 20
-10.14244723596266
 30
0.0
 10
-227.2523647164077
 20
-10.18378838178569
 30
0.0
  0
SPLINE
  5
9435D
330
1E
100
AcDbEntity
  8
DETAIL
 62
     5
370
     9
100
AcDbSpline
210
0.0
220
0.0
230
1.0
 70
     8
 71
     3
 72
     8
 73
     4
 74
     0
 42
0.000000001
 43
0.0000000001
 40
0.0
 40
0.0
 40
0.0
 40
0.0
 40
1.0
 40
1.0
 40
1.0
 40
1.0
 10
-226.3015183624787
 20
-163.9819803463743
 30
0.0
 10
-226.8527336401187
 20
-163.9819803463743
 30
0.0
 10
-227.3030076200408
 20
-164.4274311926171
 30
0.0
 10
-227.3030076200408
 20
-164.9786464702571
 30
0.0
  0
SPLINE
  5
9435E
330
1E
100
AcDbEntity
  8
DETAIL
 62
     5
370
     9
100
AcDbSpline
210
0.0
220
0.0
230
1.0
 70
     8
 71
     3
 72
     8
 73
     4
 74
     0
 42
0.000000001
 43
0.0000000001
 40
0.0
 40
0.0
 40
0.0
 40
0.0
 40
1.0
 40
1.0
 40
1.0
 40
1.0
 10
-227.3030076200408
 20
-149.5170579324558
 30
0.0
 10
-227.3030076200408
 20
-150.0682732100958
 30
0.0
 10
-226.8527336401187
 20
-150.5140685658871
 30
0.0
 10
-226.3015183624787
 20
-150.5140685658871
 30
0.0
  0
POLYLINE
  5
94360
330
1E
100
AcDbEntity
  8
DETAIL
 62
     5
370
     9
100
AcDb2dPolyline
 66
     1
 10
0.0
 20
0.0
 30
0.0
  0
VERTEX
  5
94361
330
94360
100
AcDbEntity
  8
DETAIL
 62
     5
370
     9
100
AcDbVertex
100
AcDb2dVertex
 10
-209.5252813875061
 20
-314.5006136637794
 30
0.0
  0
VERTEX
  5
94362
330
94360
100
AcDbEntity
  8
DETAIL
 62
     5
370
     9
100
AcDbVertex
100
AcDb2dVertex
 10
-184.4777146619972
 20
-314.5006136637794
 30
0.0
  0
SEQEND
  5
94363
330
94360
100
AcDbEntity
  8
DETAIL
 62
     5
370
     9
  0
SPLINE
  5
94364
330
1E
100
AcDbEntity
  8
DETAIL
 62
     5
370
     9
100
AcDbSpline
210
0.0
220
0.0
230
1.0
 70
     8
 71
     3
 72
    14
 73
    10
 74
     0
 42
0.000000001
 43
0.0000000001
 40
0.0
 40
0.0
 40
0.0
 40
0.0
 40
1.0
 40
1.0
 40
1.0
 40
2.0
 40
2.0
 40
2.0
 40
3.0
 40
3.0
 40
3.0
 40
3.0
 10
-227.5510544949788
 20
-303.0856342829526
 30
0.0
 10
-227.3946471599485
 20
-302.9939947430449
 30
0.0
 10
-227.3030076200408
 20
-302.828630159753
 30
0.0
 10
-227.3030076200408
 20
-302.64948519452
 30
0.0
 10
-227.3030076200408
 20
-302.64948519452
 30
0.0
 10
-227.3030076200408
 20
-301.9456521868834
 30
0.0
 10
-227.3030076200408
 20
-301.9456521868834
 30
0.0
 10
-227.3030076200408
 20
-301.9456521868834
 30
0.0
 10
-227.3030076200408
 20
-15.43859252543723
 30
0.0
 10
-227.3030076200408
 20
-15.43859252543723
 30
0.0
  0
POLYLINE
  5
94365
330
1E
100
AcDbEntity
  8
DETAIL
 62
     5
370
     9
100
AcDb2dPolyline
 66
     1
 10
0.0
 20
0.0
 30
0.0
  0
VERTEX
  5
94366
330
94365
100
AcDbEntity
  8
DETAIL
 62
     5
370
     9
100
AcDbVertex
100
AcDb2dVertex
 10
-228.4970777152283
 20
-303.6323709364617
 30
0.0
  0
VERTEX
  5
94367
330
94365
100
AcDbEntity
  8
DETAIL
 62
     5
370
     9
100
AcDbVertex
100
AcDb2dVertex
 10
-228.4970777152283
 20
-16.46953734939825
 30
0.0
  0
SEQEND
  5
94368
330
94365
100
AcDbEntity
  8
DETAIL
 62
     5
370
     9
  0
POLYLINE
  5
94369
330
1E
100
AcDbEntity
  8
DETAIL
 62
     5
370
     9
100
AcDb2dPolyline
 66
     1
 10
0.0
 20
0.0
 30
0.0
  0
VERTEX
  5
9436A
330
94369
100
AcDbEntity
  8
DETAIL
 62
     5
370
     9
100
AcDbVertex
100
AcDb2dVertex
 10
-235.0014179913801
 20
-164.3909131804735
 30
0.0
  0
VERTEX
  5
9436B
330
94369
100
AcDbEntity
  8
DETAIL
 62
     5
370
     9
100
AcDbVertex
100
AcDb2dVertex
 10
-230.2978291253685
 20
-164.1473449296663
 30
0.0
  0
SEQEND
  5
9436C
330
94369
100
AcDbEntity
  8
DETAIL
 62
     5
370
     9
  0
POLYLINE
  5
9436D
330
1E
100
AcDbEntity
  8
DETAIL
 62
     5
370
     9
100
AcDb2dPolyline
 66
     1
 10
0.0
 20
0.0
 30
0.0
  0
VERTEX
  5
9436E
330
9436D
100
AcDbEntity
  8
DETAIL
 62
     5
370
     9
100
AcDbVertex
100
AcDb2dVertex
 10
-230.2978291253685
 20
-150.3531826067259
 30
0.0
  0
VERTEX
  5
9436F
330
9436D
100
AcDbEntity
  8
DETAIL
 62
     5
370
     9
100
AcDbVertex
100
AcDb2dVertex
 10
-235.0014179913801
 20
-150.105135731788
 30
0.0
  0
SEQEND
  5
94370
330
9436D
100
AcDbEntity
  8
DETAIL
 62
     5
370
     9
  0
SPLINE
  5
94371
330
1E
100
AcDbEntity
  8
DETAIL
 62
     5
370
     9
100
AcDbSpline
210
0.0
220
0.0
230
1.0
 70
     8
 71
     3
 72
    11
 73
     7
 74
     0
 42
0.000000001
 43
0.0000000001
 40
0.0
 40
0.0
 40
0.0
 40
0.0
 40
1.0
 40
1.0
 40
1.0
 40
2.0
 40
2.0
 40
2.0
 40
2.0
 10
-85.99414806335403
 20
-164.9686556933499
 30
0.0
 10
-85.99414806335403
 20
-164.9686556933499
 30
0.0
 10
-85.99414806335403
 20
-164.2989291310173
 30
0.0
 10
-85.99414806335403
 20
-164.2989291310173
 30
0.0
 10
-85.99414806335403
 20
-164.1290859235945
 30
0.0
 10
-86.12747325863324
 20
-163.9957607283153
 30
0.0
 10
-86.29283784192535
 20
-163.9957607283153
 30
0.0
  0
SPLINE
  5
94384
330
1E
100
AcDbEntity
  8
OUTLINE
  6
Continuous
 62
     3
370
     9
100
AcDbSpline
210
0.0
220
0.0
230
1.0
 70
    11
 71
     3
 72
   416
 73
   412
 74
     0
 42
0.000000001
 43
0.0000000001
 40
0.0
 40
0.0
 40
0.0
 40
0.0
 40
1.0
 40
1.0
 40
1.0
 40
2.0
 40
2.0
 40
2.0
 40
3.0
 40
3.0
 40
3.0
 40
4.0
 40
4.0
 40
4.0
 40
5.0
 40
5.0
 40
5.0
 40
6.0
 40
6.0
 40
6.0
 40
7.0
 40
7.0
 40
7.0
 40
8.0
 40
8.0
 40
8.0
 40
9.0
 40
9.0
 40
9.0
 40
10.0
 40
10.0
 40
10.0
 40
11.0
 40
11.0
 40
11.0
 40
12.0
 40
12.0
 40
12.0
 40
13.0
 40
13.0
 40
13.0
 40
14.0
 40
14.0
 40
14.0
 40
15.0
 40
15.0
 40
15.0
 40
16.0
 40
16.0
 40
16.0
 40
17.0
 40
17.0
 40
17.0
 40
18.0
 40
18.0
 40
18.0
 40
19.0
 40
19.0
 40
19.0
 40
20.0
 40
20.0
 40
20.0
 40
21.0
 40
21.0
 40
21.0
 40
22.0
 40
22.0
 40
22.0
 40
23.0
 40
23.0
 40
23.0
 40
24.0
 40
24.0
 40
24.0
 40
25.0
 40
25.0
 40
25.0
 40
26.0
 40
26.0
 40
26.0
 40
27.0
 40
27.0
 40
27.0
 40
28.0
 40
28.0
 40
28.0
 40
29.0
 40
29.0
 40
29.0
 40
30.0
 40
30.0
 40
30.0
 40
31.0
 40
31.0
 40
31.0
 40
32.0
 40
32.0
 40
32.0
 40
33.0
 40
33.0
 40
33.0
 40
34.0
 40
34.0
 40
34.0
 40
35.0
 40
35.0
 40
35.0
 40
36.0
 40
36.0
 40
36.0
 40
37.0
 40
37.0
 40
37.0
 40
38.0
 40
38.0
 40
38.0
 40
39.0
 40
39.0
 40
39.0
 40
40.0
 40
40.0
 40
40.0
 40
41.0
 40
41.0
 40
41.0
 40
42.0
 40
42.0
 40
42.0
 40
43.0
 40
43.0
 40
43.0
 40
44.0
 40
44.0
 40
44.0
 40
45.0
 40
45.0
 40
45.0
 40
46.0
 40
46.0
 40
46.0
 40
47.0
 40
47.0
 40
47.0
 40
48.0
 40
48.0
 40
48.0
 40
49.0
 40
49.0
 40
49.0
 40
50.0
 40
50.0
 40
50.0
 40
51.0
 40
51.0
 40
51.0
 40
52.0
 40
52.0
 40
52.0
 40
53.0
 40
53.0
 40
53.0
 40
54.0
 40
54.0
 40
54.0
 40
55.0
 40
55.0
 40
55.0
 40
56.0
 40
56.0
 40
56.0
 40
57.0
 40
57.0
 40
57.0
 40
58.0
 40
58.0
 40
58.0
 40
59.0
 40
59.0
 40
59.0
 40
60.0
 40
60.0
 40
60.0
 40
61.0
 40
61.0
 40
61.0
 40
62.0
 40
62.0
 40
62.0
 40
63.0
 40
63.0
 40
63.0
 40
64.0
 40
64.0
 40
64.0
 40
65.0
 40
65.0
 40
65.0
 40
66.0
 40
66.0
 40
66.0
 40
67.0
 40
67.0
 40
67.0
 40
68.0
 40
68.0
 40
68.0
 40
69.0
 40
69.0
 40
69.0
 40
70.0
 40
70.0
 40
70.0
 40
71.0
 40
71.0
 40
71.0
 40
72.0
 40
72.0
 40
72.0
 40
73.0
 40
73.0
 40
73.0
 40
74.0
 40
74.0
 40
74.0
 40
75.0
 40
75.0
 40
75.0
 40
76.0
 40
76.0
 40
76.0
 40
77.0
 40
77.0
 40
77.0
 40
78.0
 40
78.0
 40
78.0
 40
79.0
 40
79.0
 40
79.0
 40
80.0
 40
80.0
 40
80.0
 40
81.0
 40
81.0
 40
81.0
 40
82.0
 40
82.0
 40
82.0
 40
83.0
 40
83.0
 40
83.0
 40
84.0
 40
84.0
 40
84.0
 40
85.0
 40
85.0
 40
85.0
 40
86.0
 40
86.0
 40
86.0
 40
87.0
 40
87.0
 40
87.0
 40
88.0
 40
88.0
 40
88.0
 40
89.0
 40
89.0
 40
89.0
 40
90.0
 40
90.0
 40
90.0
 40
91.0
 40
91.0
 40
91.0
 40
92.0
 40
92.0
 40
92.0
 40
93.0
 40
93.0
 40
93.0
 40
94.0
 40
94.0
 40
94.0
 40
95.0
 40
95.0
 40
95.0
 40
96.0
 40
96.0
 40
96.0
 40
97.0
 40
97.0
 40
97.0
 40
98.0
 40
98.0
 40
98.0
 40
99.0
 40
99.0
 40
99.0
 40
100.0
 40
100.0
 40
100.0
 40
101.0
 40
101.0
 40
101.0
 40
102.0
 40
102.0
 40
102.0
 40
103.0
 40
103.0
 40
103.0
 40
104.0
 40
104.0
 40
104.0
 40
105.0
 40
105.0
 40
105.0
 40
106.0
 40
106.0
 40
106.0
 40
107.0
 40
107.0
 40
107.0
 40
108.0
 40
108.0
 40
108.0
 40
109.0
 40
109.0
 40
109.0
 40
110.0
 40
110.0
 40
110.0
 40
111.0
 40
111.0
 40
111.0
 40
112.0
 40
112.0
 40
112.0
 40
113.0
 40
113.0
 40
113.0
 40
114.0
 40
114.0
 40
114.0
 40
115.0
 40
115.0
 40
115.0
 40
116.0
 40
116.0
 40
116.0
 40
117.0
 40
117.0
 40
117.0
 40
118.0
 40
118.0
 40
118.0
 40
119.0
 40
119.0
 40
119.0
 40
120.0
 40
120.0
 40
120.0
 40
121.0
 40
121.0
 40
121.0
 40
122.0
 40
122.0
 40
122.0
 40
123.0
 40
123.0
 40
123.0
 40
124.0
 40
124.0
 40
124.0
 40
125.0
 40
125.0
 40
125.0
 40
126.0
 40
126.0
 40
126.0
 40
127.0
 40
127.0
 40
127.0
 40
128.0
 40
128.0
 40
128.0
 40
129.0
 40
129.0
 40
129.0
 40
130.0
 40
130.0
 40
130.0
 40
131.0
 40
131.0
 40
131.0
 40
132.0
 40
132.0
 40
132.0
 40
133.0
 40
133.0
 40
133.0
 40
134.0
 40
134.0
 40
134.0
 40
135.0
 40
135.0
 40
135.0
 40
136.0
 40
136.0
 40
136.0
 40
137.0
 40
137.0
 40
137.0
 40
137.0
 10
-230.2978291253685
 20
-307.1508469555474
 30
0.0
 10
-230.2978291253685
 20
-307.1508469555474
 30
0.0
 10
-237.4543259768779
 20
-306.7787766431404
 30
0.0
 10
-237.4543259768779
 20
-306.7787766431404
 30
0.0
 10
-237.9828036243152
 20
-306.7512158792585
 30
0.0
 10
-238.4006937066761
 20
-306.3102436571464
 30
0.0
 10
-238.4006937066761
 20
-305.7776318951268
 30
0.0
 10
-238.4006937066761
 20
-305.7776318951268
 30
0.0
 10
-238.4006937066761
 20
-165.5160813659561
 30
0.0
 10
-238.4006937066761
 20
-165.5160813659561
 30
0.0
 10
-238.4006937066761
 20
-164.9879482280672
 30
0.0
 10
-237.9828036243152
 20
-164.5469760059553
 30
0.0
 10
-237.4543259768779
 20
-164.5194152420732
 30
0.0
 10
-237.4543259768779
 20
-164.5194152420732
 30
0.0
 10
-235.0014179913801
 20
-164.3909131804735
 30
0.0
 10
-235.0014179913801
 20
-164.3909131804735
 30
0.0
 10
-235.0014179913801
 20
-164.3909131804735
 30
0.0
 10
-235.0014179913801
 20
-150.105135731788
 30
0.0
 10
-235.0014179913801
 20
-150.105135731788
 30
0.0
 10
-235.0014179913801
 20
-150.105135731788
 30
0.0
 10
-237.4543259768779
 20
-149.9766336701881
 30
0.0
 10
-237.4543259768779
 20
-149.9766336701881
 30
0.0
 10
-237.9828036243152
 20
-149.9490729063061
 30
0.0
 10
-238.4006937066761
 20
-149.512579308325
 30
0.0
 10
-238.4006937066761
 20
-148.9796230367568
 30
0.0
 10
-238.4006937066761
 20
-148.9796230367568
 30
0.0
 10
-238.4006937066761
 20
-8.718417017134697
 30
0.0
 10
-238.4006937066761
 20
-8.718417017134697
 30
0.0
 10
-238.4006937066761
 20
-8.185633000340772
 30
0.0
 10
-237.9828036243152
 20
-7.74913940235956
 30
0.0
 10
-237.4543259768779
 20
-7.721578638477581
 30
0.0
 10
-237.4543259768779
 20
-7.721578638477581
 30
0.0
 10
-230.2978291253685
 20
-7.345029701939779
 30
0.0
 10
-230.2978291253685
 20
-7.345029701939779
 30
0.0
 10
-230.2978291253685
 20
-7.345029701939779
 30
0.0
 10
-230.2978291253685
 20
-7.501092527421633
 30
0.0
 10
-230.2978291253685
 20
-7.501092527421633
 30
0.0
 10
-230.2978291253685
 20
-7.501092527421633
 30
0.0
 10
-229.7603942296695
 20
-7.491963024385654
 30
0.0
 10
-229.7603942296695
 20
-7.491963024385654
 30
0.0
 10
-229.7603942296695
 20
-7.491963024385654
 30
0.0
 10
-229.7603942296695
 20
-7.556214055185591
 30
0.0
 10
-229.7603942296695
 20
-7.556214055185591
 30
0.0
 10
-229.7603942296695
 20
-7.556214055185591
 30
0.0
 10
-229.2918612436755
 20
-7.560864934090659
 30
0.0
 10
-229.2918612436755
 20
-7.560864934090659
 30
0.0
 10
-229.1785176022108
 20
-7.562759736607631
 30
0.0
 10
-229.0741312090077
 20
-7.603239608559306
 30
0.0
 10
-228.9907598982647
 20
-7.669557696650372
 30
0.0
 10
-228.9907598982647
 20
-7.669557696650372
 30
0.0
 10
-228.9931714651044
 20
-7.67110798961869
 30
0.0
 10
-228.9931714651044
 20
-7.67110798961869
 30
0.0
 10
-228.9931714651044
 20
-7.67110798961869
 30
0.0
 10
-228.7912888696687
 20
-7.675758868523757
 30
0.0
 10
-228.7912888696687
 20
-7.675758868523757
 30
0.0
 10
-228.6304029105076
 20
-7.675758868523757
 30
0.0
 10
-228.4970777152283
 20
-7.8089118090287
 30
0.0
 10
-228.4970777152283
 20
-7.974276392320689
 30
0.0
 10
-228.4970777152283
 20
-7.974276392320689
 30
0.0
 10
-228.4970777152283
 20
-14.43176336987301
 30
0.0
 10
-228.4970777152283
 20
-14.43176336987301
 30
0.0
 10
-228.4970777152283
 20
-14.43176336987301
 30
0.0
 10
-228.4970777152283
 20
-16.48142292882232
 30
0.0
 10
-228.4970777152283
 20
-16.48142292882232
 30
0.0
 10
-228.4970777152283
 20
-16.48142292882232
 30
0.0
 10
-227.9276034315166
 20
-16.25163505995624
 30
0.0
 10
-227.9276034315166
 20
-16.25163505995624
 30
0.0
 10
-227.5462313612994
 20
-16.10005085860519
 30
0.0
 10
-227.3030076200408
 20
-15.73263142510336
 30
0.0
 10
-227.3030076200408
 20
-15.3238708457784
 30
0.0
 10
-227.3030076200408
 20
-15.3238708457784
 30
0.0
 10
-227.3030076200408
 20
-15.27133313962838
 30
0.0
 10
-227.3030076200408
 20
-15.27133313962838
 30
0.0
 10
-227.3030076200408
 20
-15.27133313962838
 30
0.0
 10
-227.3030076200408
 20
-10.03220418043463
 30
0.0
 10
-227.3030076200408
 20
-10.03220418043463
 30
0.0
 10
-227.3030076200408
 20
-9.885098603214487
 30
0.0
 10
-227.2661450983486
 20
-9.742816159673679
 30
0.0
 10
-227.2065449464538
 20
-9.609490964394467
 30
0.0
 10
-227.2065449464538
 20
-9.609490964394467
 30
0.0
 10
-226.1268520213765
 20
-7.294386798306618
 30
0.0
 10
-226.1268520213765
 20
-7.294386798306618
 30
0.0
 10
-226.0534714875407
 20
-7.133673093919696
 30
0.0
 10
-225.8974086620589
 20
-7.023430038391779
 30
0.0
 10
-225.7134405631465
 20
-7.009649656450733
 30
0.0
 10
-225.7134405631465
 20
-7.009649656450733
 30
0.0
 10
-193.6833543081331
 20
-4.203102619391984
 30
0.0
 10
-193.6833543081331
 20
-4.203102619391984
 30
0.0
 10
-193.6833543081331
 20
-4.203102619391984
 30
0.0
 10
-67.49639687440208
 20
0.2021409775969687
 30
0.0
 10
-67.49639687440208
 20
0.2021409775969687
 30
0.0
 10
-67.49639687440208
 20
0.2021409775969687
 30
0.0
 10
-67.48261649246114
 20
0.2021409775969687
 30
0.0
 10
-67.48261649246114
 20
0.2021409775969687
 30
0.0
 10
-67.48261649246114
 20
0.2021409775969687
 30
0.0
 10
-38.17174410395546
 20
0.2021409775969687
 30
0.0
 10
-38.17174410395546
 20
0.2021409775969687
 30
0.0
 10
-38.01568127847372
 20
0.2021409775969687
 30
0.0
 10
-37.86857570125358
 20
0.1285881889868961
 30
0.0
 10
-37.77659165179739
 20
-0.0000861273871351
 30
0.0
 10
-37.77659165179739
 20
-0.0000861273871351
 30
0.0
 10
-12.99946492188064
 20
-0.0000861273871351
 30
0.0
 10
-12.99946492188064
 20
-0.0000861273871351
 30
0.0
 10
-12.99946492188064
 20
-0.0000861273871351
 30
0.0
 10
-4.997886147839381
 20
-7.997186277297601
 30
0.0
 10
-4.997886147839381
 20
-7.997186277297601
 30
0.0
 10
-4.997886147839381
 20
-7.997186277297601
 30
0.0
 10
-4.997886147839381
 20
-10.96461927351754
 30
0.0
 10
-4.997886147839381
 20
-10.96461927351754
 30
0.0
 10
-4.997886147839381
 20
-10.96461927351754
 30
0.0
 10
-3.491001382591093
 20
-10.99218003739952
 30
0.0
 10
-3.491001382591093
 20
-10.99218003739952
 30
0.0
 10
-3.215393743771073
 20
-10.99683091630459
 30
0.0
 10
-2.99973076639435
 20
-11.21731702736065
 30
0.0
 10
-2.99973076639435
 20
-11.48827378727549
 30
0.0
 10
-2.99973076639435
 20
-11.48827378727549
 30
0.0
 10
-2.99973076639435
 20
-12.50802205090951
 30
0.0
 10
-2.99973076639435
 20
-12.50802205090951
 30
0.0
 10
-2.99973076639435
 20
-12.77897881082435
 30
0.0
 10
-3.215393743771073
 20
-13.00411580078548
 30
0.0
 10
-3.491001382591093
 20
-13.00876667969055
 30
0.0
 10
-3.491001382591093
 20
-13.00876667969055
 30
0.0
 10
-4.997886147839381
 20
-13.03167656466746
 30
0.0
 10
-4.997886147839381
 20
-13.03167656466746
 30
0.0
 10
-4.997886147839381
 20
-13.03167656466746
 30
0.0
 10
-4.997886147839381
 20
-16.15982326527432
 30
0.0
 10
-4.997886147839381
 20
-16.15982326527432
 30
0.0
 10
-4.997886147839381
 20
-16.15982326527432
 30
0.0
 10
-3.086891682171199
 20
-18.88368801068714
 30
0.0
 10
-3.086891682171199
 20
-18.88368801068714
 30
0.0
 10
-3.03177015440724
 20
-18.97102118123814
 30
0.0
 10
-2.99973076639435
 20
-19.07213473373019
 30
0.0
 10
-2.99973076639435
 20
-19.17307603144809
 30
0.0
 10
-2.99973076639435
 20
-19.17307603144809
 30
0.0
 10
-2.99973076639435
 20
-21.49748195534619
 30
0.0
 10
-2.99973076639435
 20
-21.49748195534619
 30
0.0
 10
-2.99973076639435
 20
-21.49748195534619
 30
0.0
 10
-1.4976691348254
 20
-21.49748195534619
 30
0.0
 10
-1.4976691348254
 20
-21.49748195534619
 30
0.0
 10
-0.6708462183655684
 20
-21.49748195534619
 30
0.0
 10
-0.0000861273872488
 20
-22.16806979155001
 30
0.0
 10
-0.0000861273872488
 20
-22.99954358691502
 30
0.0
 10
-0.0000861273872488
 20
-22.99954358691502
 30
0.0
 10
-0.0000861273872488
 20
-295.1436556608062
 30
0.0
 10
-0.0000861273872488
 20
-295.1436556608062
 30
0.0
 10
-0.0000861273872488
 20
-295.6766119323743
 30
0.0
 10
-0.2663920083971334
 20
-296.1771843063811
 30
0.0
 10
-0.7121873641885941
 20
-296.4758740849522
 30
0.0
 10
-0.7121873641885941
 20
-296.4758740849522
 30
0.0
 10
-3.013511148335282
 20
-298.0054964804032
 30
0.0
 10
-3.013511148335282
 20
-298.0054964804032
 30
0.0
 10
-3.013511148335282
 20
-298.0054964804032
 30
0.0
 10
-2.99973076639435
 20
-298.120218160062
 30
0.0
 10
-2.99973076639435
 20
-298.120218160062
 30
0.0
 10
-2.99973076639435
 20
-298.120218160062
 30
0.0
 10
-2.99973076639435
 20
-302.9984733671757
 30
0.0
 10
-2.99973076639435
 20
-302.9984733671757
 30
0.0
 10
-2.99973076639435
 20
-302.9984733671757
 30
0.0
 10
-66.00811562477429
 20
-302.9984733671757
 30
0.0
 10
-66.00811562477429
 20
-302.9984733671757
 30
0.0
 10
-66.00363700064349
 20
-302.9984733671757
 30
0.0
 10
-65.99881386696416
 20
-302.5023796172998
 30
0.0
 10
-65.99881386696416
 20
-301.671078076709
 30
0.0
 10
-65.99881386696416
 20
-301.671078076709
 30
0.0
 10
-67.49639687440208
 20
-301.698638840591
 30
0.0
 10
-67.49639687440208
 20
-301.698638840591
 30
0.0
 10
-67.49639687440208
 20
-301.698638840591
 30
0.0
 10
-67.49639687440208
 20
-303.20070047216
 30
0.0
 10
-67.49639687440208
 20
-303.20070047216
 30
0.0
 10
-67.49639687440208
 20
-303.20070047216
 30
0.0
 10
-85.98036768141311
 20
-303.20070047216
 30
0.0
 10
-85.98036768141311
 20
-303.20070047216
 30
0.0
 10
-85.98036768141311
 20
-303.20070047216
 30
0.0
 10
-85.99897119703337
 20
-303.7260775336605
 30
0.0
 10
-85.99897119703337
 20
-303.7260775336605
 30
0.0
 10
-85.99897119703337
 20
-303.7260775336605
 30
0.0
 10
-85.99897119703337
 20
-305.9915723247608
 30
0.0
 10
-85.99897119703337
 20
-305.9915723247608
 30
0.0
 10
-85.99897119703337
 20
-305.9915723247608
 30
0.0
 10
-85.99897119703337
 20
-305.9981180061828
 30
0.0
 10
-85.99897119703337
 20
-305.9981180061828
 30
0.0
 10
-85.99897119703337
 20
-306.5493332838228
 30
0.0
 10
-86.44890066740709
 20
-306.9992627541964
 30
0.0
 10
-87.00011594504713
 20
-306.9992627541964
 30
0.0
 10
-87.00011594504713
 20
-306.9992627541964
 30
0.0
 10
-151.1663973960194
 20
-306.9992627541964
 30
0.0
 10
-151.1663973960194
 20
-306.9992627541964
 30
0.0
 10
-151.1663973960194
 20
-306.9992627541964
 30
0.0
 10
-151.1663973960194
 20
-307.0178662698168
 30
0.0
 10
-151.1663973960194
 20
-307.0178662698168
 30
0.0
 10
-151.2673386937372
 20
-307.4540153582494
 30
0.0
 10
-151.5016051867342
 20
-307.8491678104076
 30
0.0
 10
-151.8368129774489
 20
-308.1523362131095
 30
0.0
 10
-151.8368129774489
 20
-308.1523362131095
 30
0.0
 10
-158.2539923378238
 20
-313.9356180041984
 30
0.0
 10
-158.2539923378238
 20
-313.9356180041984
 30
0.0
 10
-158.6581020382436
 20
-314.2983865587952
 30
0.0
 10
-159.1865796856809
 20
-314.5006136637794
 30
0.0
 10
-159.7284932055108
 20
-314.5006136637794
 30
0.0
 10
-159.7284932055108
 20
-314.5006136637794
 30
0.0
 10
-184.5056199354276
 20
-314.5006136637794
 30
0.0
 10
-184.5056199354276
 20
-314.5006136637794
 30
0.0
 10
-184.5056199354276
 20
-314.5006136637794
 30
0.0
 10
-184.6479023789684
 20
-322.5848747294667
 30
0.0
 10
-184.6479023789684
 20
-322.5848747294667
 30
0.0
 10
-184.6479023789684
 20
-322.5848747294667
 30
0.0
 10
-185.2084194144186
 20
-338.5701177810259
 30
0.0
 10
-185.2084194144186
 20
-338.5701177810259
 30
0.0
 10
-185.2452819361108
 20
-339.6449875724239
 30
0.0
 10
-186.1272263803348
 20
-340.4993712527658
 30
0.0
 10
-187.2020961717326
 20
-340.4993712527658
 30
0.0
 10
-187.2020961717326
 20
-340.4993712527658
 30
0.0
 10
-203.3516702779384
 20
-340.4993712527658
 30
0.0
 10
-203.3516702779384
 20
-340.4993712527658
 30
0.0
 10
-203.3516702779384
 20
-340.4993712527658
 30
0.0
 10
-203.6558722092859
 20
-340.4993712527658
 30
0.0
 10
-203.6558722092859
 20
-340.4993712527658
 30
0.0
 10
-203.6558722092859
 20
-340.4993712527658
 30
0.0
 10
-203.7475117491936
 20
-340.494892628635
 30
0.0
 10
-203.7475117491936
 20
-340.494892628635
 30
0.0
 10
-203.7475117491936
 20
-340.494892628635
 30
0.0
 10
-203.8670565625316
 20
-340.4904140045041
 30
0.0
 10
-203.8670565625316
 20
-340.4904140045041
 30
0.0
 10
-203.8670565625316
 20
-340.4904140045041
 30
0.0
 10
-204.0782409157775
 20
-340.4718104888838
 30
0.0
 10
-204.0782409157775
 20
-340.4718104888838
 30
0.0
 10
-204.0782409157775
 20
-340.4718104888838
 30
0.0
 10
-204.1426642013516
 20
-340.4628532406221
 30
0.0
 10
-204.1426642013516
 20
-340.4628532406221
 30
0.0
 10
-204.1426642013516
 20
-340.4628532406221
 30
0.0
 10
-204.5653774173918
 20
-340.370869191166
 30
0.0
 10
-204.5653774173918
 20
-340.370869191166
 30
0.0
 10
-204.5653774173918
 20
-340.370869191166
 30
0.0
 10
-204.9601853600016
 20
-340.2237636139458
 30
0.0
 10
-204.9601853600016
 20
-340.2237636139458
 30
0.0
 10
-204.9601853600016
 20
-340.2237636139458
 30
0.0
 10
-205.0890319311498
 20
-340.1596848379202
 30
0.0
 10
-205.0890319311498
 20
-340.1596848379202
 30
0.0
 10
-205.0890319311498
 20
-340.1596848379202
 30
0.0
 10
-205.3646395699697
 20
-339.9894971209489
 30
0.0
 10
-205.3646395699697
 20
-339.9894971209489
 30
0.0
 10
-205.3646395699697
 20
-339.9894971209489
 30
0.0
 10
-205.5940829292874
 20
-339.805873531585
 30
0.0
 10
-205.5940829292874
 20
-339.805873531585
 30
0.0
 10
-205.5940829292874
 20
-339.805873531585
 30
0.0
 10
-205.8331725559638
 20
-339.5533480325162
 30
0.0
 10
-205.8331725559638
 20
-339.5533480325162
 30
0.0
 10
-205.8331725559638
 20
-339.5533480325162
 30
0.0
 10
-205.9616746175636
 20
-339.364901309473
 30
0.0
 10
-205.9616746175636
 20
-339.364901309473
 30
0.0
 10
-205.9616746175636
 20
-339.364901309473
 30
0.0
 10
-206.0812194309017
 20
-339.1351134406069
 30
0.0
 10
-206.0812194309017
 20
-339.1351134406069
 30
0.0
 10
-206.0812194309017
 20
-339.1351134406069
 30
0.0
 10
-206.1683803466785
 20
-338.9008469476099
 30
0.0
 10
-206.1683803466785
 20
-338.9008469476099
 30
0.0
 10
-206.1683803466785
 20
-338.9008469476099
 30
0.0
 10
-206.2190232503117
 20
-338.6621018304821
 30
0.0
 10
-206.2190232503117
 20
-338.6621018304821
 30
0.0
 10
-206.2190232503117
 20
-338.6621018304821
 30
0.0
 10
-206.2279804985735
 20
-338.593199920777
 30
0.0
 10
-206.2279804985735
 20
-338.593199920777
 30
0.0
 10
-206.2279804985735
 20
-338.593199920777
 30
0.0
 10
-206.2279804985735
 20
-338.5656391568951
 30
0.0
 10
-206.2279804985735
 20
-338.5656391568951
 30
0.0
 10
-206.2279804985735
 20
-338.5656391568951
 30
0.0
 10
-206.3568270697217
 20
-337.0590989011954
 30
0.0
 10
-206.3568270697217
 20
-337.0590989011954
 30
0.0
 10
-206.3568270697217
 20
-337.0590989011954
 30
0.0
 10
-206.3568270697217
 20
-337.068056149457
 30
0.0
 10
-206.3568270697217
 20
-337.068056149457
 30
0.0
 10
-206.3568270697217
 20
-337.068056149457
 30
0.0
 10
-206.5035881373933
 20
-335.3641119224524
 30
0.0
 10
-206.5035881373933
 20
-335.3641119224524
 30
0.0
 10
-206.5035881373933
 20
-335.3641119224524
 30
0.0
 10
-206.6506937146137
 20
-333.6277837978865
 30
0.0
 10
-206.6506937146137
 20
-333.6277837978865
 30
0.0
 10
-206.6506937146137
 20
-333.6277837978865
 30
0.0
 10
-206.7977992918338
 20
-331.8545931516284
 30
0.0
 10
-206.7977992918338
 20
-331.8545931516284
 30
0.0
 10
-206.7977992918338
 20
-331.8545931516284
 30
0.0
 10
-206.7977992918338
 20
-331.8590717757592
 30
0.0
 10
-206.7977992918338
 20
-331.8590717757592
 30
0.0
 10
-206.7977992918338
 20
-331.8590717757592
 30
0.0
 10
-206.9445603595054
 20
-330.0400613595473
 30
0.0
 10
-206.9445603595054
 20
-330.0400613595473
 30
0.0
 10
-206.9445603595054
 20
-330.0400613595473
 30
0.0
 10
-206.9400817353746
 20
-330.0448844932267
 30
0.0
 10
-206.9400817353746
 20
-330.0448844932267
 30
0.0
 10
-206.9400817353746
 20
-330.0448844932267
 30
0.0
 10
-207.0734069306539
 20
-328.3498975144838
 30
0.0
 10
-207.0734069306539
 20
-328.3498975144838
 30
0.0
 10
-207.0734069306539
 20
-328.3498975144838
 30
0.0
 10
-207.0734069306539
 20
-328.3543761386146
 30
0.0
 10
-207.0734069306539
 20
-328.3543761386146
 30
0.0
 10
-207.0734069306539
 20
-328.3543761386146
 30
0.0
 10
-207.1009676945357
 20
-328.1614507914406
 30
0.0
 10
-207.1009676945357
 20
-328.1614507914406
 30
0.0
 10
-207.1009676945357
 20
-328.1614507914406
 30
0.0
 10
-207.1009676945357
 20
-328.1707525492508
 30
0.0
 10
-207.1009676945357
 20
-328.1707525492508
 30
0.0
 10
-207.1009676945357
 20
-328.1707525492508
 30
0.0
 10
-207.1467874644895
 20
-327.9778272020767
 30
0.0
 10
-207.1467874644895
 20
-327.9778272020767
 30
0.0
 10
-207.1467874644895
 20
-327.9778272020767
 30
0.0
 10
-207.1467874644895
 20
-327.9823058262076
 30
0.0
 10
-207.1467874644895
 20
-327.9823058262076
 30
0.0
 10
-207.1467874644895
 20
-327.9823058262076
 30
0.0
 10
-207.2112107500636
 20
-327.7986822368438
 30
0.0
 10
-207.2112107500636
 20
-327.7986822368438
 30
0.0
 10
-207.2112107500636
 20
-327.7986822368438
 30
0.0
 10
-207.2063876163843
 20
-327.8076394851054
 30
0.0
 10
-207.2063876163843
 20
-327.8076394851054
 30
0.0
 10
-207.2063876163843
 20
-327.8076394851054
 30
0.0
 10
-207.2801126597688
 20
-327.6377962776826
 30
0.0
 10
-207.2801126597688
 20
-327.6377962776826
 30
0.0
 10
-207.2801126597688
 20
-327.6377962776826
 30
0.0
 10
-207.3579718177354
 20
-327.4955138341418
 30
0.0
 10
-207.3579718177354
 20
-327.4955138341418
 30
0.0
 10
-207.3579718177354
 20
-327.4955138341418
 30
0.0
 10
-207.3579718177354
 20
-327.4999924582726
 30
0.0
 10
-207.3579718177354
 20
-327.4999924582726
 30
0.0
 10
-207.3579718177354
 20
-327.4999924582726
 30
0.0
 10
-207.4406541093813
 20
-327.3759690208036
 30
0.0
 10
-207.4406541093813
 20
-327.3759690208036
 30
0.0
 10
-207.4406541093813
 20
-327.3759690208036
 30
0.0
 10
-208.5479077983407
 20
-327.3163688689088
 30
0.0
 10
-208.5479077983407
 20
-327.3163688689088
 30
0.0
 10
-208.6719312358098
 20
-327.3070671110986
 30
0.0
 10
-208.7866529154685
 20
-327.2564242074655
 30
0.0
 10
-208.8738138312453
 20
-327.1647846675578
 30
0.0
 10
-208.8738138312453
 20
-327.1647846675578
 30
0.0
 10
-209.0715623120987
 20
-326.9625575625736
 30
0.0
 10
-209.0715623120987
 20
-326.9625575625736
 30
0.0
 10
-209.0715623120987
 20
-326.9625575625736
 30
0.0
 10
-209.1218607061833
 20
-326.9029574106788
 30
0.0
 10
-209.1218607061833
 20
-326.9029574106788
 30
0.0
 10
-209.1218607061833
 20
-326.9029574106788
 30
0.0
 10
-209.1769822339472
 20
-326.8016716034125
 30
0.0
 10
-209.1769822339472
 20
-326.8016716034125
 30
0.0
 10
-209.1769822339472
 20
-326.8016716034125
 30
0.0
 10
-209.2045429978293
 20
-326.6914285478845
 30
0.0
 10
-209.2045429978293
 20
-326.6914285478845
 30
0.0
 10
-209.2045429978293
 20
-326.6914285478845
 30
0.0
 10
-209.2138447556394
 20
-326.6318283959896
 30
0.0
 10
-209.2138447556394
 20
-326.6318283959896
 30
0.0
 10
-209.2138447556394
 20
-326.6318283959896
 30
0.0
 10
-209.3516485750495
 20
-322.5848747294667
 30
0.0
 10
-209.3516485750495
 20
-322.5848747294667
 30
0.0
 10
-209.3516485750495
 20
-322.5848747294667
 30
0.0
 10
-209.4939310185903
 20
-314.5006136637794
 30
0.0
 10
-209.4939310185903
 20
-314.5006136637794
 30
0.0
 10
-209.4939310185903
 20
-314.5006136637794
 30
0.0
 10
-212.7691832964174
 20
-314.5006136637794
 30
0.0
 10
-212.7691832964174
 20
-314.5006136637794
 30
0.0
 10
-213.3110968162471
 20
-314.5006136637794
 30
0.0
 10
-213.834751330005
 20
-314.2983865587952
 30
0.0
 10
-214.2392055399735
 20
-313.9356180041984
 30
0.0
 10
-214.2392055399735
 20
-313.9356180041984
 30
0.0
 10
-220.6608635244791
 20
-308.1523362131095
 30
0.0
 10
-220.6608635244791
 20
-308.1523362131095
 30
0.0
 10
-221.0005499393247
 20
-307.8491678104076
 30
0.0
 10
-221.2303378081909
 20
-307.4540153582494
 30
0.0
 10
-221.3312791059087
 20
-307.0178662698168
 30
0.0
 10
-221.3312791059087
 20
-307.0178662698168
 30
0.0
 10
-225.3644523904906
 20
-306.9992627541964
 30
0.0
 10
-225.3644523904906
 20
-306.9992627541964
 30
0.0
 10
-225.7503030848387
 20
-306.9992627541964
 30
0.0
 10
-226.1041143911739
 20
-306.7742980190096
 30
0.0
 10
-226.2694789744659
 20
-306.4204867126744
 30
0.0
 10
-226.2694789744659
 20
-306.4204867126744
 30
0.0
 10
-227.2568433405385
 20
-304.3076096515707
 30
0.0
 10
-227.2568433405385
 20
-304.3076096515707
 30
0.0
 10
-227.2568433405385
 20
-304.3076096515707
 30
0.0
 10
-227.2844041044205
 20
-304.1880648382325
 30
0.0
 10
-227.2844041044205
 20
-304.1880648382325
 30
0.0
 10
-227.2844041044205
 20
-304.1880648382325
 30
0.0
 10
-227.3030076200408
 20
-304.1377664441479
 30
0.0
 10
-227.3030076200408
 20
-304.1377664441479
 30
0.0
 10
-227.3030076200408
 20
-304.1377664441479
 30
0.0
 10
-227.3030076200408
 20
-302.9388732152809
 30
0.0
 10
-227.3030076200408
 20
-302.9388732152809
 30
0.0
 10
-227.3030076200408
 20
-302.9388732152809
 30
0.0
 10
-228.4970777152283
 20
-303.6323709364617
 30
0.0
 10
-228.4970777152283
 20
-303.6323709364617
 30
0.0
 10
-228.4970777152283
 20
-303.6323709364617
 30
0.0
 10
-228.4970777152283
 20
-306.5217725199408
 30
0.0
 10
-228.4970777152283
 20
-306.5217725199408
 30
0.0
 10
-228.4970777152283
 20
-306.6871371032328
 30
0.0
 10
-228.6304029105076
 20
-306.8201177889634
 30
0.0
 10
-228.7912888696687
 20
-306.8249409226428
 30
0.0
 10
-228.7912888696687
 20
-306.8249409226428
 30
0.0
 10
-228.9931714651044
 20
-306.8249409226428
 30
0.0
 10
-228.9931714651044
 20
-306.8249409226428
 30
0.0
 10
-228.9931714651044
 20
-306.8249409226428
 30
0.0
 10
-228.9917934269102
 20
-306.8270079799339
 30
0.0
 10
-228.9917934269102
 20
-306.8270079799339
 30
0.0
 10
-229.0748202281047
 20
-306.8928093037022
 30
0.0
 10
-229.1788621117594
 20
-306.9331169208796
 30
0.0
 10
-229.2918612436755
 20
-306.9351839781707
 30
0.0
 10
-229.2918612436755
 20
-306.9351839781707
 30
0.0
 10
-229.7603942296695
 20
-306.9441412264324
 30
0.0
 10
-229.7603942296695
 20
-306.9441412264324
 30
0.0
 10
-229.7603942296695
 20
-306.9441412264324
 30
0.0
 10
-229.7603942296695
 20
-307.0040858878757
 30
0.0
 10
-229.7603942296695
 20
-307.0040858878757
 30
0.0
 10
-229.7603942296695
 20
-307.0040858878757
 30
0.0
 10
-230.2978291253685
 20
-306.9947841300656
 30
0.0
 10
-230.2978291253685
 20
-306.9947841300656
 30
0.0
 10
-230.2978291253685
 20
-306.9947841300656
 30
0.0
 10
-230.2978291253685
 20
-307.1508469555474
 30
0.0
 10
-230.2978291253685
 20
-307.1508469555474
 30
0.0
  0
SPLINE
  5
944C0
330
1E
100
AcDbEntity
  8
OUTLINE
 62
     3
370
     9
100
AcDbSpline
210
0.0
220
0.0
230
1.0
 70
     8
 71
     3
 72
     8
 73
     4
 74
     0
 42
0.000000001
 43
0.0000000001
 40
0.0
 40
0.0
 40
0.0
 40
0.0
 40
1.0
 40
1.0
 40
1.0
 40
1.0
 10
-227.2568433405385
 20
-304.3076096515707
 30
0.0
 10
-227.2706237224794
 20
-304.2707471298785
 30
0.0
 10
-227.2844041044205
 20
-304.2294059840555
 30
0.0
 10
-227.2844041044205
 20
-304.1880648382325
 30
0.0
  0
SPLINE
  5
944D3
330
1E
100
AcDbEntity
  8
OUTLINE
 62
     3
370
     9
100
AcDbSpline
210
0.0
220
0.0
230
1.0
 70
     8
 71
     3
 72
     8
 73
     4
 74
     0
 42
0.000000001
 43
0.0000000001
 40
0.0
 40
0.0
 40
0.0
 40
0.0
 40
1.0
 40
1.0
 40
1.0
 40
1.0
 10
-227.2523647164077
 20
-304.3120882757015
 30
0.0
 10
-227.2385843344666
 20
-304.3534294215245
 30
0.0
 10
-227.2248039525256
 20
-304.3947705673475
 30
0.0
 10
-227.2065449464538
 20
-304.4316330890397
 30
0.0
  0
POLYLINE
  5
944ED
330
1E
100
AcDbEntity
  8
OUTLINE
 62
     3
370
     9
100
AcDb2dPolyline
 66
     1
 10
0.0
 20
0.0
 30
0.0
  0
VERTEX
  5
944EF
330
944ED
100
AcDbEntity
  8
OUTLINE
 62
     3
370
     9
100
AcDbVertex
100
AcDb2dVertex
 10
-230.2978291253685
 20
-7.503052528584476
 30
0.0
  0
VERTEX
  5
944F0
330
944ED
100
AcDbEntity
  8
OUTLINE
 62
     3
370
     9
100
AcDbVertex
100
AcDb2dVertex
 10
-230.2978291253685
 20
-7.345029701939779
 30
0.0
  0
SEQEND
  5
944EE
330
944ED
100
AcDbEntity
  8
OUTLINE
 62
     3
370
     9
  0
DIMENSION
  5
945DB
330
1E
100
AcDbEntity
  8
SIZE
100
AcDbDimension
  2
*D7
 10
-452.4265927146791
 20
-307.1508469555474
 30
0.0
 11
-452.4265927146791
 21
-439.0707998241944
 31
0.0
 70
   160
  1
33.5
 71
     5
 42
33.34852429721838
  3
STANDARD
100
AcDbAlignedDimension
 13
-202.883579237867
 23
-340.4993712527658
 33
0.0
 14
-230.2978291253685
 24
-307.1508469555474
 34
0.0
 50
90.0
100
AcDbRotatedDimension
1001
ACAD
1000
DSTYLE
1002
{
1070
    41
1040
10.0
1070
    42
1040
20.0
1070
    43
1040
200.0
1070
    44
1040
20.0
1070
    73
1070
     0
1070
    74
1070
     0
1070
    77
1070
     1
1070
    78
1070
     8
1070
   140
1040
50.0
1070
   141
1040
0.082
1070
   147
1040
10.0
1070
   172
1070
     1
1070
   271
1070
     1
1070
   272
1070
     0
1070
   341
1005
46
1070
   342
1005
46
1002
}
  0
DIMENSION
  5
94659
330
1E
100
AcDbEntity
  8
SIZE
100
AcDbDimension
  2
*D8
 10
-43.47719115124028
 20
-444.1713319957419
 30
0.0
 11
-142.0486197226688
 21
-409.171331995742
 31
0.0
 70
    32
 71
     5
 42
38.4793050034009
  3
STANDARD
100
AcDbAlignedDimension
 13
-4.997886147839381
 23
-293.976801819952
 33
0.0
 14
-43.47719115124028
 24
-274.0000711391823
 34
0.0
100
AcDbRotatedDimension
1001
ACAD
1000
DSTYLE
1002
{
1070
    41
1040
10.0
1070
    42
1040
20.0
1070
    43
1040
200.0
1070
    44
1040
20.0
1070
    73
1070
     0
1070
    74
1070
     0
1070
    77
1070
     1
1070
    78
1070
     8
1070
   140
1040
50.0
1070
   141
1040
0.082
1070
   147
1040
10.0
1070
   172
1070
     1
1070
   271
1070
     1
1070
   272
1070
     0
1070
   341
1005
46
1070
   342
1005
46
1002
}
  0
DIMENSION
  5
9469C
330
1E
100
AcDbEntity
  8
SIZE
100
AcDbDimension
  2
*D9
 10
-238.3976271993125
 20
76.32946939327087
 30
0.0
 11
-119.1988135996562
 21
111.3294693932708
 31
0.0
 70
    32
 71
     5
 42
238.3976271993125
  3
STANDARD
100
AcDbAlignedDimension
 13
0.0
 23
0.0
 33
0.0
 14
-238.3976271993125
 24
-8.639634114866225
 34
0.0
100
AcDbRotatedDimension
1001
ACAD
1000
DSTYLE
1002
{
1070
    41
1040
10.0
1070
    42
1040
20.0
1070
    43
1040
200.0
1070
    44
1040
20.0
1070
    73
1070
     0
1070
    74
1070
     0
1070
    77
1070
     1
1070
    78
1070
     8
1070
   140
1040
50.0
1070
   141
1040
0.082
1070
   147
1040
10.0
1070
   172
1070
     1
1070
   271
1070
     0
1070
   272
1070
     0
1070
   341
1005
46
1070
   342
1005
46
1002
}
  0
DIMENSION
  5
946D7
330
1E
100
AcDbEntity
  8
SIZE
100
AcDbDimension
  2
*D10
 10
393.9622891200904
 20
-263.0000000000001
 30
0.0
 11
358.9622891200905
 21
-205.5
 31
0.0
 70
    32
 71
     5
 42
44.15084695554753
  3
STANDARD
100
AcDbAlignedDimension
 13
-230.2978291253685
 23
-307.1508469555474
 33
0.0
 14
20.00008612738726
 24
-262.9999999999999
 34
0.0
 50
90.0
100
AcDbRotatedDimension
1001
ACAD
1000
DSTYLE
1002
{
1070
    41
1040
10.0
1070
    42
1040
20.0
1070
    43
1040
200.0
1070
    44
1040
20.0
1070
    73
1070
     0
1070
    74
1070
     0
1070
    77
1070
     1
1070
    78
1070
     8
1070
   140
1040
50.0
1070
   141
1040
0.082
1070
   147
1040
10.0
1070
   172
1070
     1
1070
   271
1070
     0
1070
   272
1070
     0
1070
   341
1005
46
1070
   342
1005
46
1002
}
  0
DIMENSION
  5
946E5
330
1E
100
AcDbEntity
  8
SIZE
100
AcDbDimension
  2
*D11
 10
472.6995845707131
 20
-262.0
 30
0.0
 11
437.6995845707131
 21
-205.5714285714286
 31
0.0
 70
    32
 71
     5
 42
45.15084695554754
  3
STANDARD
100
AcDbAlignedDimension
 13
-230.2978291253685
 23
-307.1508469555474
 33
0.0
 14
20.00008612738726
 24
-262.0
 34
0.0
 50
90.0
100
AcDbRotatedDimension
1001
ACAD
1000
DSTYLE
1002
{
1070
    41
1040
10.0
1070
    42
1040
20.0
1070
    43
1040
200.0
1070
    44
1040
20.0
1070
    73
1070
     0
1070
    74
1070
     0
1070
    77
1070
     1
1070
    78
1070
     8
1070
   140
1040
50.0
1070
   141
1040
0.082
1070
   147
1040
10.0
1070
   172
1070
     1
1070
   271
1070
     0
1070
   272
1070
     0
1070
   341
1005
46
1070
   342
1005
46
1002
}
  0
ENDSEC
  0
SECTION
  2
OBJECTS
  0
DICTIONARY
  5
C
330
0
100
AcDbDictionary
281
     1
  3
ACAD_CIP_PREVIOUS_PRODUCT_INFO
350
92972
  3
ACAD_COLOR
350
92957
  3
ACAD_DETAILVIEWSTYLE
350
92970
  3
ACAD_GROUP
350
D
  3
ACAD_LAYOUT
350
19
  3
ACAD_MATERIAL
350
92925
  3
ACAD_MLEADERSTYLE
350
9296C
  3
ACAD_MLINESTYLE
350
16
  3
ACAD_PLOTSETTINGS
350
18
  3
ACAD_PLOTSTYLENAME
350
E
  3
ACAD_SCALELIST
350
9295A
  3
ACAD_SECTIONVIEWSTYLE
350
9296E
  3
ACAD_TABLESTYLE
350
92958
  3
ACAD_VISUALSTYLE
350
9293E
  3
ACDB_RECOMPOSE_DATA
350
947DE
  3
AcDbVariableDictionary
350
92BEE
  3
AcDsDecomposeData
350
947E4
  0
DICTIONARY
  5
92981
330
2
100
AcDbDictionary
280
     1
281
     1
  3
ACAD_LAYERSTATES
360
92982
  0
DICTIONARY
  5
92BDC
330
10
100
AcDbDictionary
280
     1
281
     1
  3
ADSK_XREC_LAYER_RECONCILED
360
92BDD
  0
DICTIONARY
  5
92BDE
330
22
100
AcDbDictionary
280
     1
281
     1
  3
ADSK_XREC_LAYER_RECONCILED
360
92BDF
  0
DICTIONARY
  5
92BE0
330
31
100
AcDbDictionary
280
     1
281
     1
  3
ADSK_XREC_LAYER_RECONCILED
360
92BE1
  0
DICTIONARY
  5
92BE2
330
32
100
AcDbDictionary
280
     1
281
     1
  3
ADSK_XREC_LAYER_RECONCILED
360
92BE3
  0
DICTIONARY
  5
92BE4
330
33
100
AcDbDictionary
280
     1
281
     1
  3
ADSK_XREC_LAYER_RECONCILED
360
92BE5
  0
DICTIONARY
  5
92BE6
330
34
100
AcDbDictionary
280
     1
281
     1
  3
ADSK_XREC_LAYER_RECONCILED
360
92BE7
  0
DICTIONARY
  5
92BE8
330
35
100
AcDbDictionary
280
     1
281
     1
  3
ADSK_XREC_LAYER_RECONCILED
360
92BE9
  0
DICTIONARY
  5
92BEA
330
37
100
AcDbDictionary
280
     1
281
     1
  3
ADSK_XREC_LAYER_RECONCILED
360
92BEB
  0
DICTIONARY
  5
92BEC
330
92978
100
AcDbDictionary
280
     1
281
     1
  3
ADSK_XREC_LAYER_RECONCILED
360
92BED
  0
DICTIONARY
  5
66E76
330
1E
100
AcDbDictionary
280
     1
281
     1
  3
ACAD_LAYOUTSELFREF
360
9243B
  3
ACAD_SORTENTS
360
92F73
  0
DICTIONARY
  5
66E74
330
1A
100
AcDbDictionary
280
     1
281
     1
  3
ACAD_LAYOUTSELFREF
360
9243A
  0
XRECORD
  5
92972
102
{ACAD_REACTORS
330
C
102
}
330
C
100
AcDbXrecord
280
     1
300
ACDLT
300
2014
300
ACDLT_F_S
  0
DICTIONARY
  5
92957
102
{ACAD_REACTORS
330
C
102
}
330
C
100
AcDbDictionary
281
     1
  0
DICTIONARY
  5
92970
102
{ACAD_REACTORS
330
C
102
}
330
C
100
AcDbDictionary
281
     1
  3
Imperial24
350
92971
  3
Metric50
350
92984
  0
DICTIONARY
  5
D
102
{ACAD_REACTORS
330
C
102
}
330
C
100
AcDbDictionary
281
     1
  0
DICTIONARY
  5
19
102
{ACAD_REACTORS
330
C
102
}
330
C
100
AcDbDictionary
281
     1
  3
Model
350
92440
  3
ﾚｲｱｳﾄ1
350
92441
  0
DICTIONARY
  5
92925
102
{ACAD_REACTORS
330
C
102
}
330
C
100
AcDbDictionary
281
     1
  3
ByBlock
350
9292E
  3
ByLayer
350
92926
  3
Global
350
92936
  0
DICTIONARY
  5
9296C
102
{ACAD_REACTORS
330
C
102
}
330
C
100
AcDbDictionary
281
     1
  3
Standard
350
9296D
  0
DICTIONARY
  5
16
102
{ACAD_REACTORS
330
C
102
}
330
C
100
AcDbDictionary
281
     1
  3
STANDARD
350
17
  0
DICTIONARY
  5
18
102
{ACAD_REACTORS
330
C
102
}
330
C
100
AcDbDictionary
281
     1
  3
セットアップ1
350
93F24
  0
ACDBDICTIONARYWDFLT
  5
E
102
{ACAD_REACTORS
330
C
102
}
330
C
100
AcDbDictionary
281
     1
  3
Normal
350
F
100
AcDbDictionaryWithDefault
340
F
  0
DICTIONARY
  5
9295A
102
{ACAD_REACTORS
330
C
102
}
330
C
100
AcDbDictionary
281
     1
  3
A0
350
9295B
  3
A1
350
9295C
  3
A2
350
9295D
  3
A3
350
9295E
  3
A4
350
9295F
  3
A5
350
92960
  3
A6
350
92961
  3
A7
350
92962
  3
A8
350
92963
  3
A9
350
92964
  3
B0
350
92965
  3
B1
350
92966
  3
B2
350
92967
  3
B3
350
92968
  3
B4
350
92969
  3
B5
350
9296A
  3
B6
350
9296B
  0
DICTIONARY
  5
9296E
102
{ACAD_REACTORS
330
C
102
}
330
C
100
AcDbDictionary
281
     1
  3
Imperial24
350
9296F
  3
Metric50
350
92983
  0
DICTIONARY
  5
92958
102
{ACAD_REACTORS
330
C
102
}
330
C
100
AcDbDictionary
281
     1
  3
Standard
350
92959
  0
DICTIONARY
  5
9293E
102
{ACAD_REACTORS
330
C
102
}
330
C
100
AcDbDictionary
281
     1
  3
2dWireframe
350
92944
  3
Basic
350
92943
  3
Brighten
350
9294A
  3
ColorChange
350
9294E
  3
Conceptual
350
92947
  3
Dim
350
92949
  3
EdgeColorOff
350
92956
  3
Facepattern
350
9294D
  3
Flat
350
9293F
  3
FlatWithEdges
350
92940
  3
Gouraud
350
92941
  3
GouraudWithEdges
350
92942
  3
Hidden
350
92946
  3
JitterOff
350
92954
  3
Linepattern
350
9294C
  3
OverhangOff
350
92955
  3
Realistic
350
92948
  3
Shaded
350
92953
  3
Shaded with edges
350
92952
  3
Shades of Gray
350
9294F
  3
Sketchy
350
92950
  3
Thicken
350
9294B
  3
Wireframe
350
92945
  3
X-Ray
350
92951
  0
XRECORD
  5
947DE
102
{ACAD_REACTORS
330
C
102
}
330
C
100
AcDbXrecord
280
     1
 90
        1
330
92959
  0
DICTIONARY
  5
92BEE
102
{ACAD_REACTORS
330
C
102
}
330
C
100
AcDbDictionary
281
     1
  3
CANNOSCALE
350
92BF4
  3
CMLEADERSTYLE
350
92BF0
  3
CTABLESTYLE
350
92BEF
  3
CVIEWDETAILSTYLE
350
92BF1
  3
CVIEWSECTIONSTYLE
350
92BF2
  3
DIMASSOC
350
93E78
  3
INDEXCTL
350
93E77
  3
LAYEREVAL
350
92BF6
  3
LAYERNOTIFY
350
92BF7
  3
LIGHTINGUNITS
350
92BF5
  3
LOFTANG1
350
93F2F
  3
LOFTANG2
350
93F30
  3
MSLTSCALE
350
92BF3
  3
SORTENTS
350
93E76
  3
XCLIPFRAME
350
93F31
  0
DICTIONARY
  5
947E4
102
{ACAD_REACTORS
330
C
102
}
330
C
100
AcDbDictionary
281
     1
  3
AcDsRecords
350
947E6
  3
AcDsSchemas
350
947E5
1001
ACAD
1070
     2
  0
DICTIONARY
  5
92982
102
{ACAD_REACTORS
330
92981
102
}
330
92981
100
AcDbDictionary
281
     1
  0
XRECORD
  5
92BDD
102
{ACAD_REACTORS
330
92BDC
102
}
330
92BDC
100
AcDbXrecord
280
     1
290
     1
  0
XRECORD
  5
92BDF
102
{ACAD_REACTORS
330
92BDE
102
}
330
92BDE
100
AcDbXrecord
280
     1
290
     1
  0
XRECORD
  5
92BE1
102
{ACAD_REACTORS
330
92BE0
102
}
330
92BE0
100
AcDbXrecord
280
     1
290
     1
  0
XRECORD
  5
92BE3
102
{ACAD_REACTORS
330
92BE2
102
}
330
92BE2
100
AcDbXrecord
280
     1
290
     1
  0
XRECORD
  5
92BE5
102
{ACAD_REACTORS
330
92BE4
102
}
330
92BE4
100
AcDbXrecord
280
     1
290
     1
  0
XRECORD
  5
92BE7
102
{ACAD_REACTORS
330
92BE6
102
}
330
92BE6
100
AcDbXrecord
280
     1
290
     1
  0
XRECORD
  5
92BE9
102
{ACAD_REACTORS
330
92BE8
102
}
330
92BE8
100
AcDbXrecord
280
     1
290
     1
  0
XRECORD
  5
92BEB
102
{ACAD_REACTORS
330
92BEA
102
}
330
92BEA
100
AcDbXrecord
280
     1
290
     1
  0
XRECORD
  5
92BED
102
{ACAD_REACTORS
330
92BEC
102
}
330
92BEC
100
AcDbXrecord
280
     1
290
     1
  0
XRECORD
  5
9243B
102
{ACAD_REACTORS
330
66E76
102
}
330
66E76
100
AcDbXrecord
280
     1
340
1E
  0
SORTENTSTABLE
  5
92F73
102
{ACAD_REACTORS
330
66E76
102
}
330
66E76
100
AcDbSortentsTable
330
1E
331
9421F
  5
9421F
331
9430B
  5
9430B
331
92FA4
  5
93047
331
94266
  5
94266
331
94352
  5
94352
331
92FAC
  5
93052
331
9426E
  5
9426E
331
9435A
  5
9435A
331
94237
  5
94237
331
9423F
  5
9423F
331
9427E
  5
9427E
331
94247
  5
94247
331
94659
  5
94659
331
9428E
  5
9428E
331
92F6D
  5
92F6E
331
9424F
  5
9424F
331
9433B
  5
9433B
331
92FA5
  5
93048
331
9429E
  5
9429E
331
94353
  5
94353
331
942A6
  5
942A6
331
942E5
  5
942E5
331
9431C
  5
9431C
331
942AE
  5
942AE
331
942ED
  5
942ED
331
942FD
  5
942FD
331
94334
  5
94334
331
94305
  5
94305
331
9433C
  5
9433C
331
92F6E
  5
92F6F
331
94258
  5
94258
331
9434C
  5
9434C
331
941AB
  5
941AB
331
92F9E
  5
92FA9
331
941B3
  5
941B3
331
94315
  5
94315
331
94354
  5
94354
331
944D3
  5
944D5
331
92FA6
  5
93049
331
941BB
  5
941BB
331
9431D
  5
9431D
331
94325
  5
94325
331
941C3
  5
941C3
331
94364
  5
94364
331
9300E
  5
93073
331
942B7
  5
942B7
331
945DB
  5
945DB
331
941CB
  5
941CB
331
941D3
  5
941D3
331
942BF
  5
942BF
331
94335
  5
94335
331
941DB
  5
941DB
331
942C7
  5
942C7
331
9433D
  5
9433D
331
94384
  5
94384
331
92F6F
  5
92F72
331
942CF
  5
942CF
331
94345
  5
94345
331
92F9F
  5
92FAA
331
94355
  5
94355
331
92FA7
  5
9304A
331
941F3
  5
941F3
331
9431E
  5
9431E
331
941FB
  5
941FB
331
9435D
  5
9435D
331
9300F
  5
93074
331
94203
  5
94203
331
94365
  5
94365
331
9432E
  5
9432E
331
9436D
  5
9436D
331
9420B
  5
9420B
331
94336
  5
94336
331
9421B
  5
9421B
331
9433E
  5
9433E
331
94346
  5
94346
331
92FA0
  5
92FAB
331
94223
  5
94223
331
94262
  5
94262
331
92FA8
  5
9304B
331
9422B
  5
9422B
331
9426A
  5
9426A
331
94356
  5
94356
331
944ED
  5
943A9
331
9431F
  5
9431F
331
94272
  5
94272
331
9435E
  5
9435E
331
94327
  5
94327
331
9423B
  5
9423B
331
9432F
  5
9432F
331
38341
  5
38341
331
94243
  5
94243
331
9424B
  5
9424B
331
94337
  5
94337
331
94292
  5
94292
331
941A6
  5
941A6
331
94253
  5
94253
331
94347
  5
94347
331
942D9
  5
942D9
331
92FA9
  5
9304C
331
942A2
  5
942A2
331
942E1
  5
942E1
331
94357
  5
94357
331
94320
  5
94320
331
942AA
  5
942AA
331
942E9
  5
942E9
331
94328
  5
94328
331
942B2
  5
942B2
331
942F1
  5
942F1
331
94330
  5
94330
331
94338
  5
94338
331
941A7
  5
941A7
331
9425C
  5
9425C
331
94348
  5
94348
331
941AF
  5
941AF
331
94311
  5
94311
331
94350
  5
94350
331
93E09
  5
93E09
331
92FAA
  5
9304D
331
941B7
  5
941B7
331
94358
  5
94358
331
93E69
  5
93E69
331
94321
  5
94321
331
94360
  5
94360
331
941C7
  5
941C7
331
941CF
  5
941CF
331
94331
  5
94331
331
941D7
  5
941D7
331
942C3
  5
942C3
331
944C0
  5
944C2
331
942CB
  5
942CB
331
94341
  5
94341
331
941E7
  5
941E7
331
942D3
  5
942D3
331
92FA3
  5
9300F
331
941EF
  5
941EF
331
94351
  5
94351
331
92FAB
  5
93051
331
941F7
  5
941F7
331
94359
  5
94359
331
941FF
  5
941FF
331
94207
  5
94207
331
94369
  5
94369
331
94371
  5
94371
331
94217
  5
94217
331
9433A
  5
9433A
  0
XRECORD
  5
9243A
102
{ACAD_REACTORS
330
66E74
102
}
330
66E74
100
AcDbXrecord
280
     1
340
1A
  0
ACDBDETAILVIEWSTYLE
  5
92971
102
{ACAD_XDICTIONARY
360
93FCA
102
}
102
{ACAD_REACTORS
330
92970
102
}
330
92970
100
AcDbModelDocViewStyle
 70
     0
  3
Imperial24
290
     0
100
AcDbDetailViewStyle
 70
     0
 71
     0
 90
        3
 71
     1
340
11
 62
   256
 40
0.24
340
0
 62
   256
 40
0.24
300

 40
0.36
280
     3
 71
     2
340
15
 90
       25
 62
   256
 71
     3
340
11
 62
   256
 40
0.24
 90
        1
 40
0.75
 90
        1
300
%<\AcVar ViewType \f "%tc1">% %<\AcVar ViewDetailId>%\PSCALE %<\AcVar ViewScale \f "%sn">%
 71
     4
340
15
 90
       25
 62
   256
340
15
 90
       25
 62
   256
280
     0
  0
ACDBDETAILVIEWSTYLE
  5
92984
102
{ACAD_XDICTIONARY
360
93FCE
102
}
102
{ACAD_REACTORS
330
92970
102
}
330
92970
100
AcDbModelDocViewStyle
 70
     0
  3
Metric50
290
     0
100
AcDbDetailViewStyle
 70
     0
 71
     0
 90
        3
 71
     1
340
11
 62
   256
 40
5.0
340
0
 62
   256
 40
5.0
300

 40
0.0
280
     1
 71
     2
340
15
 90
       25
 62
   256
 71
     3
340
11
 62
   256
 40
5.0
 90
        0
 40
15.0
 90
        1
300
%<\AcVar ViewDetailId>% (%<\AcVar ViewScale \f "%sn">%)
 71
     4
340
15
 90
       25
 62
   256
340
15
 90
       25
 62
   256
280
     0
  0
LAYOUT
  5
92440
102
{ACAD_REACTORS
330
19
102
}
330
19
100
AcDbPlotSettings
  1

  2
\\PC07\EPSON LP-8900
  4
A4
  6
ALL
 40
5.873749732971191
 41
5.873747825622557
 42
5.873748779296875
 43
5.873748779296875
 44
209.9733276367186
 45
297.0106506347656
 46
0.0
 47
0.0
 48
0.0
 49
0.0
140
0.0
141
0.0
142
1.0
143
132.7689211374306
 70
 11952
 72
     0
 73
     1
 74
     0
  7
monochrome.ctb
 75
     0
147
0.0075318831503111
 76
     0
 77
     2
 78
   300
148
15720.72489714366
149
12188.60931796378
100
AcDbLayout
  1
Model
 70
     1
 71
     0
 10
0.0
 20
0.0
 11
12.0
 21
9.0
 12
0.0
 22
0.0
 32
0.0
 14
0.0
 24
0.0
 34
0.0
 15
0.0
 25
0.0
 35
0.0
146
0.0
 13
0.0
 23
0.0
 33
0.0
 16
1.0
 26
0.0
 36
0.0
 17
0.0
 27
1.0
 37
0.0
 76
     0
330
1E
331
92920
  0
LAYOUT
  5
92441
102
{ACAD_REACTORS
330
19
102
}
330
19
100
AcDbPlotSettings
  1

  2
\\PC07\EPSON LP-8900
  4

  6

 40
0.0
 41
0.0
 42
0.0
 43
0.0
 44
0.0
 45
0.0
 46
0.0
 47
0.0
 48
0.0
 49
0.0
140
0.0
141
0.0
142
1.0
143
1.0
 70
   688
 72
     0
 73
     0
 74
     5
  7
monochrome.ctb
 75
    16
147
1.0
 76
     0
 77
     2
 78
   300
148
0.0
149
0.0
100
AcDbLayout
  1
ﾚｲｱｳﾄ1
 70
     1
 71
     1
 10
0.0
 20
0.0
 11
12.0
 21
9.0
 12
0.0
 22
0.0
 32
0.0
 14
1.000000000000000E+20
 24
1.000000000000000E+20
 34
1.000000000000000E+20
 15
-1.000000000000000E+20
 25
-1.000000000000000E+20
 35
-1.000000000000000E+20
146
0.0
 13
0.0
 23
0.0
 33
0.0
 16
1.0
 26
0.0
 36
0.0
 17
0.0
 27
1.0
 37
0.0
 76
     0
330
1A
  0
MATERIAL
  5
9292E
102
{ACAD_XDICTIONARY
360
9292F
102
}
102
{ACAD_REACTORS
330
92925
102
}
330
92925
100
AcDbMaterial
  1
ByBlock
 72
     0
 43
0.0208333333333333
 43
0.0
 43
0.0
 43
0.0
 43
0.0
 43
0.0208333333333333
 43
0.0
 43
0.0
 43
0.0
 43
0.0
 43
1.0
 43
0.0
 43
0.0
 43
0.0
 43
0.0
 43
1.0
 77
     0
 47
0.0208333333333333
 47
0.0
 47
0.0
 47
0.0
 47
0.0
 47
0.0208333333333333
 47
0.0
 47
0.0
 47
0.0
 47
0.0
 47
1.0
 47
0.0
 47
0.0
 47
0.0
 47
0.0
 47
1.0
171
     0
 49
0.0208333333333333
 49
0.0
 49
0.0
 49
0.0
 49
0.0
 49
0.0208333333333333
 49
0.0
 49
0.0
 49
0.0
 49
0.0
 49
1.0
 49
0.0
 49
0.0
 49
0.0
 49
0.0
 49
1.0
175
     0
142
0.0208333333333333
142
0.0
142
0.0
142
0.0
142
0.0
142
0.0208333333333333
142
0.0
142
0.0
142
0.0
142
0.0
142
1.0
142
0.0
142
0.0
142
0.0
142
0.0
142
1.0
179
     0
144
0.0208333333333333
144
0.0
144
0.0
144
0.0
144
0.0
144
0.0208333333333333
144
0.0
144
0.0
144
0.0
144
0.0
144
1.0
144
0.0
144
0.0
144
0.0
144
0.0
144
1.0
147
0.0208333333333333
147
0.0
147
0.0
147
0.0
147
0.0
147
0.0208333333333333
147
0.0
147
0.0
147
0.0
147
0.0
147
1.0
147
0.0
147
0.0
147
0.0
147
0.0
147
1.0
  0
MATERIAL
  5
92926
102
{ACAD_XDICTIONARY
360
92927
102
}
102
{ACAD_REACTORS
330
92925
102
}
330
92925
100
AcDbMaterial
  1
ByLayer
 72
     0
 43
0.0208333333333333
 43
0.0
 43
0.0
 43
0.0
 43
0.0
 43
0.0208333333333333
 43
0.0
 43
0.0
 43
0.0
 43
0.0
 43
1.0
 43
0.0
 43
0.0
 43
0.0
 43
0.0
 43
1.0
 77
     0
 47
0.0208333333333333
 47
0.0
 47
0.0
 47
0.0
 47
0.0
 47
0.0208333333333333
 47
0.0
 47
0.0
 47
0.0
 47
0.0
 47
1.0
 47
0.0
 47
0.0
 47
0.0
 47
0.0
 47
1.0
171
     0
 49
0.0208333333333333
 49
0.0
 49
0.0
 49
0.0
 49
0.0
 49
0.0208333333333333
 49
0.0
 49
0.0
 49
0.0
 49
0.0
 49
1.0
 49
0.0
 49
0.0
 49
0.0
 49
0.0
 49
1.0
175
     0
142
0.0208333333333333
142
0.0
142
0.0
142
0.0
142
0.0
142
0.0208333333333333
142
0.0
142
0.0
142
0.0
142
0.0
142
1.0
142
0.0
142
0.0
142
0.0
142
0.0
142
1.0
179
     0
144
0.0208333333333333
144
0.0
144
0.0
144
0.0
144
0.0
144
0.0208333333333333
144
0.0
144
0.0
144
0.0
144
0.0
144
1.0
144
0.0
144
0.0
144
0.0
144
0.0
144
1.0
147
0.0208333333333333
147
0.0
147
0.0
147
0.0
147
0.0
147
0.0208333333333333
147
0.0
147
0.0
147
0.0
147
0.0
147
1.0
147
0.0
147
0.0
147
0.0
147
0.0
147
1.0
  0
MATERIAL
  5
92936
102
{ACAD_XDICTIONARY
360
92937
102
}
102
{ACAD_REACTORS
330
92925
102
}
330
92925
100
AcDbMaterial
  1
Global
 72
     0
 43
0.0208333333333333
 43
0.0
 43
0.0
 43
0.0
 43
0.0
 43
0.0208333333333333
 43
0.0
 43
0.0
 43
0.0
 43
0.0
 43
1.0
 43
0.0
 43
0.0
 43
0.0
 43
0.0
 43
1.0
 77
     0
 47
0.0208333333333333
 47
0.0
 47
0.0
 47
0.0
 47
0.0
 47
0.0208333333333333
 47
0.0
 47
0.0
 47
0.0
 47
0.0
 47
1.0
 47
0.0
 47
0.0
 47
0.0
 47
0.0
 47
1.0
171
     0
 49
0.0208333333333333
 49
0.0
 49
0.0
 49
0.0
 49
0.0
 49
0.0208333333333333
 49
0.0
 49
0.0
 49
0.0
 49
0.0
 49
1.0
 49
0.0
 49
0.0
 49
0.0
 49
0.0
 49
1.0
175
     0
142
0.0208333333333333
142
0.0
142
0.0
142
0.0
142
0.0
142
0.0208333333333333
142
0.0
142
0.0
142
0.0
142
0.0
142
1.0
142
0.0
142
0.0
142
0.0
142
0.0
142
1.0
179
     0
144
0.0208333333333333
144
0.0
144
0.0
144
0.0
144
0.0
144
0.0208333333333333
144
0.0
144
0.0
144
0.0
144
0.0
144
1.0
144
0.0
144
0.0
144
0.0
144
0.0
144
1.0
147
0.0208333333333333
147
0.0
147
0.0
147
0.0
147
0.0
147
0.0208333333333333
147
0.0
147
0.0
147
0.0
147
0.0
147
1.0
147
0.0
147
0.0
147
0.0
147
0.0
147
1.0
  0
MLEADERSTYLE
  5
9296D
102
{ACAD_REACTORS
330
9296C
102
}
330
9296C
100
AcDbMLeaderStyle
170
     2
171
     1
172
     0
 90
        2
 40
0.0
 41
0.0
173
     1
 91
-1056964608
340
13
 92
       -2
290
     1
 42
0.09
291
     1
 43
0.36
  3
Standard
 44
0.18
300

342
11
174
     1
178
     6
175
     1
176
     0
 93
-1056964608
 45
0.18
292
     0
297
     0
 46
0.18
 94
-1056964608
 47
1.0
 49
1.0
140
1.0
293
     1
141
0.0
294
     1
177
     0
142
1.0
295
     0
296
     0
143
0.125
1001
ACAD_MLEADERVER
1070
     2
  0
MLINESTYLE
  5
17
102
{ACAD_REACTORS
330
16
102
}
330
16
100
AcDbMlineStyle
  2
STANDARD
 70
     0
  3

 62
   256
 51
90.0
 52
90.0
 71
     2
 49
0.5
 62
   256
  6
BYLAYER
 49
-0.5
 62
   256
  6
BYLAYER
  0
PLOTSETTINGS
  5
93F24
102
{ACAD_REACTORS
330
18
102
}
330
18
100
AcDbPlotSettings
  1
セットアップ1
  2
none_device
  4
none_user_media
  6
ALL
 40
5.873749732971191
 41
5.873747825622558
 42
5.873748779296875
 43
5.873748779296875
 44
209.9733276367187
 45
297.0106506347656
 46
0.0
 47
0.0
 48
0.0
 49
0.0
140
0.0
141
0.0
142
1.0
143
235.5315197651069
 70
 11952
 72
     0
 73
     1
 74
     0
  7
monochrome.ctb
 75
     0
147
0.0042457162463745
 76
     0
 77
     2
 78
   300
148
41999.52322403251
149
26811.35688262784
1001
ACAD_PSEXT
1000
なし
1000
なし
1000
適切ではありません
1000
新しいプロッタ環境設定名を選択しない限り、レイアウトは印刷されません。
1070
     0
  0
ACDBPLACEHOLDER
  5
F
102
{ACAD_REACTORS
330
E
102
}
330
E
  0
SCALE
  5
9295B
102
{ACAD_REACTORS
330
9295A
102
}
330
9295A
100
AcDbScale
 70
     0
300
1:1
140
1.0
141
1.0
290
     1
  0
SCALE
  5
9295C
102
{ACAD_REACTORS
330
9295A
102
}
330
9295A
100
AcDbScale
 70
     0
300
1/128" = 1'-0"
140
0.0078125
141
12.0
290
     0
  0
SCALE
  5
9295D
102
{ACAD_REACTORS
330
9295A
102
}
330
9295A
100
AcDbScale
 70
     0
300
1/64" = 1'-0"
140
0.015625
141
12.0
290
     0
  0
SCALE
  5
9295E
102
{ACAD_REACTORS
330
9295A
102
}
330
9295A
100
AcDbScale
 70
     0
300
1/32" = 1'-0"
140
0.03125
141
12.0
290
     0
  0
SCALE
  5
9295F
102
{ACAD_REACTORS
330
9295A
102
}
330
9295A
100
AcDbScale
 70
     0
300
1/16" = 1'-0"
140
0.0625
141
12.0
290
     0
  0
SCALE
  5
92960
102
{ACAD_REACTORS
330
9295A
102
}
330
9295A
100
AcDbScale
 70
     0
300
3/32" = 1'-0"
140
0.09375
141
12.0
290
     0
  0
SCALE
  5
92961
102
{ACAD_REACTORS
330
9295A
102
}
330
9295A
100
AcDbScale
 70
     0
300
1/8" = 1'-0"
140
0.125
141
12.0
290
     0
  0
SCALE
  5
92962
102
{ACAD_REACTORS
330
9295A
102
}
330
9295A
100
AcDbScale
 70
     0
300
3/16" = 1'-0"
140
0.1875
141
12.0
290
     0
  0
SCALE
  5
92963
102
{ACAD_REACTORS
330
9295A
102
}
330
9295A
100
AcDbScale
 70
     0
300
1/4" = 1'-0"
140
0.25
141
12.0
290
     0
  0
SCALE
  5
92964
102
{ACAD_REACTORS
330
9295A
102
}
330
9295A
100
AcDbScale
 70
     0
300
3/8" = 1'-0"
140
0.375
141
12.0
290
     0
  0
SCALE
  5
92965
102
{ACAD_REACTORS
330
9295A
102
}
330
9295A
100
AcDbScale
 70
     0
300
1/2" = 1'-0"
140
0.5
141
12.0
290
     0
  0
SCALE
  5
92966
102
{ACAD_REACTORS
330
9295A
102
}
330
9295A
100
AcDbScale
 70
     0
300
3/4" = 1'-0"
140
0.75
141
12.0
290
     0
  0
SCALE
  5
92967
102
{ACAD_REACTORS
330
9295A
102
}
330
9295A
100
AcDbScale
 70
     0
300
1" = 1'-0"
140
1.0
141
12.0
290
     0
  0
SCALE
  5
92968
102
{ACAD_REACTORS
330
9295A
102
}
330
9295A
100
AcDbScale
 70
     0
300
1-1/2" = 1'-0"
140
1.5
141
12.0
290
     0
  0
SCALE
  5
92969
102
{ACAD_REACTORS
330
9295A
102
}
330
9295A
100
AcDbScale
 70
     0
300
3" = 1'-0"
140
3.0
141
12.0
290
     0
  0
SCALE
  5
9296A
102
{ACAD_REACTORS
330
9295A
102
}
330
9295A
100
AcDbScale
 70
     0
300
6" = 1'-0"
140
6.0
141
12.0
290
     0
  0
SCALE
  5
9296B
102
{ACAD_REACTORS
330
9295A
102
}
330
9295A
100
AcDbScale
 70
     0
300
1'-0" = 1'-0"
140
12.0
141
12.0
290
     0
  0
ACDBSECTIONVIEWSTYLE
  5
9296F
102
{ACAD_XDICTIONARY
360
93FC8
102
}
102
{ACAD_REACTORS
330
9296E
102
}
330
9296E
100
AcDbModelDocViewStyle
 70
     0
  3
Imperial24
290
     0
100
AcDbSectionViewStyle
 70
     0
 71
     0
 90
       78
 71
     1
340
11
 62
   256
 40
0.24
340
0
340
0
 62
   256
 40
0.24
300
I, O, Q, S, X, Z
 40
0.48
 90
        3
 40
0.18
 90
        1
 71
     2
340
15
 90
       25
 62
   256
340
15
 90
       50
 62
   256
 40
0.24
 40
0.0
 40
0.24
 71
     3
340
11
 62
   256
 40
0.24
 90
        1
 40
0.75
 90
        1
300
%<\AcVar ViewType \f "%tc1">% %<\AcVar ViewSectionStartId>%-%<\AcVar ViewSectionEndId>%\PSCALE %<\AcVar ViewScale \f "%sn">%
 71
     4
 62
   256
 62
   257
300
ANSI31
 40
1.0
 90
        0
290
     0
290
     0
 90
        6
 40
0.0
 40
1.570796326794896
 40
0.2617993877991494
 40
1.308996938995747
 40
-0.2617993877991494
 40
1.832595714594044
  0
ACDBSECTIONVIEWSTYLE
  5
92983
102
{ACAD_XDICTIONARY
360
93FCC
102
}
102
{ACAD_REACTORS
330
9296E
102
}
330
9296E
100
AcDbModelDocViewStyle
 70
     0
  3
Metric50
290
     0
100
AcDbSectionViewStyle
 70
     0
 71
     0
 90
      102
 71
     1
340
11
 62
   256
 40
5.0
340
0
340
0
 62
   256
 40
5.0
300
I, O, Q, S, X, Z
 40
10.0
 90
        0
 40
2.5
 90
        0
 71
     2
340
15
 90
       25
 62
   256
340
15
 90
       50
 62
   256
 40
5.0
 40
2.5
 40
5.0
 71
     3
340
11
 62
   256
 40
5.0
 90
        0
 40
15.0
 90
        1
300
%<\AcVar ViewSectionStartId>%-%<\AcVar ViewSectionEndId>% (%<\AcVar ViewScale \f "%sn">%)
 71
     4
 62
   256
 62
   257
300
ANSI31
 40
1.0
 90
        0
290
     0
290
     0
 90
        6
 40
0.0
 40
1.570796326794896
 40
0.2617993877991494
 40
1.308996938995747
 40
-0.2617993877991494
 40
1.832595714594044
  0
TABLESTYLE
  5
92959
102
{ACAD_XDICTIONARY
360
92C0A
102
}
102
{ACAD_REACTORS
330
92958
102
}
330
92958
100
AcDbTableStyle
  3
Standard
 70
     0
 71
     0
 40
0.06
 41
0.06
280
     0
281
     0
  7
STANDARD
140
0.18
170
     2
 62
     0
 63
     7
283
     0
274
    -2
284
     1
 64
     0
275
    -2
285
     1
 65
     0
276
    -2
286
     1
 66
     0
277
    -2
287
     1
 67
     0
278
    -2
288
     1
 68
     0
279
    -2
289
     1
 69
     0
  7
STANDARD
140
0.25
170
     5
 62
     0
 63
     7
283
     0
274
    -2
284
     1
 64
     0
275
    -2
285
     1
 65
     0
276
    -2
286
     1
 66
     0
277
    -2
287
     1
 67
     0
278
    -2
288
     1
 68
     0
279
    -2
289
     1
 69
     0
  7
STANDARD
140
0.18
170
     5
 62
     0
 63
     7
283
     0
274
    -2
284
     1
 64
     0
275
    -2
285
     1
 65
     0
276
    -2
286
     1
 66
     0
277
    -2
287
     1
 67
     0
278
    -2
288
     1
 68
     0
279
    -2
289
     1
 69
     0
  0
VISUALSTYLE
  5
92944
102
{ACAD_XDICTIONARY
360
947F1
102
}
102
{ACAD_REACTORS
330
9293E
102
}
330
9293E
100
AcDbVisualStyle
  2

 70
     4
 71
     0
 72
     2
 73
     0
 90
        0
 40
-0.6
 41
-30.0
 62
     5
 63
     7
 74
     1
 91
        4
 64
     7
 65
   257
 75
     1
175
     1
 42
1.0
 92
        0
 66
   257
 43
1.0
 76
     1
 77
     6
 78
     2
 67
     7
 79
     5
170
     0
171
     0
290
     0
174
     0
 93
        1
 44
0.0
173
     0
291
     0
 45
0.0
1001
ACAD
1000
AcDbSavedByObjectVersion
1070
     0
  0
VISUALSTYLE
  5
92943
102
{ACAD_XDICTIONARY
360
947EF
102
}
102
{ACAD_REACTORS
330
9293E
102
}
330
9293E
100
AcDbVisualStyle
  2

 70
     7
 71
     1
 72
     0
 73
     1
 90
        0
 40
-0.6
 41
-30.0
 62
     5
 63
     7
 74
     0
 91
        4
 64
     7
 65
   257
 75
     1
175
     1
 42
1.0
 92
        8
 66
     7
 43
1.0
 76
     1
 77
     6
 78
     2
 67
     7
 79
     5
170
     0
171
     0
290
     0
174
     0
 93
        1
 44
0.0
173
     0
291
     1
 45
0.0
1001
ACAD
1000
AcDbSavedByObjectVersion
1070
     0
  0
VISUALSTYLE
  5
9294A
102
{ACAD_XDICTIONARY
360
947FD
102
}
102
{ACAD_REACTORS
330
9293E
102
}
330
9293E
100
AcDbVisualStyle
  2

 70
    12
 71
     2
 72
     2
 73
     0
 90
        0
 40
-0.6
 41
-30.0
 62
     5
 63
     7
 74
     1
 91
        4
 64
     7
 65
   257
 75
     1
175
     1
 42
1.0
 92
        8
 66
     7
 43
1.0
 76
     1
 77
     6
 78
     2
 67
     7
 79
     5
170
     0
171
     0
290
     0
174
     0
 93
        1
 44
50.0
173
     0
291
     1
 45
0.0
1001
ACAD
1000
AcDbSavedByObjectVersion
1070
     0
  0
VISUALSTYLE
  5
9294E
102
{ACAD_XDICTIONARY
360
94805
102
}
102
{ACAD_REACTORS
330
9293E
102
}
330
9293E
100
AcDbVisualStyle
  2

 70
    16
 71
     2
 72
     2
 73
     3
 90
        0
 40
-0.6
 41
-30.0
 62
     5
 63
     8
 74
     1
 91
        4
 64
     7
 65
   257
 75
     1
175
     1
 42
1.0
 92
        8
 66
     8
 43
1.0
 76
     1
 77
     6
 78
     2
 67
     7
 79
     5
170
     0
171
     0
290
     0
174
     0
 93
        1
 44
0.0
173
     0
291
     1
 45
0.0
1001
ACAD
1000
AcDbSavedByObjectVersion
1070
     0
  0
VISUALSTYLE
  5
92947
102
{ACAD_XDICTIONARY
360
947F7
102
}
102
{ACAD_REACTORS
330
9293E
102
}
330
9293E
100
AcDbVisualStyle
  2

 70
     9
 71
     3
 72
     2
 73
     0
 90
        0
 40
-0.6
 41
-30.0
 62
     5
 63
     7
 74
     2
 91
        2
 64
     7
 65
   257
 75
     1
175
     1
 42
179.0
 92
        8
 66
     7
 43
1.0
 76
     1
 77
     6
 78
     2
 67
     7
 79
     3
170
     0
171
     0
290
     0
174
     0
 93
        1
 44
0.0
173
     0
291
     0
 45
0.0
1001
ACAD
1000
AcDbSavedByObjectVersion
1070
     0
  0
VISUALSTYLE
  5
92949
102
{ACAD_XDICTIONARY
360
947FB
102
}
102
{ACAD_REACTORS
330
9293E
102
}
330
9293E
100
AcDbVisualStyle
  2

 70
    11
 71
     2
 72
     2
 73
     0
 90
        0
 40
-0.6
 41
-30.0
 62
     5
 63
     7
 74
     1
 91
        4
 64
     7
 65
   257
 75
     1
175
     1
 42
1.0
 92
        8
 66
     7
 43
1.0
 76
     1
 77
     6
 78
     2
 67
     7
 79
     5
170
     0
171
     0
290
     0
174
     0
 93
        1
 44
-50.0
173
     0
291
     1
 45
0.0
1001
ACAD
1000
AcDbSavedByObjectVersion
1070
     0
  0
VISUALSTYLE
  5
92956
102
{ACAD_XDICTIONARY
360
94815
102
}
102
{ACAD_REACTORS
330
9293E
102
}
330
9293E
100
AcDbVisualStyle
  2

 70
    22
 71
     2
 72
     2
 73
     0
 90
        0
 40
-0.6
 41
-30.0
 62
     5
 63
     7
 74
     1
 91
        4
 64
     7
 65
   257
 75
     1
175
     1
 42
1.0
 92
        8
 66
     7
 43
1.0
 76
     1
 77
     6
 78
     2
 67
     7
 79
     5
170
     0
171
     0
290
     0
174
     0
 93
        1
 44
0.0
173
     0
291
     1
 45
0.0
1001
ACAD
1000
AcDbSavedByObjectVersion
1070
     0
  0
VISUALSTYLE
  5
9294D
102
{ACAD_XDICTIONARY
360
94803
102
}
102
{ACAD_REACTORS
330
9293E
102
}
330
9293E
100
AcDbVisualStyle
  2

 70
    15
 71
     2
 72
     2
 73
     0
 90
        0
 40
-0.6
 41
-30.0
 62
     5
 63
     7
 74
     1
 91
        4
 64
     7
 65
   257
 75
     1
175
     1
 42
1.0
 92
        8
 66
     7
 43
1.0
 76
     1
 77
     6
 78
     2
 67
     7
 79
     5
170
     0
171
     0
290
     0
174
     0
 93
        1
 44
0.0
173
     0
291
     1
 45
0.0
1001
ACAD
1000
AcDbSavedByObjectVersion
1070
     0
  0
VISUALSTYLE
  5
9293F
102
{ACAD_XDICTIONARY
360
947E7
102
}
102
{ACAD_REACTORS
330
9293E
102
}
330
9293E
100
AcDbVisualStyle
  2

 70
     0
 71
     2
 72
     1
 73
     1
 90
        2
 40
-0.6
 41
30.0
 62
     5
 63
     7
 74
     0
 91
        0
 64
     7
 65
   257
 75
     1
175
     1
 42
1.0
 92
        8
 66
     7
 43
1.0
 76
     1
 77
     6
 78
     2
 67
     7
 79
     5
170
     0
171
     0
290
     0
174
     0
 93
       13
 44
0.0
173
     0
291
     1
 45
0.0
1001
ACAD
1000
AcDbSavedByObjectVersion
1070
     0
  0
VISUALSTYLE
  5
92940
102
{ACAD_XDICTIONARY
360
947E9
102
}
102
{ACAD_REACTORS
330
9293E
102
}
330
9293E
100
AcDbVisualStyle
  2

 70
     1
 71
     2
 72
     1
 73
     1
 90
        2
 40
-0.6
 41
30.0
 62
     5
 63
     7
 74
     1
 91
        0
 64
     7
 65
   257
 75
     1
175
     1
 42
1.0
 92
        0
 66
   257
 43
1.0
 76
     1
 77
     6
 78
     2
 67
     7
 79
     5
170
     0
171
     0
290
     0
174
     0
 93
       13
 44
0.0
173
     0
291
     1
 45
0.0
1001
ACAD
1000
AcDbSavedByObjectVersion
1070
     0
  0
VISUALSTYLE
  5
92941
102
{ACAD_XDICTIONARY
360
947EB
102
}
102
{ACAD_REACTORS
330
9293E
102
}
330
9293E
100
AcDbVisualStyle
  2

 70
     2
 71
     2
 72
     2
 73
     1
 90
        2
 40
-0.6
 41
30.0
 62
     5
 63
     7
 74
     0
 91
        0
 64
     7
 65
   257
 75
     1
175
     1
 42
1.0
 92
        0
 66
     7
 43
1.0
 76
     1
 77
     6
 78
     2
 67
     7
 79
     5
170
     0
171
     0
290
     0
174
     0
 93
       13
 44
0.0
173
     0
291
     1
 45
0.0
1001
ACAD
1000
AcDbSavedByObjectVersion
1070
     0
  0
VISUALSTYLE
  5
92942
102
{ACAD_XDICTIONARY
360
947ED
102
}
102
{ACAD_REACTORS
330
9293E
102
}
330
9293E
100
AcDbVisualStyle
  2

 70
     3
 71
     2
 72
     2
 73
     1
 90
        2
 40
-0.6
 41
30.0
 62
     5
 63
     7
 74
     1
 91
        0
 64
     7
 65
   257
 75
     1
175
     1
 42
1.0
 92
        0
 66
   257
 43
1.0
 76
     1
 77
     6
 78
     2
 67
     7
 79
     5
170
     0
171
     0
290
     0
174
     0
 93
       13
 44
0.0
173
     0
291
     1
 45
0.0
1001
ACAD
1000
AcDbSavedByObjectVersion
1070
     0
  0
VISUALSTYLE
  5
92946
102
{ACAD_XDICTIONARY
360
947F5
102
}
102
{ACAD_REACTORS
330
9293E
102
}
330
9293E
100
AcDbVisualStyle
  2

 70
     6
 71
     1
 72
     2
 73
     2
 90
        0
 40
-0.6
 41
-30.0
 62
     5
 63
     7
 74
     2
 91
        2
 64
     7
 65
   257
 75
     2
175
     1
 42
40.0
 92
        0
 66
   257
 43
1.0
 76
     1
 77
     6
 78
     2
 67
     7
 79
     3
170
     0
171
     0
290
     0
174
     0
 93
        1
 44
0.0
173
     0
291
     0
 45
0.0
1001
ACAD
1000
AcDbSavedByObjectVersion
1070
     0
  0
VISUALSTYLE
  5
92954
102
{ACAD_XDICTIONARY
360
94811
102
}
102
{ACAD_REACTORS
330
9293E
102
}
330
9293E
100
AcDbVisualStyle
  2

 70
    20
 71
     2
 72
     2
 73
     0
 90
        0
 40
-0.6
 41
-30.0
 62
     5
 63
     7
 74
     1
 91
        4
 64
     7
 65
   257
 75
     1
175
     1
 42
1.0
 92
       10
 66
     7
 43
1.0
 76
     1
 77
     6
 78
     2
 67
     7
 79
     5
170
     0
171
     0
290
     0
174
     0
 93
        1
 44
0.0
173
     0
291
     1
 45
0.0
1001
ACAD
1000
AcDbSavedByObjectVersion
1070
     0
  0
VISUALSTYLE
  5
9294C
102
{ACAD_XDICTIONARY
360
94801
102
}
102
{ACAD_REACTORS
330
9293E
102
}
330
9293E
100
AcDbVisualStyle
  2

 70
    14
 71
     2
 72
     2
 73
     0
 90
        0
 40
-0.6
 41
-30.0
 62
     5
 63
     7
 74
     1
 91
        4
 64
     7
 65
   257
 75
     7
175
     7
 42
1.0
 92
        8
 66
     7
 43
1.0
 76
     1
 77
     6
 78
     2
 67
     7
 79
     5
170
     0
171
     0
290
     0
174
     0
 93
        1
 44
0.0
173
     0
291
     1
 45
0.0
1001
ACAD
1000
AcDbSavedByObjectVersion
1070
     0
  0
VISUALSTYLE
  5
92955
102
{ACAD_XDICTIONARY
360
94813
102
}
102
{ACAD_REACTORS
330
9293E
102
}
330
9293E
100
AcDbVisualStyle
  2

 70
    21
 71
     2
 72
     2
 73
     0
 90
        0
 40
-0.6
 41
-30.0
 62
     5
 63
     7
 74
     1
 91
        4
 64
     7
 65
   257
 75
     1
175
     1
 42
1.0
 92
        9
 66
     7
 43
1.0
 76
     1
 77
     6
 78
     2
 67
     7
 79
     5
170
     0
171
     0
290
     0
174
     0
 93
        1
 44
0.0
173
     0
291
     1
 45
0.0
1001
ACAD
1000
AcDbSavedByObjectVersion
1070
     0
  0
VISUALSTYLE
  5
92948
102
{ACAD_XDICTIONARY
360
947F9
102
}
102
{ACAD_REACTORS
330
9293E
102
}
330
9293E
100
AcDbVisualStyle
  2

 70
     8
 71
     2
 72
     3
 73
     0
 90
        2
 40
-0.6
 41
30.0
 62
     5
 63
     7
 74
     0
 91
        0
 64
     7
 65
   257
 75
     1
175
     1
 42
1.0
 92
        8
 66
   257
 43
1.0
 76
     1
 77
     6
 78
     2
 67
     7
 79
     3
170
     0
171
     0
290
     0
174
     0
 93
       13
 44
0.0
173
     0
291
     0
 45
0.0
1001
ACAD
1000
AcDbSavedByObjectVersion
1070
     0
  0
VISUALSTYLE
  5
92953
102
{ACAD_XDICTIONARY
360
9480F
102
}
102
{ACAD_REACTORS
330
9293E
102
}
330
9293E
100
AcDbVisualStyle
  2

 70
    27
 71
     2
 72
     2
 73
     1
 90
        2
 40
-0.6
 41
30.0
 62
     5
 63
     7
 74
     0
 91
        4
 64
     7
 65
   257
 75
     1
175
     1
 42
1.0
 92
        8
 66
   257
 43
1.0
 76
     1
 77
     6
 78
     2
 67
     8
 79
     3
170
     0
171
     0
290
     0
174
     0
 93
        5
 44
0.0
173
     0
291
     0
 45
0.0
1001
ACAD
1000
AcDbSavedByObjectVersion
1070
     0
  0
VISUALSTYLE
  5
92952
102
{ACAD_XDICTIONARY
360
9480D
102
}
102
{ACAD_REACTORS
330
9293E
102
}
330
9293E
100
AcDbVisualStyle
  2

 70
    26
 71
     2
 72
     2
 73
     1
 90
        2
 40
-0.6
 41
30.0
 62
     5
 63
     7
 74
     1
 91
       10
 64
     7
 65
   257
 75
     2
175
     1
 42
1.0
 92
        8
 66
   257
 43
1.0
 76
     1
 77
     6
 78
     2
 67
     7
 79
     3
170
     0
171
     0
290
     0
174
     0
 93
        5
 44
0.0
173
     0
291
     0
 45
0.0
1001
ACAD
1000
AcDbSavedByObjectVersion
1070
     0
  0
VISUALSTYLE
  5
9294F
102
{ACAD_XDICTIONARY
360
94807
102
}
102
{ACAD_REACTORS
330
9293E
102
}
330
9293E
100
AcDbVisualStyle
  2

 70
    23
 71
     2
 72
     2
 73
     3
 90
        0
 40
-0.6
 41
-30.0
 62
     5
 63
     7
 74
     2
 91
        2
 64
     7
 65
     7
 75
     1
175
     1
 42
40.0
 92
        8
 66
     7
 43
1.0
 76
     1
 77
     6
 78
     2
 67
     7
 79
     3
170
     0
171
     0
290
     0
174
     0
 93
        1
 44
0.0
173
     0
291
     0
 45
0.0
1001
ACAD
1000
AcDbSavedByObjectVersion
1070
     0
  0
VISUALSTYLE
  5
92950
102
{ACAD_XDICTIONARY
360
94809
102
}
102
{ACAD_REACTORS
330
9293E
102
}
330
9293E
100
AcDbVisualStyle
  2

 70
    24
 71
     1
 72
     2
 73
     2
 90
        0
 40
-0.6
 41
-30.0
 62
     5
 63
     7
 74
     2
 91
        2
 64
     7
 65
     7
 75
     1
175
     1
 42
40.0
 92
       11
 66
     7
 43
1.0
 76
     1
 77
     6
 78
     2
 67
     7
 79
     6
170
     0
171
     0
290
     0
174
     0
 93
        1
 44
0.0
173
     0
291
     0
 45
0.0
1001
ACAD
1000
AcDbSavedByObjectVersion
1070
     0
  0
VISUALSTYLE
  5
9294B
102
{ACAD_XDICTIONARY
360
947FF
102
}
102
{ACAD_REACTORS
330
9293E
102
}
330
9293E
100
AcDbVisualStyle
  2

 70
    13
 71
     2
 72
     2
 73
     0
 90
        0
 40
-0.6
 41
-30.0
 62
     5
 63
     7
 74
     1
 91
        4
 64
     7
 65
   257
 75
     1
175
     1
 42
1.0
 92
       12
 66
     7
 43
1.0
 76
     1
 77
     6
 78
     2
 67
     7
 79
     5
170
     0
171
     0
290
     0
174
     0
 93
        1
 44
0.0
173
     0
291
     1
 45
0.0
1001
ACAD
1000
AcDbSavedByObjectVersion
1070
     0
  0
VISUALSTYLE
  5
92945
102
{ACAD_XDICTIONARY
360
947F3
102
}
102
{ACAD_REACTORS
330
9293E
102
}
330
9293E
100
AcDbVisualStyle
  2

 70
     5
 71
     0
 72
     2
 73
     0
 90
        0
 40
-0.6
 41
-30.0
 62
     5
 63
     7
 74
     1
 91
        4
 64
     7
 65
   257
 75
     1
175
     1
 42
1.0
 92
        0
 66
   257
 43
1.0
 76
     1
 77
     6
 78
     2
 67
     7
 79
     3
170
     0
171
     0
290
     0
174
     0
 93
        1
 44
0.0
173
     0
291
     0
 45
0.0
1001
ACAD
1000
AcDbSavedByObjectVersion
1070
     0
  0
VISUALSTYLE
  5
92951
102
{ACAD_XDICTIONARY
360
9480B
102
}
102
{ACAD_REACTORS
330
9293E
102
}
330
9293E
100
AcDbVisualStyle
  2

 70
    25
 71
     2
 72
     2
 73
     1
 90
        1
 40
0.5
 41
-30.0
 62
     5
 63
     7
 74
     1
 91
        0
 64
     7
 65
   257
 75
     1
175
     1
 42
1.0
 92
        8
 66
     7
 43
1.0
 76
     1
 77
     6
 78
     2
 67
     7
 79
     3
170
     0
171
     0
290
     0
174
     0
 93
       13
 44
0.0
173
     0
291
     0
 45
0.0
1001
ACAD
1000
AcDbSavedByObjectVersion
1070
     0
  0
DICTIONARYVAR
  5
92BF4
102
{ACAD_REACTORS
330
92BEE
102
}
330
92BEE
100
DictionaryVariables
280
     0
  1
1:1
  0
DICTIONARYVAR
  5
92BF0
102
{ACAD_REACTORS
330
92BEE
102
}
330
92BEE
100
DictionaryVariables
280
     0
  1
STANDARD
  0
DICTIONARYVAR
  5
92BEF
102
{ACAD_REACTORS
330
92BEE
102
}
330
92BEE
100
DictionaryVariables
280
     0
  1
STANDARD
  0
DICTIONARYVAR
  5
92BF1
102
{ACAD_REACTORS
330
92BEE
102
}
330
92BEE
100
DictionaryVariables
280
     0
  1
Imperial24
  0
DICTIONARYVAR
  5
92BF2
102
{ACAD_REACTORS
330
92BEE
102
}
330
92BEE
100
DictionaryVariables
280
     0
  1
Imperial24
  0
DICTIONARYVAR
  5
93E78
102
{ACAD_REACTORS
330
92BEE
102
}
330
92BEE
100
DictionaryVariables
280
     0
  1
1
  0
DICTIONARYVAR
  5
93E77
102
{ACAD_REACTORS
330
92BEE
102
}
330
92BEE
100
DictionaryVariables
280
     0
  1
0
  0
DICTIONARYVAR
  5
92BF6
102
{ACAD_REACTORS
330
92BEE
102
}
330
92BEE
100
DictionaryVariables
280
     0
  1
1
  0
DICTIONARYVAR
  5
92BF7
102
{ACAD_REACTORS
330
92BEE
102
}
330
92BEE
100
DictionaryVariables
280
     0
  1
15
  0
DICTIONARYVAR
  5
92BF5
102
{ACAD_REACTORS
330
92BEE
102
}
330
92BEE
100
DictionaryVariables
280
     0
  1
0
  0
DICTIONARYVAR
  5
93F2F
102
{ACAD_REACTORS
330
92BEE
102
}
330
92BEE
100
DictionaryVariables
280
     0
  1
1.570796
  0
DICTIONARYVAR
  5
93F30
102
{ACAD_REACTORS
330
92BEE
102
}
330
92BEE
100
DictionaryVariables
280
     0
  1
1.570796
  0
DICTIONARYVAR
  5
92BF3
102
{ACAD_REACTORS
330
92BEE
102
}
330
92BEE
100
DictionaryVariables
280
     0
  1
0
  0
DICTIONARYVAR
  5
93E76
102
{ACAD_REACTORS
330
92BEE
102
}
330
92BEE
100
DictionaryVariables
280
     0
  1
127
  0
DICTIONARYVAR
  5
93F31
102
{ACAD_REACTORS
330
92BEE
102
}
330
92BEE
100
DictionaryVariables
280
     0
  1
2
  0
DICTIONARY
  5
947E6
102
{ACAD_REACTORS
330
947E4
102
}
330
947E4
100
AcDbDictionary
281
     1
  0
DICTIONARY
  5
947E5
102
{ACAD_REACTORS
330
947E4
102
}
330
947E4
100
AcDbDictionary
281
     1
  3
2130127096
350
947DF
  3
2130127104
350
947E0
  3
2130127112
350
947E1
  3
2130127120
350
947E2
  3
2130127128
350
947E3
  0
DICTIONARY
  5
93FCA
330
92971
100
AcDbDictionary
280
     1
281
     1
  3
ACAD_XREC_ROUNDTRIP
360
94819
  0
DICTIONARY
  5
93FCE
330
92984
100
AcDbDictionary
280
     1
281
     1
  3
ACAD_XREC_ROUNDTRIP
360
9481B
  0
DICTIONARY
  5
9292F
330
9292E
100
AcDbDictionary
280
     1
281
     1
  3
ACAD_XREC_ROUNDTRIP
360
93EDF
  3
BUMPTILE
360
92931
  3
DIFFUSETILE
360
92930
  3
OPACITYTILE
360
92934
  3
REFLECTIONTILE
360
92933
  3
REFRACTIONTILE
360
92935
  3
SPECULARTILE
360
92932
  0
DICTIONARY
  5
92927
330
92926
100
AcDbDictionary
280
     1
281
     1
  3
ACAD_XREC_ROUNDTRIP
360
93EDE
  3
BUMPTILE
360
92929
  3
DIFFUSETILE
360
92928
  3
OPACITYTILE
360
9292C
  3
REFLECTIONTILE
360
9292B
  3
REFRACTIONTILE
360
9292D
  3
SPECULARTILE
360
9292A
  0
DICTIONARY
  5
92937
330
92936
100
AcDbDictionary
280
     1
281
     1
  3
ACAD_XREC_ROUNDTRIP
360
93EE0
  3
BUMPTILE
360
92939
  3
DIFFUSETILE
360
92938
  3
OPACITYTILE
360
9293C
  3
REFLECTIONTILE
360
9293B
  3
REFRACTIONTILE
360
9293D
  3
SPECULARTILE
360
9293A
  0
DICTIONARY
  5
93FC8
330
9296F
100
AcDbDictionary
280
     1
281
     1
  3
ACAD_XREC_ROUNDTRIP
360
94818
  0
DICTIONARY
  5
93FCC
330
92983
100
AcDbDictionary
280
     1
281
     1
  3
ACAD_XREC_ROUNDTRIP
360
9481A
  0
DICTIONARY
  5
92C0A
330
92959
100
AcDbDictionary
280
     1
281
     1
  3
ACAD_ROUNDTRIP_2008_TABLESTYLE_CELLSTYLEMAP
360
947DD
  3
ACAD_XREC_ROUNDTRIP
360
94817
  0
DICTIONARY
  5
947F1
330
92944
100
AcDbDictionary
280
     1
281
     1
  3
ACAD_XREC_ROUNDTRIP
360
947F2
  0
DICTIONARY
  5
947EF
330
92943
100
AcDbDictionary
280
     1
281
     1
  3
ACAD_XREC_ROUNDTRIP
360
947F0
  0
DICTIONARY
  5
947FD
330
9294A
100
AcDbDictionary
280
     1
281
     1
  3
ACAD_XREC_ROUNDTRIP
360
947FE
  0
DICTIONARY
  5
94805
330
9294E
100
AcDbDictionary
280
     1
281
     1
  3
ACAD_XREC_ROUNDTRIP
360
94806
  0
DICTIONARY
  5
947F7
330
92947
100
AcDbDictionary
280
     1
281
     1
  3
ACAD_XREC_ROUNDTRIP
360
947F8
  0
DICTIONARY
  5
947FB
330
92949
100
AcDbDictionary
280
     1
281
     1
  3
ACAD_XREC_ROUNDTRIP
360
947FC
  0
DICTIONARY
  5
94815
330
92956
100
AcDbDictionary
280
     1
281
     1
  3
ACAD_XREC_ROUNDTRIP
360
94816
  0
DICTIONARY
  5
94803
330
9294D
100
AcDbDictionary
280
     1
281
     1
  3
ACAD_XREC_ROUNDTRIP
360
94804
  0
DICTIONARY
  5
947E7
330
9293F
100
AcDbDictionary
280
     1
281
     1
  3
ACAD_XREC_ROUNDTRIP
360
947E8
  0
DICTIONARY
  5
947E9
330
92940
100
AcDbDictionary
280
     1
281
     1
  3
ACAD_XREC_ROUNDTRIP
360
947EA
  0
DICTIONARY
  5
947EB
330
92941
100
AcDbDictionary
280
     1
281
     1
  3
ACAD_XREC_ROUNDTRIP
360
947EC
  0
DICTIONARY
  5
947ED
330
92942
100
AcDbDictionary
280
     1
281
     1
  3
ACAD_XREC_ROUNDTRIP
360
947EE
  0
DICTIONARY
  5
947F5
330
92946
100
AcDbDictionary
280
     1
281
     1
  3
ACAD_XREC_ROUNDTRIP
360
947F6
  0
DICTIONARY
  5
94811
330
92954
100
AcDbDictionary
280
     1
281
     1
  3
ACAD_XREC_ROUNDTRIP
360
94812
  0
DICTIONARY
  5
94801
330
9294C
100
AcDbDictionary
280
     1
281
     1
  3
ACAD_XREC_ROUNDTRIP
360
94802
  0
DICTIONARY
  5
94813
330
92955
100
AcDbDictionary
280
     1
281
     1
  3
ACAD_XREC_ROUNDTRIP
360
94814
  0
DICTIONARY
  5
947F9
330
92948
100
AcDbDictionary
280
     1
281
     1
  3
ACAD_XREC_ROUNDTRIP
360
947FA
  0
DICTIONARY
  5
9480F
330
92953
100
AcDbDictionary
280
     1
281
     1
  3
ACAD_XREC_ROUNDTRIP
360
94810
  0
DICTIONARY
  5
9480D
330
92952
100
AcDbDictionary
280
     1
281
     1
  3
ACAD_XREC_ROUNDTRIP
360
9480E
  0
DICTIONARY
  5
94807
330
9294F
100
AcDbDictionary
280
     1
281
     1
  3
ACAD_XREC_ROUNDTRIP
360
94808
  0
DICTIONARY
  5
94809
330
92950
100
AcDbDictionary
280
     1
281
     1
  3
ACAD_XREC_ROUNDTRIP
360
9480A
  0
DICTIONARY
  5
947FF
330
9294B
100
AcDbDictionary
280
     1
281
     1
  3
ACAD_XREC_ROUNDTRIP
360
94800
  0
DICTIONARY
  5
947F3
330
92945
100
AcDbDictionary
280
     1
281
     1
  3
ACAD_XREC_ROUNDTRIP
360
947F4
  0
DICTIONARY
  5
9480B
330
92951
100
AcDbDictionary
280
     1
281
     1
  3
ACAD_XREC_ROUNDTRIP
360
9480C
  0
XRECORD
  5
947DF
102
{ACAD_REACTORS
330
947E5
102
}
330
947E5
100
AcDbXrecord
280
     1
  1
AcDb_Thumbnail_Schema
102
{ATTRRECORD
341
947E0
  2
AcDbDs::TreatedAsObjectData
280
     1
291
     1
102
ATTRRECORD}
102
{ATTRRECORD
341
947E1
  2
AcDbDs::Legacy
280
     1
291
     1
102
ATTRRECORD}
  2
AcDbDs::ID
280
    10
 91
        8
102
{ATTRRECORD
341
947E2
  2
AcDs:Indexable
280
     1
291
     1
102
ATTRRECORD}
102
{ATTRRECORD
341
947E3
  2
AcDbDs::HandleAttribute
280
     7
282
     1
102
ATTRRECORD}
  2
Thumbnail_Data
280
    15
 91
        0
  0
XRECORD
  5
947E0
102
{ACAD_REACTORS
330
947E5
102
}
330
947E5
100
AcDbXrecord
280
     1
  1
AcDbDs::TreatedAsObjectDataSchema
  2
AcDbDs::TreatedAsObjectData
280
     1
 91
        0
  0
XRECORD
  5
947E1
102
{ACAD_REACTORS
330
947E5
102
}
330
947E5
100
AcDbXrecord
280
     1
  1
AcDbDs::LegacySchema
  2
AcDbDs::Legacy
280
     1
 91
        0
  0
XRECORD
  5
947E2
102
{ACAD_REACTORS
330
947E5
102
}
330
947E5
100
AcDbXrecord
280
     1
  1
AcDbDs::IndexedPropertySchema
  2
AcDs:Indexable
280
     1
 91
        0
  0
XRECORD
  5
947E3
102
{ACAD_REACTORS
330
947E5
102
}
330
947E5
100
AcDbXrecord
280
     1
  1
AcDbDs::HandleAttributeSchema
  2
AcDbDs::HandleAttribute
280
     7
 91
        1
284
     1
  0
XRECORD
  5
94819
102
{ACAD_REACTORS
330
93FCA
102
}
330
93FCA
100
AcDbXrecord
280
     1
102
DISPLAYNAME
  1
Imperial24
102
FLAGS
 90
        0
  0
XRECORD
  5
9481B
102
{ACAD_REACTORS
330
93FCE
102
}
330
93FCE
100
AcDbXrecord
280
     1
102
DISPLAYNAME
  1
Metric50
102
FLAGS
 90
        0
  0
XRECORD
  5
93EDF
102
{ACAD_REACTORS
330
9292F
102
}
330
9292F
100
AcDbXrecord
280
     1
102
MATERIAL
148
0.0
149
0.0
149
0.0
 93
        0
 94
      127
282
     0
 72
     0
 77
     0
171
     0
175
     0
179
     0
273
     0
  0
XRECORD
  5
92931
102
{ACAD_REACTORS
330
9292F
102
}
330
9292F
100
AcDbXrecord
280
     1
270
     1
271
     1
  0
XRECORD
  5
92930
102
{ACAD_REACTORS
330
9292F
102
}
330
9292F
100
AcDbXrecord
280
     1
270
     1
271
     1
  0
XRECORD
  5
92934
102
{ACAD_REACTORS
330
9292F
102
}
330
9292F
100
AcDbXrecord
280
     1
270
     1
271
     1
  0
XRECORD
  5
92933
102
{ACAD_REACTORS
330
9292F
102
}
330
9292F
100
AcDbXrecord
280
     1
270
     1
271
     1
  0
XRECORD
  5
92935
102
{ACAD_REACTORS
330
9292F
102
}
330
9292F
100
AcDbXrecord
280
     1
270
     1
271
     1
  0
XRECORD
  5
92932
102
{ACAD_REACTORS
330
9292F
102
}
330
9292F
100
AcDbXrecord
280
     1
270
     1
271
     1
  0
XRECORD
  5
93EDE
102
{ACAD_REACTORS
330
92927
102
}
330
92927
100
AcDbXrecord
280
     1
102
MATERIAL
148
0.0
149
0.0
149
0.0
 93
        0
 94
      127
282
     0
 72
     0
 77
     0
171
     0
175
     0
179
     0
273
     0
  0
XRECORD
  5
92929
102
{ACAD_REACTORS
330
92927
102
}
330
92927
100
AcDbXrecord
280
     1
270
     1
271
     1
  0
XRECORD
  5
92928
102
{ACAD_REACTORS
330
92927
102
}
330
92927
100
AcDbXrecord
280
     1
270
     1
271
     1
  0
XRECORD
  5
9292C
102
{ACAD_REACTORS
330
92927
102
}
330
92927
100
AcDbXrecord
280
     1
270
     1
271
     1
  0
XRECORD
  5
9292B
102
{ACAD_REACTORS
330
92927
102
}
330
92927
100
AcDbXrecord
280
     1
270
     1
271
     1
  0
XRECORD
  5
9292D
102
{ACAD_REACTORS
330
92927
102
}
330
92927
100
AcDbXrecord
280
     1
270
     1
271
     1
  0
XRECORD
  5
9292A
102
{ACAD_REACTORS
330
92927
102
}
330
92927
100
AcDbXrecord
280
     1
270
     1
271
     1
  0
XRECORD
  5
93EE0
102
{ACAD_REACTORS
330
92937
102
}
330
92937
100
AcDbXrecord
280
     1
102
MATERIAL
148
0.0
149
0.0
149
0.0
 93
        0
 94
      127
282
     0
 72
     0
 77
     0
171
     0
175
     0
179
     0
273
     0
  0
XRECORD
  5
92939
102
{ACAD_REACTORS
330
92937
102
}
330
92937
100
AcDbXrecord
280
     1
270
     1
271
     1
  0
XRECORD
  5
92938
102
{ACAD_REACTORS
330
92937
102
}
330
92937
100
AcDbXrecord
280
     1
270
     1
271
     1
  0
XRECORD
  5
9293C
102
{ACAD_REACTORS
330
92937
102
}
330
92937
100
AcDbXrecord
280
     1
270
     1
271
     1
  0
XRECORD
  5
9293B
102
{ACAD_REACTORS
330
92937
102
}
330
92937
100
AcDbXrecord
280
     1
270
     1
271
     1
  0
XRECORD
  5
9293D
102
{ACAD_REACTORS
330
92937
102
}
330
92937
100
AcDbXrecord
280
     1
270
     1
271
     1
  0
XRECORD
  5
9293A
102
{ACAD_REACTORS
330
92937
102
}
330
92937
100
AcDbXrecord
280
     1
270
     1
271
     1
  0
XRECORD
  5
94818
102
{ACAD_REACTORS
330
93FC8
102
}
330
93FC8
100
AcDbXrecord
280
     1
102
DISPLAYNAME
  1
Imperial24
102
FLAGS
 90
        0
  0
XRECORD
  5
9481A
102
{ACAD_REACTORS
330
93FCC
102
}
330
93FCC
100
AcDbXrecord
280
     1
102
DISPLAYNAME
  1
Metric50
102
FLAGS
 90
        0
  0
CELLSTYLEMAP
  5
947DD
102
{ACAD_REACTORS
330
92C0A
102
}
330
92C0A
100
AcDbCellStyleMap
 90
        3
300
CELLSTYLE
  1
TABLEFORMAT_BEGIN
 90
        5
170
     1
 91
        0
 92
    32768
 62
   257
 93
        1
300
CONTENTFORMAT
  1
CONTENTFORMAT_BEGIN
 90
        0
 91
        0
 92
      512
 93
        0
300

 40
0.0
140
1.0
 94
        5
 62
     0
340
11
144
0.25
309
CONTENTFORMAT_END
171
     1
301
MARGIN
  1
CELLMARGIN_BEGIN
 40
0.06
 40
0.06
 40
0.06
 40
0.06
 40
0.18
 40
0.18
309
CELLMARGIN_END
 94
        6
 95
        1
302
GRIDFORMAT
  1
GRIDFORMAT_BEGIN
 90
        0
 91
        1
 62
     0
 92
       -2
340
0
 93
        0
 40
0.045
309
GRIDFORMAT_END
 95
        2
302
GRIDFORMAT
  1
GRIDFORMAT_BEGIN
 90
        0
 91
        1
 62
     0
 92
       -2
340
0
 93
        0
 40
0.045
309
GRIDFORMAT_END
 95
        4
302
GRIDFORMAT
  1
GRIDFORMAT_BEGIN
 90
        0
 91
        1
 62
     0
 92
       -2
340
0
 93
        0
 40
0.045
309
GRIDFORMAT_END
 95
        8
302
GRIDFORMAT
  1
GRIDFORMAT_BEGIN
 90
        0
 91
        1
 62
     0
 92
       -2
340
0
 93
        0
 40
0.045
309
GRIDFORMAT_END
 95
       16
302
GRIDFORMAT
  1
GRIDFORMAT_BEGIN
 90
        0
 91
        1
 62
     0
 92
       -2
340
0
 93
        0
 40
0.045
309
GRIDFORMAT_END
 95
       32
302
GRIDFORMAT
  1
GRIDFORMAT_BEGIN
 90
        0
 91
        1
 62
     0
 92
       -2
340
0
 93
        0
 40
0.045
309
GRIDFORMAT_END
309
TABLEFORMAT_END
  1
CELLSTYLE_BEGIN
 90
        1
 91
        1
300
_TITLE
309
CELLSTYLE_END
300
CELLSTYLE
  1
TABLEFORMAT_BEGIN
 90
        5
170
     1
 91
        0
 92
        0
 62
   257
 93
        1
300
CONTENTFORMAT
  1
CONTENTFORMAT_BEGIN
 90
        0
 91
        0
 92
      512
 93
        0
300

 40
0.0
140
1.0
 94
        5
 62
     0
340
11
144
0.18
309
CONTENTFORMAT_END
171
     1
301
MARGIN
  1
CELLMARGIN_BEGIN
 40
0.06
 40
0.06
 40
0.06
 40
0.06
 40
0.18
 40
0.18
309
CELLMARGIN_END
 94
        6
 95
        1
302
GRIDFORMAT
  1
GRIDFORMAT_BEGIN
 90
        0
 91
        1
 62
     0
 92
       -2
340
0
 93
        0
 40
0.045
309
GRIDFORMAT_END
 95
        2
302
GRIDFORMAT
  1
GRIDFORMAT_BEGIN
 90
        0
 91
        1
 62
     0
 92
       -2
340
0
 93
        0
 40
0.045
309
GRIDFORMAT_END
 95
        4
302
GRIDFORMAT
  1
GRIDFORMAT_BEGIN
 90
        0
 91
        1
 62
     0
 92
       -2
340
0
 93
        0
 40
0.045
309
GRIDFORMAT_END
 95
        8
302
GRIDFORMAT
  1
GRIDFORMAT_BEGIN
 90
        0
 91
        1
 62
     0
 92
       -2
340
0
 93
        0
 40
0.045
309
GRIDFORMAT_END
 95
       16
302
GRIDFORMAT
  1
GRIDFORMAT_BEGIN
 90
        0
 91
        1
 62
     0
 92
       -2
340
0
 93
        0
 40
0.045
309
GRIDFORMAT_END
 95
       32
302
GRIDFORMAT
  1
GRIDFORMAT_BEGIN
 90
        0
 91
        1
 62
     0
 92
       -2
340
0
 93
        0
 40
0.045
309
GRIDFORMAT_END
309
TABLEFORMAT_END
  1
CELLSTYLE_BEGIN
 90
        2
 91
        1
300
_HEADER
309
CELLSTYLE_END
300
CELLSTYLE
  1
TABLEFORMAT_BEGIN
 90
        5
170
     1
 91
        0
 92
        0
 62
   257
 93
        1
300
CONTENTFORMAT
  1
CONTENTFORMAT_BEGIN
 90
        0
 91
        0
 92
      512
 93
        0
300

 40
0.0
140
1.0
 94
        2
 62
     0
340
11
144
0.18
309
CONTENTFORMAT_END
171
     1
301
MARGIN
  1
CELLMARGIN_BEGIN
 40
0.06
 40
0.06
 40
0.06
 40
0.06
 40
0.18
 40
0.18
309
CELLMARGIN_END
 94
        6
 95
        1
302
GRIDFORMAT
  1
GRIDFORMAT_BEGIN
 90
        0
 91
        1
 62
     0
 92
       -2
340
0
 93
        0
 40
0.045
309
GRIDFORMAT_END
 95
        2
302
GRIDFORMAT
  1
GRIDFORMAT_BEGIN
 90
        0
 91
        1
 62
     0
 92
       -2
340
0
 93
        0
 40
0.045
309
GRIDFORMAT_END
 95
        4
302
GRIDFORMAT
  1
GRIDFORMAT_BEGIN
 90
        0
 91
        1
 62
     0
 92
       -2
340
0
 93
        0
 40
0.045
309
GRIDFORMAT_END
 95
        8
302
GRIDFORMAT
  1
GRIDFORMAT_BEGIN
 90
        0
 91
        1
 62
     0
 92
       -2
340
0
 93
        0
 40
0.045
309
GRIDFORMAT_END
 95
       16
302
GRIDFORMAT
  1
GRIDFORMAT_BEGIN
 90
        0
 91
        1
 62
     0
 92
       -2
340
0
 93
        0
 40
0.045
309
GRIDFORMAT_END
 95
       32
302
GRIDFORMAT
  1
GRIDFORMAT_BEGIN
 90
        0
 91
        1
 62
     0
 92
       -2
340
0
 93
        0
 40
0.045
309
GRIDFORMAT_END
309
TABLEFORMAT_END
  1
CELLSTYLE_BEGIN
 90
        3
 91
        2
300
_DATA
309
CELLSTYLE_END
  0
XRECORD
  5
94817
102
{ACAD_REACTORS
330
92C0A
102
}
330
92C0A
100
AcDbXrecord
280
     1
102
ACAD_ROUNDTRIP_PRE2007_TABLESTYLE
 90
      512
 91
        0
  1

 92
      512
 93
        0
  2

 94
      512
 95
        0
  3

  0
XRECORD
  5
947F2
102
{ACAD_REACTORS
330
947F1
102
}
330
947F1
100
AcDbXrecord
280
     1
102
RTVSPost2010Prop28
280
     1
102
RTVSPost2010PropOp28
 70
     1
102
RTVSPost2010Prop29
280
     1
102
RTVSPost2010PropOp29
 70
     1
102
RTVSPost2010Prop30
280
     0
102
RTVSPost2010PropOp30
 70
     1
102
RTVSPost2010Prop31
280
     0
102
RTVSPost2010PropOp31
 70
     1
102
RTVSPost2010Prop32
280
     0
102
RTVSPost2010PropOp32
 70
     1
102
RTVSPost2010Prop33
280
     0
102
RTVSPost2010PropOp33
 70
     1
102
RTVSPost2010Prop34
280
     0
102
RTVSPost2010PropOp34
 70
     1
102
RTVSPost2010Prop35
280
     0
102
RTVSPost2010PropOp35
 70
     1
102
RTVSPost2010Prop36
280
     0
102
RTVSPost2010PropOp36
 70
     1
102
RTVSPost2010Prop37
 90
       50
102
RTVSPost2010PropOp37
 70
     1
102
RTVSPost2010Prop38
140
0.0
102
RTVSPost2010PropOp38
 70
     1
102
RTVSPost2010Prop39
140
1.0
102
RTVSPost2010PropOp39
 70
     1
102
RTVSPost2010Prop40
 90
        0
102
RTVSPost2010PropOp40
 70
     1
102
RTVSPost2010Prop41ColorIndex
 90
       18
102
RTVSPost2010Prop41ColorRGB
 90
-16777216
102
RTVSPost2010PropOp41
 70
     1
102
RTVSPost2010Prop42
 90
       50
102
RTVSPost2010PropOp42
 70
     1
102
RTVSPost2010Prop43
 90
        3
102
RTVSPost2010PropOp43
 70
     1
102
RTVSPost2010Prop44ColorIndex
 90
        5
102
RTVSPost2010Prop44ColorRGB
 90
      255
102
RTVSPost2010PropOp44
 70
     1
102
RTVSPost2010Prop45
280
     0
102
RTVSPost2010PropOp45
 70
     1
102
RTVSPost2010Prop46
 90
       50
102
RTVSPost2010PropOp46
 70
     1
102
RTVSPost2010Prop47
 90
       50
102
RTVSPost2010PropOp47
 70
     1
102
RTVSPost2010Prop48
 90
       50
102
RTVSPost2010PropOp48
 70
     1
102
RTVSPost2010Prop49
280
     0
102
RTVSPost2010PropOp49
 70
     1
102
RTVSPost2010Prop50
 90
       50
102
RTVSPost2010PropOp50
 70
     1
102
RTVSPost2010Prop51ColorIndex
 90
      256
102
RTVSPost2010Prop51ColorRGB
 90
-16777216
102
RTVSPost2010PropOp51
 70
     0
102
RTVSPost2010Prop52
140
1.0
102
RTVSPost2010PropOp52
 70
     0
102
RTVSPost2010Prop53
 90
        2
102
RTVSPost2010PropOp53
 70
     1
102
RTVSPost2010Prop54
  1
strokes_ogs.tif
102
RTVSPost2010PropOp54
 70
     1
102
RTVSPost2010Prop55
280
     0
102
RTVSPost2010PropOp55
 70
     1
102
RTVSPost2010Prop56
140
1.0
102
RTVSPost2010PropOp56
 70
     1
102
RTVSPost2010Prop57
140
1.0
102
RTVSPost2010PropOp57
 70
     1
102
RTVSPropertyOp0
 70
     1
102
RTVSPropertyOp1
 70
     1
102
RTVSPropertyOp2
 70
     1
102
RTVSPropertyOp3
 70
     1
102
RTVSPropertyOp4
 70
     1
102
RTVSPropertyOp5
 70
     1
102
RTVSPropertyOp6
 70
     1
102
RTVSPropertyOp7
 70
     1
102
RTVSPropertyOp8
 70
     1
102
RTVSPropertyOp9
 70
     1
102
RTVSPropertyOp10
 70
     1
102
RTVSPropertyOp11
 70
     1
102
RTVSPropertyOp12
 70
     1
102
RTVSPropertyOp13
 70
     1
102
RTVSPropertyOp14
 70
     1
102
RTVSPropertyOp15
 70
     1
102
RTVSPropertyOp16
 70
     1
102
RTVSPropertyOp17
 70
     1
102
RTVSPropertyOp18
 70
     1
102
RTVSPropertyOp19
 70
     1
102
RTVSPropertyOp20
 70
     1
102
RTVSPropertyOp21
 70
     1
102
RTVSPropertyOp22
 70
     1
102
RTVSPropertyOp23
 70
     1
102
RTVSPropertyOp24
 70
     1
102
RTVSPropertyOp25
 70
     1
102
RTVSPropertyOp26
 70
     1
102
RTVSPropertyOp27
 70
     1
102
RTVSPropertyOp28
 70
     1
102
RTVSPropertyOp29
 70
     1
102
RTVSPropertyOp30
 70
     1
102
RTVSPropertyOp31
 70
     1
102
RTVSPropertyOp32
 70
     1
102
RTVSPropertyOp33
 70
     1
102
RTVSPropertyOp34
 70
     1
102
RTVSPropertyOp35
 70
     1
102
RTVSPropertyOp36
 70
     1
102
RTVSPropertyOp37
 70
     1
102
RTVSPropertyOp38
 70
     1
102
RTVSPropertyOp39
 70
     1
102
RTVSPropertyOp40
 70
     1
102
RTVSPropertyOp41
 70
     1
102
RTVSPropertyOp42
 70
     1
102
RTVSPropertyOp43
 70
     1
102
RTVSPropertyOp44
 70
     1
102
RTVSPropertyOp45
 70
     1
102
RTVSPropertyOp46
 70
     1
102
RTVSPropertyOp47
 70
     1
102
RTVSPropertyOp48
 70
     1
102
RTVSPropertyOp49
 70
     1
102
RTVSPropertyOp50
 70
     1
102
RTVSPropertyOp51
 70
     0
102
RTVSPropertyOp52
 70
     0
102
RTVSPropertyOp53
 70
     1
102
RTVSPropertyOp54
 70
     1
102
RTVSPropertyOp55
 70
     1
102
RTVSPropertyOp56
 70
     1
102
RTVSPropertyOp57
 70
     1
102
RTVSPropertyOp58
 70
     1
102
RTVSPropertyOp59
 70
     1
102
RTVSPropertyOp60
 70
     1
102
RTVSPropertyOp61
 70
     1
102
RTVSPropertyOp62
 70
     1
  0
XRECORD
  5
947F0
102
{ACAD_REACTORS
330
947EF
102
}
330
947EF
100
AcDbXrecord
280
     1
102
RTVSPost2010Prop28
280
     0
102
RTVSPost2010PropOp28
 70
     1
102
RTVSPost2010Prop29
280
     1
102
RTVSPost2010PropOp29
 70
     1
102
RTVSPost2010Prop30
280
     1
102
RTVSPost2010PropOp30
 70
     1
102
RTVSPost2010Prop31
280
     0
102
RTVSPost2010PropOp31
 70
     1
102
RTVSPost2010Prop32
280
     0
102
RTVSPost2010PropOp32
 70
     1
102
RTVSPost2010Prop33
280
     0
102
RTVSPost2010PropOp33
 70
     1
102
RTVSPost2010Prop34
280
     0
102
RTVSPost2010PropOp34
 70
     1
102
RTVSPost2010Prop35
280
     0
102
RTVSPost2010PropOp35
 70
     1
102
RTVSPost2010Prop36
280
     0
102
RTVSPost2010PropOp36
 70
     1
102
RTVSPost2010Prop37
 90
       50
102
RTVSPost2010PropOp37
 70
     1
102
RTVSPost2010Prop38
140
0.0
102
RTVSPost2010PropOp38
 70
     1
102
RTVSPost2010Prop39
140
1.0
102
RTVSPost2010PropOp39
 70
     1
102
RTVSPost2010Prop40
 90
        0
102
RTVSPost2010PropOp40
 70
     1
102
RTVSPost2010Prop41ColorIndex
 90
       18
102
RTVSPost2010Prop41ColorRGB
 90
-16777216
102
RTVSPost2010PropOp41
 70
     1
102
RTVSPost2010Prop42
 90
       50
102
RTVSPost2010PropOp42
 70
     1
102
RTVSPost2010Prop43
 90
        3
102
RTVSPost2010PropOp43
 70
     1
102
RTVSPost2010Prop44ColorIndex
 90
        5
102
RTVSPost2010Prop44ColorRGB
 90
      255
102
RTVSPost2010PropOp44
 70
     1
102
RTVSPost2010Prop45
280
     0
102
RTVSPost2010PropOp45
 70
     1
102
RTVSPost2010Prop46
 90
       50
102
RTVSPost2010PropOp46
 70
     1
102
RTVSPost2010Prop47
 90
       50
102
RTVSPost2010PropOp47
 70
     1
102
RTVSPost2010Prop48
 90
       50
102
RTVSPost2010PropOp48
 70
     1
102
RTVSPost2010Prop49
280
     0
102
RTVSPost2010PropOp49
 70
     1
102
RTVSPost2010Prop50
 90
       50
102
RTVSPost2010PropOp50
 70
     1
102
RTVSPost2010Prop51ColorIndex
 90
      256
102
RTVSPost2010Prop51ColorRGB
 90
-16777216
102
RTVSPost2010PropOp51
 70
     0
102
RTVSPost2010Prop52
140
1.0
102
RTVSPost2010PropOp52
 70
     0
102
RTVSPost2010Prop53
 90
        2
102
RTVSPost2010PropOp53
 70
     1
102
RTVSPost2010Prop54
  1
strokes_ogs.tif
102
RTVSPost2010PropOp54
 70
     1
102
RTVSPost2010Prop55
280
     0
102
RTVSPost2010PropOp55
 70
     1
102
RTVSPost2010Prop56
140
1.0
102
RTVSPost2010PropOp56
 70
     1
102
RTVSPost2010Prop57
140
1.0
102
RTVSPost2010PropOp57
 70
     1
102
RTVSPropertyOp0
 70
     1
102
RTVSPropertyOp1
 70
     1
102
RTVSPropertyOp2
 70
     1
102
RTVSPropertyOp3
 70
     1
102
RTVSPropertyOp4
 70
     1
102
RTVSPropertyOp5
 70
     1
102
RTVSPropertyOp6
 70
     1
102
RTVSPropertyOp7
 70
     1
102
RTVSPropertyOp8
 70
     1
102
RTVSPropertyOp9
 70
     1
102
RTVSPropertyOp10
 70
     1
102
RTVSPropertyOp11
 70
     1
102
RTVSPropertyOp12
 70
     1
102
RTVSPropertyOp13
 70
     1
102
RTVSPropertyOp14
 70
     1
102
RTVSPropertyOp15
 70
     1
102
RTVSPropertyOp16
 70
     1
102
RTVSPropertyOp17
 70
     1
102
RTVSPropertyOp18
 70
     1
102
RTVSPropertyOp19
 70
     1
102
RTVSPropertyOp20
 70
     1
102
RTVSPropertyOp21
 70
     1
102
RTVSPropertyOp22
 70
     1
102
RTVSPropertyOp23
 70
     1
102
RTVSPropertyOp24
 70
     1
102
RTVSPropertyOp25
 70
     1
102
RTVSPropertyOp26
 70
     1
102
RTVSPropertyOp27
 70
     1
102
RTVSPropertyOp28
 70
     1
102
RTVSPropertyOp29
 70
     1
102
RTVSPropertyOp30
 70
     1
102
RTVSPropertyOp31
 70
     1
102
RTVSPropertyOp32
 70
     1
102
RTVSPropertyOp33
 70
     1
102
RTVSPropertyOp34
 70
     1
102
RTVSPropertyOp35
 70
     1
102
RTVSPropertyOp36
 70
     1
102
RTVSPropertyOp37
 70
     1
102
RTVSPropertyOp38
 70
     1
102
RTVSPropertyOp39
 70
     1
102
RTVSPropertyOp40
 70
     1
102
RTVSPropertyOp41
 70
     1
102
RTVSPropertyOp42
 70
     1
102
RTVSPropertyOp43
 70
     1
102
RTVSPropertyOp44
 70
     1
102
RTVSPropertyOp45
 70
     1
102
RTVSPropertyOp46
 70
     1
102
RTVSPropertyOp47
 70
     1
102
RTVSPropertyOp48
 70
     1
102
RTVSPropertyOp49
 70
     1
102
RTVSPropertyOp50
 70
     1
102
RTVSPropertyOp51
 70
     0
102
RTVSPropertyOp52
 70
     0
102
RTVSPropertyOp53
 70
     1
102
RTVSPropertyOp54
 70
     1
102
RTVSPropertyOp55
 70
     1
102
RTVSPropertyOp56
 70
     1
102
RTVSPropertyOp57
 70
     1
102
RTVSPropertyOp58
 70
     1
102
RTVSPropertyOp59
 70
     1
102
RTVSPropertyOp60
 70
     1
102
RTVSPropertyOp61
 70
     1
102
RTVSPropertyOp62
 70
     1
  0
XRECORD
  5
947FE
102
{ACAD_REACTORS
330
947FD
102
}
330
947FD
100
AcDbXrecord
280
     1
102
RTVSPost2010Prop28
280
     0
102
RTVSPost2010PropOp28
 70
     1
102
RTVSPost2010Prop29
280
     1
102
RTVSPost2010PropOp29
 70
     1
102
RTVSPost2010Prop30
280
     1
102
RTVSPost2010PropOp30
 70
     1
102
RTVSPost2010Prop31
280
     0
102
RTVSPost2010PropOp31
 70
     1
102
RTVSPost2010Prop32
280
     0
102
RTVSPost2010PropOp32
 70
     1
102
RTVSPost2010Prop33
280
     0
102
RTVSPost2010PropOp33
 70
     1
102
RTVSPost2010Prop34
280
     0
102
RTVSPost2010PropOp34
 70
     1
102
RTVSPost2010Prop35
280
     0
102
RTVSPost2010PropOp35
 70
     1
102
RTVSPost2010Prop36
280
     0
102
RTVSPost2010PropOp36
 70
     1
102
RTVSPost2010Prop37
 90
       50
102
RTVSPost2010PropOp37
 70
     1
102
RTVSPost2010Prop38
140
0.0
102
RTVSPost2010PropOp38
 70
     1
102
RTVSPost2010Prop39
140
1.0
102
RTVSPost2010PropOp39
 70
     1
102
RTVSPost2010Prop40
 90
        0
102
RTVSPost2010PropOp40
 70
     1
102
RTVSPost2010Prop41ColorIndex
 90
       18
102
RTVSPost2010Prop41ColorRGB
 90
-16777216
102
RTVSPost2010PropOp41
 70
     1
102
RTVSPost2010Prop42
 90
       50
102
RTVSPost2010PropOp42
 70
     1
102
RTVSPost2010Prop43
 90
        3
102
RTVSPost2010PropOp43
 70
     1
102
RTVSPost2010Prop44ColorIndex
 90
        5
102
RTVSPost2010Prop44ColorRGB
 90
      255
102
RTVSPost2010PropOp44
 70
     1
102
RTVSPost2010Prop45
280
     0
102
RTVSPost2010PropOp45
 70
     1
102
RTVSPost2010Prop46
 90
       50
102
RTVSPost2010PropOp46
 70
     1
102
RTVSPost2010Prop47
 90
       50
102
RTVSPost2010PropOp47
 70
     1
102
RTVSPost2010Prop48
 90
       50
102
RTVSPost2010PropOp48
 70
     1
102
RTVSPost2010Prop49
280
     0
102
RTVSPost2010PropOp49
 70
     1
102
RTVSPost2010Prop50
 90
       50
102
RTVSPost2010PropOp50
 70
     1
102
RTVSPost2010Prop51ColorIndex
 90
      256
102
RTVSPost2010Prop51ColorRGB
 90
-16777216
102
RTVSPost2010PropOp51
 70
     0
102
RTVSPost2010Prop52
140
1.0
102
RTVSPost2010PropOp52
 70
     0
102
RTVSPost2010Prop53
 90
        2
102
RTVSPost2010PropOp53
 70
     1
102
RTVSPost2010Prop54
  1
strokes_ogs.tif
102
RTVSPost2010PropOp54
 70
     1
102
RTVSPost2010Prop55
280
     0
102
RTVSPost2010PropOp55
 70
     1
102
RTVSPost2010Prop56
140
1.0
102
RTVSPost2010PropOp56
 70
     1
102
RTVSPost2010Prop57
140
1.0
102
RTVSPost2010PropOp57
 70
     1
102
RTVSPropertyOp0
 70
     1
102
RTVSPropertyOp1
 70
     1
102
RTVSPropertyOp2
 70
     1
102
RTVSPropertyOp3
 70
     1
102
RTVSPropertyOp4
 70
     1
102
RTVSPropertyOp5
 70
     1
102
RTVSPropertyOp6
 70
     1
102
RTVSPropertyOp7
 70
     1
102
RTVSPropertyOp8
 70
     1
102
RTVSPropertyOp9
 70
     1
102
RTVSPropertyOp10
 70
     1
102
RTVSPropertyOp11
 70
     1
102
RTVSPropertyOp12
 70
     1
102
RTVSPropertyOp13
 70
     1
102
RTVSPropertyOp14
 70
     1
102
RTVSPropertyOp15
 70
     1
102
RTVSPropertyOp16
 70
     1
102
RTVSPropertyOp17
 70
     1
102
RTVSPropertyOp18
 70
     1
102
RTVSPropertyOp19
 70
     1
102
RTVSPropertyOp20
 70
     1
102
RTVSPropertyOp21
 70
     1
102
RTVSPropertyOp22
 70
     1
102
RTVSPropertyOp23
 70
     1
102
RTVSPropertyOp24
 70
     1
102
RTVSPropertyOp25
 70
     1
102
RTVSPropertyOp26
 70
     1
102
RTVSPropertyOp27
 70
     1
102
RTVSPropertyOp28
 70
     1
102
RTVSPropertyOp29
 70
     1
102
RTVSPropertyOp30
 70
     1
102
RTVSPropertyOp31
 70
     1
102
RTVSPropertyOp32
 70
     1
102
RTVSPropertyOp33
 70
     1
102
RTVSPropertyOp34
 70
     1
102
RTVSPropertyOp35
 70
     1
102
RTVSPropertyOp36
 70
     1
102
RTVSPropertyOp37
 70
     1
102
RTVSPropertyOp38
 70
     1
102
RTVSPropertyOp39
 70
     1
102
RTVSPropertyOp40
 70
     1
102
RTVSPropertyOp41
 70
     1
102
RTVSPropertyOp42
 70
     1
102
RTVSPropertyOp43
 70
     1
102
RTVSPropertyOp44
 70
     1
102
RTVSPropertyOp45
 70
     1
102
RTVSPropertyOp46
 70
     1
102
RTVSPropertyOp47
 70
     1
102
RTVSPropertyOp48
 70
     1
102
RTVSPropertyOp49
 70
     1
102
RTVSPropertyOp50
 70
     1
102
RTVSPropertyOp51
 70
     0
102
RTVSPropertyOp52
 70
     0
102
RTVSPropertyOp53
 70
     1
102
RTVSPropertyOp54
 70
     1
102
RTVSPropertyOp55
 70
     1
102
RTVSPropertyOp56
 70
     1
102
RTVSPropertyOp57
 70
     1
102
RTVSPropertyOp58
 70
     1
102
RTVSPropertyOp59
 70
     1
102
RTVSPropertyOp60
 70
     1
102
RTVSPropertyOp61
 70
     1
102
RTVSPropertyOp62
 70
     1
  0
XRECORD
  5
94806
102
{ACAD_REACTORS
330
94805
102
}
330
94805
100
AcDbXrecord
280
     1
102
RTVSPost2010Prop28
280
     0
102
RTVSPost2010PropOp28
 70
     1
102
RTVSPost2010Prop29
280
     1
102
RTVSPost2010PropOp29
 70
     1
102
RTVSPost2010Prop30
280
     1
102
RTVSPost2010PropOp30
 70
     1
102
RTVSPost2010Prop31
280
     0
102
RTVSPost2010PropOp31
 70
     1
102
RTVSPost2010Prop32
280
     0
102
RTVSPost2010PropOp32
 70
     1
102
RTVSPost2010Prop33
280
     0
102
RTVSPost2010PropOp33
 70
     1
102
RTVSPost2010Prop34
280
     0
102
RTVSPost2010PropOp34
 70
     1
102
RTVSPost2010Prop35
280
     0
102
RTVSPost2010PropOp35
 70
     1
102
RTVSPost2010Prop36
280
     0
102
RTVSPost2010PropOp36
 70
     1
102
RTVSPost2010Prop37
 90
       50
102
RTVSPost2010PropOp37
 70
     1
102
RTVSPost2010Prop38
140
0.0
102
RTVSPost2010PropOp38
 70
     1
102
RTVSPost2010Prop39
140
1.0
102
RTVSPost2010PropOp39
 70
     1
102
RTVSPost2010Prop40
 90
        0
102
RTVSPost2010PropOp40
 70
     1
102
RTVSPost2010Prop41ColorIndex
 90
       18
102
RTVSPost2010Prop41ColorRGB
 90
-16777216
102
RTVSPost2010PropOp41
 70
     1
102
RTVSPost2010Prop42
 90
       50
102
RTVSPost2010PropOp42
 70
     1
102
RTVSPost2010Prop43
 90
        3
102
RTVSPost2010PropOp43
 70
     1
102
RTVSPost2010Prop44ColorIndex
 90
        5
102
RTVSPost2010Prop44ColorRGB
 90
      255
102
RTVSPost2010PropOp44
 70
     1
102
RTVSPost2010Prop45
280
     0
102
RTVSPost2010PropOp45
 70
     1
102
RTVSPost2010Prop46
 90
       50
102
RTVSPost2010PropOp46
 70
     1
102
RTVSPost2010Prop47
 90
       50
102
RTVSPost2010PropOp47
 70
     1
102
RTVSPost2010Prop48
 90
       50
102
RTVSPost2010PropOp48
 70
     1
102
RTVSPost2010Prop49
280
     0
102
RTVSPost2010PropOp49
 70
     1
102
RTVSPost2010Prop50
 90
       50
102
RTVSPost2010PropOp50
 70
     1
102
RTVSPost2010Prop51ColorIndex
 90
      256
102
RTVSPost2010Prop51ColorRGB
 90
-16777216
102
RTVSPost2010PropOp51
 70
     0
102
RTVSPost2010Prop52
140
1.0
102
RTVSPost2010PropOp52
 70
     0
102
RTVSPost2010Prop53
 90
        2
102
RTVSPost2010PropOp53
 70
     1
102
RTVSPost2010Prop54
  1
strokes_ogs.tif
102
RTVSPost2010PropOp54
 70
     1
102
RTVSPost2010Prop55
280
     0
102
RTVSPost2010PropOp55
 70
     1
102
RTVSPost2010Prop56
140
1.0
102
RTVSPost2010PropOp56
 70
     1
102
RTVSPost2010Prop57
140
1.0
102
RTVSPost2010PropOp57
 70
     1
102
RTVSPropertyOp0
 70
     1
102
RTVSPropertyOp1
 70
     1
102
RTVSPropertyOp2
 70
     1
102
RTVSPropertyOp3
 70
     1
102
RTVSPropertyOp4
 70
     1
102
RTVSPropertyOp5
 70
     1
102
RTVSPropertyOp6
 70
     1
102
RTVSPropertyOp7
 70
     1
102
RTVSPropertyOp8
 70
     1
102
RTVSPropertyOp9
 70
     1
102
RTVSPropertyOp10
 70
     1
102
RTVSPropertyOp11
 70
     1
102
RTVSPropertyOp12
 70
     1
102
RTVSPropertyOp13
 70
     1
102
RTVSPropertyOp14
 70
     1
102
RTVSPropertyOp15
 70
     1
102
RTVSPropertyOp16
 70
     1
102
RTVSPropertyOp17
 70
     1
102
RTVSPropertyOp18
 70
     1
102
RTVSPropertyOp19
 70
     1
102
RTVSPropertyOp20
 70
     1
102
RTVSPropertyOp21
 70
     1
102
RTVSPropertyOp22
 70
     1
102
RTVSPropertyOp23
 70
     1
102
RTVSPropertyOp24
 70
     1
102
RTVSPropertyOp25
 70
     1
102
RTVSPropertyOp26
 70
     1
102
RTVSPropertyOp27
 70
     1
102
RTVSPropertyOp28
 70
     1
102
RTVSPropertyOp29
 70
     1
102
RTVSPropertyOp30
 70
     1
102
RTVSPropertyOp31
 70
     1
102
RTVSPropertyOp32
 70
     1
102
RTVSPropertyOp33
 70
     1
102
RTVSPropertyOp34
 70
     1
102
RTVSPropertyOp35
 70
     1
102
RTVSPropertyOp36
 70
     1
102
RTVSPropertyOp37
 70
     1
102
RTVSPropertyOp38
 70
     1
102
RTVSPropertyOp39
 70
     1
102
RTVSPropertyOp40
 70
     1
102
RTVSPropertyOp41
 70
     1
102
RTVSPropertyOp42
 70
     1
102
RTVSPropertyOp43
 70
     1
102
RTVSPropertyOp44
 70
     1
102
RTVSPropertyOp45
 70
     1
102
RTVSPropertyOp46
 70
     1
102
RTVSPropertyOp47
 70
     1
102
RTVSPropertyOp48
 70
     1
102
RTVSPropertyOp49
 70
     1
102
RTVSPropertyOp50
 70
     1
102
RTVSPropertyOp51
 70
     0
102
RTVSPropertyOp52
 70
     0
102
RTVSPropertyOp53
 70
     1
102
RTVSPropertyOp54
 70
     1
102
RTVSPropertyOp55
 70
     1
102
RTVSPropertyOp56
 70
     1
102
RTVSPropertyOp57
 70
     1
102
RTVSPropertyOp58
 70
     1
102
RTVSPropertyOp59
 70
     1
102
RTVSPropertyOp60
 70
     1
102
RTVSPropertyOp61
 70
     1
102
RTVSPropertyOp62
 70
     1
  0
XRECORD
  5
947F8
102
{ACAD_REACTORS
330
947F7
102
}
330
947F7
100
AcDbXrecord
280
     1
102
RTVSPost2010Prop28
280
     0
102
RTVSPost2010PropOp28
 70
     1
102
RTVSPost2010Prop29
280
     1
102
RTVSPost2010PropOp29
 70
     1
102
RTVSPost2010Prop30
280
     1
102
RTVSPost2010PropOp30
 70
     1
102
RTVSPost2010Prop31
280
     0
102
RTVSPost2010PropOp31
 70
     1
102
RTVSPost2010Prop32
280
     0
102
RTVSPost2010PropOp32
 70
     1
102
RTVSPost2010Prop33
280
     0
102
RTVSPost2010PropOp33
 70
     1
102
RTVSPost2010Prop34
280
     0
102
RTVSPost2010PropOp34
 70
     1
102
RTVSPost2010Prop35
280
     0
102
RTVSPost2010PropOp35
 70
     1
102
RTVSPost2010Prop36
280
     0
102
RTVSPost2010PropOp36
 70
     1
102
RTVSPost2010Prop37
 90
       50
102
RTVSPost2010PropOp37
 70
     1
102
RTVSPost2010Prop38
140
0.0
102
RTVSPost2010PropOp38
 70
     1
102
RTVSPost2010Prop39
140
1.0
102
RTVSPost2010PropOp39
 70
     1
102
RTVSPost2010Prop40
 90
        0
102
RTVSPost2010PropOp40
 70
     1
102
RTVSPost2010Prop41ColorIndex
 90
       18
102
RTVSPost2010Prop41ColorRGB
 90
-16777216
102
RTVSPost2010PropOp41
 70
     1
102
RTVSPost2010Prop42
 90
       50
102
RTVSPost2010PropOp42
 70
     1
102
RTVSPost2010Prop43
 90
        3
102
RTVSPost2010PropOp43
 70
     1
102
RTVSPost2010Prop44ColorIndex
 90
        5
102
RTVSPost2010Prop44ColorRGB
 90
      255
102
RTVSPost2010PropOp44
 70
     1
102
RTVSPost2010Prop45
280
     0
102
RTVSPost2010PropOp45
 70
     1
102
RTVSPost2010Prop46
 90
       50
102
RTVSPost2010PropOp46
 70
     1
102
RTVSPost2010Prop47
 90
       50
102
RTVSPost2010PropOp47
 70
     1
102
RTVSPost2010Prop48
 90
       50
102
RTVSPost2010PropOp48
 70
     1
102
RTVSPost2010Prop49
280
     0
102
RTVSPost2010PropOp49
 70
     1
102
RTVSPost2010Prop50
 90
       50
102
RTVSPost2010PropOp50
 70
     1
102
RTVSPost2010Prop51ColorIndex
 90
      256
102
RTVSPost2010Prop51ColorRGB
 90
-16777216
102
RTVSPost2010PropOp51
 70
     0
102
RTVSPost2010Prop52
140
1.0
102
RTVSPost2010PropOp52
 70
     0
102
RTVSPost2010Prop53
 90
        2
102
RTVSPost2010PropOp53
 70
     1
102
RTVSPost2010Prop54
  1
strokes_ogs.tif
102
RTVSPost2010PropOp54
 70
     1
102
RTVSPost2010Prop55
280
     0
102
RTVSPost2010PropOp55
 70
     1
102
RTVSPost2010Prop56
140
1.0
102
RTVSPost2010PropOp56
 70
     1
102
RTVSPost2010Prop57
140
1.0
102
RTVSPost2010PropOp57
 70
     1
102
RTVSPropertyOp0
 70
     1
102
RTVSPropertyOp1
 70
     1
102
RTVSPropertyOp2
 70
     1
102
RTVSPropertyOp3
 70
     1
102
RTVSPropertyOp4
 70
     1
102
RTVSPropertyOp5
 70
     1
102
RTVSPropertyOp6
 70
     1
102
RTVSPropertyOp7
 70
     1
102
RTVSPropertyOp8
 70
     1
102
RTVSPropertyOp9
 70
     1
102
RTVSPropertyOp10
 70
     1
102
RTVSPropertyOp11
 70
     1
102
RTVSPropertyOp12
 70
     1
102
RTVSPropertyOp13
 70
     1
102
RTVSPropertyOp14
 70
     1
102
RTVSPropertyOp15
 70
     1
102
RTVSPropertyOp16
 70
     1
102
RTVSPropertyOp17
 70
     1
102
RTVSPropertyOp18
 70
     1
102
RTVSPropertyOp19
 70
     1
102
RTVSPropertyOp20
 70
     1
102
RTVSPropertyOp21
 70
     1
102
RTVSPropertyOp22
 70
     1
102
RTVSPropertyOp23
 70
     1
102
RTVSPropertyOp24
 70
     1
102
RTVSPropertyOp25
 70
     1
102
RTVSPropertyOp26
 70
     1
102
RTVSPropertyOp27
 70
     1
102
RTVSPropertyOp28
 70
     1
102
RTVSPropertyOp29
 70
     1
102
RTVSPropertyOp30
 70
     1
102
RTVSPropertyOp31
 70
     1
102
RTVSPropertyOp32
 70
     1
102
RTVSPropertyOp33
 70
     1
102
RTVSPropertyOp34
 70
     1
102
RTVSPropertyOp35
 70
     1
102
RTVSPropertyOp36
 70
     1
102
RTVSPropertyOp37
 70
     1
102
RTVSPropertyOp38
 70
     1
102
RTVSPropertyOp39
 70
     1
102
RTVSPropertyOp40
 70
     1
102
RTVSPropertyOp41
 70
     1
102
RTVSPropertyOp42
 70
     1
102
RTVSPropertyOp43
 70
     1
102
RTVSPropertyOp44
 70
     1
102
RTVSPropertyOp45
 70
     1
102
RTVSPropertyOp46
 70
     1
102
RTVSPropertyOp47
 70
     1
102
RTVSPropertyOp48
 70
     1
102
RTVSPropertyOp49
 70
     1
102
RTVSPropertyOp50
 70
     1
102
RTVSPropertyOp51
 70
     0
102
RTVSPropertyOp52
 70
     0
102
RTVSPropertyOp53
 70
     1
102
RTVSPropertyOp54
 70
     1
102
RTVSPropertyOp55
 70
     1
102
RTVSPropertyOp56
 70
     1
102
RTVSPropertyOp57
 70
     1
102
RTVSPropertyOp58
 70
     1
102
RTVSPropertyOp59
 70
     1
102
RTVSPropertyOp60
 70
     1
102
RTVSPropertyOp61
 70
     1
102
RTVSPropertyOp62
 70
     1
  0
XRECORD
  5
947FC
102
{ACAD_REACTORS
330
947FB
102
}
330
947FB
100
AcDbXrecord
280
     1
102
RTVSPost2010Prop28
280
     0
102
RTVSPost2010PropOp28
 70
     1
102
RTVSPost2010Prop29
280
     1
102
RTVSPost2010PropOp29
 70
     1
102
RTVSPost2010Prop30
280
     1
102
RTVSPost2010PropOp30
 70
     1
102
RTVSPost2010Prop31
280
     0
102
RTVSPost2010PropOp31
 70
     1
102
RTVSPost2010Prop32
280
     0
102
RTVSPost2010PropOp32
 70
     1
102
RTVSPost2010Prop33
280
     0
102
RTVSPost2010PropOp33
 70
     1
102
RTVSPost2010Prop34
280
     0
102
RTVSPost2010PropOp34
 70
     1
102
RTVSPost2010Prop35
280
     0
102
RTVSPost2010PropOp35
 70
     1
102
RTVSPost2010Prop36
280
     0
102
RTVSPost2010PropOp36
 70
     1
102
RTVSPost2010Prop37
 90
       50
102
RTVSPost2010PropOp37
 70
     1
102
RTVSPost2010Prop38
140
0.0
102
RTVSPost2010PropOp38
 70
     1
102
RTVSPost2010Prop39
140
1.0
102
RTVSPost2010PropOp39
 70
     1
102
RTVSPost2010Prop40
 90
        0
102
RTVSPost2010PropOp40
 70
     1
102
RTVSPost2010Prop41ColorIndex
 90
       18
102
RTVSPost2010Prop41ColorRGB
 90
-16777216
102
RTVSPost2010PropOp41
 70
     1
102
RTVSPost2010Prop42
 90
       50
102
RTVSPost2010PropOp42
 70
     1
102
RTVSPost2010Prop43
 90
        3
102
RTVSPost2010PropOp43
 70
     1
102
RTVSPost2010Prop44ColorIndex
 90
        5
102
RTVSPost2010Prop44ColorRGB
 90
      255
102
RTVSPost2010PropOp44
 70
     1
102
RTVSPost2010Prop45
280
     0
102
RTVSPost2010PropOp45
 70
     1
102
RTVSPost2010Prop46
 90
       50
102
RTVSPost2010PropOp46
 70
     1
102
RTVSPost2010Prop47
 90
       50
102
RTVSPost2010PropOp47
 70
     1
102
RTVSPost2010Prop48
 90
       50
102
RTVSPost2010PropOp48
 70
     1
102
RTVSPost2010Prop49
280
     0
102
RTVSPost2010PropOp49
 70
     1
102
RTVSPost2010Prop50
 90
       50
102
RTVSPost2010PropOp50
 70
     1
102
RTVSPost2010Prop51ColorIndex
 90
      256
102
RTVSPost2010Prop51ColorRGB
 90
-16777216
102
RTVSPost2010PropOp51
 70
     0
102
RTVSPost2010Prop52
140
1.0
102
RTVSPost2010PropOp52
 70
     0
102
RTVSPost2010Prop53
 90
        2
102
RTVSPost2010PropOp53
 70
     1
102
RTVSPost2010Prop54
  1
strokes_ogs.tif
102
RTVSPost2010PropOp54
 70
     1
102
RTVSPost2010Prop55
280
     0
102
RTVSPost2010PropOp55
 70
     1
102
RTVSPost2010Prop56
140
1.0
102
RTVSPost2010PropOp56
 70
     1
102
RTVSPost2010Prop57
140
1.0
102
RTVSPost2010PropOp57
 70
     1
102
RTVSPropertyOp0
 70
     1
102
RTVSPropertyOp1
 70
     1
102
RTVSPropertyOp2
 70
     1
102
RTVSPropertyOp3
 70
     1
102
RTVSPropertyOp4
 70
     1
102
RTVSPropertyOp5
 70
     1
102
RTVSPropertyOp6
 70
     1
102
RTVSPropertyOp7
 70
     1
102
RTVSPropertyOp8
 70
     1
102
RTVSPropertyOp9
 70
     1
102
RTVSPropertyOp10
 70
     1
102
RTVSPropertyOp11
 70
     1
102
RTVSPropertyOp12
 70
     1
102
RTVSPropertyOp13
 70
     1
102
RTVSPropertyOp14
 70
     1
102
RTVSPropertyOp15
 70
     1
102
RTVSPropertyOp16
 70
     1
102
RTVSPropertyOp17
 70
     1
102
RTVSPropertyOp18
 70
     1
102
RTVSPropertyOp19
 70
     1
102
RTVSPropertyOp20
 70
     1
102
RTVSPropertyOp21
 70
     1
102
RTVSPropertyOp22
 70
     1
102
RTVSPropertyOp23
 70
     1
102
RTVSPropertyOp24
 70
     1
102
RTVSPropertyOp25
 70
     1
102
RTVSPropertyOp26
 70
     1
102
RTVSPropertyOp27
 70
     1
102
RTVSPropertyOp28
 70
     1
102
RTVSPropertyOp29
 70
     1
102
RTVSPropertyOp30
 70
     1
102
RTVSPropertyOp31
 70
     1
102
RTVSPropertyOp32
 70
     1
102
RTVSPropertyOp33
 70
     1
102
RTVSPropertyOp34
 70
     1
102
RTVSPropertyOp35
 70
     1
102
RTVSPropertyOp36
 70
     1
102
RTVSPropertyOp37
 70
     1
102
RTVSPropertyOp38
 70
     1
102
RTVSPropertyOp39
 70
     1
102
RTVSPropertyOp40
 70
     1
102
RTVSPropertyOp41
 70
     1
102
RTVSPropertyOp42
 70
     1
102
RTVSPropertyOp43
 70
     1
102
RTVSPropertyOp44
 70
     1
102
RTVSPropertyOp45
 70
     1
102
RTVSPropertyOp46
 70
     1
102
RTVSPropertyOp47
 70
     1
102
RTVSPropertyOp48
 70
     1
102
RTVSPropertyOp49
 70
     1
102
RTVSPropertyOp50
 70
     1
102
RTVSPropertyOp51
 70
     0
102
RTVSPropertyOp52
 70
     0
102
RTVSPropertyOp53
 70
     1
102
RTVSPropertyOp54
 70
     1
102
RTVSPropertyOp55
 70
     1
102
RTVSPropertyOp56
 70
     1
102
RTVSPropertyOp57
 70
     1
102
RTVSPropertyOp58
 70
     1
102
RTVSPropertyOp59
 70
     1
102
RTVSPropertyOp60
 70
     1
102
RTVSPropertyOp61
 70
     1
102
RTVSPropertyOp62
 70
     1
  0
XRECORD
  5
94816
102
{ACAD_REACTORS
330
94815
102
}
330
94815
100
AcDbXrecord
280
     1
102
RTVSPost2010Prop28
280
     0
102
RTVSPost2010PropOp28
 70
     1
102
RTVSPost2010Prop29
280
     1
102
RTVSPost2010PropOp29
 70
     1
102
RTVSPost2010Prop30
280
     1
102
RTVSPost2010PropOp30
 70
     1
102
RTVSPost2010Prop31
280
     0
102
RTVSPost2010PropOp31
 70
     1
102
RTVSPost2010Prop32
280
     0
102
RTVSPost2010PropOp32
 70
     1
102
RTVSPost2010Prop33
280
     0
102
RTVSPost2010PropOp33
 70
     1
102
RTVSPost2010Prop34
280
     0
102
RTVSPost2010PropOp34
 70
     1
102
RTVSPost2010Prop35
280
     0
102
RTVSPost2010PropOp35
 70
     1
102
RTVSPost2010Prop36
280
     0
102
RTVSPost2010PropOp36
 70
     1
102
RTVSPost2010Prop37
 90
       50
102
RTVSPost2010PropOp37
 70
     0
102
RTVSPost2010Prop38
140
0.0
102
RTVSPost2010PropOp38
 70
     0
102
RTVSPost2010Prop39
140
1.0
102
RTVSPost2010PropOp39
 70
     0
102
RTVSPost2010Prop40
 90
        0
102
RTVSPost2010PropOp40
 70
     0
102
RTVSPost2010Prop41ColorIndex
 90
       18
102
RTVSPost2010Prop41ColorRGB
 90
-16777216
102
RTVSPost2010PropOp41
 70
     0
102
RTVSPost2010Prop42
 90
       50
102
RTVSPost2010PropOp42
 70
     0
102
RTVSPost2010Prop43
 90
        3
102
RTVSPost2010PropOp43
 70
     0
102
RTVSPost2010Prop44ColorIndex
 90
        5
102
RTVSPost2010Prop44ColorRGB
 90
      255
102
RTVSPost2010PropOp44
 70
     0
102
RTVSPost2010Prop45
280
     0
102
RTVSPost2010PropOp45
 70
     1
102
RTVSPost2010Prop46
 90
       50
102
RTVSPost2010PropOp46
 70
     0
102
RTVSPost2010Prop47
 90
       50
102
RTVSPost2010PropOp47
 70
     0
102
RTVSPost2010Prop48
 90
       50
102
RTVSPost2010PropOp48
 70
     0
102
RTVSPost2010Prop49
280
     0
102
RTVSPost2010PropOp49
 70
     1
102
RTVSPost2010Prop50
 90
       50
102
RTVSPost2010PropOp50
 70
     0
102
RTVSPost2010Prop51ColorIndex
 90
      256
102
RTVSPost2010Prop51ColorRGB
 90
-16777216
102
RTVSPost2010PropOp51
 70
     0
102
RTVSPost2010Prop52
140
1.0
102
RTVSPost2010PropOp52
 70
     0
102
RTVSPost2010Prop53
 90
        2
102
RTVSPost2010PropOp53
 70
     0
102
RTVSPost2010Prop54
  1
strokes_ogs.tif
102
RTVSPost2010PropOp54
 70
     0
102
RTVSPost2010Prop55
280
     0
102
RTVSPost2010PropOp55
 70
     1
102
RTVSPost2010Prop56
140
1.0
102
RTVSPost2010PropOp56
 70
     0
102
RTVSPost2010Prop57
140
1.0
102
RTVSPost2010PropOp57
 70
     0
102
RTVSPropertyOp0
 70
     0
102
RTVSPropertyOp1
 70
     0
102
RTVSPropertyOp2
 70
     0
102
RTVSPropertyOp3
 70
     0
102
RTVSPropertyOp4
 70
     0
102
RTVSPropertyOp5
 70
     0
102
RTVSPropertyOp6
 70
     0
102
RTVSPropertyOp7
 70
     0
102
RTVSPropertyOp8
 70
     0
102
RTVSPropertyOp9
 70
     0
102
RTVSPropertyOp10
 70
     0
102
RTVSPropertyOp11
 70
     0
102
RTVSPropertyOp12
 70
     0
102
RTVSPropertyOp13
 70
     0
102
RTVSPropertyOp14
 70
     2
102
RTVSPropertyOp15
 70
     0
102
RTVSPropertyOp16
 70
     0
102
RTVSPropertyOp17
 70
     0
102
RTVSPropertyOp18
 70
     0
102
RTVSPropertyOp19
 70
     0
102
RTVSPropertyOp20
 70
     0
102
RTVSPropertyOp21
 70
     0
102
RTVSPropertyOp22
 70
     0
102
RTVSPropertyOp23
 70
     0
102
RTVSPropertyOp24
 70
     0
102
RTVSPropertyOp25
 70
     0
102
RTVSPropertyOp26
 70
     0
102
RTVSPropertyOp27
 70
     0
102
RTVSPropertyOp28
 70
     1
102
RTVSPropertyOp29
 70
     1
102
RTVSPropertyOp30
 70
     1
102
RTVSPropertyOp31
 70
     1
102
RTVSPropertyOp32
 70
     1
102
RTVSPropertyOp33
 70
     1
102
RTVSPropertyOp34
 70
     1
102
RTVSPropertyOp35
 70
     1
102
RTVSPropertyOp36
 70
     1
102
RTVSPropertyOp37
 70
     0
102
RTVSPropertyOp38
 70
     0
102
RTVSPropertyOp39
 70
     0
102
RTVSPropertyOp40
 70
     0
102
RTVSPropertyOp41
 70
     0
102
RTVSPropertyOp42
 70
     0
102
RTVSPropertyOp43
 70
     0
102
RTVSPropertyOp44
 70
     0
102
RTVSPropertyOp45
 70
     1
102
RTVSPropertyOp46
 70
     0
102
RTVSPropertyOp47
 70
     0
102
RTVSPropertyOp48
 70
     0
102
RTVSPropertyOp49
 70
     1
102
RTVSPropertyOp50
 70
     0
102
RTVSPropertyOp51
 70
     0
102
RTVSPropertyOp52
 70
     0
102
RTVSPropertyOp53
 70
     0
102
RTVSPropertyOp54
 70
     0
102
RTVSPropertyOp55
 70
     1
102
RTVSPropertyOp56
 70
     0
102
RTVSPropertyOp57
 70
     0
102
RTVSPropertyOp58
 70
     1
102
RTVSPropertyOp59
 70
     1
102
RTVSPropertyOp60
 70
     1
102
RTVSPropertyOp61
 70
     1
102
RTVSPropertyOp62
 70
     1
  0
XRECORD
  5
94804
102
{ACAD_REACTORS
330
94803
102
}
330
94803
100
AcDbXrecord
280
     1
102
RTVSPost2010Prop28
280
     0
102
RTVSPost2010PropOp28
 70
     1
102
RTVSPost2010Prop29
280
     1
102
RTVSPost2010PropOp29
 70
     1
102
RTVSPost2010Prop30
280
     1
102
RTVSPost2010PropOp30
 70
     1
102
RTVSPost2010Prop31
280
     0
102
RTVSPost2010PropOp31
 70
     1
102
RTVSPost2010Prop32
280
     0
102
RTVSPost2010PropOp32
 70
     1
102
RTVSPost2010Prop33
280
     0
102
RTVSPost2010PropOp33
 70
     1
102
RTVSPost2010Prop34
280
     0
102
RTVSPost2010PropOp34
 70
     1
102
RTVSPost2010Prop35
280
     0
102
RTVSPost2010PropOp35
 70
     1
102
RTVSPost2010Prop36
280
     0
102
RTVSPost2010PropOp36
 70
     1
102
RTVSPost2010Prop37
 90
       50
102
RTVSPost2010PropOp37
 70
     1
102
RTVSPost2010Prop38
140
0.0
102
RTVSPost2010PropOp38
 70
     1
102
RTVSPost2010Prop39
140
1.0
102
RTVSPost2010PropOp39
 70
     1
102
RTVSPost2010Prop40
 90
        0
102
RTVSPost2010PropOp40
 70
     1
102
RTVSPost2010Prop41ColorIndex
 90
       18
102
RTVSPost2010Prop41ColorRGB
 90
-16777216
102
RTVSPost2010PropOp41
 70
     1
102
RTVSPost2010Prop42
 90
       50
102
RTVSPost2010PropOp42
 70
     1
102
RTVSPost2010Prop43
 90
        3
102
RTVSPost2010PropOp43
 70
     1
102
RTVSPost2010Prop44ColorIndex
 90
        5
102
RTVSPost2010Prop44ColorRGB
 90
      255
102
RTVSPost2010PropOp44
 70
     1
102
RTVSPost2010Prop45
280
     0
102
RTVSPost2010PropOp45
 70
     1
102
RTVSPost2010Prop46
 90
       50
102
RTVSPost2010PropOp46
 70
     1
102
RTVSPost2010Prop47
 90
       50
102
RTVSPost2010PropOp47
 70
     1
102
RTVSPost2010Prop48
 90
       50
102
RTVSPost2010PropOp48
 70
     1
102
RTVSPost2010Prop49
280
     0
102
RTVSPost2010PropOp49
 70
     1
102
RTVSPost2010Prop50
 90
       50
102
RTVSPost2010PropOp50
 70
     1
102
RTVSPost2010Prop51ColorIndex
 90
      256
102
RTVSPost2010Prop51ColorRGB
 90
-16777216
102
RTVSPost2010PropOp51
 70
     0
102
RTVSPost2010Prop52
140
1.0
102
RTVSPost2010PropOp52
 70
     0
102
RTVSPost2010Prop53
 90
        2
102
RTVSPost2010PropOp53
 70
     1
102
RTVSPost2010Prop54
  1
strokes_ogs.tif
102
RTVSPost2010PropOp54
 70
     1
102
RTVSPost2010Prop55
280
     0
102
RTVSPost2010PropOp55
 70
     1
102
RTVSPost2010Prop56
140
1.0
102
RTVSPost2010PropOp56
 70
     1
102
RTVSPost2010Prop57
140
1.0
102
RTVSPost2010PropOp57
 70
     1
102
RTVSPropertyOp0
 70
     1
102
RTVSPropertyOp1
 70
     1
102
RTVSPropertyOp2
 70
     1
102
RTVSPropertyOp3
 70
     1
102
RTVSPropertyOp4
 70
     1
102
RTVSPropertyOp5
 70
     1
102
RTVSPropertyOp6
 70
     1
102
RTVSPropertyOp7
 70
     1
102
RTVSPropertyOp8
 70
     1
102
RTVSPropertyOp9
 70
     1
102
RTVSPropertyOp10
 70
     1
102
RTVSPropertyOp11
 70
     1
102
RTVSPropertyOp12
 70
     1
102
RTVSPropertyOp13
 70
     1
102
RTVSPropertyOp14
 70
     1
102
RTVSPropertyOp15
 70
     1
102
RTVSPropertyOp16
 70
     1
102
RTVSPropertyOp17
 70
     1
102
RTVSPropertyOp18
 70
     1
102
RTVSPropertyOp19
 70
     1
102
RTVSPropertyOp20
 70
     1
102
RTVSPropertyOp21
 70
     1
102
RTVSPropertyOp22
 70
     1
102
RTVSPropertyOp23
 70
     1
102
RTVSPropertyOp24
 70
     1
102
RTVSPropertyOp25
 70
     1
102
RTVSPropertyOp26
 70
     1
102
RTVSPropertyOp27
 70
     1
102
RTVSPropertyOp28
 70
     1
102
RTVSPropertyOp29
 70
     1
102
RTVSPropertyOp30
 70
     1
102
RTVSPropertyOp31
 70
     1
102
RTVSPropertyOp32
 70
     1
102
RTVSPropertyOp33
 70
     1
102
RTVSPropertyOp34
 70
     1
102
RTVSPropertyOp35
 70
     1
102
RTVSPropertyOp36
 70
     1
102
RTVSPropertyOp37
 70
     1
102
RTVSPropertyOp38
 70
     1
102
RTVSPropertyOp39
 70
     1
102
RTVSPropertyOp40
 70
     1
102
RTVSPropertyOp41
 70
     1
102
RTVSPropertyOp42
 70
     1
102
RTVSPropertyOp43
 70
     1
102
RTVSPropertyOp44
 70
     1
102
RTVSPropertyOp45
 70
     1
102
RTVSPropertyOp46
 70
     1
102
RTVSPropertyOp47
 70
     1
102
RTVSPropertyOp48
 70
     1
102
RTVSPropertyOp49
 70
     1
102
RTVSPropertyOp50
 70
     1
102
RTVSPropertyOp51
 70
     0
102
RTVSPropertyOp52
 70
     0
102
RTVSPropertyOp53
 70
     1
102
RTVSPropertyOp54
 70
     1
102
RTVSPropertyOp55
 70
     1
102
RTVSPropertyOp56
 70
     1
102
RTVSPropertyOp57
 70
     1
102
RTVSPropertyOp58
 70
     1
102
RTVSPropertyOp59
 70
     1
102
RTVSPropertyOp60
 70
     1
102
RTVSPropertyOp61
 70
     1
102
RTVSPropertyOp62
 70
     1
  0
XRECORD
  5
947E8
102
{ACAD_REACTORS
330
947E7
102
}
330
947E7
100
AcDbXrecord
280
     1
102
RTVSPost2010Prop28
280
     0
102
RTVSPost2010PropOp28
 70
     1
102
RTVSPost2010Prop29
280
     1
102
RTVSPost2010PropOp29
 70
     1
102
RTVSPost2010Prop30
280
     1
102
RTVSPost2010PropOp30
 70
     1
102
RTVSPost2010Prop31
280
     0
102
RTVSPost2010PropOp31
 70
     1
102
RTVSPost2010Prop32
280
     0
102
RTVSPost2010PropOp32
 70
     1
102
RTVSPost2010Prop33
280
     0
102
RTVSPost2010PropOp33
 70
     1
102
RTVSPost2010Prop34
280
     0
102
RTVSPost2010PropOp34
 70
     1
102
RTVSPost2010Prop35
280
     0
102
RTVSPost2010PropOp35
 70
     1
102
RTVSPost2010Prop36
280
     0
102
RTVSPost2010PropOp36
 70
     1
102
RTVSPost2010Prop37
 90
       50
102
RTVSPost2010PropOp37
 70
     1
102
RTVSPost2010Prop38
140
0.0
102
RTVSPost2010PropOp38
 70
     1
102
RTVSPost2010Prop39
140
1.0
102
RTVSPost2010PropOp39
 70
     1
102
RTVSPost2010Prop40
 90
        0
102
RTVSPost2010PropOp40
 70
     1
102
RTVSPost2010Prop41ColorIndex
 90
       18
102
RTVSPost2010Prop41ColorRGB
 90
-16777216
102
RTVSPost2010PropOp41
 70
     1
102
RTVSPost2010Prop42
 90
       50
102
RTVSPost2010PropOp42
 70
     1
102
RTVSPost2010Prop43
 90
        3
102
RTVSPost2010PropOp43
 70
     1
102
RTVSPost2010Prop44ColorIndex
 90
        5
102
RTVSPost2010Prop44ColorRGB
 90
      255
102
RTVSPost2010PropOp44
 70
     1
102
RTVSPost2010Prop45
280
     0
102
RTVSPost2010PropOp45
 70
     1
102
RTVSPost2010Prop46
 90
       50
102
RTVSPost2010PropOp46
 70
     1
102
RTVSPost2010Prop47
 90
       50
102
RTVSPost2010PropOp47
 70
     1
102
RTVSPost2010Prop48
 90
       50
102
RTVSPost2010PropOp48
 70
     1
102
RTVSPost2010Prop49
280
     0
102
RTVSPost2010PropOp49
 70
     1
102
RTVSPost2010Prop50
 90
       50
102
RTVSPost2010PropOp50
 70
     1
102
RTVSPost2010Prop51ColorIndex
 90
      256
102
RTVSPost2010Prop51ColorRGB
 90
-16777216
102
RTVSPost2010PropOp51
 70
     0
102
RTVSPost2010Prop52
140
1.0
102
RTVSPost2010PropOp52
 70
     0
102
RTVSPost2010Prop53
 90
        2
102
RTVSPost2010PropOp53
 70
     1
102
RTVSPost2010Prop54
  1
strokes_ogs.tif
102
RTVSPost2010PropOp54
 70
     1
102
RTVSPost2010Prop55
280
     0
102
RTVSPost2010PropOp55
 70
     1
102
RTVSPost2010Prop56
140
1.0
102
RTVSPost2010PropOp56
 70
     1
102
RTVSPost2010Prop57
140
1.0
102
RTVSPost2010PropOp57
 70
     1
102
RTVSPropertyOp0
 70
     1
102
RTVSPropertyOp1
 70
     1
102
RTVSPropertyOp2
 70
     1
102
RTVSPropertyOp3
 70
     1
102
RTVSPropertyOp4
 70
     1
102
RTVSPropertyOp5
 70
     1
102
RTVSPropertyOp6
 70
     1
102
RTVSPropertyOp7
 70
     1
102
RTVSPropertyOp8
 70
     1
102
RTVSPropertyOp9
 70
     1
102
RTVSPropertyOp10
 70
     1
102
RTVSPropertyOp11
 70
     1
102
RTVSPropertyOp12
 70
     1
102
RTVSPropertyOp13
 70
     1
102
RTVSPropertyOp14
 70
     1
102
RTVSPropertyOp15
 70
     1
102
RTVSPropertyOp16
 70
     1
102
RTVSPropertyOp17
 70
     1
102
RTVSPropertyOp18
 70
     1
102
RTVSPropertyOp19
 70
     1
102
RTVSPropertyOp20
 70
     1
102
RTVSPropertyOp21
 70
     1
102
RTVSPropertyOp22
 70
     1
102
RTVSPropertyOp23
 70
     1
102
RTVSPropertyOp24
 70
     1
102
RTVSPropertyOp25
 70
     1
102
RTVSPropertyOp26
 70
     1
102
RTVSPropertyOp27
 70
     1
102
RTVSPropertyOp28
 70
     1
102
RTVSPropertyOp29
 70
     1
102
RTVSPropertyOp30
 70
     1
102
RTVSPropertyOp31
 70
     1
102
RTVSPropertyOp32
 70
     1
102
RTVSPropertyOp33
 70
     1
102
RTVSPropertyOp34
 70
     1
102
RTVSPropertyOp35
 70
     1
102
RTVSPropertyOp36
 70
     1
102
RTVSPropertyOp37
 70
     1
102
RTVSPropertyOp38
 70
     1
102
RTVSPropertyOp39
 70
     1
102
RTVSPropertyOp40
 70
     1
102
RTVSPropertyOp41
 70
     1
102
RTVSPropertyOp42
 70
     1
102
RTVSPropertyOp43
 70
     1
102
RTVSPropertyOp44
 70
     1
102
RTVSPropertyOp45
 70
     1
102
RTVSPropertyOp46
 70
     1
102
RTVSPropertyOp47
 70
     1
102
RTVSPropertyOp48
 70
     1
102
RTVSPropertyOp49
 70
     1
102
RTVSPropertyOp50
 70
     1
102
RTVSPropertyOp51
 70
     0
102
RTVSPropertyOp52
 70
     0
102
RTVSPropertyOp53
 70
     1
102
RTVSPropertyOp54
 70
     1
102
RTVSPropertyOp55
 70
     1
102
RTVSPropertyOp56
 70
     1
102
RTVSPropertyOp57
 70
     1
102
RTVSPropertyOp58
 70
     1
102
RTVSPropertyOp59
 70
     1
102
RTVSPropertyOp60
 70
     1
102
RTVSPropertyOp61
 70
     1
102
RTVSPropertyOp62
 70
     1
  0
XRECORD
  5
947EA
102
{ACAD_REACTORS
330
947E9
102
}
330
947E9
100
AcDbXrecord
280
     1
102
RTVSPost2010Prop28
280
     0
102
RTVSPost2010PropOp28
 70
     1
102
RTVSPost2010Prop29
280
     1
102
RTVSPost2010PropOp29
 70
     1
102
RTVSPost2010Prop30
280
     1
102
RTVSPost2010PropOp30
 70
     1
102
RTVSPost2010Prop31
280
     0
102
RTVSPost2010PropOp31
 70
     1
102
RTVSPost2010Prop32
280
     0
102
RTVSPost2010PropOp32
 70
     1
102
RTVSPost2010Prop33
280
     0
102
RTVSPost2010PropOp33
 70
     1
102
RTVSPost2010Prop34
280
     0
102
RTVSPost2010PropOp34
 70
     1
102
RTVSPost2010Prop35
280
     0
102
RTVSPost2010PropOp35
 70
     1
102
RTVSPost2010Prop36
280
     0
102
RTVSPost2010PropOp36
 70
     1
102
RTVSPost2010Prop37
 90
       50
102
RTVSPost2010PropOp37
 70
     1
102
RTVSPost2010Prop38
140
0.0
102
RTVSPost2010PropOp38
 70
     1
102
RTVSPost2010Prop39
140
1.0
102
RTVSPost2010PropOp39
 70
     1
102
RTVSPost2010Prop40
 90
        0
102
RTVSPost2010PropOp40
 70
     1
102
RTVSPost2010Prop41ColorIndex
 90
       18
102
RTVSPost2010Prop41ColorRGB
 90
-16777216
102
RTVSPost2010PropOp41
 70
     1
102
RTVSPost2010Prop42
 90
       50
102
RTVSPost2010PropOp42
 70
     1
102
RTVSPost2010Prop43
 90
        3
102
RTVSPost2010PropOp43
 70
     1
102
RTVSPost2010Prop44ColorIndex
 90
        5
102
RTVSPost2010Prop44ColorRGB
 90
      255
102
RTVSPost2010PropOp44
 70
     1
102
RTVSPost2010Prop45
280
     0
102
RTVSPost2010PropOp45
 70
     1
102
RTVSPost2010Prop46
 90
       50
102
RTVSPost2010PropOp46
 70
     1
102
RTVSPost2010Prop47
 90
       50
102
RTVSPost2010PropOp47
 70
     1
102
RTVSPost2010Prop48
 90
       50
102
RTVSPost2010PropOp48
 70
     1
102
RTVSPost2010Prop49
280
     0
102
RTVSPost2010PropOp49
 70
     1
102
RTVSPost2010Prop50
 90
       50
102
RTVSPost2010PropOp50
 70
     1
102
RTVSPost2010Prop51ColorIndex
 90
      256
102
RTVSPost2010Prop51ColorRGB
 90
-16777216
102
RTVSPost2010PropOp51
 70
     0
102
RTVSPost2010Prop52
140
1.0
102
RTVSPost2010PropOp52
 70
     0
102
RTVSPost2010Prop53
 90
        2
102
RTVSPost2010PropOp53
 70
     1
102
RTVSPost2010Prop54
  1
strokes_ogs.tif
102
RTVSPost2010PropOp54
 70
     1
102
RTVSPost2010Prop55
280
     0
102
RTVSPost2010PropOp55
 70
     1
102
RTVSPost2010Prop56
140
1.0
102
RTVSPost2010PropOp56
 70
     1
102
RTVSPost2010Prop57
140
1.0
102
RTVSPost2010PropOp57
 70
     1
102
RTVSPropertyOp0
 70
     1
102
RTVSPropertyOp1
 70
     1
102
RTVSPropertyOp2
 70
     1
102
RTVSPropertyOp3
 70
     1
102
RTVSPropertyOp4
 70
     1
102
RTVSPropertyOp5
 70
     1
102
RTVSPropertyOp6
 70
     1
102
RTVSPropertyOp7
 70
     1
102
RTVSPropertyOp8
 70
     1
102
RTVSPropertyOp9
 70
     1
102
RTVSPropertyOp10
 70
     1
102
RTVSPropertyOp11
 70
     1
102
RTVSPropertyOp12
 70
     1
102
RTVSPropertyOp13
 70
     1
102
RTVSPropertyOp14
 70
     1
102
RTVSPropertyOp15
 70
     1
102
RTVSPropertyOp16
 70
     1
102
RTVSPropertyOp17
 70
     1
102
RTVSPropertyOp18
 70
     1
102
RTVSPropertyOp19
 70
     1
102
RTVSPropertyOp20
 70
     1
102
RTVSPropertyOp21
 70
     1
102
RTVSPropertyOp22
 70
     1
102
RTVSPropertyOp23
 70
     1
102
RTVSPropertyOp24
 70
     1
102
RTVSPropertyOp25
 70
     1
102
RTVSPropertyOp26
 70
     1
102
RTVSPropertyOp27
 70
     1
102
RTVSPropertyOp28
 70
     1
102
RTVSPropertyOp29
 70
     1
102
RTVSPropertyOp30
 70
     1
102
RTVSPropertyOp31
 70
     1
102
RTVSPropertyOp32
 70
     1
102
RTVSPropertyOp33
 70
     1
102
RTVSPropertyOp34
 70
     1
102
RTVSPropertyOp35
 70
     1
102
RTVSPropertyOp36
 70
     1
102
RTVSPropertyOp37
 70
     1
102
RTVSPropertyOp38
 70
     1
102
RTVSPropertyOp39
 70
     1
102
RTVSPropertyOp40
 70
     1
102
RTVSPropertyOp41
 70
     1
102
RTVSPropertyOp42
 70
     1
102
RTVSPropertyOp43
 70
     1
102
RTVSPropertyOp44
 70
     1
102
RTVSPropertyOp45
 70
     1
102
RTVSPropertyOp46
 70
     1
102
RTVSPropertyOp47
 70
     1
102
RTVSPropertyOp48
 70
     1
102
RTVSPropertyOp49
 70
     1
102
RTVSPropertyOp50
 70
     1
102
RTVSPropertyOp51
 70
     0
102
RTVSPropertyOp52
 70
     0
102
RTVSPropertyOp53
 70
     1
102
RTVSPropertyOp54
 70
     1
102
RTVSPropertyOp55
 70
     1
102
RTVSPropertyOp56
 70
     1
102
RTVSPropertyOp57
 70
     1
102
RTVSPropertyOp58
 70
     1
102
RTVSPropertyOp59
 70
     1
102
RTVSPropertyOp60
 70
     1
102
RTVSPropertyOp61
 70
     1
102
RTVSPropertyOp62
 70
     1
  0
XRECORD
  5
947EC
102
{ACAD_REACTORS
330
947EB
102
}
330
947EB
100
AcDbXrecord
280
     1
102
RTVSPost2010Prop28
280
     0
102
RTVSPost2010PropOp28
 70
     1
102
RTVSPost2010Prop29
280
     1
102
RTVSPost2010PropOp29
 70
     1
102
RTVSPost2010Prop30
280
     1
102
RTVSPost2010PropOp30
 70
     1
102
RTVSPost2010Prop31
280
     0
102
RTVSPost2010PropOp31
 70
     1
102
RTVSPost2010Prop32
280
     0
102
RTVSPost2010PropOp32
 70
     1
102
RTVSPost2010Prop33
280
     0
102
RTVSPost2010PropOp33
 70
     1
102
RTVSPost2010Prop34
280
     0
102
RTVSPost2010PropOp34
 70
     1
102
RTVSPost2010Prop35
280
     0
102
RTVSPost2010PropOp35
 70
     1
102
RTVSPost2010Prop36
280
     0
102
RTVSPost2010PropOp36
 70
     1
102
RTVSPost2010Prop37
 90
       50
102
RTVSPost2010PropOp37
 70
     1
102
RTVSPost2010Prop38
140
0.0
102
RTVSPost2010PropOp38
 70
     1
102
RTVSPost2010Prop39
140
1.0
102
RTVSPost2010PropOp39
 70
     1
102
RTVSPost2010Prop40
 90
        0
102
RTVSPost2010PropOp40
 70
     1
102
RTVSPost2010Prop41ColorIndex
 90
       18
102
RTVSPost2010Prop41ColorRGB
 90
-16777216
102
RTVSPost2010PropOp41
 70
     1
102
RTVSPost2010Prop42
 90
       50
102
RTVSPost2010PropOp42
 70
     1
102
RTVSPost2010Prop43
 90
        3
102
RTVSPost2010PropOp43
 70
     1
102
RTVSPost2010Prop44ColorIndex
 90
        5
102
RTVSPost2010Prop44ColorRGB
 90
      255
102
RTVSPost2010PropOp44
 70
     1
102
RTVSPost2010Prop45
280
     0
102
RTVSPost2010PropOp45
 70
     1
102
RTVSPost2010Prop46
 90
       50
102
RTVSPost2010PropOp46
 70
     1
102
RTVSPost2010Prop47
 90
       50
102
RTVSPost2010PropOp47
 70
     1
102
RTVSPost2010Prop48
 90
       50
102
RTVSPost2010PropOp48
 70
     1
102
RTVSPost2010Prop49
280
     0
102
RTVSPost2010PropOp49
 70
     1
102
RTVSPost2010Prop50
 90
       50
102
RTVSPost2010PropOp50
 70
     1
102
RTVSPost2010Prop51ColorIndex
 90
      256
102
RTVSPost2010Prop51ColorRGB
 90
-16777216
102
RTVSPost2010PropOp51
 70
     0
102
RTVSPost2010Prop52
140
1.0
102
RTVSPost2010PropOp52
 70
     0
102
RTVSPost2010Prop53
 90
        2
102
RTVSPost2010PropOp53
 70
     1
102
RTVSPost2010Prop54
  1
strokes_ogs.tif
102
RTVSPost2010PropOp54
 70
     1
102
RTVSPost2010Prop55
280
     0
102
RTVSPost2010PropOp55
 70
     1
102
RTVSPost2010Prop56
140
1.0
102
RTVSPost2010PropOp56
 70
     1
102
RTVSPost2010Prop57
140
1.0
102
RTVSPost2010PropOp57
 70
     1
102
RTVSPropertyOp0
 70
     1
102
RTVSPropertyOp1
 70
     1
102
RTVSPropertyOp2
 70
     1
102
RTVSPropertyOp3
 70
     1
102
RTVSPropertyOp4
 70
     1
102
RTVSPropertyOp5
 70
     1
102
RTVSPropertyOp6
 70
     1
102
RTVSPropertyOp7
 70
     1
102
RTVSPropertyOp8
 70
     1
102
RTVSPropertyOp9
 70
     1
102
RTVSPropertyOp10
 70
     1
102
RTVSPropertyOp11
 70
     1
102
RTVSPropertyOp12
 70
     1
102
RTVSPropertyOp13
 70
     1
102
RTVSPropertyOp14
 70
     1
102
RTVSPropertyOp15
 70
     1
102
RTVSPropertyOp16
 70
     1
102
RTVSPropertyOp17
 70
     1
102
RTVSPropertyOp18
 70
     1
102
RTVSPropertyOp19
 70
     1
102
RTVSPropertyOp20
 70
     1
102
RTVSPropertyOp21
 70
     1
102
RTVSPropertyOp22
 70
     1
102
RTVSPropertyOp23
 70
     1
102
RTVSPropertyOp24
 70
     1
102
RTVSPropertyOp25
 70
     1
102
RTVSPropertyOp26
 70
     1
102
RTVSPropertyOp27
 70
     1
102
RTVSPropertyOp28
 70
     1
102
RTVSPropertyOp29
 70
     1
102
RTVSPropertyOp30
 70
     1
102
RTVSPropertyOp31
 70
     1
102
RTVSPropertyOp32
 70
     1
102
RTVSPropertyOp33
 70
     1
102
RTVSPropertyOp34
 70
     1
102
RTVSPropertyOp35
 70
     1
102
RTVSPropertyOp36
 70
     1
102
RTVSPropertyOp37
 70
     1
102
RTVSPropertyOp38
 70
     1
102
RTVSPropertyOp39
 70
     1
102
RTVSPropertyOp40
 70
     1
102
RTVSPropertyOp41
 70
     1
102
RTVSPropertyOp42
 70
     1
102
RTVSPropertyOp43
 70
     1
102
RTVSPropertyOp44
 70
     1
102
RTVSPropertyOp45
 70
     1
102
RTVSPropertyOp46
 70
     1
102
RTVSPropertyOp47
 70
     1
102
RTVSPropertyOp48
 70
     1
102
RTVSPropertyOp49
 70
     1
102
RTVSPropertyOp50
 70
     1
102
RTVSPropertyOp51
 70
     0
102
RTVSPropertyOp52
 70
     0
102
RTVSPropertyOp53
 70
     1
102
RTVSPropertyOp54
 70
     1
102
RTVSPropertyOp55
 70
     1
102
RTVSPropertyOp56
 70
     1
102
RTVSPropertyOp57
 70
     1
102
RTVSPropertyOp58
 70
     1
102
RTVSPropertyOp59
 70
     1
102
RTVSPropertyOp60
 70
     1
102
RTVSPropertyOp61
 70
     1
102
RTVSPropertyOp62
 70
     1
  0
XRECORD
  5
947EE
102
{ACAD_REACTORS
330
947ED
102
}
330
947ED
100
AcDbXrecord
280
     1
102
RTVSPost2010Prop28
280
     0
102
RTVSPost2010PropOp28
 70
     1
102
RTVSPost2010Prop29
280
     1
102
RTVSPost2010PropOp29
 70
     1
102
RTVSPost2010Prop30
280
     1
102
RTVSPost2010PropOp30
 70
     1
102
RTVSPost2010Prop31
280
     0
102
RTVSPost2010PropOp31
 70
     1
102
RTVSPost2010Prop32
280
     0
102
RTVSPost2010PropOp32
 70
     1
102
RTVSPost2010Prop33
280
     0
102
RTVSPost2010PropOp33
 70
     1
102
RTVSPost2010Prop34
280
     0
102
RTVSPost2010PropOp34
 70
     1
102
RTVSPost2010Prop35
280
     0
102
RTVSPost2010PropOp35
 70
     1
102
RTVSPost2010Prop36
280
     0
102
RTVSPost2010PropOp36
 70
     1
102
RTVSPost2010Prop37
 90
       50
102
RTVSPost2010PropOp37
 70
     1
102
RTVSPost2010Prop38
140
0.0
102
RTVSPost2010PropOp38
 70
     1
102
RTVSPost2010Prop39
140
1.0
102
RTVSPost2010PropOp39
 70
     1
102
RTVSPost2010Prop40
 90
        0
102
RTVSPost2010PropOp40
 70
     1
102
RTVSPost2010Prop41ColorIndex
 90
       18
102
RTVSPost2010Prop41ColorRGB
 90
-16777216
102
RTVSPost2010PropOp41
 70
     1
102
RTVSPost2010Prop42
 90
       50
102
RTVSPost2010PropOp42
 70
     1
102
RTVSPost2010Prop43
 90
        3
102
RTVSPost2010PropOp43
 70
     1
102
RTVSPost2010Prop44ColorIndex
 90
        5
102
RTVSPost2010Prop44ColorRGB
 90
      255
102
RTVSPost2010PropOp44
 70
     1
102
RTVSPost2010Prop45
280
     0
102
RTVSPost2010PropOp45
 70
     1
102
RTVSPost2010Prop46
 90
       50
102
RTVSPost2010PropOp46
 70
     1
102
RTVSPost2010Prop47
 90
       50
102
RTVSPost2010PropOp47
 70
     1
102
RTVSPost2010Prop48
 90
       50
102
RTVSPost2010PropOp48
 70
     1
102
RTVSPost2010Prop49
280
     0
102
RTVSPost2010PropOp49
 70
     1
102
RTVSPost2010Prop50
 90
       50
102
RTVSPost2010PropOp50
 70
     1
102
RTVSPost2010Prop51ColorIndex
 90
      256
102
RTVSPost2010Prop51ColorRGB
 90
-16777216
102
RTVSPost2010PropOp51
 70
     0
102
RTVSPost2010Prop52
140
1.0
102
RTVSPost2010PropOp52
 70
     0
102
RTVSPost2010Prop53
 90
        2
102
RTVSPost2010PropOp53
 70
     1
102
RTVSPost2010Prop54
  1
strokes_ogs.tif
102
RTVSPost2010PropOp54
 70
     1
102
RTVSPost2010Prop55
280
     0
102
RTVSPost2010PropOp55
 70
     1
102
RTVSPost2010Prop56
140
1.0
102
RTVSPost2010PropOp56
 70
     1
102
RTVSPost2010Prop57
140
1.0
102
RTVSPost2010PropOp57
 70
     1
102
RTVSPropertyOp0
 70
     1
102
RTVSPropertyOp1
 70
     1
102
RTVSPropertyOp2
 70
     1
102
RTVSPropertyOp3
 70
     1
102
RTVSPropertyOp4
 70
     1
102
RTVSPropertyOp5
 70
     1
102
RTVSPropertyOp6
 70
     1
102
RTVSPropertyOp7
 70
     1
102
RTVSPropertyOp8
 70
     1
102
RTVSPropertyOp9
 70
     1
102
RTVSPropertyOp10
 70
     1
102
RTVSPropertyOp11
 70
     1
102
RTVSPropertyOp12
 70
     1
102
RTVSPropertyOp13
 70
     1
102
RTVSPropertyOp14
 70
     1
102
RTVSPropertyOp15
 70
     1
102
RTVSPropertyOp16
 70
     1
102
RTVSPropertyOp17
 70
     1
102
RTVSPropertyOp18
 70
     1
102
RTVSPropertyOp19
 70
     1
102
RTVSPropertyOp20
 70
     1
102
RTVSPropertyOp21
 70
     1
102
RTVSPropertyOp22
 70
     1
102
RTVSPropertyOp23
 70
     1
102
RTVSPropertyOp24
 70
     1
102
RTVSPropertyOp25
 70
     1
102
RTVSPropertyOp26
 70
     1
102
RTVSPropertyOp27
 70
     1
102
RTVSPropertyOp28
 70
     1
102
RTVSPropertyOp29
 70
     1
102
RTVSPropertyOp30
 70
     1
102
RTVSPropertyOp31
 70
     1
102
RTVSPropertyOp32
 70
     1
102
RTVSPropertyOp33
 70
     1
102
RTVSPropertyOp34
 70
     1
102
RTVSPropertyOp35
 70
     1
102
RTVSPropertyOp36
 70
     1
102
RTVSPropertyOp37
 70
     1
102
RTVSPropertyOp38
 70
     1
102
RTVSPropertyOp39
 70
     1
102
RTVSPropertyOp40
 70
     1
102
RTVSPropertyOp41
 70
     1
102
RTVSPropertyOp42
 70
     1
102
RTVSPropertyOp43
 70
     1
102
RTVSPropertyOp44
 70
     1
102
RTVSPropertyOp45
 70
     1
102
RTVSPropertyOp46
 70
     1
102
RTVSPropertyOp47
 70
     1
102
RTVSPropertyOp48
 70
     1
102
RTVSPropertyOp49
 70
     1
102
RTVSPropertyOp50
 70
     1
102
RTVSPropertyOp51
 70
     0
102
RTVSPropertyOp52
 70
     0
102
RTVSPropertyOp53
 70
     1
102
RTVSPropertyOp54
 70
     1
102
RTVSPropertyOp55
 70
     1
102
RTVSPropertyOp56
 70
     1
102
RTVSPropertyOp57
 70
     1
102
RTVSPropertyOp58
 70
     1
102
RTVSPropertyOp59
 70
     1
102
RTVSPropertyOp60
 70
     1
102
RTVSPropertyOp61
 70
     1
102
RTVSPropertyOp62
 70
     1
  0
XRECORD
  5
947F6
102
{ACAD_REACTORS
330
947F5
102
}
330
947F5
100
AcDbXrecord
280
     1
102
RTVSPost2010Prop28
280
     0
102
RTVSPost2010PropOp28
 70
     1
102
RTVSPost2010Prop29
280
     1
102
RTVSPost2010PropOp29
 70
     1
102
RTVSPost2010Prop30
280
     1
102
RTVSPost2010PropOp30
 70
     1
102
RTVSPost2010Prop31
280
     0
102
RTVSPost2010PropOp31
 70
     1
102
RTVSPost2010Prop32
280
     0
102
RTVSPost2010PropOp32
 70
     1
102
RTVSPost2010Prop33
280
     0
102
RTVSPost2010PropOp33
 70
     1
102
RTVSPost2010Prop34
280
     0
102
RTVSPost2010PropOp34
 70
     1
102
RTVSPost2010Prop35
280
     0
102
RTVSPost2010PropOp35
 70
     1
102
RTVSPost2010Prop36
280
     0
102
RTVSPost2010PropOp36
 70
     1
102
RTVSPost2010Prop37
 90
       50
102
RTVSPost2010PropOp37
 70
     1
102
RTVSPost2010Prop38
140
0.0
102
RTVSPost2010PropOp38
 70
     1
102
RTVSPost2010Prop39
140
1.0
102
RTVSPost2010PropOp39
 70
     1
102
RTVSPost2010Prop40
 90
        0
102
RTVSPost2010PropOp40
 70
     1
102
RTVSPost2010Prop41ColorIndex
 90
       18
102
RTVSPost2010Prop41ColorRGB
 90
-16777216
102
RTVSPost2010PropOp41
 70
     1
102
RTVSPost2010Prop42
 90
       50
102
RTVSPost2010PropOp42
 70
     1
102
RTVSPost2010Prop43
 90
        3
102
RTVSPost2010PropOp43
 70
     1
102
RTVSPost2010Prop44ColorIndex
 90
        5
102
RTVSPost2010Prop44ColorRGB
 90
      255
102
RTVSPost2010PropOp44
 70
     1
102
RTVSPost2010Prop45
280
     0
102
RTVSPost2010PropOp45
 70
     1
102
RTVSPost2010Prop46
 90
       50
102
RTVSPost2010PropOp46
 70
     1
102
RTVSPost2010Prop47
 90
       50
102
RTVSPost2010PropOp47
 70
     1
102
RTVSPost2010Prop48
 90
       50
102
RTVSPost2010PropOp48
 70
     1
102
RTVSPost2010Prop49
280
     0
102
RTVSPost2010PropOp49
 70
     1
102
RTVSPost2010Prop50
 90
       50
102
RTVSPost2010PropOp50
 70
     1
102
RTVSPost2010Prop51ColorIndex
 90
      256
102
RTVSPost2010Prop51ColorRGB
 90
-16777216
102
RTVSPost2010PropOp51
 70
     0
102
RTVSPost2010Prop52
140
1.0
102
RTVSPost2010PropOp52
 70
     0
102
RTVSPost2010Prop53
 90
        2
102
RTVSPost2010PropOp53
 70
     1
102
RTVSPost2010Prop54
  1
strokes_ogs.tif
102
RTVSPost2010PropOp54
 70
     1
102
RTVSPost2010Prop55
280
     0
102
RTVSPost2010PropOp55
 70
     1
102
RTVSPost2010Prop56
140
1.0
102
RTVSPost2010PropOp56
 70
     1
102
RTVSPost2010Prop57
140
1.0
102
RTVSPost2010PropOp57
 70
     1
102
RTVSPropertyOp0
 70
     1
102
RTVSPropertyOp1
 70
     1
102
RTVSPropertyOp2
 70
     1
102
RTVSPropertyOp3
 70
     1
102
RTVSPropertyOp4
 70
     1
102
RTVSPropertyOp5
 70
     1
102
RTVSPropertyOp6
 70
     1
102
RTVSPropertyOp7
 70
     1
102
RTVSPropertyOp8
 70
     1
102
RTVSPropertyOp9
 70
     1
102
RTVSPropertyOp10
 70
     1
102
RTVSPropertyOp11
 70
     1
102
RTVSPropertyOp12
 70
     1
102
RTVSPropertyOp13
 70
     1
102
RTVSPropertyOp14
 70
     1
102
RTVSPropertyOp15
 70
     1
102
RTVSPropertyOp16
 70
     1
102
RTVSPropertyOp17
 70
     1
102
RTVSPropertyOp18
 70
     1
102
RTVSPropertyOp19
 70
     1
102
RTVSPropertyOp20
 70
     1
102
RTVSPropertyOp21
 70
     1
102
RTVSPropertyOp22
 70
     1
102
RTVSPropertyOp23
 70
     1
102
RTVSPropertyOp24
 70
     1
102
RTVSPropertyOp25
 70
     1
102
RTVSPropertyOp26
 70
     1
102
RTVSPropertyOp27
 70
     1
102
RTVSPropertyOp28
 70
     1
102
RTVSPropertyOp29
 70
     1
102
RTVSPropertyOp30
 70
     1
102
RTVSPropertyOp31
 70
     1
102
RTVSPropertyOp32
 70
     1
102
RTVSPropertyOp33
 70
     1
102
RTVSPropertyOp34
 70
     1
102
RTVSPropertyOp35
 70
     1
102
RTVSPropertyOp36
 70
     1
102
RTVSPropertyOp37
 70
     1
102
RTVSPropertyOp38
 70
     1
102
RTVSPropertyOp39
 70
     1
102
RTVSPropertyOp40
 70
     1
102
RTVSPropertyOp41
 70
     1
102
RTVSPropertyOp42
 70
     1
102
RTVSPropertyOp43
 70
     1
102
RTVSPropertyOp44
 70
     1
102
RTVSPropertyOp45
 70
     1
102
RTVSPropertyOp46
 70
     1
102
RTVSPropertyOp47
 70
     1
102
RTVSPropertyOp48
 70
     1
102
RTVSPropertyOp49
 70
     1
102
RTVSPropertyOp50
 70
     1
102
RTVSPropertyOp51
 70
     0
102
RTVSPropertyOp52
 70
     0
102
RTVSPropertyOp53
 70
     1
102
RTVSPropertyOp54
 70
     1
102
RTVSPropertyOp55
 70
     1
102
RTVSPropertyOp56
 70
     1
102
RTVSPropertyOp57
 70
     1
102
RTVSPropertyOp58
 70
     1
102
RTVSPropertyOp59
 70
     1
102
RTVSPropertyOp60
 70
     1
102
RTVSPropertyOp61
 70
     1
102
RTVSPropertyOp62
 70
     1
  0
XRECORD
  5
94812
102
{ACAD_REACTORS
330
94811
102
}
330
94811
100
AcDbXrecord
280
     1
102
RTVSPost2010Prop28
280
     0
102
RTVSPost2010PropOp28
 70
     1
102
RTVSPost2010Prop29
280
     1
102
RTVSPost2010PropOp29
 70
     1
102
RTVSPost2010Prop30
280
     1
102
RTVSPost2010PropOp30
 70
     1
102
RTVSPost2010Prop31
280
     0
102
RTVSPost2010PropOp31
 70
     1
102
RTVSPost2010Prop32
280
     0
102
RTVSPost2010PropOp32
 70
     1
102
RTVSPost2010Prop33
280
     0
102
RTVSPost2010PropOp33
 70
     1
102
RTVSPost2010Prop34
280
     0
102
RTVSPost2010PropOp34
 70
     1
102
RTVSPost2010Prop35
280
     0
102
RTVSPost2010PropOp35
 70
     1
102
RTVSPost2010Prop36
280
     0
102
RTVSPost2010PropOp36
 70
     1
102
RTVSPost2010Prop37
 90
       50
102
RTVSPost2010PropOp37
 70
     0
102
RTVSPost2010Prop38
140
0.0
102
RTVSPost2010PropOp38
 70
     0
102
RTVSPost2010Prop39
140
1.0
102
RTVSPost2010PropOp39
 70
     0
102
RTVSPost2010Prop40
 90
        0
102
RTVSPost2010PropOp40
 70
     0
102
RTVSPost2010Prop41ColorIndex
 90
       18
102
RTVSPost2010Prop41ColorRGB
 90
-16777216
102
RTVSPost2010PropOp41
 70
     0
102
RTVSPost2010Prop42
 90
       50
102
RTVSPost2010PropOp42
 70
     0
102
RTVSPost2010Prop43
 90
        3
102
RTVSPost2010PropOp43
 70
     0
102
RTVSPost2010Prop44ColorIndex
 90
        5
102
RTVSPost2010Prop44ColorRGB
 90
      255
102
RTVSPost2010PropOp44
 70
     0
102
RTVSPost2010Prop45
280
     0
102
RTVSPost2010PropOp45
 70
     1
102
RTVSPost2010Prop46
 90
       50
102
RTVSPost2010PropOp46
 70
     0
102
RTVSPost2010Prop47
 90
       50
102
RTVSPost2010PropOp47
 70
     0
102
RTVSPost2010Prop48
 90
       50
102
RTVSPost2010PropOp48
 70
     0
102
RTVSPost2010Prop49
280
     0
102
RTVSPost2010PropOp49
 70
     1
102
RTVSPost2010Prop50
 90
       50
102
RTVSPost2010PropOp50
 70
     0
102
RTVSPost2010Prop51ColorIndex
 90
      256
102
RTVSPost2010Prop51ColorRGB
 90
-16777216
102
RTVSPost2010PropOp51
 70
     0
102
RTVSPost2010Prop52
140
1.0
102
RTVSPost2010PropOp52
 70
     0
102
RTVSPost2010Prop53
 90
        2
102
RTVSPost2010PropOp53
 70
     0
102
RTVSPost2010Prop54
  1
strokes_ogs.tif
102
RTVSPost2010PropOp54
 70
     0
102
RTVSPost2010Prop55
280
     0
102
RTVSPost2010PropOp55
 70
     1
102
RTVSPost2010Prop56
140
1.0
102
RTVSPost2010PropOp56
 70
     0
102
RTVSPost2010Prop57
140
1.0
102
RTVSPost2010PropOp57
 70
     0
102
RTVSPropertyOp0
 70
     0
102
RTVSPropertyOp1
 70
     0
102
RTVSPropertyOp2
 70
     0
102
RTVSPropertyOp3
 70
     0
102
RTVSPropertyOp4
 70
     0
102
RTVSPropertyOp5
 70
     0
102
RTVSPropertyOp6
 70
     0
102
RTVSPropertyOp7
 70
     0
102
RTVSPropertyOp8
 70
     0
102
RTVSPropertyOp9
 70
     0
102
RTVSPropertyOp10
 70
     0
102
RTVSPropertyOp11
 70
     0
102
RTVSPropertyOp12
 70
     0
102
RTVSPropertyOp13
 70
     0
102
RTVSPropertyOp14
 70
     2
102
RTVSPropertyOp15
 70
     0
102
RTVSPropertyOp16
 70
     0
102
RTVSPropertyOp17
 70
     0
102
RTVSPropertyOp18
 70
     0
102
RTVSPropertyOp19
 70
     0
102
RTVSPropertyOp20
 70
     0
102
RTVSPropertyOp21
 70
     0
102
RTVSPropertyOp22
 70
     0
102
RTVSPropertyOp23
 70
     0
102
RTVSPropertyOp24
 70
     0
102
RTVSPropertyOp25
 70
     0
102
RTVSPropertyOp26
 70
     0
102
RTVSPropertyOp27
 70
     0
102
RTVSPropertyOp28
 70
     1
102
RTVSPropertyOp29
 70
     1
102
RTVSPropertyOp30
 70
     1
102
RTVSPropertyOp31
 70
     1
102
RTVSPropertyOp32
 70
     1
102
RTVSPropertyOp33
 70
     1
102
RTVSPropertyOp34
 70
     1
102
RTVSPropertyOp35
 70
     1
102
RTVSPropertyOp36
 70
     1
102
RTVSPropertyOp37
 70
     0
102
RTVSPropertyOp38
 70
     0
102
RTVSPropertyOp39
 70
     0
102
RTVSPropertyOp40
 70
     0
102
RTVSPropertyOp41
 70
     0
102
RTVSPropertyOp42
 70
     0
102
RTVSPropertyOp43
 70
     0
102
RTVSPropertyOp44
 70
     0
102
RTVSPropertyOp45
 70
     1
102
RTVSPropertyOp46
 70
     0
102
RTVSPropertyOp47
 70
     0
102
RTVSPropertyOp48
 70
     0
102
RTVSPropertyOp49
 70
     1
102
RTVSPropertyOp50
 70
     0
102
RTVSPropertyOp51
 70
     0
102
RTVSPropertyOp52
 70
     0
102
RTVSPropertyOp53
 70
     0
102
RTVSPropertyOp54
 70
     0
102
RTVSPropertyOp55
 70
     1
102
RTVSPropertyOp56
 70
     0
102
RTVSPropertyOp57
 70
     0
102
RTVSPropertyOp58
 70
     1
102
RTVSPropertyOp59
 70
     1
102
RTVSPropertyOp60
 70
     1
102
RTVSPropertyOp61
 70
     1
102
RTVSPropertyOp62
 70
     1
  0
XRECORD
  5
94802
102
{ACAD_REACTORS
330
94801
102
}
330
94801
100
AcDbXrecord
280
     1
102
RTVSPost2010Prop28
280
     0
102
RTVSPost2010PropOp28
 70
     1
102
RTVSPost2010Prop29
280
     1
102
RTVSPost2010PropOp29
 70
     1
102
RTVSPost2010Prop30
280
     1
102
RTVSPost2010PropOp30
 70
     1
102
RTVSPost2010Prop31
280
     0
102
RTVSPost2010PropOp31
 70
     1
102
RTVSPost2010Prop32
280
     0
102
RTVSPost2010PropOp32
 70
     1
102
RTVSPost2010Prop33
280
     0
102
RTVSPost2010PropOp33
 70
     1
102
RTVSPost2010Prop34
280
     0
102
RTVSPost2010PropOp34
 70
     1
102
RTVSPost2010Prop35
280
     0
102
RTVSPost2010PropOp35
 70
     1
102
RTVSPost2010Prop36
280
     0
102
RTVSPost2010PropOp36
 70
     1
102
RTVSPost2010Prop37
 90
       50
102
RTVSPost2010PropOp37
 70
     1
102
RTVSPost2010Prop38
140
0.0
102
RTVSPost2010PropOp38
 70
     1
102
RTVSPost2010Prop39
140
1.0
102
RTVSPost2010PropOp39
 70
     1
102
RTVSPost2010Prop40
 90
        0
102
RTVSPost2010PropOp40
 70
     1
102
RTVSPost2010Prop41ColorIndex
 90
       18
102
RTVSPost2010Prop41ColorRGB
 90
-16777216
102
RTVSPost2010PropOp41
 70
     1
102
RTVSPost2010Prop42
 90
       50
102
RTVSPost2010PropOp42
 70
     1
102
RTVSPost2010Prop43
 90
        3
102
RTVSPost2010PropOp43
 70
     1
102
RTVSPost2010Prop44ColorIndex
 90
        5
102
RTVSPost2010Prop44ColorRGB
 90
      255
102
RTVSPost2010PropOp44
 70
     1
102
RTVSPost2010Prop45
280
     0
102
RTVSPost2010PropOp45
 70
     1
102
RTVSPost2010Prop46
 90
       50
102
RTVSPost2010PropOp46
 70
     1
102
RTVSPost2010Prop47
 90
       50
102
RTVSPost2010PropOp47
 70
     1
102
RTVSPost2010Prop48
 90
       50
102
RTVSPost2010PropOp48
 70
     1
102
RTVSPost2010Prop49
280
     0
102
RTVSPost2010PropOp49
 70
     1
102
RTVSPost2010Prop50
 90
       50
102
RTVSPost2010PropOp50
 70
     1
102
RTVSPost2010Prop51ColorIndex
 90
      256
102
RTVSPost2010Prop51ColorRGB
 90
-16777216
102
RTVSPost2010PropOp51
 70
     0
102
RTVSPost2010Prop52
140
1.0
102
RTVSPost2010PropOp52
 70
     0
102
RTVSPost2010Prop53
 90
        2
102
RTVSPost2010PropOp53
 70
     1
102
RTVSPost2010Prop54
  1
strokes_ogs.tif
102
RTVSPost2010PropOp54
 70
     1
102
RTVSPost2010Prop55
280
     0
102
RTVSPost2010PropOp55
 70
     1
102
RTVSPost2010Prop56
140
1.0
102
RTVSPost2010PropOp56
 70
     1
102
RTVSPost2010Prop57
140
1.0
102
RTVSPost2010PropOp57
 70
     1
102
RTVSPropertyOp0
 70
     1
102
RTVSPropertyOp1
 70
     1
102
RTVSPropertyOp2
 70
     1
102
RTVSPropertyOp3
 70
     1
102
RTVSPropertyOp4
 70
     1
102
RTVSPropertyOp5
 70
     1
102
RTVSPropertyOp6
 70
     1
102
RTVSPropertyOp7
 70
     1
102
RTVSPropertyOp8
 70
     1
102
RTVSPropertyOp9
 70
     1
102
RTVSPropertyOp10
 70
     1
102
RTVSPropertyOp11
 70
     1
102
RTVSPropertyOp12
 70
     1
102
RTVSPropertyOp13
 70
     1
102
RTVSPropertyOp14
 70
     1
102
RTVSPropertyOp15
 70
     1
102
RTVSPropertyOp16
 70
     1
102
RTVSPropertyOp17
 70
     1
102
RTVSPropertyOp18
 70
     1
102
RTVSPropertyOp19
 70
     1
102
RTVSPropertyOp20
 70
     1
102
RTVSPropertyOp21
 70
     1
102
RTVSPropertyOp22
 70
     1
102
RTVSPropertyOp23
 70
     1
102
RTVSPropertyOp24
 70
     1
102
RTVSPropertyOp25
 70
     1
102
RTVSPropertyOp26
 70
     1
102
RTVSPropertyOp27
 70
     1
102
RTVSPropertyOp28
 70
     1
102
RTVSPropertyOp29
 70
     1
102
RTVSPropertyOp30
 70
     1
102
RTVSPropertyOp31
 70
     1
102
RTVSPropertyOp32
 70
     1
102
RTVSPropertyOp33
 70
     1
102
RTVSPropertyOp34
 70
     1
102
RTVSPropertyOp35
 70
     1
102
RTVSPropertyOp36
 70
     1
102
RTVSPropertyOp37
 70
     1
102
RTVSPropertyOp38
 70
     1
102
RTVSPropertyOp39
 70
     1
102
RTVSPropertyOp40
 70
     1
102
RTVSPropertyOp41
 70
     1
102
RTVSPropertyOp42
 70
     1
102
RTVSPropertyOp43
 70
     1
102
RTVSPropertyOp44
 70
     1
102
RTVSPropertyOp45
 70
     1
102
RTVSPropertyOp46
 70
     1
102
RTVSPropertyOp47
 70
     1
102
RTVSPropertyOp48
 70
     1
102
RTVSPropertyOp49
 70
     1
102
RTVSPropertyOp50
 70
     1
102
RTVSPropertyOp51
 70
     0
102
RTVSPropertyOp52
 70
     0
102
RTVSPropertyOp53
 70
     1
102
RTVSPropertyOp54
 70
     1
102
RTVSPropertyOp55
 70
     1
102
RTVSPropertyOp56
 70
     1
102
RTVSPropertyOp57
 70
     1
102
RTVSPropertyOp58
 70
     1
102
RTVSPropertyOp59
 70
     1
102
RTVSPropertyOp60
 70
     1
102
RTVSPropertyOp61
 70
     1
102
RTVSPropertyOp62
 70
     1
  0
XRECORD
  5
94814
102
{ACAD_REACTORS
330
94813
102
}
330
94813
100
AcDbXrecord
280
     1
102
RTVSPost2010Prop28
280
     0
102
RTVSPost2010PropOp28
 70
     1
102
RTVSPost2010Prop29
280
     1
102
RTVSPost2010PropOp29
 70
     1
102
RTVSPost2010Prop30
280
     1
102
RTVSPost2010PropOp30
 70
     1
102
RTVSPost2010Prop31
280
     0
102
RTVSPost2010PropOp31
 70
     1
102
RTVSPost2010Prop32
280
     0
102
RTVSPost2010PropOp32
 70
     1
102
RTVSPost2010Prop33
280
     0
102
RTVSPost2010PropOp33
 70
     1
102
RTVSPost2010Prop34
280
     0
102
RTVSPost2010PropOp34
 70
     1
102
RTVSPost2010Prop35
280
     0
102
RTVSPost2010PropOp35
 70
     1
102
RTVSPost2010Prop36
280
     0
102
RTVSPost2010PropOp36
 70
     1
102
RTVSPost2010Prop37
 90
       50
102
RTVSPost2010PropOp37
 70
     0
102
RTVSPost2010Prop38
140
0.0
102
RTVSPost2010PropOp38
 70
     0
102
RTVSPost2010Prop39
140
1.0
102
RTVSPost2010PropOp39
 70
     0
102
RTVSPost2010Prop40
 90
        0
102
RTVSPost2010PropOp40
 70
     0
102
RTVSPost2010Prop41ColorIndex
 90
       18
102
RTVSPost2010Prop41ColorRGB
 90
-16777216
102
RTVSPost2010PropOp41
 70
     0
102
RTVSPost2010Prop42
 90
       50
102
RTVSPost2010PropOp42
 70
     0
102
RTVSPost2010Prop43
 90
        3
102
RTVSPost2010PropOp43
 70
     0
102
RTVSPost2010Prop44ColorIndex
 90
        5
102
RTVSPost2010Prop44ColorRGB
 90
      255
102
RTVSPost2010PropOp44
 70
     0
102
RTVSPost2010Prop45
280
     0
102
RTVSPost2010PropOp45
 70
     1
102
RTVSPost2010Prop46
 90
       50
102
RTVSPost2010PropOp46
 70
     0
102
RTVSPost2010Prop47
 90
       50
102
RTVSPost2010PropOp47
 70
     0
102
RTVSPost2010Prop48
 90
       50
102
RTVSPost2010PropOp48
 70
     0
102
RTVSPost2010Prop49
280
     0
102
RTVSPost2010PropOp49
 70
     1
102
RTVSPost2010Prop50
 90
       50
102
RTVSPost2010PropOp50
 70
     0
102
RTVSPost2010Prop51ColorIndex
 90
      256
102
RTVSPost2010Prop51ColorRGB
 90
-16777216
102
RTVSPost2010PropOp51
 70
     0
102
RTVSPost2010Prop52
140
1.0
102
RTVSPost2010PropOp52
 70
     0
102
RTVSPost2010Prop53
 90
        2
102
RTVSPost2010PropOp53
 70
     0
102
RTVSPost2010Prop54
  1
strokes_ogs.tif
102
RTVSPost2010PropOp54
 70
     0
102
RTVSPost2010Prop55
280
     0
102
RTVSPost2010PropOp55
 70
     1
102
RTVSPost2010Prop56
140
1.0
102
RTVSPost2010PropOp56
 70
     0
102
RTVSPost2010Prop57
140
1.0
102
RTVSPost2010PropOp57
 70
     0
102
RTVSPropertyOp0
 70
     0
102
RTVSPropertyOp1
 70
     0
102
RTVSPropertyOp2
 70
     0
102
RTVSPropertyOp3
 70
     0
102
RTVSPropertyOp4
 70
     0
102
RTVSPropertyOp5
 70
     0
102
RTVSPropertyOp6
 70
     0
102
RTVSPropertyOp7
 70
     0
102
RTVSPropertyOp8
 70
     0
102
RTVSPropertyOp9
 70
     0
102
RTVSPropertyOp10
 70
     0
102
RTVSPropertyOp11
 70
     0
102
RTVSPropertyOp12
 70
     0
102
RTVSPropertyOp13
 70
     0
102
RTVSPropertyOp14
 70
     2
102
RTVSPropertyOp15
 70
     0
102
RTVSPropertyOp16
 70
     0
102
RTVSPropertyOp17
 70
     0
102
RTVSPropertyOp18
 70
     0
102
RTVSPropertyOp19
 70
     0
102
RTVSPropertyOp20
 70
     0
102
RTVSPropertyOp21
 70
     0
102
RTVSPropertyOp22
 70
     0
102
RTVSPropertyOp23
 70
     0
102
RTVSPropertyOp24
 70
     0
102
RTVSPropertyOp25
 70
     0
102
RTVSPropertyOp26
 70
     0
102
RTVSPropertyOp27
 70
     0
102
RTVSPropertyOp28
 70
     1
102
RTVSPropertyOp29
 70
     1
102
RTVSPropertyOp30
 70
     1
102
RTVSPropertyOp31
 70
     1
102
RTVSPropertyOp32
 70
     1
102
RTVSPropertyOp33
 70
     1
102
RTVSPropertyOp34
 70
     1
102
RTVSPropertyOp35
 70
     1
102
RTVSPropertyOp36
 70
     1
102
RTVSPropertyOp37
 70
     0
102
RTVSPropertyOp38
 70
     0
102
RTVSPropertyOp39
 70
     0
102
RTVSPropertyOp40
 70
     0
102
RTVSPropertyOp41
 70
     0
102
RTVSPropertyOp42
 70
     0
102
RTVSPropertyOp43
 70
     0
102
RTVSPropertyOp44
 70
     0
102
RTVSPropertyOp45
 70
     1
102
RTVSPropertyOp46
 70
     0
102
RTVSPropertyOp47
 70
     0
102
RTVSPropertyOp48
 70
     0
102
RTVSPropertyOp49
 70
     1
102
RTVSPropertyOp50
 70
     0
102
RTVSPropertyOp51
 70
     0
102
RTVSPropertyOp52
 70
     0
102
RTVSPropertyOp53
 70
     0
102
RTVSPropertyOp54
 70
     0
102
RTVSPropertyOp55
 70
     1
102
RTVSPropertyOp56
 70
     0
102
RTVSPropertyOp57
 70
     0
102
RTVSPropertyOp58
 70
     1
102
RTVSPropertyOp59
 70
     1
102
RTVSPropertyOp60
 70
     1
102
RTVSPropertyOp61
 70
     1
102
RTVSPropertyOp62
 70
     1
  0
XRECORD
  5
947FA
102
{ACAD_REACTORS
330
947F9
102
}
330
947F9
100
AcDbXrecord
280
     1
102
RTVSPost2010Prop28
280
     0
102
RTVSPost2010PropOp28
 70
     1
102
RTVSPost2010Prop29
280
     1
102
RTVSPost2010PropOp29
 70
     1
102
RTVSPost2010Prop30
280
     1
102
RTVSPost2010PropOp30
 70
     1
102
RTVSPost2010Prop31
280
     0
102
RTVSPost2010PropOp31
 70
     1
102
RTVSPost2010Prop32
280
     0
102
RTVSPost2010PropOp32
 70
     1
102
RTVSPost2010Prop33
280
     0
102
RTVSPost2010PropOp33
 70
     1
102
RTVSPost2010Prop34
280
     0
102
RTVSPost2010PropOp34
 70
     1
102
RTVSPost2010Prop35
280
     0
102
RTVSPost2010PropOp35
 70
     1
102
RTVSPost2010Prop36
280
     0
102
RTVSPost2010PropOp36
 70
     1
102
RTVSPost2010Prop37
 90
       50
102
RTVSPost2010PropOp37
 70
     1
102
RTVSPost2010Prop38
140
0.0
102
RTVSPost2010PropOp38
 70
     1
102
RTVSPost2010Prop39
140
1.0
102
RTVSPost2010PropOp39
 70
     1
102
RTVSPost2010Prop40
 90
        0
102
RTVSPost2010PropOp40
 70
     1
102
RTVSPost2010Prop41ColorIndex
 90
       18
102
RTVSPost2010Prop41ColorRGB
 90
-16777216
102
RTVSPost2010PropOp41
 70
     1
102
RTVSPost2010Prop42
 90
       50
102
RTVSPost2010PropOp42
 70
     1
102
RTVSPost2010Prop43
 90
        3
102
RTVSPost2010PropOp43
 70
     1
102
RTVSPost2010Prop44ColorIndex
 90
        5
102
RTVSPost2010Prop44ColorRGB
 90
      255
102
RTVSPost2010PropOp44
 70
     1
102
RTVSPost2010Prop45
280
     0
102
RTVSPost2010PropOp45
 70
     1
102
RTVSPost2010Prop46
 90
       50
102
RTVSPost2010PropOp46
 70
     1
102
RTVSPost2010Prop47
 90
       50
102
RTVSPost2010PropOp47
 70
     1
102
RTVSPost2010Prop48
 90
       50
102
RTVSPost2010PropOp48
 70
     1
102
RTVSPost2010Prop49
280
     0
102
RTVSPost2010PropOp49
 70
     1
102
RTVSPost2010Prop50
 90
       50
102
RTVSPost2010PropOp50
 70
     1
102
RTVSPost2010Prop51ColorIndex
 90
      256
102
RTVSPost2010Prop51ColorRGB
 90
-16777216
102
RTVSPost2010PropOp51
 70
     0
102
RTVSPost2010Prop52
140
1.0
102
RTVSPost2010PropOp52
 70
     0
102
RTVSPost2010Prop53
 90
        2
102
RTVSPost2010PropOp53
 70
     1
102
RTVSPost2010Prop54
  1
strokes_ogs.tif
102
RTVSPost2010PropOp54
 70
     1
102
RTVSPost2010Prop55
280
     0
102
RTVSPost2010PropOp55
 70
     1
102
RTVSPost2010Prop56
140
1.0
102
RTVSPost2010PropOp56
 70
     1
102
RTVSPost2010Prop57
140
1.0
102
RTVSPost2010PropOp57
 70
     1
102
RTVSPropertyOp0
 70
     1
102
RTVSPropertyOp1
 70
     1
102
RTVSPropertyOp2
 70
     1
102
RTVSPropertyOp3
 70
     1
102
RTVSPropertyOp4
 70
     1
102
RTVSPropertyOp5
 70
     1
102
RTVSPropertyOp6
 70
     1
102
RTVSPropertyOp7
 70
     1
102
RTVSPropertyOp8
 70
     1
102
RTVSPropertyOp9
 70
     1
102
RTVSPropertyOp10
 70
     1
102
RTVSPropertyOp11
 70
     1
102
RTVSPropertyOp12
 70
     1
102
RTVSPropertyOp13
 70
     1
102
RTVSPropertyOp14
 70
     1
102
RTVSPropertyOp15
 70
     1
102
RTVSPropertyOp16
 70
     1
102
RTVSPropertyOp17
 70
     1
102
RTVSPropertyOp18
 70
     1
102
RTVSPropertyOp19
 70
     1
102
RTVSPropertyOp20
 70
     1
102
RTVSPropertyOp21
 70
     1
102
RTVSPropertyOp22
 70
     1
102
RTVSPropertyOp23
 70
     1
102
RTVSPropertyOp24
 70
     1
102
RTVSPropertyOp25
 70
     1
102
RTVSPropertyOp26
 70
     1
102
RTVSPropertyOp27
 70
     1
102
RTVSPropertyOp28
 70
     1
102
RTVSPropertyOp29
 70
     1
102
RTVSPropertyOp30
 70
     1
102
RTVSPropertyOp31
 70
     1
102
RTVSPropertyOp32
 70
     1
102
RTVSPropertyOp33
 70
     1
102
RTVSPropertyOp34
 70
     1
102
RTVSPropertyOp35
 70
     1
102
RTVSPropertyOp36
 70
     1
102
RTVSPropertyOp37
 70
     1
102
RTVSPropertyOp38
 70
     1
102
RTVSPropertyOp39
 70
     1
102
RTVSPropertyOp40
 70
     1
102
RTVSPropertyOp41
 70
     1
102
RTVSPropertyOp42
 70
     1
102
RTVSPropertyOp43
 70
     1
102
RTVSPropertyOp44
 70
     1
102
RTVSPropertyOp45
 70
     1
102
RTVSPropertyOp46
 70
     1
102
RTVSPropertyOp47
 70
     1
102
RTVSPropertyOp48
 70
     1
102
RTVSPropertyOp49
 70
     1
102
RTVSPropertyOp50
 70
     1
102
RTVSPropertyOp51
 70
     0
102
RTVSPropertyOp52
 70
     0
102
RTVSPropertyOp53
 70
     1
102
RTVSPropertyOp54
 70
     1
102
RTVSPropertyOp55
 70
     1
102
RTVSPropertyOp56
 70
     1
102
RTVSPropertyOp57
 70
     1
102
RTVSPropertyOp58
 70
     1
102
RTVSPropertyOp59
 70
     1
102
RTVSPropertyOp60
 70
     1
102
RTVSPropertyOp61
 70
     1
102
RTVSPropertyOp62
 70
     1
  0
XRECORD
  5
94810
102
{ACAD_REACTORS
330
9480F
102
}
330
9480F
100
AcDbXrecord
280
     1
102
RTVSPost2010Prop28
280
     0
102
RTVSPost2010PropOp28
 70
     1
102
RTVSPost2010Prop29
280
     1
102
RTVSPost2010PropOp29
 70
     1
102
RTVSPost2010Prop30
280
     1
102
RTVSPost2010PropOp30
 70
     1
102
RTVSPost2010Prop31
280
     0
102
RTVSPost2010PropOp31
 70
     1
102
RTVSPost2010Prop32
280
     0
102
RTVSPost2010PropOp32
 70
     1
102
RTVSPost2010Prop33
280
     0
102
RTVSPost2010PropOp33
 70
     1
102
RTVSPost2010Prop34
280
     0
102
RTVSPost2010PropOp34
 70
     1
102
RTVSPost2010Prop35
280
     0
102
RTVSPost2010PropOp35
 70
     1
102
RTVSPost2010Prop36
280
     0
102
RTVSPost2010PropOp36
 70
     1
102
RTVSPost2010Prop37
 90
       50
102
RTVSPost2010PropOp37
 70
     1
102
RTVSPost2010Prop38
140
0.0
102
RTVSPost2010PropOp38
 70
     1
102
RTVSPost2010Prop39
140
1.0
102
RTVSPost2010PropOp39
 70
     1
102
RTVSPost2010Prop40
 90
        0
102
RTVSPost2010PropOp40
 70
     1
102
RTVSPost2010Prop41ColorIndex
 90
       18
102
RTVSPost2010Prop41ColorRGB
 90
-16777216
102
RTVSPost2010PropOp41
 70
     1
102
RTVSPost2010Prop42
 90
       50
102
RTVSPost2010PropOp42
 70
     1
102
RTVSPost2010Prop43
 90
        3
102
RTVSPost2010PropOp43
 70
     1
102
RTVSPost2010Prop44ColorIndex
 90
        5
102
RTVSPost2010Prop44ColorRGB
 90
      255
102
RTVSPost2010PropOp44
 70
     1
102
RTVSPost2010Prop45
280
     0
102
RTVSPost2010PropOp45
 70
     1
102
RTVSPost2010Prop46
 90
       50
102
RTVSPost2010PropOp46
 70
     1
102
RTVSPost2010Prop47
 90
       50
102
RTVSPost2010PropOp47
 70
     1
102
RTVSPost2010Prop48
 90
       50
102
RTVSPost2010PropOp48
 70
     1
102
RTVSPost2010Prop49
280
     0
102
RTVSPost2010PropOp49
 70
     1
102
RTVSPost2010Prop50
 90
       50
102
RTVSPost2010PropOp50
 70
     1
102
RTVSPost2010Prop51ColorIndex
 90
      256
102
RTVSPost2010Prop51ColorRGB
 90
-16777216
102
RTVSPost2010PropOp51
 70
     0
102
RTVSPost2010Prop52
140
1.0
102
RTVSPost2010PropOp52
 70
     0
102
RTVSPost2010Prop53
 90
        2
102
RTVSPost2010PropOp53
 70
     1
102
RTVSPost2010Prop54
  1
strokes_ogs.tif
102
RTVSPost2010PropOp54
 70
     1
102
RTVSPost2010Prop55
280
     0
102
RTVSPost2010PropOp55
 70
     1
102
RTVSPost2010Prop56
140
1.0
102
RTVSPost2010PropOp56
 70
     1
102
RTVSPost2010Prop57
140
1.0
102
RTVSPost2010PropOp57
 70
     1
102
RTVSPropertyOp0
 70
     1
102
RTVSPropertyOp1
 70
     1
102
RTVSPropertyOp2
 70
     1
102
RTVSPropertyOp3
 70
     1
102
RTVSPropertyOp4
 70
     1
102
RTVSPropertyOp5
 70
     1
102
RTVSPropertyOp6
 70
     1
102
RTVSPropertyOp7
 70
     1
102
RTVSPropertyOp8
 70
     1
102
RTVSPropertyOp9
 70
     1
102
RTVSPropertyOp10
 70
     1
102
RTVSPropertyOp11
 70
     1
102
RTVSPropertyOp12
 70
     1
102
RTVSPropertyOp13
 70
     1
102
RTVSPropertyOp14
 70
     1
102
RTVSPropertyOp15
 70
     1
102
RTVSPropertyOp16
 70
     1
102
RTVSPropertyOp17
 70
     1
102
RTVSPropertyOp18
 70
     1
102
RTVSPropertyOp19
 70
     1
102
RTVSPropertyOp20
 70
     1
102
RTVSPropertyOp21
 70
     1
102
RTVSPropertyOp22
 70
     1
102
RTVSPropertyOp23
 70
     1
102
RTVSPropertyOp24
 70
     1
102
RTVSPropertyOp25
 70
     1
102
RTVSPropertyOp26
 70
     1
102
RTVSPropertyOp27
 70
     1
102
RTVSPropertyOp28
 70
     1
102
RTVSPropertyOp29
 70
     1
102
RTVSPropertyOp30
 70
     1
102
RTVSPropertyOp31
 70
     1
102
RTVSPropertyOp32
 70
     1
102
RTVSPropertyOp33
 70
     1
102
RTVSPropertyOp34
 70
     1
102
RTVSPropertyOp35
 70
     1
102
RTVSPropertyOp36
 70
     1
102
RTVSPropertyOp37
 70
     1
102
RTVSPropertyOp38
 70
     1
102
RTVSPropertyOp39
 70
     1
102
RTVSPropertyOp40
 70
     1
102
RTVSPropertyOp41
 70
     1
102
RTVSPropertyOp42
 70
     1
102
RTVSPropertyOp43
 70
     1
102
RTVSPropertyOp44
 70
     1
102
RTVSPropertyOp45
 70
     1
102
RTVSPropertyOp46
 70
     1
102
RTVSPropertyOp47
 70
     1
102
RTVSPropertyOp48
 70
     1
102
RTVSPropertyOp49
 70
     1
102
RTVSPropertyOp50
 70
     1
102
RTVSPropertyOp51
 70
     0
102
RTVSPropertyOp52
 70
     0
102
RTVSPropertyOp53
 70
     1
102
RTVSPropertyOp54
 70
     1
102
RTVSPropertyOp55
 70
     1
102
RTVSPropertyOp56
 70
     1
102
RTVSPropertyOp57
 70
     1
102
RTVSPropertyOp58
 70
     1
102
RTVSPropertyOp59
 70
     1
102
RTVSPropertyOp60
 70
     1
102
RTVSPropertyOp61
 70
     1
102
RTVSPropertyOp62
 70
     1
  0
XRECORD
  5
9480E
102
{ACAD_REACTORS
330
9480D
102
}
330
9480D
100
AcDbXrecord
280
     1
102
RTVSPost2010Prop28
280
     0
102
RTVSPost2010PropOp28
 70
     1
102
RTVSPost2010Prop29
280
     1
102
RTVSPost2010PropOp29
 70
     1
102
RTVSPost2010Prop30
280
     1
102
RTVSPost2010PropOp30
 70
     1
102
RTVSPost2010Prop31
280
     0
102
RTVSPost2010PropOp31
 70
     1
102
RTVSPost2010Prop32
280
     0
102
RTVSPost2010PropOp32
 70
     1
102
RTVSPost2010Prop33
280
     0
102
RTVSPost2010PropOp33
 70
     1
102
RTVSPost2010Prop34
280
     0
102
RTVSPost2010PropOp34
 70
     1
102
RTVSPost2010Prop35
280
     0
102
RTVSPost2010PropOp35
 70
     1
102
RTVSPost2010Prop36
280
     0
102
RTVSPost2010PropOp36
 70
     1
102
RTVSPost2010Prop37
 90
       50
102
RTVSPost2010PropOp37
 70
     1
102
RTVSPost2010Prop38
140
0.0
102
RTVSPost2010PropOp38
 70
     1
102
RTVSPost2010Prop39
140
1.0
102
RTVSPost2010PropOp39
 70
     1
102
RTVSPost2010Prop40
 90
        0
102
RTVSPost2010PropOp40
 70
     1
102
RTVSPost2010Prop41ColorIndex
 90
       18
102
RTVSPost2010Prop41ColorRGB
 90
-16777216
102
RTVSPost2010PropOp41
 70
     1
102
RTVSPost2010Prop42
 90
       50
102
RTVSPost2010PropOp42
 70
     1
102
RTVSPost2010Prop43
 90
        3
102
RTVSPost2010PropOp43
 70
     1
102
RTVSPost2010Prop44ColorIndex
 90
        5
102
RTVSPost2010Prop44ColorRGB
 90
      255
102
RTVSPost2010PropOp44
 70
     1
102
RTVSPost2010Prop45
280
     0
102
RTVSPost2010PropOp45
 70
     1
102
RTVSPost2010Prop46
 90
       50
102
RTVSPost2010PropOp46
 70
     1
102
RTVSPost2010Prop47
 90
       50
102
RTVSPost2010PropOp47
 70
     1
102
RTVSPost2010Prop48
 90
       50
102
RTVSPost2010PropOp48
 70
     1
102
RTVSPost2010Prop49
280
     0
102
RTVSPost2010PropOp49
 70
     1
102
RTVSPost2010Prop50
 90
       50
102
RTVSPost2010PropOp50
 70
     1
102
RTVSPost2010Prop51ColorIndex
 90
      256
102
RTVSPost2010Prop51ColorRGB
 90
-16777216
102
RTVSPost2010PropOp51
 70
     0
102
RTVSPost2010Prop52
140
1.0
102
RTVSPost2010PropOp52
 70
     0
102
RTVSPost2010Prop53
 90
        2
102
RTVSPost2010PropOp53
 70
     1
102
RTVSPost2010Prop54
  1
strokes_ogs.tif
102
RTVSPost2010PropOp54
 70
     1
102
RTVSPost2010Prop55
280
     0
102
RTVSPost2010PropOp55
 70
     1
102
RTVSPost2010Prop56
140
1.0
102
RTVSPost2010PropOp56
 70
     1
102
RTVSPost2010Prop57
140
1.0
102
RTVSPost2010PropOp57
 70
     1
102
RTVSPropertyOp0
 70
     1
102
RTVSPropertyOp1
 70
     1
102
RTVSPropertyOp2
 70
     1
102
RTVSPropertyOp3
 70
     1
102
RTVSPropertyOp4
 70
     1
102
RTVSPropertyOp5
 70
     1
102
RTVSPropertyOp6
 70
     1
102
RTVSPropertyOp7
 70
     1
102
RTVSPropertyOp8
 70
     1
102
RTVSPropertyOp9
 70
     1
102
RTVSPropertyOp10
 70
     1
102
RTVSPropertyOp11
 70
     1
102
RTVSPropertyOp12
 70
     1
102
RTVSPropertyOp13
 70
     1
102
RTVSPropertyOp14
 70
     1
102
RTVSPropertyOp15
 70
     1
102
RTVSPropertyOp16
 70
     1
102
RTVSPropertyOp17
 70
     1
102
RTVSPropertyOp18
 70
     1
102
RTVSPropertyOp19
 70
     1
102
RTVSPropertyOp20
 70
     1
102
RTVSPropertyOp21
 70
     1
102
RTVSPropertyOp22
 70
     1
102
RTVSPropertyOp23
 70
     1
102
RTVSPropertyOp24
 70
     1
102
RTVSPropertyOp25
 70
     1
102
RTVSPropertyOp26
 70
     1
102
RTVSPropertyOp27
 70
     1
102
RTVSPropertyOp28
 70
     1
102
RTVSPropertyOp29
 70
     1
102
RTVSPropertyOp30
 70
     1
102
RTVSPropertyOp31
 70
     1
102
RTVSPropertyOp32
 70
     1
102
RTVSPropertyOp33
 70
     1
102
RTVSPropertyOp34
 70
     1
102
RTVSPropertyOp35
 70
     1
102
RTVSPropertyOp36
 70
     1
102
RTVSPropertyOp37
 70
     1
102
RTVSPropertyOp38
 70
     1
102
RTVSPropertyOp39
 70
     1
102
RTVSPropertyOp40
 70
     1
102
RTVSPropertyOp41
 70
     1
102
RTVSPropertyOp42
 70
     1
102
RTVSPropertyOp43
 70
     1
102
RTVSPropertyOp44
 70
     1
102
RTVSPropertyOp45
 70
     1
102
RTVSPropertyOp46
 70
     1
102
RTVSPropertyOp47
 70
     1
102
RTVSPropertyOp48
 70
     1
102
RTVSPropertyOp49
 70
     1
102
RTVSPropertyOp50
 70
     1
102
RTVSPropertyOp51
 70
     0
102
RTVSPropertyOp52
 70
     0
102
RTVSPropertyOp53
 70
     1
102
RTVSPropertyOp54
 70
     1
102
RTVSPropertyOp55
 70
     1
102
RTVSPropertyOp56
 70
     1
102
RTVSPropertyOp57
 70
     1
102
RTVSPropertyOp58
 70
     1
102
RTVSPropertyOp59
 70
     1
102
RTVSPropertyOp60
 70
     1
102
RTVSPropertyOp61
 70
     1
102
RTVSPropertyOp62
 70
     1
  0
XRECORD
  5
94808
102
{ACAD_REACTORS
330
94807
102
}
330
94807
100
AcDbXrecord
280
     1
102
RTVSPost2010Prop28
280
     0
102
RTVSPost2010PropOp28
 70
     1
102
RTVSPost2010Prop29
280
     1
102
RTVSPost2010PropOp29
 70
     1
102
RTVSPost2010Prop30
280
     1
102
RTVSPost2010PropOp30
 70
     1
102
RTVSPost2010Prop31
280
     0
102
RTVSPost2010PropOp31
 70
     1
102
RTVSPost2010Prop32
280
     0
102
RTVSPost2010PropOp32
 70
     1
102
RTVSPost2010Prop33
280
     0
102
RTVSPost2010PropOp33
 70
     1
102
RTVSPost2010Prop34
280
     0
102
RTVSPost2010PropOp34
 70
     1
102
RTVSPost2010Prop35
280
     0
102
RTVSPost2010PropOp35
 70
     1
102
RTVSPost2010Prop36
280
     0
102
RTVSPost2010PropOp36
 70
     1
102
RTVSPost2010Prop37
 90
       50
102
RTVSPost2010PropOp37
 70
     1
102
RTVSPost2010Prop38
140
0.0
102
RTVSPost2010PropOp38
 70
     1
102
RTVSPost2010Prop39
140
1.0
102
RTVSPost2010PropOp39
 70
     1
102
RTVSPost2010Prop40
 90
        0
102
RTVSPost2010PropOp40
 70
     1
102
RTVSPost2010Prop41ColorIndex
 90
       18
102
RTVSPost2010Prop41ColorRGB
 90
-16777216
102
RTVSPost2010PropOp41
 70
     1
102
RTVSPost2010Prop42
 90
       50
102
RTVSPost2010PropOp42
 70
     1
102
RTVSPost2010Prop43
 90
        3
102
RTVSPost2010PropOp43
 70
     1
102
RTVSPost2010Prop44ColorIndex
 90
        5
102
RTVSPost2010Prop44ColorRGB
 90
      255
102
RTVSPost2010PropOp44
 70
     1
102
RTVSPost2010Prop45
280
     0
102
RTVSPost2010PropOp45
 70
     1
102
RTVSPost2010Prop46
 90
       50
102
RTVSPost2010PropOp46
 70
     1
102
RTVSPost2010Prop47
 90
       50
102
RTVSPost2010PropOp47
 70
     1
102
RTVSPost2010Prop48
 90
       50
102
RTVSPost2010PropOp48
 70
     1
102
RTVSPost2010Prop49
280
     0
102
RTVSPost2010PropOp49
 70
     1
102
RTVSPost2010Prop50
 90
       50
102
RTVSPost2010PropOp50
 70
     1
102
RTVSPost2010Prop51ColorIndex
 90
      256
102
RTVSPost2010Prop51ColorRGB
 90
-16777216
102
RTVSPost2010PropOp51
 70
     0
102
RTVSPost2010Prop52
140
1.0
102
RTVSPost2010PropOp52
 70
     0
102
RTVSPost2010Prop53
 90
        2
102
RTVSPost2010PropOp53
 70
     1
102
RTVSPost2010Prop54
  1
strokes_ogs.tif
102
RTVSPost2010PropOp54
 70
     1
102
RTVSPost2010Prop55
280
     0
102
RTVSPost2010PropOp55
 70
     1
102
RTVSPost2010Prop56
140
1.0
102
RTVSPost2010PropOp56
 70
     1
102
RTVSPost2010Prop57
140
1.0
102
RTVSPost2010PropOp57
 70
     1
102
RTVSPropertyOp0
 70
     1
102
RTVSPropertyOp1
 70
     1
102
RTVSPropertyOp2
 70
     1
102
RTVSPropertyOp3
 70
     1
102
RTVSPropertyOp4
 70
     1
102
RTVSPropertyOp5
 70
     1
102
RTVSPropertyOp6
 70
     1
102
RTVSPropertyOp7
 70
     1
102
RTVSPropertyOp8
 70
     1
102
RTVSPropertyOp9
 70
     1
102
RTVSPropertyOp10
 70
     1
102
RTVSPropertyOp11
 70
     1
102
RTVSPropertyOp12
 70
     1
102
RTVSPropertyOp13
 70
     1
102
RTVSPropertyOp14
 70
     1
102
RTVSPropertyOp15
 70
     1
102
RTVSPropertyOp16
 70
     1
102
RTVSPropertyOp17
 70
     1
102
RTVSPropertyOp18
 70
     1
102
RTVSPropertyOp19
 70
     1
102
RTVSPropertyOp20
 70
     1
102
RTVSPropertyOp21
 70
     1
102
RTVSPropertyOp22
 70
     1
102
RTVSPropertyOp23
 70
     1
102
RTVSPropertyOp24
 70
     1
102
RTVSPropertyOp25
 70
     1
102
RTVSPropertyOp26
 70
     1
102
RTVSPropertyOp27
 70
     1
102
RTVSPropertyOp28
 70
     1
102
RTVSPropertyOp29
 70
     1
102
RTVSPropertyOp30
 70
     1
102
RTVSPropertyOp31
 70
     1
102
RTVSPropertyOp32
 70
     1
102
RTVSPropertyOp33
 70
     1
102
RTVSPropertyOp34
 70
     1
102
RTVSPropertyOp35
 70
     1
102
RTVSPropertyOp36
 70
     1
102
RTVSPropertyOp37
 70
     1
102
RTVSPropertyOp38
 70
     1
102
RTVSPropertyOp39
 70
     1
102
RTVSPropertyOp40
 70
     1
102
RTVSPropertyOp41
 70
     1
102
RTVSPropertyOp42
 70
     1
102
RTVSPropertyOp43
 70
     1
102
RTVSPropertyOp44
 70
     1
102
RTVSPropertyOp45
 70
     1
102
RTVSPropertyOp46
 70
     1
102
RTVSPropertyOp47
 70
     1
102
RTVSPropertyOp48
 70
     1
102
RTVSPropertyOp49
 70
     1
102
RTVSPropertyOp50
 70
     1
102
RTVSPropertyOp51
 70
     0
102
RTVSPropertyOp52
 70
     0
102
RTVSPropertyOp53
 70
     1
102
RTVSPropertyOp54
 70
     1
102
RTVSPropertyOp55
 70
     1
102
RTVSPropertyOp56
 70
     1
102
RTVSPropertyOp57
 70
     1
102
RTVSPropertyOp58
 70
     1
102
RTVSPropertyOp59
 70
     1
102
RTVSPropertyOp60
 70
     1
102
RTVSPropertyOp61
 70
     1
102
RTVSPropertyOp62
 70
     1
  0
XRECORD
  5
9480A
102
{ACAD_REACTORS
330
94809
102
}
330
94809
100
AcDbXrecord
280
     1
102
RTVSPost2010Prop28
280
     0
102
RTVSPost2010PropOp28
 70
     1
102
RTVSPost2010Prop29
280
     1
102
RTVSPost2010PropOp29
 70
     1
102
RTVSPost2010Prop30
280
     1
102
RTVSPost2010PropOp30
 70
     1
102
RTVSPost2010Prop31
280
     0
102
RTVSPost2010PropOp31
 70
     1
102
RTVSPost2010Prop32
280
     0
102
RTVSPost2010PropOp32
 70
     1
102
RTVSPost2010Prop33
280
     0
102
RTVSPost2010PropOp33
 70
     1
102
RTVSPost2010Prop34
280
     0
102
RTVSPost2010PropOp34
 70
     1
102
RTVSPost2010Prop35
280
     0
102
RTVSPost2010PropOp35
 70
     1
102
RTVSPost2010Prop36
280
     0
102
RTVSPost2010PropOp36
 70
     1
102
RTVSPost2010Prop37
 90
       50
102
RTVSPost2010PropOp37
 70
     1
102
RTVSPost2010Prop38
140
0.0
102
RTVSPost2010PropOp38
 70
     1
102
RTVSPost2010Prop39
140
1.0
102
RTVSPost2010PropOp39
 70
     1
102
RTVSPost2010Prop40
 90
        0
102
RTVSPost2010PropOp40
 70
     1
102
RTVSPost2010Prop41ColorIndex
 90
       18
102
RTVSPost2010Prop41ColorRGB
 90
-16777216
102
RTVSPost2010PropOp41
 70
     1
102
RTVSPost2010Prop42
 90
       50
102
RTVSPost2010PropOp42
 70
     1
102
RTVSPost2010Prop43
 90
        3
102
RTVSPost2010PropOp43
 70
     1
102
RTVSPost2010Prop44ColorIndex
 90
        5
102
RTVSPost2010Prop44ColorRGB
 90
      255
102
RTVSPost2010PropOp44
 70
     1
102
RTVSPost2010Prop45
280
     0
102
RTVSPost2010PropOp45
 70
     1
102
RTVSPost2010Prop46
 90
       50
102
RTVSPost2010PropOp46
 70
     1
102
RTVSPost2010Prop47
 90
       50
102
RTVSPost2010PropOp47
 70
     1
102
RTVSPost2010Prop48
 90
       50
102
RTVSPost2010PropOp48
 70
     1
102
RTVSPost2010Prop49
280
     0
102
RTVSPost2010PropOp49
 70
     1
102
RTVSPost2010Prop50
 90
       50
102
RTVSPost2010PropOp50
 70
     1
102
RTVSPost2010Prop51ColorIndex
 90
      256
102
RTVSPost2010Prop51ColorRGB
 90
-16777216
102
RTVSPost2010PropOp51
 70
     0
102
RTVSPost2010Prop52
140
1.0
102
RTVSPost2010PropOp52
 70
     0
102
RTVSPost2010Prop53
 90
        2
102
RTVSPost2010PropOp53
 70
     1
102
RTVSPost2010Prop54
  1
strokes_ogs.tif
102
RTVSPost2010PropOp54
 70
     1
102
RTVSPost2010Prop55
280
     0
102
RTVSPost2010PropOp55
 70
     1
102
RTVSPost2010Prop56
140
1.0
102
RTVSPost2010PropOp56
 70
     1
102
RTVSPost2010Prop57
140
1.0
102
RTVSPost2010PropOp57
 70
     1
102
RTVSPropertyOp0
 70
     1
102
RTVSPropertyOp1
 70
     1
102
RTVSPropertyOp2
 70
     1
102
RTVSPropertyOp3
 70
     1
102
RTVSPropertyOp4
 70
     1
102
RTVSPropertyOp5
 70
     1
102
RTVSPropertyOp6
 70
     1
102
RTVSPropertyOp7
 70
     1
102
RTVSPropertyOp8
 70
     1
102
RTVSPropertyOp9
 70
     1
102
RTVSPropertyOp10
 70
     1
102
RTVSPropertyOp11
 70
     1
102
RTVSPropertyOp12
 70
     1
102
RTVSPropertyOp13
 70
     1
102
RTVSPropertyOp14
 70
     1
102
RTVSPropertyOp15
 70
     1
102
RTVSPropertyOp16
 70
     1
102
RTVSPropertyOp17
 70
     1
102
RTVSPropertyOp18
 70
     1
102
RTVSPropertyOp19
 70
     1
102
RTVSPropertyOp20
 70
     1
102
RTVSPropertyOp21
 70
     1
102
RTVSPropertyOp22
 70
     1
102
RTVSPropertyOp23
 70
     1
102
RTVSPropertyOp24
 70
     1
102
RTVSPropertyOp25
 70
     1
102
RTVSPropertyOp26
 70
     1
102
RTVSPropertyOp27
 70
     1
102
RTVSPropertyOp28
 70
     1
102
RTVSPropertyOp29
 70
     1
102
RTVSPropertyOp30
 70
     1
102
RTVSPropertyOp31
 70
     1
102
RTVSPropertyOp32
 70
     1
102
RTVSPropertyOp33
 70
     1
102
RTVSPropertyOp34
 70
     1
102
RTVSPropertyOp35
 70
     1
102
RTVSPropertyOp36
 70
     1
102
RTVSPropertyOp37
 70
     1
102
RTVSPropertyOp38
 70
     1
102
RTVSPropertyOp39
 70
     1
102
RTVSPropertyOp40
 70
     1
102
RTVSPropertyOp41
 70
     1
102
RTVSPropertyOp42
 70
     1
102
RTVSPropertyOp43
 70
     1
102
RTVSPropertyOp44
 70
     1
102
RTVSPropertyOp45
 70
     1
102
RTVSPropertyOp46
 70
     1
102
RTVSPropertyOp47
 70
     1
102
RTVSPropertyOp48
 70
     1
102
RTVSPropertyOp49
 70
     1
102
RTVSPropertyOp50
 70
     1
102
RTVSPropertyOp51
 70
     0
102
RTVSPropertyOp52
 70
     0
102
RTVSPropertyOp53
 70
     1
102
RTVSPropertyOp54
 70
     1
102
RTVSPropertyOp55
 70
     1
102
RTVSPropertyOp56
 70
     1
102
RTVSPropertyOp57
 70
     1
102
RTVSPropertyOp58
 70
     1
102
RTVSPropertyOp59
 70
     1
102
RTVSPropertyOp60
 70
     1
102
RTVSPropertyOp61
 70
     1
102
RTVSPropertyOp62
 70
     1
  0
XRECORD
  5
94800
102
{ACAD_REACTORS
330
947FF
102
}
330
947FF
100
AcDbXrecord
280
     1
102
RTVSPost2010Prop28
280
     0
102
RTVSPost2010PropOp28
 70
     1
102
RTVSPost2010Prop29
280
     1
102
RTVSPost2010PropOp29
 70
     1
102
RTVSPost2010Prop30
280
     1
102
RTVSPost2010PropOp30
 70
     1
102
RTVSPost2010Prop31
280
     0
102
RTVSPost2010PropOp31
 70
     1
102
RTVSPost2010Prop32
280
     0
102
RTVSPost2010PropOp32
 70
     1
102
RTVSPost2010Prop33
280
     0
102
RTVSPost2010PropOp33
 70
     1
102
RTVSPost2010Prop34
280
     0
102
RTVSPost2010PropOp34
 70
     1
102
RTVSPost2010Prop35
280
     0
102
RTVSPost2010PropOp35
 70
     1
102
RTVSPost2010Prop36
280
     0
102
RTVSPost2010PropOp36
 70
     1
102
RTVSPost2010Prop37
 90
       50
102
RTVSPost2010PropOp37
 70
     1
102
RTVSPost2010Prop38
140
0.0
102
RTVSPost2010PropOp38
 70
     1
102
RTVSPost2010Prop39
140
1.0
102
RTVSPost2010PropOp39
 70
     1
102
RTVSPost2010Prop40
 90
        0
102
RTVSPost2010PropOp40
 70
     1
102
RTVSPost2010Prop41ColorIndex
 90
       18
102
RTVSPost2010Prop41ColorRGB
 90
-16777216
102
RTVSPost2010PropOp41
 70
     1
102
RTVSPost2010Prop42
 90
       50
102
RTVSPost2010PropOp42
 70
     1
102
RTVSPost2010Prop43
 90
        3
102
RTVSPost2010PropOp43
 70
     1
102
RTVSPost2010Prop44ColorIndex
 90
        5
102
RTVSPost2010Prop44ColorRGB
 90
      255
102
RTVSPost2010PropOp44
 70
     1
102
RTVSPost2010Prop45
280
     0
102
RTVSPost2010PropOp45
 70
     1
102
RTVSPost2010Prop46
 90
       50
102
RTVSPost2010PropOp46
 70
     1
102
RTVSPost2010Prop47
 90
       50
102
RTVSPost2010PropOp47
 70
     1
102
RTVSPost2010Prop48
 90
       50
102
RTVSPost2010PropOp48
 70
     1
102
RTVSPost2010Prop49
280
     0
102
RTVSPost2010PropOp49
 70
     1
102
RTVSPost2010Prop50
 90
       50
102
RTVSPost2010PropOp50
 70
     1
102
RTVSPost2010Prop51ColorIndex
 90
      256
102
RTVSPost2010Prop51ColorRGB
 90
-16777216
102
RTVSPost2010PropOp51
 70
     0
102
RTVSPost2010Prop52
140
1.0
102
RTVSPost2010PropOp52
 70
     0
102
RTVSPost2010Prop53
 90
        2
102
RTVSPost2010PropOp53
 70
     1
102
RTVSPost2010Prop54
  1
strokes_ogs.tif
102
RTVSPost2010PropOp54
 70
     1
102
RTVSPost2010Prop55
280
     0
102
RTVSPost2010PropOp55
 70
     1
102
RTVSPost2010Prop56
140
1.0
102
RTVSPost2010PropOp56
 70
     1
102
RTVSPost2010Prop57
140
1.0
102
RTVSPost2010PropOp57
 70
     1
102
RTVSPropertyOp0
 70
     1
102
RTVSPropertyOp1
 70
     1
102
RTVSPropertyOp2
 70
     1
102
RTVSPropertyOp3
 70
     1
102
RTVSPropertyOp4
 70
     1
102
RTVSPropertyOp5
 70
     1
102
RTVSPropertyOp6
 70
     1
102
RTVSPropertyOp7
 70
     1
102
RTVSPropertyOp8
 70
     1
102
RTVSPropertyOp9
 70
     1
102
RTVSPropertyOp10
 70
     1
102
RTVSPropertyOp11
 70
     1
102
RTVSPropertyOp12
 70
     1
102
RTVSPropertyOp13
 70
     1
102
RTVSPropertyOp14
 70
     1
102
RTVSPropertyOp15
 70
     1
102
RTVSPropertyOp16
 70
     1
102
RTVSPropertyOp17
 70
     1
102
RTVSPropertyOp18
 70
     1
102
RTVSPropertyOp19
 70
     1
102
RTVSPropertyOp20
 70
     1
102
RTVSPropertyOp21
 70
     1
102
RTVSPropertyOp22
 70
     1
102
RTVSPropertyOp23
 70
     1
102
RTVSPropertyOp24
 70
     1
102
RTVSPropertyOp25
 70
     1
102
RTVSPropertyOp26
 70
     1
102
RTVSPropertyOp27
 70
     1
102
RTVSPropertyOp28
 70
     1
102
RTVSPropertyOp29
 70
     1
102
RTVSPropertyOp30
 70
     1
102
RTVSPropertyOp31
 70
     1
102
RTVSPropertyOp32
 70
     1
102
RTVSPropertyOp33
 70
     1
102
RTVSPropertyOp34
 70
     1
102
RTVSPropertyOp35
 70
     1
102
RTVSPropertyOp36
 70
     1
102
RTVSPropertyOp37
 70
     1
102
RTVSPropertyOp38
 70
     1
102
RTVSPropertyOp39
 70
     1
102
RTVSPropertyOp40
 70
     1
102
RTVSPropertyOp41
 70
     1
102
RTVSPropertyOp42
 70
     1
102
RTVSPropertyOp43
 70
     1
102
RTVSPropertyOp44
 70
     1
102
RTVSPropertyOp45
 70
     1
102
RTVSPropertyOp46
 70
     1
102
RTVSPropertyOp47
 70
     1
102
RTVSPropertyOp48
 70
     1
102
RTVSPropertyOp49
 70
     1
102
RTVSPropertyOp50
 70
     1
102
RTVSPropertyOp51
 70
     0
102
RTVSPropertyOp52
 70
     0
102
RTVSPropertyOp53
 70
     1
102
RTVSPropertyOp54
 70
     1
102
RTVSPropertyOp55
 70
     1
102
RTVSPropertyOp56
 70
     1
102
RTVSPropertyOp57
 70
     1
102
RTVSPropertyOp58
 70
     1
102
RTVSPropertyOp59
 70
     1
102
RTVSPropertyOp60
 70
     1
102
RTVSPropertyOp61
 70
     1
102
RTVSPropertyOp62
 70
     1
  0
XRECORD
  5
947F4
102
{ACAD_REACTORS
330
947F3
102
}
330
947F3
100
AcDbXrecord
280
     1
102
RTVSPost2010Prop28
280
     0
102
RTVSPost2010PropOp28
 70
     1
102
RTVSPost2010Prop29
280
     1
102
RTVSPost2010PropOp29
 70
     1
102
RTVSPost2010Prop30
280
     1
102
RTVSPost2010PropOp30
 70
     1
102
RTVSPost2010Prop31
280
     0
102
RTVSPost2010PropOp31
 70
     1
102
RTVSPost2010Prop32
280
     0
102
RTVSPost2010PropOp32
 70
     1
102
RTVSPost2010Prop33
280
     0
102
RTVSPost2010PropOp33
 70
     1
102
RTVSPost2010Prop34
280
     0
102
RTVSPost2010PropOp34
 70
     1
102
RTVSPost2010Prop35
280
     0
102
RTVSPost2010PropOp35
 70
     1
102
RTVSPost2010Prop36
280
     0
102
RTVSPost2010PropOp36
 70
     1
102
RTVSPost2010Prop37
 90
       50
102
RTVSPost2010PropOp37
 70
     1
102
RTVSPost2010Prop38
140
0.0
102
RTVSPost2010PropOp38
 70
     1
102
RTVSPost2010Prop39
140
1.0
102
RTVSPost2010PropOp39
 70
     1
102
RTVSPost2010Prop40
 90
        0
102
RTVSPost2010PropOp40
 70
     1
102
RTVSPost2010Prop41ColorIndex
 90
       18
102
RTVSPost2010Prop41ColorRGB
 90
-16777216
102
RTVSPost2010PropOp41
 70
     1
102
RTVSPost2010Prop42
 90
       50
102
RTVSPost2010PropOp42
 70
     1
102
RTVSPost2010Prop43
 90
        3
102
RTVSPost2010PropOp43
 70
     1
102
RTVSPost2010Prop44ColorIndex
 90
        5
102
RTVSPost2010Prop44ColorRGB
 90
      255
102
RTVSPost2010PropOp44
 70
     1
102
RTVSPost2010Prop45
280
     0
102
RTVSPost2010PropOp45
 70
     1
102
RTVSPost2010Prop46
 90
       50
102
RTVSPost2010PropOp46
 70
     1
102
RTVSPost2010Prop47
 90
       50
102
RTVSPost2010PropOp47
 70
     1
102
RTVSPost2010Prop48
 90
       50
102
RTVSPost2010PropOp48
 70
     1
102
RTVSPost2010Prop49
280
     0
102
RTVSPost2010PropOp49
 70
     1
102
RTVSPost2010Prop50
 90
       50
102
RTVSPost2010PropOp50
 70
     1
102
RTVSPost2010Prop51ColorIndex
 90
      256
102
RTVSPost2010Prop51ColorRGB
 90
-16777216
102
RTVSPost2010PropOp51
 70
     0
102
RTVSPost2010Prop52
140
1.0
102
RTVSPost2010PropOp52
 70
     0
102
RTVSPost2010Prop53
 90
        2
102
RTVSPost2010PropOp53
 70
     1
102
RTVSPost2010Prop54
  1
strokes_ogs.tif
102
RTVSPost2010PropOp54
 70
     1
102
RTVSPost2010Prop55
280
     0
102
RTVSPost2010PropOp55
 70
     1
102
RTVSPost2010Prop56
140
1.0
102
RTVSPost2010PropOp56
 70
     1
102
RTVSPost2010Prop57
140
1.0
102
RTVSPost2010PropOp57
 70
     1
102
RTVSPropertyOp0
 70
     1
102
RTVSPropertyOp1
 70
     1
102
RTVSPropertyOp2
 70
     1
102
RTVSPropertyOp3
 70
     1
102
RTVSPropertyOp4
 70
     1
102
RTVSPropertyOp5
 70
     1
102
RTVSPropertyOp6
 70
     1
102
RTVSPropertyOp7
 70
     1
102
RTVSPropertyOp8
 70
     1
102
RTVSPropertyOp9
 70
     1
102
RTVSPropertyOp10
 70
     1
102
RTVSPropertyOp11
 70
     1
102
RTVSPropertyOp12
 70
     1
102
RTVSPropertyOp13
 70
     1
102
RTVSPropertyOp14
 70
     1
102
RTVSPropertyOp15
 70
     1
102
RTVSPropertyOp16
 70
     1
102
RTVSPropertyOp17
 70
     1
102
RTVSPropertyOp18
 70
     1
102
RTVSPropertyOp19
 70
     1
102
RTVSPropertyOp20
 70
     1
102
RTVSPropertyOp21
 70
     1
102
RTVSPropertyOp22
 70
     1
102
RTVSPropertyOp23
 70
     1
102
RTVSPropertyOp24
 70
     1
102
RTVSPropertyOp25
 70
     1
102
RTVSPropertyOp26
 70
     1
102
RTVSPropertyOp27
 70
     1
102
RTVSPropertyOp28
 70
     1
102
RTVSPropertyOp29
 70
     1
102
RTVSPropertyOp30
 70
     1
102
RTVSPropertyOp31
 70
     1
102
RTVSPropertyOp32
 70
     1
102
RTVSPropertyOp33
 70
     1
102
RTVSPropertyOp34
 70
     1
102
RTVSPropertyOp35
 70
     1
102
RTVSPropertyOp36
 70
     1
102
RTVSPropertyOp37
 70
     1
102
RTVSPropertyOp38
 70
     1
102
RTVSPropertyOp39
 70
     1
102
RTVSPropertyOp40
 70
     1
102
RTVSPropertyOp41
 70
     1
102
RTVSPropertyOp42
 70
     1
102
RTVSPropertyOp43
 70
     1
102
RTVSPropertyOp44
 70
     1
102
RTVSPropertyOp45
 70
     1
102
RTVSPropertyOp46
 70
     1
102
RTVSPropertyOp47
 70
     1
102
RTVSPropertyOp48
 70
     1
102
RTVSPropertyOp49
 70
     1
102
RTVSPropertyOp50
 70
     1
102
RTVSPropertyOp51
 70
     0
102
RTVSPropertyOp52
 70
     0
102
RTVSPropertyOp53
 70
     1
102
RTVSPropertyOp54
 70
     1
102
RTVSPropertyOp55
 70
     1
102
RTVSPropertyOp56
 70
     1
102
RTVSPropertyOp57
 70
     1
102
RTVSPropertyOp58
 70
     1
102
RTVSPropertyOp59
 70
     1
102
RTVSPropertyOp60
 70
     1
102
RTVSPropertyOp61
 70
     1
102
RTVSPropertyOp62
 70
     1
  0
XRECORD
  5
9480C
102
{ACAD_REACTORS
330
9480B
102
}
330
9480B
100
AcDbXrecord
280
     1
102
RTVSPost2010Prop28
280
     0
102
RTVSPost2010PropOp28
 70
     1
102
RTVSPost2010Prop29
280
     1
102
RTVSPost2010PropOp29
 70
     1
102
RTVSPost2010Prop30
280
     1
102
RTVSPost2010PropOp30
 70
     1
102
RTVSPost2010Prop31
280
     0
102
RTVSPost2010PropOp31
 70
     1
102
RTVSPost2010Prop32
280
     0
102
RTVSPost2010PropOp32
 70
     1
102
RTVSPost2010Prop33
280
     0
102
RTVSPost2010PropOp33
 70
     1
102
RTVSPost2010Prop34
280
     0
102
RTVSPost2010PropOp34
 70
     1
102
RTVSPost2010Prop35
280
     0
102
RTVSPost2010PropOp35
 70
     1
102
RTVSPost2010Prop36
280
     0
102
RTVSPost2010PropOp36
 70
     1
102
RTVSPost2010Prop37
 90
       50
102
RTVSPost2010PropOp37
 70
     1
102
RTVSPost2010Prop38
140
0.0
102
RTVSPost2010PropOp38
 70
     1
102
RTVSPost2010Prop39
140
1.0
102
RTVSPost2010PropOp39
 70
     1
102
RTVSPost2010Prop40
 90
        0
102
RTVSPost2010PropOp40
 70
     1
102
RTVSPost2010Prop41ColorIndex
 90
       18
102
RTVSPost2010Prop41ColorRGB
 90
-16777216
102
RTVSPost2010PropOp41
 70
     1
102
RTVSPost2010Prop42
 90
       50
102
RTVSPost2010PropOp42
 70
     1
102
RTVSPost2010Prop43
 90
        3
102
RTVSPost2010PropOp43
 70
     1
102
RTVSPost2010Prop44ColorIndex
 90
        5
102
RTVSPost2010Prop44ColorRGB
 90
      255
102
RTVSPost2010PropOp44
 70
     1
102
RTVSPost2010Prop45
280
     0
102
RTVSPost2010PropOp45
 70
     1
102
RTVSPost2010Prop46
 90
       50
102
RTVSPost2010PropOp46
 70
     1
102
RTVSPost2010Prop47
 90
       50
102
RTVSPost2010PropOp47
 70
     1
102
RTVSPost2010Prop48
 90
       50
102
RTVSPost2010PropOp48
 70
     1
102
RTVSPost2010Prop49
280
     0
102
RTVSPost2010PropOp49
 70
     1
102
RTVSPost2010Prop50
 90
       50
102
RTVSPost2010PropOp50
 70
     1
102
RTVSPost2010Prop51ColorIndex
 90
      256
102
RTVSPost2010Prop51ColorRGB
 90
-16777216
102
RTVSPost2010PropOp51
 70
     0
102
RTVSPost2010Prop52
140
1.0
102
RTVSPost2010PropOp52
 70
     0
102
RTVSPost2010Prop53
 90
        2
102
RTVSPost2010PropOp53
 70
     1
102
RTVSPost2010Prop54
  1
strokes_ogs.tif
102
RTVSPost2010PropOp54
 70
     1
102
RTVSPost2010Prop55
280
     0
102
RTVSPost2010PropOp55
 70
     1
102
RTVSPost2010Prop56
140
1.0
102
RTVSPost2010PropOp56
 70
     1
102
RTVSPost2010Prop57
140
1.0
102
RTVSPost2010PropOp57
 70
     1
102
RTVSPropertyOp0
 70
     1
102
RTVSPropertyOp1
 70
     1
102
RTVSPropertyOp2
 70
     1
102
RTVSPropertyOp3
 70
     1
102
RTVSPropertyOp4
 70
     1
102
RTVSPropertyOp5
 70
     1
102
RTVSPropertyOp6
 70
     1
102
RTVSPropertyOp7
 70
     1
102
RTVSPropertyOp8
 70
     1
102
RTVSPropertyOp9
 70
     1
102
RTVSPropertyOp10
 70
     1
102
RTVSPropertyOp11
 70
     1
102
RTVSPropertyOp12
 70
     1
102
RTVSPropertyOp13
 70
     1
102
RTVSPropertyOp14
 70
     1
102
RTVSPropertyOp15
 70
     1
102
RTVSPropertyOp16
 70
     1
102
RTVSPropertyOp17
 70
     1
102
RTVSPropertyOp18
 70
     1
102
RTVSPropertyOp19
 70
     1
102
RTVSPropertyOp20
 70
     1
102
RTVSPropertyOp21
 70
     1
102
RTVSPropertyOp22
 70
     1
102
RTVSPropertyOp23
 70
     1
102
RTVSPropertyOp24
 70
     1
102
RTVSPropertyOp25
 70
     1
102
RTVSPropertyOp26
 70
     1
102
RTVSPropertyOp27
 70
     1
102
RTVSPropertyOp28
 70
     1
102
RTVSPropertyOp29
 70
     1
102
RTVSPropertyOp30
 70
     1
102
RTVSPropertyOp31
 70
     1
102
RTVSPropertyOp32
 70
     1
102
RTVSPropertyOp33
 70
     1
102
RTVSPropertyOp34
 70
     1
102
RTVSPropertyOp35
 70
     1
102
RTVSPropertyOp36
 70
     1
102
RTVSPropertyOp37
 70
     1
102
RTVSPropertyOp38
 70
     1
102
RTVSPropertyOp39
 70
     1
102
RTVSPropertyOp40
 70
     1
102
RTVSPropertyOp41
 70
     1
102
RTVSPropertyOp42
 70
     1
102
RTVSPropertyOp43
 70
     1
102
RTVSPropertyOp44
 70
     1
102
RTVSPropertyOp45
 70
     1
102
RTVSPropertyOp46
 70
     1
102
RTVSPropertyOp47
 70
     1
102
RTVSPropertyOp48
 70
     1
102
RTVSPropertyOp49
 70
     1
102
RTVSPropertyOp50
 70
     1
102
RTVSPropertyOp51
 70
     0
102
RTVSPropertyOp52
 70
     0
102
RTVSPropertyOp53
 70
     1
102
RTVSPropertyOp54
 70
     1
102
RTVSPropertyOp55
 70
     1
102
RTVSPropertyOp56
 70
     1
102
RTVSPropertyOp57
 70
     1
102
RTVSPropertyOp58
 70
     1
102
RTVSPropertyOp59
 70
     1
102
RTVSPropertyOp60
 70
     1
102
RTVSPropertyOp61
 70
     1
102
RTVSPropertyOp62
 70
     1
  0
ENDSEC
  0
EOF
