  0
SECTION
  2
HEADER
  9
$ACADVER
  1
AC1018
  9
$ACADMAINTVER
 70
   104
  9
$DWGCODEPAGE
  3
ANSI_932
  9
$LASTSAVEDBY
  1
DELL3-1
  9
$INSBASE
 10
0.0
 20
0.0
 30
0.0
  9
$EXTMIN
 10
-375.2055500412152
 20
-1335.433523488352
 30
0.0
  9
$EXTMAX
 10
4650.374037926264
 20
1375.970438723457
 30
0.0
  9
$LIMMIN
 10
-2168.053652298811
 20
-3083.433593347588
  9
$LIMMAX
 10
4685.404458579432
 20
789.3547233207152
  9
$ORTHOMODE
 70
     0
  9
$REGENMODE
 70
     1
  9
$FILLMODE
 70
     1
  9
$QTEXTMODE
 70
     0
  9
$MIRRTEXT
 70
     0
  9
$LTSCALE
 40
20.0
  9
$ATTMODE
 70
     1
  9
$TEXTSIZE
 40
64.0
  9
$TRACEWID
 40
0.05
  9
$TEXTSTYLE
  7
STANDARD
  9
$CLAYER
  8
SIZE
  9
$CELTYPE
  6
CONTINUOUS
  9
$CECOLOR
 62
   256
  9
$CELTSCALE
 40
1.0
  9
$DISPSILH
 70
     0
  9
$DIMSCALE
 40
1.0
  9
$DIMASZ
 40
10.0
  9
$DIMEXO
 40
20.0
  9
$DIMDLI
 40
200.0
  9
$DIMRND
 40
0.0
  9
$DIMDLE
 40
0.0
  9
$DIMEXE
 40
20.0
  9
$DIMTP
 40
0.0
  9
$DIMTM
 40
0.0
  9
$DIMTXT
 40
50.0
  9
$DIMCEN
 40
0.082
  9
$DIMTSZ
 40
0.0
  9
$DIMTOL
 70
     0
  9
$DIMLIM
 70
     0
  9
$DIMTIH
 70
     0
  9
$DIMTOH
 70
     0
  9
$DIMSE1
 70
     0
  9
$DIMSE2
 70
     0
  9
$DIMTAD
 70
     1
  9
$DIMZIN
 70
     8
  9
$DIMBLK
  1
ORIGIN
  9
$DIMASO
 70
     1
  9
$DIMSHO
 70
     0
  9
$DIMPOST
  1

  9
$DIMAPOST
  1

  9
$DIMALT
 70
     0
  9
$DIMALTD
 70
     2
  9
$DIMALTF
 40
25.4
  9
$DIMLFAC
 40
1.0
  9
$DIMTOFL
 70
     1
  9
$DIMTVP
 40
0.0
  9
$DIMTIX
 70
     0
  9
$DIMSOXD
 70
     0
  9
$DIMSAH
 70
     0
  9
$DIMBLK1
  1

  9
$DIMBLK2
  1

  9
$DIMSTYLE
  2
STANDARD
  9
$DIMCLRD
 70
     0
  9
$DIMCLRE
 70
     0
  9
$DIMCLRT
 70
     0
  9
$DIMTFAC
 40
1.0
  9
$DIMGAP
 40
10.0
  9
$DIMJUST
 70
     0
  9
$DIMSD1
 70
     0
  9
$DIMSD2
 70
     0
  9
$DIMTOLJ
 70
     1
  9
$DIMTZIN
 70
     0
  9
$DIMALTZ
 70
     0
  9
$DIMALTTZ
 70
     0
  9
$DIMUPT
 70
     0
  9
$DIMDEC
 70
     0
  9
$DIMTDEC
 70
     0
  9
$DIMALTU
 70
     2
  9
$DIMALTTD
 70
     2
  9
$DIMTXSTY
  7
STANDARD
  9
$DIMAUNIT
 70
     0
  9
$DIMADEC
 70
     0
  9
$DIMALTRND
 40
0.0
  9
$DIMAZIN
 70
     0
  9
$DIMDSEP
 70
    46
  9
$DIMATFIT
 70
     3
  9
$DIMFRAC
 70
     0
  9
$DIMLDRBLK
  1
ORIGIN
  9
$DIMLUNIT
 70
     2
  9
$DIMLWD
 70
    -2
  9
$DIMLWE
 70
    -2
  9
$DIMTMOVE
 70
     0
  9
$LUNITS
 70
     2
  9
$LUPREC
 70
     4
  9
$SKETCHINC
 40
0.1
  9
$FILLETRAD
 40
5.0
  9
$AUNITS
 70
     1
  9
$AUPREC
 70
     3
  9
$MENU
  1
ACAD
  9
$ELEVATION
 40
0.0
  9
$PELEVATION
 40
0.0
  9
$THICKNESS
 40
0.0
  9
$LIMCHECK
 70
     0
  9
$CHAMFERA
 40
0.0
  9
$CHAMFERB
 40
0.0
  9
$CHAMFERC
 40
0.0
  9
$CHAMFERD
 40
0.0
  9
$SKPOLY
 70
     0
  9
$TDCREATE
 40
2450330.393205995
  9
$TDUCREATE
 40
2450330.018205995
  9
$TDUPDATE
 40
2457803.458176979
  9
$TDUUPDATE
 40
2457803.083176980
  9
$TDINDWG
 40
2.3886936921
  9
$TDUSRTIMER
 40
2.3886929630
  9
$USRTIMER
 70
     1
  9
$ANGBASE
 50
0.0
  9
$ANGDIR
 70
     0
  9
$PDMODE
 70
     3
  9
$PDSIZE
 40
-2.0
  9
$PLINEWID
 40
0.0
  9
$SPLFRAME
 70
     0
  9
$SPLINETYPE
 70
     6
  9
$SPLINESEGS
 70
     8
  9
$HANDSEED
  5
90712
  9
$SURFTAB1
 70
     6
  9
$SURFTAB2
 70
     6
  9
$SURFTYPE
 70
     6
  9
$SURFU
 70
     6
  9
$SURFV
 70
     6
  9
$UCSBASE
  2

  9
$UCSNAME
  2

  9
$UCSORG
 10
0.0
 20
0.0
 30
0.0
  9
$UCSXDIR
 10
1.0
 20
0.0
 30
0.0
  9
$UCSYDIR
 10
0.0
 20
1.0
 30
0.0
  9
$UCSORTHOREF
  2

  9
$UCSORTHOVIEW
 70
     0
  9
$UCSORGTOP
 10
0.0
 20
0.0
 30
0.0
  9
$UCSORGBOTTOM
 10
0.0
 20
0.0
 30
0.0
  9
$UCSORGLEFT
 10
0.0
 20
0.0
 30
0.0
  9
$UCSORGRIGHT
 10
0.0
 20
0.0
 30
0.0
  9
$UCSORGFRONT
 10
0.0
 20
0.0
 30
0.0
  9
$UCSORGBACK
 10
0.0
 20
0.0
 30
0.0
  9
$PUCSBASE
  2

  9
$PUCSNAME
  2

  9
$PUCSORG
 10
0.0
 20
0.0
 30
0.0
  9
$PUCSXDIR
 10
1.0
 20
0.0
 30
0.0
  9
$PUCSYDIR
 10
0.0
 20
1.0
 30
0.0
  9
$PUCSORTHOREF
  2

  9
$PUCSORTHOVIEW
 70
     0
  9
$PUCSORGTOP
 10
0.0
 20
0.0
 30
0.0
  9
$PUCSORGBOTTOM
 10
0.0
 20
0.0
 30
0.0
  9
$PUCSORGLEFT
 10
0.0
 20
0.0
 30
0.0
  9
$PUCSORGRIGHT
 10
0.0
 20
0.0
 30
0.0
  9
$PUCSORGFRONT
 10
0.0
 20
0.0
 30
0.0
  9
$PUCSORGBACK
 10
0.0
 20
0.0
 30
0.0
  9
$USERI1
 70
     0
  9
$USERI2
 70
     0
  9
$USERI3
 70
     0
  9
$USERI4
 70
     0
  9
$USERI5
 70
     0
  9
$USERR1
 40
20.0
  9
$USERR2
 40
0.0
  9
$USERR3
 40
0.0
  9
$USERR4
 40
0.0
  9
$USERR5
 40
0.0
  9
$WORLDVIEW
 70
     1
  9
$SHADEDGE
 70
     3
  9
$SHADEDIF
 70
    70
  9
$TILEMODE
 70
     1
  9
$MAXACTVP
 70
    64
  9
$PINSBASE
 10
0.0
 20
0.0
 30
0.0
  9
$PLIMCHECK
 70
     0
  9
$PEXTMIN
 10
1.000000000000000E+20
 20
1.000000000000000E+20
 30
1.000000000000000E+20
  9
$PEXTMAX
 10
-1.000000000000000E+20
 20
-1.000000000000000E+20
 30
-1.000000000000000E+20
  9
$PLIMMIN
 10
0.0
 20
0.0
  9
$PLIMMAX
 10
12.0
 20
9.0
  9
$UNITMODE
 70
     0
  9
$VISRETAIN
 70
     1
  9
$PLINEGEN
 70
     0
  9
$PSLTSCALE
 70
     1
  9
$TREEDEPTH
 70
  3020
  9
$CMLSTYLE
  2
STANDARD
  9
$CMLJUST
 70
     0
  9
$CMLSCALE
 40
1.0
  9
$PROXYGRAPHICS
 70
     1
  9
$MEASUREMENT
 70
     0
  9
$CELWEIGHT
370
    -1
  9
$ENDCAPS
280
     0
  9
$JOINSTYLE
280
     0
  9
$LWDISPLAY
290
     0
  9
$INSUNITS
 70
     0
  9
$HYPERLINKBASE
  1

  9
$STYLESHEET
  1

  9
$XEDIT
290
     1
  9
$CEPSNTYPE
380
     0
  9
$PSTYLEMODE
290
     1
  9
$FINGERPRINTGUID
  2
{97DA8DB6-C4F0-4C3D-ABEB-53C4FBBC7EFF}
  9
$VERSIONGUID
  2
{5C4BF1ED-00DE-452D-A3F6-B3FE6033890A}
  9
$EXTNAMES
290
     1
  9
$PSVPSCALE
 40
0.0
  9
$OLESTARTUP
290
     0
  9
$SORTENTS
280
   127
  9
$INDEXCTL
280
     0
  9
$HIDETEXT
280
     0
  9
$XCLIPFRAME
290
     0
  9
$HALOGAP
280
     0
  9
$OBSCOLOR
 70
   257
  9
$OBSLTYPE
280
     0
  9
$INTERSECTIONDISPLAY
280
     0
  9
$INTERSECTIONCOLOR
 70
   257
  9
$DIMASSOC
280
     1
  9
$PROJECTNAME
  1

  0
ENDSEC
  0
SECTION
  2
CLASSES
  0
CLASS
  1
ACDBDICTIONARYWDFLT
  2
AcDbDictionaryWithDefault
  3
ObjectDBX Classes
 90
        0
 91
        1
280
     0
281
     0
  0
CLASS
  1
MATERIAL
  2
AcDbMaterial
  3
ObjectDBX Classes
 90
     1153
 91
        3
280
     0
281
     0
  0
CLASS
  1
VISUALSTYLE
  2
AcDbVisualStyle
  3
ObjectDBX Classes
 90
     4095
 91
       24
280
     0
281
     0
  0
CLASS
  1
TABLESTYLE
  2
AcDbTableStyle
  3
ObjectDBX Classes
 90
     4095
 91
        1
280
     0
281
     0
  0
CLASS
  1
SCALE
  2
AcDbScale
  3
ObjectDBX Classes
 90
     1153
 91
       17
280
     0
281
     0
  0
CLASS
  1
MLEADERSTYLE
  2
AcDbMLeaderStyle
  3
ACDB_MLEADERSTYLE_CLASS
 90
     4095
 91
        1
280
     0
281
     0
  0
CLASS
  1
ACDBSECTIONVIEWSTYLE
  2
AcDbSectionViewStyle
  3
ObjectDBX Classes
 90
     1025
 91
        1
280
     0
281
     0
  0
CLASS
  1
ACDBDETAILVIEWSTYLE
  2
AcDbDetailViewStyle
  3
ObjectDBX Classes
 90
     1025
 91
        1
280
     0
281
     0
  0
CLASS
  1
DICTIONARYVAR
  2
AcDbDictionaryVar
  3
ObjectDBX Classes
 90
        0
 91
       60
280
     0
281
     0
  0
CLASS
  1
SORTENTSTABLE
  2
AcDbSortentsTable
  3
ObjectDBX Classes
 90
        0
 91
        2
280
     0
281
     0
  0
CLASS
  1
CELLSTYLEMAP
  2
AcDbCellStyleMap
  3
ObjectDBX Classes
 90
     1152
 91
        1
280
     0
281
     0
  0
ENDSEC
  0
SECTION
  2
TABLES
  0
TABLE
  2
VPORT
  5
8
330
0
100
AcDbSymbolTable
 70
     1
  0
VPORT
  5
8E5F4
330
8
100
AcDbSymbolTableRecord
100
AcDbViewportTableRecord
  2
*ACTIVE
 70
     0
 10
0.0
 20
0.0
 11
1.0
 21
1.0
 12
213.5668676965129
 22
-34.0597006311632
 13
0.0
 23
0.0
 14
50.0
 24
50.0
 15
100.0
 25
100.0
 16
0.0
 26
0.0
 36
1.0
 17
0.0
 27
0.0
 37
0.0
 40
1503.906432424505
 41
1.510691823899371
 42
50.0
 43
0.0
 44
0.0
 50
0.0
 51
0.0
 71
     0
 72
   500
 73
     1
 74
     0
 75
     0
 76
     0
 77
     0
 78
     0
281
     0
 65
     1
110
0.0
120
0.0
130
0.0
111
1.0
121
0.0
131
0.0
112
0.0
122
1.0
132
0.0
 79
     0
146
0.0
1001
ACAD_NAV_VCDISPLAY
1070
     3
  0
ENDTAB
  0
TABLE
  2
LTYPE
  5
5
330
0
100
AcDbSymbolTable
 70
     4
  0
LTYPE
  5
13
330
5
100
AcDbSymbolTableRecord
100
AcDbLinetypeTableRecord
  2
BYBLOCK
 70
     0
  3

 72
    65
 73
     0
 40
0.0
  0
LTYPE
  5
14
330
5
100
AcDbSymbolTableRecord
100
AcDbLinetypeTableRecord
  2
BYLAYER
 70
     0
  3

 72
    65
 73
     0
 40
0.0
  0
LTYPE
  5
15
330
5
100
AcDbSymbolTableRecord
100
AcDbLinetypeTableRecord
  2
CONTINUOUS
 70
     0
  3
実線
 72
    65
 73
     0
 40
0.0
  0
LTYPE
  5
23
330
5
100
AcDbSymbolTableRecord
100
AcDbLinetypeTableRecord
  2
DASHDOT
 70
     0
  3
____ _ ____ _ ____ _ ____ _ ____ _ ____ _ ____
 72
    65
 73
     4
 40
5.5
 49
4.0
 74
     0
 49
-0.6
 74
     0
 49
0.3
 74
     0
 49
-0.6
 74
     0
  0
LTYPE
  5
8E68D
330
5
100
AcDbSymbolTableRecord
100
AcDbLinetypeTableRecord
  2
CENTER
 70
     0
  3
____ _ ____ _ ____ _ ____ _ ____ _ ____ _ ____
 72
    65
 73
     4
 40
0.6
 49
0.375
 74
     0
 49
-0.075
 74
     0
 49
0.075
 74
     0
 49
-0.075
 74
     0
  0
ENDTAB
  0
TABLE
  2
LAYER
  5
2
102
{ACAD_XDICTIONARY
360
8E690
102
}
330
0
100
AcDbSymbolTable
 70
    10
  0
LAYER
  5
10
102
{ACAD_XDICTIONARY
360
8E66D
102
}
330
2
100
AcDbSymbolTableRecord
100
AcDbLayerTableRecord
  2
0
 70
     0
 62
     7
  6
CONTINUOUS
370
    -3
390
F
  0
LAYER
  5
22
102
{ACAD_XDICTIONARY
360
8E66F
102
}
330
2
100
AcDbSymbolTableRecord
100
AcDbLayerTableRecord
  2
SIZE
 70
     0
 62
    32
  6
CONTINUOUS
370
    -3
390
F
  0
LAYER
  5
31
102
{ACAD_XDICTIONARY
360
8E671
102
}
330
2
100
AcDbSymbolTableRecord
100
AcDbLayerTableRecord
  2
DETAIL
 70
     0
 62
     5
  6
CONTINUOUS
370
    -3
390
F
  0
LAYER
  5
32
102
{ACAD_XDICTIONARY
360
8E673
102
}
330
2
100
AcDbSymbolTableRecord
100
AcDbLayerTableRecord
  2
OUTLINE
 70
     0
 62
     3
  6
CONTINUOUS
370
    -3
390
F
  0
LAYER
  5
33
102
{ACAD_XDICTIONARY
360
8E675
102
}
330
2
100
AcDbSymbolTableRecord
100
AcDbLayerTableRecord
  2
BASIS
 70
     0
 62
     6
  6
CONTINUOUS
370
    -3
390
F
  0
LAYER
  5
34
102
{ACAD_XDICTIONARY
360
8E677
102
}
330
2
100
AcDbSymbolTableRecord
100
AcDbLayerTableRecord
  2
NOTE
 70
     0
 62
     4
  6
CONTINUOUS
370
    -3
390
F
  0
LAYER
  5
35
102
{ACAD_XDICTIONARY
360
8E679
102
}
330
2
100
AcDbSymbolTableRecord
100
AcDbLayerTableRecord
  2
ARRANGE
 70
     0
 62
     1
  6
CONTINUOUS
370
    -3
390
F
  0
LAYER
  5
37
102
{ACAD_XDICTIONARY
360
8E67B
102
}
330
2
100
AcDbSymbolTableRecord
100
AcDbLayerTableRecord
  2
ETC
 70
     0
 62
    83
  6
CONTINUOUS
370
    -3
390
F
  0
LAYER
  5
3A
330
2
100
AcDbSymbolTableRecord
100
AcDbLayerTableRecord
  2
DEFPOINTS
 70
     0
 62
     7
  6
CONTINUOUS
290
     0
370
    -3
390
F
  0
LAYER
  5
8E68E
102
{ACAD_XDICTIONARY
360
8E68F
102
}
330
2
100
AcDbSymbolTableRecord
100
AcDbLayerTableRecord
  2
DEFAULT_1
 70
     0
 62
     7
  6
CENTER
370
    -3
390
F
  0
ENDTAB
  0
TABLE
  2
STYLE
  5
3
330
0
100
AcDbSymbolTable
 70
     2
  0
STYLE
  5
11
330
3
100
AcDbSymbolTableRecord
100
AcDbTextStyleTableRecord
  2
STANDARD
 70
     0
 40
0.0
 41
0.9
 50
0.0
 71
     0
 42
64.0
  3
SIMPLEX
  4
BIGFONT
  0
STYLE
  5
8AE16
330
3
100
AcDbSymbolTableRecord
100
AcDbTextStyleTableRecord
  2
STANDARD1
 70
     0
 40
0.0
 41
1.0
 50
0.0
 71
     0
 42
64.0
  3
MONOTXT
  4
BIGFONT
  0
ENDTAB
  0
TABLE
  2
VIEW
  5
6
330
0
100
AcDbSymbolTable
 70
     3
  0
VIEW
  5
3C
330
6
100
AcDbSymbolTableRecord
100
AcDbViewTableRecord
  2
ALL
 70
     0
 40
4282.62
 10
0.0
 20
41.30990399999999
 41
5940.0
 11
0.0
 21
0.0
 31
1.0
 12
0.0
 22
0.0
 32
0.0
 42
50.0
 43
0.0
 44
0.0
 50
0.0
 71
     0
281
     0
 72
     0
  0
ENDTAB
  0
TABLE
  2
UCS
  5
7
330
0
100
AcDbSymbolTable
 70
     0
  0
ENDTAB
  0
TABLE
  2
APPID
  5
9
330
0
100
AcDbSymbolTable
 70
     4
  0
APPID
  5
12
330
9
100
AcDbSymbolTableRecord
100
AcDbRegAppTableRecord
  2
ACAD
 70
     0
  0
APPID
  5
8E67D
330
9
100
AcDbSymbolTableRecord
100
AcDbRegAppTableRecord
  2
ACAD_NAV_VCDISPLAY
 70
     0
  0
APPID
  5
90538
330
9
100
AcDbSymbolTableRecord
100
AcDbRegAppTableRecord
  2
ACAD_EXEMPT_FROM_CAD_STANDARDS
 70
     0
  0
APPID
  5
9070C
330
9
100
AcDbSymbolTableRecord
100
AcDbRegAppTableRecord
  2
ACAD_MLEADERVER
 70
     0
  0
ENDTAB
  0
TABLE
  2
DIMSTYLE
  5
A
330
0
100
AcDbSymbolTable
 70
     2
100
AcDbDimStyleTable
 71
     1
340
213
  0
DIMSTYLE
105
213
102
{ACAD_REACTORS
330
90567
330
90602
330
90610
330
90628
102
}
330
A
100
AcDbSymbolTableRecord
100
AcDbDimStyleTableRecord
  2
STANDARD
 70
     0
340
11
  0
ENDTAB
  0
TABLE
  2
BLOCK_RECORD
  5
1
330
0
100
AcDbSymbolTable
 70
     7
  0
BLOCK_RECORD
  5
1E
102
{ACAD_XDICTIONARY
360
66E76
102
}
330
1
100
AcDbSymbolTableRecord
100
AcDbBlockTableRecord
  2
*MODEL_SPACE
340
8E669
  0
BLOCK_RECORD
  5
1A
102
{ACAD_XDICTIONARY
360
66E74
102
}
330
1
100
AcDbSymbolTableRecord
100
AcDbBlockTableRecord
  2
*PAPER_SPACE
340
8E66A
  0
BLOCK_RECORD
  5
46
330
1
100
AcDbSymbolTableRecord
100
AcDbBlockTableRecord
  2
_ORIGIN
340
0
102
{BLKREFS
331
90668
331
90669
331
90672
331
90673
331
9067C
331
9067D
331
90685
331
90686
102
}
  0
BLOCK_RECORD
  5
90568
330
1
100
AcDbSymbolTableRecord
100
AcDbBlockTableRecord
  2
*D3
340
0
  0
BLOCK_RECORD
  5
90603
330
1
100
AcDbSymbolTableRecord
100
AcDbBlockTableRecord
  2
*D4
340
0
  0
BLOCK_RECORD
  5
90611
330
1
100
AcDbSymbolTableRecord
100
AcDbBlockTableRecord
  2
*D5
340
0
  0
BLOCK_RECORD
  5
90629
330
1
100
AcDbSymbolTableRecord
100
AcDbBlockTableRecord
  2
*D6
340
0
  0
ENDTAB
  0
ENDSEC
  0
SECTION
  2
BLOCKS
  0
BLOCK
  5
1F
330
1E
100
AcDbEntity
  8
0
100
AcDbBlockBegin
  2
*MODEL_SPACE
 70
     0
 10
0.0
 20
0.0
 30
0.0
  3
*MODEL_SPACE
  1

  0
ENDBLK
  5
20
330
1E
100
AcDbEntity
  8
0
100
AcDbBlockEnd
  0
BLOCK
  5
1B
330
1A
100
AcDbEntity
 67
     1
  8
0
100
AcDbBlockBegin
  2
*PAPER_SPACE
 70
     0
 10
0.0
 20
0.0
 30
0.0
  3
*PAPER_SPACE
  1

  0
ENDBLK
  5
1C
330
1A
100
AcDbEntity
 67
     1
  8
0
100
AcDbBlockEnd
  0
BLOCK
  5
47
330
46
100
AcDbEntity
  8
0
100
AcDbBlockBegin
  2
_ORIGIN
 70
     0
 10
0.0
 20
0.0
 30
0.0
  3
_ORIGIN
  1

  0
CIRCLE
  5
48
330
46
100
AcDbEntity
  8
0
  6
ByBlock
 62
     0
100
AcDbCircle
 10
0.0
 20
0.0
 30
0.0
 40
0.5
  0
LINE
  5
49
330
46
100
AcDbEntity
  8
0
  6
ByBlock
 62
     0
100
AcDbLine
 10
0.0
 20
0.0
 30
0.0
 11
-1.0
 21
0.0
 31
0.0
  0
ENDBLK
  5
4A
330
46
100
AcDbEntity
  8
0
100
AcDbBlockEnd
  0
BLOCK
  5
90569
330
90568
100
AcDbEntity
  8
0
100
AcDbBlockBegin
  2
*D3
 70
     1
 10
0.0
 20
0.0
 30
0.0
  3
*D3
  1

  0
LINE
  5
90665
330
90568
100
AcDbEntity
  8
SIZE
  6
Continuous
 62
     0
440
 16777216
370
    -2
100
AcDbLine
 10
-256.707842356815
 20
12.20514199483932
 30
0.0
 11
-256.707842356815
 21
87.70571372295922
 31
0.0
  0
LINE
  5
90666
330
90568
100
AcDbEntity
  8
SIZE
  6
Continuous
 62
     0
440
 16777216
370
    -2
100
AcDbLine
 10
0.0000000000000012
 20
20.0
 30
0.0
 11
0.0000000000000054
 21
87.70571372295922
 31
0.0
  0
LINE
  5
90667
330
90568
100
AcDbEntity
  8
SIZE
  6
Continuous
 62
     0
440
 16777216
370
    -2
100
AcDbLine
 10
-246.707842356815
 20
67.70571372295922
 30
0.0
 11
-9.999999999999996
 21
67.70571372295922
 31
0.0
  0
INSERT
  5
90668
330
90568
100
AcDbEntity
  8
SIZE
  6
Continuous
 62
     0
440
 16777216
370
    -2
100
AcDbBlockReference
  2
_ORIGIN
 10
-256.707842356815
 20
67.70571372295922
 30
0.0
 41
10.0
 42
10.0
 43
10.0
 50
180.0
  0
INSERT
  5
90669
330
90568
100
AcDbEntity
  8
SIZE
  6
Continuous
 62
     0
440
 16777216
370
    -2
100
AcDbBlockReference
  2
_ORIGIN
 10
0.0000000000000041
 20
67.70571372295922
 30
0.0
 41
10.0
 42
10.0
 43
10.0
  0
MTEXT
  5
9066A
330
90568
100
AcDbEntity
  8
SIZE
  6
Continuous
 62
     0
440
 16777216
100
AcDbMText
 10
-128.3539211784075
 20
102.7057137229592
 30
0.0
 40
50.0
 41
0.0
 71
     5
 72
     1
  1
\A1;257
 73
     1
 44
1.0
  0
POINT
  5
9066B
330
90568
100
AcDbEntity
  8
DEFPOINTS
  6
Continuous
 62
     0
440
 16777216
100
AcDbPoint
 10
-256.707842356815
 20
-7.794858005160676
 30
0.0
  0
POINT
  5
9066C
330
90568
100
AcDbEntity
  8
DEFPOINTS
  6
Continuous
 62
     0
440
 16777216
100
AcDbPoint
 10
0.0
 20
0.0
 30
0.0
  0
POINT
  5
9066D
330
90568
100
AcDbEntity
  8
DEFPOINTS
  6
Continuous
 62
     0
440
 16777216
100
AcDbPoint
 10
0.0000000000000041
 20
67.70571372295922
 30
0.0
  0
ENDBLK
  5
9056A
330
90568
100
AcDbEntity
  8
0
100
AcDbBlockEnd
  0
BLOCK
  5
90604
330
90603
100
AcDbEntity
  8
0
100
AcDbBlockBegin
  2
*D4
 70
     1
 10
0.0
 20
0.0
 30
0.0
  3
*D4
  1

  0
LINE
  5
9066E
330
90603
100
AcDbEntity
  8
SIZE
  6
Continuous
 62
     0
440
 16777216
370
    -2
100
AcDbLine
 10
17.3741548312214
 20
-295.2172640456632
 30
0.0
 11
211.089016546257
 21
-295.2172640456633
 31
0.0
  0
LINE
  5
9066F
330
90603
100
AcDbEntity
  8
SIZE
  6
Continuous
 62
     0
440
 16777216
370
    -2
100
AcDbLine
 10
35.33178469484665
 20
-254.2172640456632
 30
0.0
 11
211.089016546257
 21
-254.2172640456633
 31
0.0
  0
LINE
  5
90670
330
90603
100
AcDbEntity
  8
SIZE
  6
Continuous
 62
     0
440
 16777216
370
    -2
100
AcDbLine
 10
191.089016546257
 20
-285.2172640456633
 30
0.0
 11
191.089016546257
 21
-264.2172640456633
 31
0.0
  0
LINE
  5
90671
330
90603
100
AcDbEntity
  8
SIZE
  6
Continuous
 62
     0
440
 16777216
370
    -2
100
AcDbLine
 10
191.089016546257
 20
-254.2172640456632
 30
0.0
 11
191.089016546257
 21
-170.6458354742347
 31
0.0
  0
INSERT
  5
90672
330
90603
100
AcDbEntity
  8
SIZE
  6
Continuous
 62
     0
440
 16777216
370
    -2
100
AcDbBlockReference
  2
_ORIGIN
 10
191.089016546257
 20
-295.2172640456633
 30
0.0
 41
10.0
 42
10.0
 43
10.0
 50
270.0
  0
INSERT
  5
90673
330
90603
100
AcDbEntity
  8
SIZE
  6
Continuous
 62
     0
440
 16777216
370
    -2
100
AcDbBlockReference
  2
_ORIGIN
 10
191.089016546257
 20
-254.2172640456632
 30
0.0
 41
10.0
 42
10.0
 43
10.0
 50
90.0
  0
MTEXT
  5
90674
330
90603
100
AcDbEntity
  8
SIZE
  6
Continuous
 62
     0
440
 16777216
100
AcDbMText
 10
156.089016546257
 20
-207.4315497599489
 30
0.0
 40
50.0
 41
0.0
 71
     5
 72
     1
  1
\A1;41
 11
0.0000000000000001
 21
1.0
 31
0.0
 73
     1
 44
1.0
  0
POINT
  5
90675
330
90603
100
AcDbEntity
  8
DEFPOINTS
  6
Continuous
 62
     0
440
 16777216
100
AcDbPoint
 10
-2.625845168778606
 20
-295.2172640456632
 30
0.0
  0
POINT
  5
90676
330
90603
100
AcDbEntity
  8
DEFPOINTS
  6
Continuous
 62
     0
440
 16777216
100
AcDbPoint
 10
15.33178469484665
 20
-254.2172640456632
 30
0.0
  0
POINT
  5
90677
330
90603
100
AcDbEntity
  8
DEFPOINTS
  6
Continuous
 62
     0
440
 16777216
100
AcDbPoint
 10
191.089016546257
 20
-254.2172640456632
 30
0.0
  0
ENDBLK
  5
90605
330
90603
100
AcDbEntity
  8
0
100
AcDbBlockEnd
  0
BLOCK
  5
90612
330
90611
100
AcDbEntity
  8
0
100
AcDbBlockBegin
  2
*D5
 70
     1
 10
0.0
 20
0.0
 30
0.0
  3
*D5
  1

  0
LINE
  5
90678
330
90611
100
AcDbEntity
  8
SIZE
  6
Continuous
 62
     0
440
 16777216
370
    -2
100
AcDbLine
 10
35.33178469484665
 20
-253.2172640459124
 30
0.0
 11
278.0260223467557
 21
-253.2172640459125
 31
0.0
  0
LINE
  5
90679
330
90611
100
AcDbEntity
  8
SIZE
  6
Continuous
 62
     0
440
 16777216
370
    -2
100
AcDbLine
 10
17.3741548312214
 20
-295.2172640456632
 30
0.0
 11
278.0260223467557
 21
-295.2172640456633
 31
0.0
  0
LINE
  5
9067A
330
90611
100
AcDbEntity
  8
SIZE
  6
Continuous
 62
     0
440
 16777216
370
    -2
100
AcDbLine
 10
258.0260223467557
 20
-285.2172640456633
 30
0.0
 11
258.0260223467557
 21
-263.2172640459125
 31
0.0
  0
LINE
  5
9067B
330
90611
100
AcDbEntity
  8
SIZE
  6
Continuous
 62
     0
440
 16777216
370
    -2
100
AcDbLine
 10
258.0260223467557
 20
-253.2172640459125
 30
0.0
 11
258.0260223467557
 21
-150.3601211887696
 31
0.0
  0
INSERT
  5
9067C
330
90611
100
AcDbEntity
  8
SIZE
  6
Continuous
 62
     0
440
 16777216
370
    -2
100
AcDbBlockReference
  2
_ORIGIN
 10
258.0260223467557
 20
-295.2172640456633
 30
0.0
 41
10.0
 42
10.0
 43
10.0
 50
270.0
  0
INSERT
  5
9067D
330
90611
100
AcDbEntity
  8
SIZE
  6
Continuous
 62
     0
440
 16777216
370
    -2
100
AcDbBlockReference
  2
_ORIGIN
 10
258.0260223467557
 20
-253.2172640459125
 30
0.0
 41
10.0
 42
10.0
 43
10.0
 50
90.0
  0
MTEXT
  5
9067E
330
90611
100
AcDbEntity
  8
SIZE
  6
Continuous
 62
     0
440
 16777216
100
AcDbMText
 10
223.0260223467558
 20
-196.7886926173409
 30
0.0
 40
50.0
 41
0.0
 71
     5
 72
     1
  1
\A1;42
 11
0.0000000000000001
 21
1.0
 31
0.0
 73
     1
 44
1.0
  0
POINT
  5
9067F
330
90611
100
AcDbEntity
  8
DEFPOINTS
  6
Continuous
 62
     0
440
 16777216
100
AcDbPoint
 10
15.33178469484665
 20
-253.2172640459124
 30
0.0
  0
POINT
  5
90680
330
90611
100
AcDbEntity
  8
DEFPOINTS
  6
Continuous
 62
     0
440
 16777216
100
AcDbPoint
 10
-2.625845168778606
 20
-295.2172640456632
 30
0.0
  0
POINT
  5
90681
330
90611
100
AcDbEntity
  8
DEFPOINTS
  6
Continuous
 62
     0
440
 16777216
100
AcDbPoint
 10
258.0260223467557
 20
-295.2172640456633
 30
0.0
  0
ENDBLK
  5
90613
330
90611
100
AcDbEntity
  8
0
100
AcDbBlockEnd
  0
BLOCK
  5
9062A
330
90629
100
AcDbEntity
  8
0
100
AcDbBlockBegin
  2
*D6
 70
     1
 10
0.0
 20
0.0
 30
0.0
  3
*D6
  1

  0
LINE
  5
90682
330
90629
100
AcDbEntity
  8
SIZE
  6
Continuous
 62
     0
440
 16777216
370
    -2
100
AcDbLine
 10
20.0
 20
-0.0000000000000057
 30
0.0
 11
386.493868260779
 21
-0.0000000000001095
 31
0.0
  0
LINE
  5
90683
330
90629
100
AcDbEntity
  8
SIZE
  6
Continuous
 62
     0
440
 16777216
370
    -2
100
AcDbLine
 10
15.33144219503992
 20
-295.2172640456618
 30
0.0
 11
386.4938682607789
 21
-295.2172640456619
 31
0.0
  0
LINE
  5
90684
330
90629
100
AcDbEntity
  8
SIZE
  6
Continuous
 62
     0
440
 16777216
370
    -2
100
AcDbLine
 10
366.493868260779
 20
-10.0000000000001
 30
0.0
 11
366.4938682607789
 21
-285.2172640456618
 31
0.0
  0
INSERT
  5
90685
330
90629
100
AcDbEntity
  8
SIZE
  6
Continuous
 62
     0
440
 16777216
370
    -2
100
AcDbBlockReference
  2
_ORIGIN
 10
366.493868260779
 20
-0.0000000000001038
 30
0.0
 41
10.0
 42
10.0
 43
10.0
 50
90.0
  0
INSERT
  5
90686
330
90629
100
AcDbEntity
  8
SIZE
  6
Continuous
 62
     0
440
 16777216
370
    -2
100
AcDbBlockReference
  2
_ORIGIN
 10
366.4938682607789
 20
-295.2172640456618
 30
0.0
 41
10.0
 42
10.0
 43
10.0
 50
270.0
  0
MTEXT
  5
90687
330
90629
100
AcDbEntity
  8
SIZE
  6
Continuous
 62
     0
440
 16777216
100
AcDbMText
 10
331.493868260779
 20
-147.6086320228309
 30
0.0
 40
50.0
 41
0.0
 71
     5
 72
     1
  1
\A1;295
 11
0.0000000000000001
 21
1.0
 31
0.0
 73
     1
 44
1.0
  0
POINT
  5
90688
330
90629
100
AcDbEntity
  8
DEFPOINTS
  6
Continuous
 62
     0
440
 16777216
100
AcDbPoint
 10
0.0
 20
0.0
 30
0.0
  0
POINT
  5
90689
330
90629
100
AcDbEntity
  8
DEFPOINTS
  6
Continuous
 62
     0
440
 16777216
100
AcDbPoint
 10
-4.668557804960073
 20
-295.2172640456618
 30
0.0
  0
POINT
  5
9068A
330
90629
100
AcDbEntity
  8
DEFPOINTS
  6
Continuous
 62
     0
440
 16777216
100
AcDbPoint
 10
366.4938682607789
 20
-295.2172640456618
 30
0.0
  0
ENDBLK
  5
9062B
330
90629
100
AcDbEntity
  8
0
100
AcDbBlockEnd
  0
ENDSEC
  0
SECTION
  2
ENTITIES
  0
MTEXT
  5
38341
330
1E
100
AcDbEntity
  8
0
  6
Continuous
100
AcDbMText
 10
383.9605305094082
 20
4023.282340837186
 30
0.0
 40
64.0
 41
187.9848
 71
     1
 72
     5
  1

 73
     1
 44
1.0
  0
LINE
  5
6847B
330
1E
100
AcDbEntity
  8
NOTE
  6
Continuous
 62
     4
100
AcDbLine
 10
-4.668215305153353
 20
-253.2172640459124
 30
0.0
 11
283.6938935505477
 21
59.88702589083868
 31
0.0
  0
LINE
  5
6847E
330
1E
100
AcDbEntity
  8
NOTE
  6
Continuous
 62
     4
100
AcDbLine
 10
-4.668215305153353
 20
-254.2172640456632
 30
0.0
 11
258.5578786809437
 21
-462.3419041091604
 31
0.0
  0
LINE
  5
685A5
330
1E
100
AcDbEntity
  8
NOTE
  6
Continuous
 62
     4
100
AcDbLine
 10
12.95974469484463
 20
-217.311064045913
 30
0.0
 11
-4.668215305153353
 21
-253.2172640459124
 31
0.0
  0
LINE
  5
685A9
330
1E
100
AcDbEntity
  8
NOTE
  6
DASHDOT
 62
     4
100
AcDbLine
 10
-4.668215305153353
 20
-233.2172640459124
 30
0.0
 11
-4.668215305153353
 21
-273.2172640459124
 31
0.0
  0
LINE
  5
685AA
330
1E
100
AcDbEntity
  8
NOTE
  6
DASHDOT
 62
     4
100
AcDbLine
 10
-4.668215305153353
 20
-234.2172640456632
 30
0.0
 11
-4.668215305153353
 21
-274.2172640456632
 31
0.0
  0
LINE
  5
685AC
330
1E
100
AcDbEntity
  8
NOTE
  6
Continuous
 62
     4
100
AcDbLine
 10
-4.668215305153353
 20
-253.2172640459124
 30
0.0
 11
28.55114469484579
 21
-230.9355640459129
 31
0.0
  0
LINE
  5
685AF
330
1E
100
AcDbEntity
  8
NOTE
  6
Continuous
 62
     4
100
AcDbLine
 10
32.07759469484699
 20
-270.0206140456636
 30
0.0
 11
-4.668215305153353
 21
-254.2172640456632
 31
0.0
  0
LINE
  5
685B0
330
1E
100
AcDbEntity
  8
NOTE
  6
DASHDOT
 62
     4
100
AcDbLine
 10
15.33178469484665
 20
-253.2172640459124
 30
0.0
 11
-24.66821530515336
 21
-253.2172640459124
 31
0.0
  0
LINE
  5
685B1
330
1E
100
AcDbEntity
  8
NOTE
  6
DASHDOT
 62
     4
100
AcDbLine
 10
15.33178469484665
 20
-253.2172640459124
 30
0.0
 11
-24.66821530515336
 21
-253.2172640459124
 31
0.0
  0
LINE
  5
685B2
330
1E
100
AcDbEntity
  8
NOTE
  6
DASHDOT
 62
     4
100
AcDbLine
 10
15.33178469484665
 20
-254.2172640456632
 30
0.0
 11
-24.66821530515336
 21
-254.2172640456632
 31
0.0
  0
LINE
  5
685C5
330
1E
100
AcDbEntity
  8
NOTE
  6
Continuous
 62
     4
100
AcDbLine
 10
-4.668215305153353
 20
-254.2172640456632
 30
0.0
 11
19.25291469484546
 21
-286.2762640456625
 31
0.0
  0
LINE
  5
6866D
330
1E
100
AcDbEntity
  8
NOTE
  6
Continuous
 62
     4
100
AcDbLine
 10
258.5578786809437
 20
-462.3419041091604
 30
0.0
 11
777.1039946948461
 21
-462.3419041091604
 31
0.0
  0
TEXT
  5
6866E
330
1E
100
AcDbEntity
  8
NOTE
 62
     4
100
AcDbText
 10
291.1178518377037
 20
-441.146834109161
 30
0.0
 40
64.0
  1
D,RL,RG%%C65
 41
0.9
100
AcDbText
  0
LINE
  5
6867B
330
1E
100
AcDbEntity
  8
NOTE
  6
Continuous
 62
     4
100
AcDbLine
 10
283.6938935505477
 20
59.88702589083868
 30
0.0
 11
801.1471446948471
 21
59.88702589083868
 31
0.0
  0
TEXT
  5
6867C
330
1E
100
AcDbEntity
  8
NOTE
 62
     4
100
AcDbText
 10
315.161001837705
 20
81.0820858908387
 30
0.0
 40
64.0
  1
D,RL,RG%%C65
 41
0.9
100
AcDbText
  0
LINE
  5
8AEA3
330
1E
100
AcDbEntity
  8
BASIS
  6
DASHDOT
100
AcDbLine
 10
-279.8271853213857
 20
-135.5431092568331
 30
0.0
 11
31.25098317287734
 21
-135.5431092568331
 31
0.0
  0
TEXT
  5
8AEAD
330
1E
100
AcDbEntity
  8
ETC
100
AcDbText
 10
199.6679408668941
 20
314.2136307253536
 30
0.0
 40
64.0
  1
SMSZ7014
 41
0.9032258135080693
 72
     5
 11
626.3346108668963
 21
314.2136307253536
 31
0.0
100
AcDbText
  0
TEXT
  5
8AEAE
330
1E
100
AcDbEntity
  8
ETC
100
AcDbText
 10
288.4332274812022
 20
442.2926352367372
 30
0.0
 40
64.0
  1
室内機
 41
0.75
 72
     5
 11
448.4332274812021
 21
442.2926352367372
 31
0.0
100
AcDbText
  0
LINE
  5
90319
330
1E
100
AcDbEntity
  8
DETAIL
  6
Continuous
 62
     5
100
AcDbLine
 10
-4.459827756151753
 20
-174.7809708375487
 30
0.0
 11
-4.416321146063637
 21
-174.7524010086147
 31
0.0
  0
LINE
  5
9031A
330
1E
100
AcDbEntity
  8
DETAIL
  6
Continuous
 62
     5
100
AcDbLine
 10
-4.416321146063637
 20
-174.7524010086147
 30
0.0
 11
-4.370078704129809
 21
-174.7285117467304
 31
0.0
  0
LINE
  5
9031B
330
1E
100
AcDbEntity
  8
DETAIL
  6
Continuous
 62
     5
100
AcDbLine
 10
-4.370078704129809
 20
-174.7285117467304
 30
0.0
 11
-4.32160214763644
 21
-174.7095622478136
 31
0.0
  0
LINE
  5
9031C
330
1E
100
AcDbEntity
  8
DETAIL
  6
Continuous
 62
     5
100
AcDbLine
 10
-197.0768410340952
 20
-290.4610831153484
 30
0.0
 11
-197.9059347188167
 21
-276.5058488494406
 31
0.0
  0
LINE
  5
9031D
330
1E
100
AcDbEntity
  8
DETAIL
  6
Continuous
 62
     5
100
AcDbLine
 10
-27.71593506974841
 20
-0.399752557949796
 30
0.0
 11
-27.72989473682719
 21
0.0
 31
0.0
  0
LINE
  5
9031E
330
1E
100
AcDbEntity
  8
DETAIL
  6
Continuous
 62
     5
100
AcDbLine
 10
-256.7078423568182
 20
-231.4310424838422
 30
0.0
 11
-256.7078423568182
 21
-126.1752035284339
 31
0.0
  0
LINE
  5
9031F
330
1E
100
AcDbEntity
  8
DETAIL
  6
Continuous
 62
     5
100
AcDbLine
 10
-256.7078423568182
 20
-113.0506969619018
 30
0.0
 11
-256.7078423568182
 21
-7.794858005160676
 31
0.0
  0
LINE
  5
90320
330
1E
100
AcDbEntity
  8
DETAIL
  6
Continuous
 62
     5
100
AcDbLine
 10
-250.9114302665484
 20
-124.5251727926077
 30
0.0
 11
-250.9114302665484
 21
-114.7007492238658
 31
0.0
  0
LINE
  5
90321
330
1E
100
AcDbEntity
  8
DETAIL
  6
Continuous
 62
     5
100
AcDbLine
 10
-239.8182967834546
 20
-232.9859298061651
 30
0.0
 11
-239.8182967834546
 21
-124.6203162047768
 31
0.0
  0
LINE
  5
90322
330
1E
100
AcDbEntity
  8
DETAIL
  6
Continuous
 62
     5
100
AcDbLine
 10
-239.8182967834546
 20
-114.6055842842245
 30
0.0
 11
-239.8182967834546
 21
-6.239970682838247
 31
0.0
  0
LINE
  5
90323
330
1E
100
AcDbEntity
  8
DETAIL
  6
Continuous
 62
     5
100
AcDbLine
 10
-239.218667946524
 20
-6.219031105038084
 30
0.0
 11
-239.218667946524
 21
-6.468579525549102
 31
0.0
  0
LINE
  5
90324
330
1E
100
AcDbEntity
  8
DETAIL
  6
Continuous
 62
     5
100
AcDbLine
 10
-239.218667946524
 20
-232.7573209647846
 30
0.0
 11
-239.218667946524
 21
-233.0068478591524
 31
0.0
  0
LINE
  5
90325
330
1E
100
AcDbEntity
  8
DETAIL
  6
Continuous
 62
     5
100
AcDbLine
 10
-239.0100708632899
 20
-124.9449150143696
 30
0.0
 11
-239.0100708632899
 21
-114.2809854626578
 31
0.0
  0
LINE
  5
90326
330
1E
100
AcDbEntity
  8
DETAIL
  6
Continuous
 62
     5
100
AcDbLine
 10
-238.8189153885742
 20
-6.957291825947777
 30
0.0
 11
-238.8189153885742
 21
-113.8882631397844
 31
0.0
  0
LINE
  5
90327
330
1E
100
AcDbEntity
  8
DETAIL
  6
Continuous
 62
     5
100
AcDbLine
 10
-238.8189153885742
 20
-125.337637349219
 30
0.0
 11
-238.8189153885742
 21
-232.2686086630536
 31
0.0
  0
LINE
  5
90328
330
1E
100
AcDbEntity
  8
DETAIL
  6
Continuous
 62
     5
100
AcDbLine
 10
-238.5191009701129
 20
-231.659769755591
 30
0.0
 11
-238.5191009701129
 21
-7.566109205942211
 31
0.0
  0
LINE
  5
90329
330
1E
100
AcDbEntity
  8
DETAIL
  6
Continuous
 62
     5
100
AcDbLine
 10
-237.5197195752408
 20
-233.9366959841064
 30
0.0
 11
-237.5197195752408
 21
-15.95570403857436
 31
0.0
  0
LINE
  5
9032A
330
1E
100
AcDbEntity
  8
DETAIL
  6
Continuous
 62
     5
100
AcDbLine
 10
-237.5197195752408
 20
-10.49456161734861
 30
0.0
 11
-237.5197195752408
 21
-8.390632281645594
 31
0.0
  0
LINE
  5
9032B
330
1E
100
AcDbEntity
  8
DETAIL
  6
Continuous
 62
     5
100
AcDbLine
 10
-237.0374678316502
 20
-219.0657655637967
 30
0.0
 11
-237.0374678316502
 21
-233.0974960882991
 31
0.0
  0
LINE
  5
9032C
330
1E
100
AcDbEntity
  8
DETAIL
  6
Continuous
 62
     5
100
AcDbLine
 10
-237.0374678316502
 20
-196.4771002950404
 30
0.0
 11
-237.0374678316502
 21
-15.95570403857436
 31
0.0
  0
LINE
  5
9032D
330
1E
100
AcDbEntity
  8
DETAIL
  6
Continuous
 62
     5
100
AcDbLine
 10
-206.03920563672
 20
-290.1185099728243
 30
0.0
 11
-206.03920563672
 21
-287.5220273051354
 31
0.0
  0
LINE
  5
9032E
330
1E
100
AcDbEntity
  8
DETAIL
  6
Continuous
 62
     5
100
AcDbLine
 10
-107.8999526601337
 20
-293.5456077671044
 30
0.0
 11
-107.8999526601337
 21
-289.2432991281246
 31
0.0
  0
LINE
  5
9032F
330
1E
100
AcDbEntity
  8
DETAIL
  6
Continuous
 62
     5
100
AcDbLine
 10
-107.4177009165478
 20
-289.4523502736092
 30
0.0
 11
-107.4177009165478
 21
-289.2432991281246
 31
0.0
  0
LINE
  5
90330
330
1E
100
AcDbEntity
  8
DETAIL
  6
Continuous
 62
     5
100
AcDbLine
 10
-68.12457314416497
 20
-0.2442941712288302
 30
0.0
 11
-68.12457314416497
 21
-295.4171403246366
 31
0.0
  0
LINE
  5
90333
330
1E
100
AcDbEntity
  8
DETAIL
  6
Continuous
 62
     5
100
AcDbLine
 10
-66.625501051858
 20
-219.2642780352687
 30
0.0
 11
-66.625501051858
 21
-0.399752557949796
 31
0.0
  0
LINE
  5
90334
330
1E
100
AcDbEntity
  8
DETAIL
  6
Continuous
 62
     5
100
AcDbLine
 10
-66.62114031772671
 20
-219.4252664592295
 30
0.0
 11
-66.62114031772671
 21
-290.2203570712952
 31
0.0
  0
LINE
  5
90335
330
1E
100
AcDbEntity
  8
DETAIL
  6
Continuous
 62
     5
100
AcDbLine
 10
-58.11421414262714
 20
-5.396659532318153
 30
0.0
 11
-58.11421414262714
 21
-219.2642780352687
 31
0.0
  0
LINE
  5
90336
330
1E
100
AcDbEntity
  8
DETAIL
  6
Continuous
 62
     5
100
AcDbLine
 10
-58.11421414262714
 20
-219.4221119394824
 30
0.0
 11
-58.11421414262714
 21
-290.2203570712952
 31
0.0
  0
LINE
  5
90337
330
1E
100
AcDbEntity
  8
DETAIL
  6
Continuous
 62
     5
100
AcDbLine
 10
-50.3857018366225
 20
-290.2203570712952
 30
0.0
 11
-50.3857018366225
 21
-219.3748859483831
 31
0.0
  0
LINE
  5
90338
330
1E
100
AcDbEntity
  8
DETAIL
  6
Continuous
 62
     5
100
AcDbLine
 10
-50.38570183928368
 20
-219.2642780352687
 30
0.0
 11
-50.38570183928368
 21
-5.396659532318153
 31
0.0
  0
LINE
  5
90339
330
1E
100
AcDbEntity
  8
DETAIL
  6
Continuous
 62
     5
100
AcDbLine
 10
-48.09281535922218
 20
-295.2172640456618
 30
0.0
 11
-48.09281536055095
 21
-219.3685769088848
 31
0.0
  0
LINE
  5
9033A
330
1E
100
AcDbEntity
  8
DETAIL
  6
Continuous
 62
     5
100
AcDbLine
 10
-48.09281536321577
 20
-219.2642780352687
 30
0.0
 11
-48.09281536321577
 21
-0.399752557949796
 31
0.0
  0
LINE
  5
9033B
330
1E
100
AcDbEntity
  8
DETAIL
  6
Continuous
 62
     5
100
AcDbLine
 10
-45.66467944025681
 20
-253.2432454609705
 30
0.0
 11
-45.66467944025681
 21
-269.2333477789496
 31
0.0
  0
LINE
  5
9033C
330
1E
100
AcDbEntity
  8
DETAIL
  6
Continuous
 62
     5
100
AcDbLine
 10
-44.41304640624639
 20
-269.2333477789496
 30
0.0
 11
-44.41304640624639
 21
-253.2432454609705
 31
0.0
  0
LINE
  5
9033D
330
1E
100
AcDbEntity
  8
DETAIL
  6
Continuous
 62
     5
100
AcDbLine
 10
-9.02987958493486
 20
-270.2497168092439
 30
0.0
 11
-9.02987958493486
 21
-277.2114113025157
 31
0.0
  0
LINE
  5
9033E
330
1E
100
AcDbEntity
  8
DETAIL
  6
Continuous
 62
     5
100
AcDbLine
 10
-4.668215305153353
 20
-219.6683799115867
 30
0.0
 11
-4.668215305153353
 21
-233.2294298840848
 31
0.0
  0
LINE
  5
9033F
330
1E
100
AcDbEntity
  8
DETAIL
  6
Continuous
 62
     5
100
AcDbLine
 10
-4.668215305153353
 20
-234.4810629167609
 30
0.0
 11
-4.668215305153353
 21
-266.2526478548587
 31
0.0
  0
LINE
  5
90340
330
1E
100
AcDbEntity
  8
DETAIL
  6
Continuous
 62
     5
100
AcDbLine
 10
-4.668215305153353
 20
-281.2084802555703
 30
0.0
 11
-4.668215305153353
 21
-285.2240608394627
 31
0.0
  0
LINE
  5
90341
330
1E
100
AcDbEntity
  8
DETAIL
  6
Continuous
 62
     5
100
AcDbLine
 10
-4.663854569689647
 20
-9.676972113342344
 30
0.0
 11
-4.663854569689647
 21
-219.6640267941743
 31
0.0
  0
LINE
  5
90342
330
1E
100
AcDbEntity
  8
DETAIL
  6
Continuous
 62
     5
100
AcDbLine
 10
-4.663854569689647
 20
-266.2613699884494
 30
0.0
 11
-4.663854569689647
 21
-276.2288653085241
 31
0.0
  0
LINE
  5
90343
330
1E
100
AcDbEntity
  8
DETAIL
  6
Continuous
 62
     5
100
AcDbLine
 10
-4.663854569689647
 20
-233.9806898751244
 30
0.0
 11
-4.663854569689647
 21
-233.7298029257231
 31
0.0
  0
LINE
  5
90344
330
1E
100
AcDbEntity
  8
DETAIL
  6
Continuous
 62
     5
100
AcDbLine
 10
-2.665091779944305
 20
-292.2044447881001
 30
0.0
 11
-2.665091779944305
 21
-290.3133484788232
 31
0.0
  0
LINE
  5
90345
330
1E
100
AcDbEntity
  8
DETAIL
  6
Continuous
 62
     5
100
AcDbLine
 10
-2.665091779944305
 20
-174.1666190357778
 30
0.0
 11
-2.665091779944305
 21
-12.84660495174421
 31
0.0
  0
LINE
  5
90346
330
1E
100
AcDbEntity
  8
DETAIL
  6
Continuous
 62
     5
100
AcDbLine
 10
-4.667987081749743
 20
-234.4796923601336
 30
0.0
 11
-4.668215305153353
 21
-234.4810629167609
 31
0.0
  0
LINE
  5
90347
330
1E
100
AcDbEntity
  8
DETAIL
  6
Continuous
 62
     5
100
AcDbLine
 10
-4.65306531979877
 20
-175.0805291126307
 30
0.0
 11
-4.639670631081571
 21
-175.0302336231873
 31
0.0
  0
LINE
  5
90348
330
1E
100
AcDbEntity
  8
DETAIL
  6
Continuous
 62
     5
100
AcDbLine
 10
-237.2690071090747
 20
-14.39278465402231
 30
0.0
 11
-234.6323784415181
 21
-6.386004124833561
 31
0.0
  0
LINE
  5
90349
330
1E
100
AcDbEntity
  8
DETAIL
  6
Continuous
 62
     5
100
AcDbLine
 10
-236.8118266116999
 20
-14.54907659220953
 30
0.0
 11
-234.3427244719824
 21
-7.051032144112468
 31
0.0
  0
LINE
  5
9034A
330
1E
100
AcDbEntity
  8
DETAIL
  6
Continuous
 62
     5
100
AcDbLine
 10
-237.1385040824289
 20
-196.7599687211907
 30
0.0
 11
-237.0374678316502
 21
-196.4771630398086
 31
0.0
  0
LINE
  5
9034B
330
1E
100
AcDbEntity
  8
DETAIL
  6
Continuous
 62
     5
100
AcDbLine
 10
-4.639670631081571
 20
-175.0302336231873
 30
0.0
 11
-4.621116860796064
 21
-174.9816043118656
 31
0.0
  0
LINE
  5
9034C
330
1E
100
AcDbEntity
  8
DETAIL
  6
Continuous
 62
     5
100
AcDbLine
 10
-236.652893663394
 20
-6.393487031616587
 30
0.0
 11
-237.4173737202027
 21
-7.950075344879678
 31
0.0
  0
LINE
  5
9034D
330
1E
100
AcDbEntity
  8
DETAIL
  6
Continuous
 62
     5
100
AcDbLine
 10
-4.621116860796064
 20
-174.9816043118656
 30
0.0
 11
-4.597605291728541
 21
-174.9351687427759
 31
0.0
  0
LINE
  5
9034E
330
1E
100
AcDbEntity
  8
DETAIL
  6
Continuous
 62
     5
100
AcDbLine
 10
-4.597605291728541
 20
-174.9351687427759
 30
0.0
 11
-4.569391016045301
 21
-174.8914307489644
 31
0.0
  0
LINE
  5
9034F
330
1E
100
AcDbEntity
  8
DETAIL
  6
Continuous
 62
     5
100
AcDbLine
 10
-44.63911036463196
 20
-226.3324958747264
 30
0.0
 11
-45.70795067462404
 21
-227.8589580311812
 31
0.0
  0
LINE
  5
90350
330
1E
100
AcDbEntity
  8
DETAIL
  6
Continuous
 62
     5
100
AcDbLine
 10
-46.05783786674964
 20
-228.3586487286175
 30
0.0
 11
-46.26777018281882
 21
-228.6584631470805
 31
0.0
  0
LINE
  5
90351
330
1E
100
AcDbEntity
  8
DETAIL
  6
Continuous
 62
     5
100
AcDbLine
 10
-46.61765737626956
 20
-229.1581538445168
 30
0.0
 11
-46.82758969234328
 21
-229.4579682629783
 31
0.0
  0
LINE
  5
90352
330
1E
100
AcDbEntity
  8
DETAIL
  6
Continuous
 62
     5
100
AcDbLine
 10
-47.17747688579402
 20
-229.9576589604164
 30
0.0
 11
-47.38740920053806
 21
-230.2574733788779
 31
0.0
  0
LINE
  5
90354
330
1E
100
AcDbEntity
  8
DETAIL
  6
Continuous
 62
     5
100
AcDbLine
 10
-10.66014293893204
 20
-226.3324958747264
 30
0.0
 11
-11.72898324892412
 21
-227.8589580311812
 31
0.0
  0
LINE
  5
90355
330
1E
100
AcDbEntity
  8
DETAIL
  6
Continuous
 62
     5
100
AcDbLine
 10
-12.07887044104245
 20
-228.3586487286175
 30
0.0
 11
-12.2888027571189
 21
-228.6584631470805
 31
0.0
  0
LINE
  5
90356
330
1E
100
AcDbEntity
  8
DETAIL
  6
Continuous
 62
     5
100
AcDbLine
 10
-12.63868995056964
 20
-229.1581538445168
 30
0.0
 11
-12.84862226664336
 21
-229.4579682629783
 31
0.0
  0
LINE
  5
90357
330
1E
100
AcDbEntity
  8
DETAIL
  6
Continuous
 62
     5
100
AcDbLine
 10
-13.1985094600941
 20
-229.9576589604164
 30
0.0
 11
-13.40844177483814
 21
-230.2574733788779
 31
0.0
  0
LINE
  5
90358
330
1E
100
AcDbEntity
  8
DETAIL
  6
Continuous
 62
     5
100
AcDbLine
 10
-4.569391016045301
 20
-174.8914307489644
 30
0.0
 11
-4.536780146181627
 21
-174.8508648769143
 31
0.0
  0
LINE
  5
90359
330
1E
100
AcDbEntity
  8
DETAIL
  6
Continuous
 62
     5
100
AcDbLine
 10
-240.5283798698174
 20
-234.3335687084773
 30
0.0
 11
-240.3859098071889
 21
-234.1713984399016
 31
0.0
  0
LINE
  5
9035A
330
1E
100
AcDbEntity
  8
DETAIL
  6
Continuous
 62
     5
100
AcDbLine
 10
-200.9756612019528
 20
-273.3284408480045
 30
0.0
 11
-202.6050179763497
 21
-275.11908056208
 31
0.0
  0
LINE
  5
9035B
330
1E
100
AcDbEntity
  8
DETAIL
  6
Continuous
 62
     5
100
AcDbLine
 10
-4.536780146181627
 20
-174.8508648769143
 30
0.0
 11
-4.500126500200167
 21
-174.8139112594954
 31
0.0
  0
LINE
  5
9035C
330
1E
100
AcDbEntity
  8
DETAIL
  6
Continuous
 62
     5
100
AcDbLine
 10
-4.668215305153353
 20
-219.6683799115867
 30
0.0
 11
-4.663854569689647
 21
-219.6640267941743
 31
0.0
  0
LINE
  5
9035D
330
1E
100
AcDbEntity
  8
DETAIL
  6
Continuous
 62
     5
100
AcDbLine
 10
-200.6551389327297
 20
-277.0218879023551
 30
0.0
 11
-198.904842436129
 21
-275.3492682395065
 31
0.0
  0
LINE
  5
9035E
330
1E
100
AcDbEntity
  8
DETAIL
  6
Continuous
 62
     5
100
AcDbLine
 10
-174.0734003296611
 20
-291.7847824127916
 30
0.0
 11
-173.9980345134845
 21
-291.7199575846544
 31
0.0
  0
LINE
  5
9035F
330
1E
100
AcDbEntity
  8
DETAIL
  6
Continuous
 62
     5
100
AcDbLine
 10
-4.500126500200167
 20
-174.8139112594954
 30
0.0
 11
-4.459827756151753
 21
-174.7809708375487
 31
0.0
  0
LINE
  5
90360
330
1E
100
AcDbEntity
  8
DETAIL
  6
Continuous
 62
     5
100
AcDbLine
 10
-4.32160214763644
 20
-174.7095622478136
 30
0.0
 11
-4.2714174345856
 21
-174.6957581060048
 31
0.0
  0
LINE
  5
90361
330
1E
100
AcDbEntity
  8
DETAIL
  6
Continuous
 62
     5
100
AcDbLine
 10
-4.2714174345856
 20
-174.6957581060048
 30
0.0
 11
-4.220069053783845
 21
-174.6872490927833
 31
0.0
  0
LINE
  5
90362
330
1E
100
AcDbEntity
  8
DETAIL
  6
Continuous
 62
     5
100
AcDbLine
 10
-4.668215305153353
 20
-285.2240608394627
 30
0.0
 11
-4.663854569689647
 21
-285.2234500969252
 31
0.0
  0
LINE
  5
90363
330
1E
100
AcDbEntity
  8
DETAIL
  6
Continuous
 62
     5
100
AcDbLine
 10
-2.665811578326611
 20
-292.2192206720979
 30
0.0
 11
-2.661004604913614
 21
-292.21864168451
 31
0.0
  0
LINE
  5
90364
330
1E
100
AcDbEntity
  8
DETAIL
  6
Continuous
 62
     5
100
AcDbLine
 10
-4.220069053783845
 20
-174.6872490927833
 30
0.0
 11
-4.172981232110942
 21
-174.6841897141337
 31
0.0
  0
LINE
  5
90365
330
1E
100
AcDbEntity
  8
DETAIL
  6
Continuous
 62
     5
100
AcDbLine
 10
-67.17749533081041
 20
-293.7684958472673
 30
0.0
 11
-66.64326424843693
 21
-293.7404979826788
 31
0.0
  0
LINE
  5
90366
330
1E
100
AcDbEntity
  8
DETAIL
  6
Continuous
 62
     5
100
AcDbLine
 10
-240.0418631439716
 20
-234.0247711774159
 30
0.0
 11
-240.0204213272564
 21
-234.0240224131542
 31
0.0
  0
LINE
  5
90367
330
1E
100
AcDbEntity
  8
DETAIL
  6
Continuous
 62
     5
100
AcDbLine
 10
-239.9767951304502
 20
-234.0189366617797
 30
0.0
 11
-234.732945062623
 21
-233.8358173823353
 31
0.0
  0
LINE
  5
90368
330
1E
100
AcDbEntity
  8
DETAIL
  6
Continuous
 62
     5
100
AcDbLine
 10
-239.3011671321647
 20
-232.7679949619382
 30
0.0
 11
-239.8182967834546
 21
-232.7860535271902
 31
0.0
  0
LINE
  5
90369
330
1E
100
AcDbEntity
  8
DETAIL
  6
Continuous
 62
     5
100
AcDbLine
 10
-239.8182967834546
 20
-124.6203162047768
 30
0.0
 11
-255.7433388696336
 21
-125.176430929336
 31
0.0
  0
LINE
  5
9036A
330
1E
100
AcDbEntity
  8
DETAIL
  6
Continuous
 62
     5
100
AcDbLine
 10
-239.3011671321647
 20
-114.3876494399978
 30
0.0
 11
-239.8182967834546
 21
-114.4057080052498
 31
0.0
  0
LINE
  5
9036B
330
1E
100
AcDbEntity
  8
DETAIL
  6
Continuous
 62
     5
100
AcDbLine
 10
-3.14732680508132
 20
-15.10749908087473
 30
0.0
 11
-4.181602826099151
 21
-15.14361679554395
 31
0.0
  0
LINE
  5
9036C
330
1E
100
AcDbEntity
  8
DETAIL
  6
Continuous
 62
     5
100
AcDbLine
 10
-238.5191009701129
 20
-12.49332477834923
 30
0.0
 11
-238.4842230624244
 21
-12.49210681421027
 31
0.0
  0
LINE
  5
9036D
330
1E
100
AcDbEntity
  8
DETAIL
  6
Continuous
 62
     5
100
AcDbLine
 10
-238.5191009701129
 20
-11.49455217925288
 30
0.0
 11
-238.4842230624244
 21
-11.4933342151121
 31
0.0
  0
LINE
  5
9036E
330
1E
100
AcDbEntity
  8
DETAIL
  6
Continuous
 62
     5
100
AcDbLine
 10
-239.2186679412052
 20
-6.219031182217804
 30
0.0
 11
-255.7433388696336
 21
-6.796085406064776
 31
0.0
  0
LINE
  5
9036F
330
1E
100
AcDbEntity
  8
DETAIL
  6
Continuous
 62
     5
100
AcDbLine
 10
-236.221814847323
 20
-6.114379201116207
 30
0.0
 11
-61.12890338005309
 21
0.0
 31
0.0
  0
LINE
  5
90370
330
1E
100
AcDbEntity
  8
DETAIL
  6
Continuous
 62
     5
100
AcDbLine
 10
-3.155965185392233
 20
-174.6662440530026
 30
0.0
 11
-4.172981040493141
 21
-174.6841926123186
 31
0.0
  0
LINE
  5
90371
330
1E
100
AcDbEntity
  8
DETAIL
  6
Continuous
 62
     5
100
AcDbLine
 10
-237.5197195752408
 20
-232.1333701688561
 30
0.0
 11
-238.8189153885742
 21
-232.1560477167275
 31
0.0
  0
LINE
  5
90372
330
1E
100
AcDbEntity
  8
DETAIL
  6
Continuous
 62
     5
100
AcDbLine
 10
-3.156061673121257
 20
-21.88491515652868
 30
0.0
 11
-4.172884677846013
 21
-21.90266386883877
 31
0.0
  0
LINE
  5
90373
330
1E
100
AcDbEntity
  8
DETAIL
  6
Continuous
 62
     5
100
AcDbLine
 10
-58.11421414262714
 20
-219.4221119394824
 30
0.0
 11
-50.3857018366225
 21
-219.3748859483831
 31
0.0
  0
LINE
  5
90374
330
1E
100
AcDbEntity
  8
DETAIL
  6
Continuous
 62
     5
100
AcDbLine
 10
-66.66474766435204
 20
-295.2172640456618
 30
0.0
 11
-2.625845168779051
 21
-295.2172640456618
 31
0.0
  0
LINE
  5
90376
330
1E
100
AcDbEntity
  8
DETAIL
  6
Continuous
 62
     5
100
AcDbLine
 10
-66.62114031772671
 20
-290.2203570712952
 30
0.0
 11
-3.240702095680717
 21
-290.2203570712952
 31
0.0
  0
LINE
  5
90377
330
1E
100
AcDbEntity
  8
DETAIL
  6
Continuous
 62
     5
100
AcDbLine
 10
-25.65086386203893
 20
-289.2471633558352
 30
0.0
 11
-3.518757443333015
 21
-289.2471633558352
 31
0.0
  0
LINE
  5
90378
330
1E
100
AcDbEntity
  8
DETAIL
  6
Continuous
 62
     5
100
AcDbLine
 10
-25.62604674058457
 20
-289.2457927992079
 30
0.0
 11
-17.86279136699704
 21
-289.2457927992079
 31
0.0
  0
LINE
  5
90379
330
1E
100
AcDbEntity
  8
DETAIL
  6
Continuous
 62
     5
100
AcDbLine
 10
-12.45192706473426
 20
-289.2457927992079
 30
0.0
 11
-3.518911675198069
 21
-289.2457927992079
 31
0.0
  0
LINE
  5
9037A
330
1E
100
AcDbEntity
  8
DETAIL
  6
Continuous
 62
     5
100
AcDbLine
 10
-3.875737937316444
 20
-287.9969008797846
 30
0.0
 11
-12.45192706473426
 21
-287.9969008797846
 31
0.0
  0
LINE
  5
9037B
330
1E
100
AcDbEntity
  8
DETAIL
  6
Continuous
 62
     5
100
AcDbLine
 10
-17.86279136699704
 20
-287.9969008797846
 30
0.0
 11
-25.62604674058457
 21
-287.9969008797846
 31
0.0
  0
LINE
  5
9037C
330
1E
100
AcDbEntity
  8
DETAIL
  6
Continuous
 62
     5
100
AcDbLine
 10
-3.876366880667774
 20
-287.9955303231591
 30
0.0
 11
-25.65086386203893
 21
-287.9955303231591
 31
0.0
  0
LINE
  5
9037D
330
1E
100
AcDbEntity
  8
DETAIL
  6
Continuous
 62
     5
100
AcDbLine
 10
-206.03920563672
 20
-287.5220273051354
 30
0.0
 11
-197.2783951837364
 21
-287.5220273051354
 31
0.0
  0
LINE
  5
9037E
330
1E
100
AcDbEntity
  8
DETAIL
  6
Continuous
 62
     5
100
AcDbLine
 10
-6.032192032075727
 20
-280.2090988553753
 30
0.0
 11
-5.6674825437467
 21
-280.2090988553753
 31
0.0
  0
LINE
  5
9037F
330
1E
100
AcDbEntity
  8
DETAIL
  6
Continuous
 62
     5
100
AcDbLine
 10
-124.6895390136405
 20
-280.0098620838856
 30
0.0
 11
-114.6957251380918
 21
-280.0098620838856
 31
0.0
  0
LINE
  5
90380
330
1E
100
AcDbEntity
  8
DETAIL
  6
Continuous
 62
     5
100
AcDbLine
 10
-114.6957251380918
 20
-277.4450799766089
 30
0.0
 11
-124.6895390136405
 21
-277.4450799766089
 31
0.0
  0
LINE
  5
90381
330
1E
100
AcDbEntity
  8
DETAIL
  6
Continuous
 62
     5
100
AcDbLine
 10
-8.019072892403528
 20
-277.2283989379373
 30
0.0
 11
-5.663235964565501
 21
-277.2283989379373
 31
0.0
  0
LINE
  5
90382
330
1E
100
AcDbEntity
  8
DETAIL
  6
Continuous
 62
     5
100
AcDbLine
 10
-124.6895390136405
 20
-274.0135737146445
 30
0.0
 11
-114.6957251380918
 21
-274.0135737146445
 31
0.0
  0
LINE
  5
90383
330
1E
100
AcDbEntity
  8
DETAIL
  6
Continuous
 62
     5
100
AcDbLine
 10
-114.6957251380918
 20
-271.4487916073681
 30
0.0
 11
-124.6895390136405
 21
-271.4487916073681
 31
0.0
  0
LINE
  5
90384
330
1E
100
AcDbEntity
  8
DETAIL
  6
Continuous
 62
     5
100
AcDbLine
 10
-5.6674825437467
 20
-267.2520292563845
 30
0.0
 11
-6.032192032075727
 21
-267.2520292563845
 31
0.0
  0
LINE
  5
90385
330
1E
100
AcDbEntity
  8
DETAIL
  6
Continuous
 62
     5
100
AcDbLine
 10
-25.65086386203893
 20
-234.4810629167609
 30
0.0
 11
-4.668215305153353
 21
-234.4810629167609
 31
0.0
  0
LINE
  5
90386
330
1E
100
AcDbEntity
  8
DETAIL
  6
Continuous
 62
     5
100
AcDbLine
 10
-4.667987081749743
 20
-234.4796923601336
 30
0.0
 11
-12.45192706473426
 21
-234.4796923601336
 31
0.0
  0
LINE
  5
90387
330
1E
100
AcDbEntity
  8
DETAIL
  6
Continuous
 62
     5
100
AcDbLine
 10
-17.86279136699704
 20
-234.4796923601336
 30
0.0
 11
-25.62604674058457
 21
-234.4796923601336
 31
0.0
  0
LINE
  5
90388
330
1E
100
AcDbEntity
  8
DETAIL
  6
Continuous
 62
     5
100
AcDbLine
 10
-4.667987081749743
 20
-233.2308004407139
 30
0.0
 11
-12.45192706473426
 21
-233.2308004407139
 31
0.0
  0
LINE
  5
90389
330
1E
100
AcDbEntity
  8
DETAIL
  6
Continuous
 62
     5
100
AcDbLine
 10
-17.86279136699704
 20
-233.2308004407139
 30
0.0
 11
-25.62604674058457
 21
-233.2308004407139
 31
0.0
  0
LINE
  5
9038A
330
1E
100
AcDbEntity
  8
DETAIL
  6
Continuous
 62
     5
100
AcDbLine
 10
-4.668215305153353
 20
-233.2294298840848
 30
0.0
 11
-25.65086386203893
 21
-233.2294298840848
 31
0.0
  0
LINE
  5
9038B
330
1E
100
AcDbEntity
  8
DETAIL
  6
Continuous
 62
     5
100
AcDbLine
 10
-237.0374678316502
 20
-233.0974960882991
 30
0.0
 11
-237.5197195752408
 21
-233.0974960882991
 31
0.0
  0
LINE
  5
9038C
330
1E
100
AcDbEntity
  8
DETAIL
  6
Continuous
 62
     5
100
AcDbLine
 10
-47.38740920053806
 20
-230.2574733788779
 30
0.0
 11
-41.89081152873677
 21
-230.2574733788779
 31
0.0
  0
LINE
  5
9038D
330
1E
100
AcDbEntity
  8
DETAIL
  6
Continuous
 62
     5
100
AcDbLine
 10
-13.40844177483814
 20
-230.2574733788779
 30
0.0
 11
-7.911844103033217
 21
-230.2574733788779
 31
0.0
  0
LINE
  5
9038E
330
1E
100
AcDbEntity
  8
DETAIL
  6
Continuous
 62
     5
100
AcDbLine
 10
-8.121776419103298
 20
-229.9576589604164
 30
0.0
 11
-13.1985094600941
 21
-229.9576589604164
 31
0.0
  0
LINE
  5
9038F
330
1E
100
AcDbEntity
  8
DETAIL
  6
Continuous
 62
     5
100
AcDbLine
 10
-42.10074384480321
 20
-229.9576589604164
 30
0.0
 11
-47.17747688579402
 21
-229.9576589604164
 31
0.0
  0
LINE
  5
90390
330
1E
100
AcDbEntity
  8
DETAIL
  6
Continuous
 62
     5
100
AcDbLine
 10
-46.82758969234328
 20
-229.4579682629783
 30
0.0
 11
-42.45063103826123
 21
-229.4579682629783
 31
0.0
  0
LINE
  5
90391
330
1E
100
AcDbEntity
  8
DETAIL
  6
Continuous
 62
     5
100
AcDbLine
 10
-12.84862226664336
 20
-229.4579682629783
 30
0.0
 11
-8.471663612554038
 21
-229.4579682629783
 31
0.0
  0
LINE
  5
90392
330
1E
100
AcDbEntity
  8
DETAIL
  6
Continuous
 62
     5
100
AcDbLine
 10
-8.681595928626848
 20
-229.1581538445168
 30
0.0
 11
-12.63868995056964
 21
-229.1581538445168
 31
0.0
  0
LINE
  5
90393
330
1E
100
AcDbEntity
  8
DETAIL
  6
Continuous
 62
     5
100
AcDbLine
 10
-42.66056335433041
 20
-229.1581538445168
 30
0.0
 11
-46.61765737626956
 21
-229.1581538445168
 31
0.0
  0
LINE
  5
90394
330
1E
100
AcDbEntity
  8
DETAIL
  6
Continuous
 62
     5
100
AcDbLine
 10
-46.26777018281882
 20
-228.6584631470805
 30
0.0
 11
-43.01045054778478
 21
-228.6584631470805
 31
0.0
  0
LINE
  5
90395
330
1E
100
AcDbEntity
  8
DETAIL
  6
Continuous
 62
     5
100
AcDbLine
 10
-12.2888027571189
 20
-228.6584631470805
 30
0.0
 11
-9.031483122077588
 21
-228.6584631470805
 31
0.0
  0
LINE
  5
90396
330
1E
100
AcDbEntity
  8
DETAIL
  6
Continuous
 62
     5
100
AcDbLine
 10
-9.241415436821625
 20
-228.3586487286175
 30
0.0
 11
-12.07887044104245
 21
-228.3586487286175
 31
0.0
  0
LINE
  5
90397
330
1E
100
AcDbEntity
  8
DETAIL
  6
Continuous
 62
     5
100
AcDbLine
 10
-43.22038286252154
 20
-228.3586487286175
 30
0.0
 11
-46.05783786674964
 21
-228.3586487286175
 31
0.0
  0
LINE
  5
90398
330
1E
100
AcDbEntity
  8
DETAIL
  6
Continuous
 62
     5
100
AcDbLine
 10
-45.70795067462404
 20
-227.8589580311812
 30
0.0
 11
-43.57027005597956
 21
-227.8589580311812
 31
0.0
  0
LINE
  5
90399
330
1E
100
AcDbEntity
  8
DETAIL
  6
Continuous
 62
     5
100
AcDbLine
 10
-11.72898324892412
 20
-227.8589580311812
 30
0.0
 11
-9.591302630279642
 21
-227.8589580311812
 31
0.0
  0
LINE
  5
9039A
330
1E
100
AcDbEntity
  8
DETAIL
  6
Continuous
 62
     5
100
AcDbLine
 10
-66.62114031772671
 20
-219.4252664592295
 30
0.0
 11
-59.2606573799967
 21
-219.4252664592295
 31
0.0
  0
LINE
  5
9039B
330
1E
100
AcDbEntity
  8
DETAIL
  6
Continuous
 62
     5
100
AcDbLine
 10
-48.09281536055095
 20
-219.3685769088848
 30
0.0
 11
-4.968018307849888
 21
-219.3685769088848
 31
0.0
  0
LINE
  5
9039C
330
1E
100
AcDbEntity
  8
DETAIL
  6
Continuous
 62
     5
100
AcDbLine
 10
-66.625501051858
 20
-219.2642780352687
 30
0.0
 11
-4.663854569689647
 21
-219.2642780352687
 31
0.0
  0
LINE
  5
9039D
330
1E
100
AcDbEntity
  8
DETAIL
  6
Continuous
 62
     5
100
AcDbLine
 10
-237.5197195752408
 20
-219.0656213052528
 30
0.0
 11
-237.0374678316502
 21
-219.0656213052528
 31
0.0
  0
LINE
  5
9039E
330
1E
100
AcDbEntity
  8
DETAIL
  6
Continuous
 62
     5
100
AcDbLine
 10
-237.0374678316502
 20
-196.4771630398086
 30
0.0
 11
-237.5197195752408
 21
-196.4771630398086
 31
0.0
  0
LINE
  5
9039F
330
1E
100
AcDbEntity
  8
DETAIL
  6
Continuous
 62
     5
100
AcDbLine
 10
-66.625501051858
 20
-5.396659532318153
 30
0.0
 11
-7.66096170583296
 21
-5.396659532318153
 31
0.0
  0
LINE
  5
903A0
330
1E
100
AcDbEntity
  8
DETAIL
  6
Continuous
 62
     5
100
AcDbLine
 10
-66.625501051858
 20
-0.399752557949796
 30
0.0
 11
-11.15983363637406
 21
-0.399752557949796
 31
0.0
  0
LINE
  5
903A1
330
1E
100
AcDbEntity
  8
DETAIL
  6
Continuous
 62
     5
100
AcDbLine
 10
-61.12890338005309
 20
0.0
 30
0.0
 11
-27.72989473682719
 21
0.0
 31
0.0
  0
LINE
  5
903A2
330
1E
100
AcDbEntity
  8
DETAIL
  6
Continuous
 62
     5
100
AcDbLine
 10
-237.0374678316502
 20
-233.0974960882991
 30
0.0
 11
-234.4371443106829
 21
-233.1201887219024
 31
0.0
  0
LINE
  5
903A3
330
1E
100
AcDbEntity
  8
DETAIL
  6
Continuous
 62
     5
100
AcDbLine
 10
-4.172884677846013
 20
-12.56588695206847
 30
0.0
 11
-3.156061673121257
 21
-12.58363566437856
 31
0.0
  0
LINE
  5
903A4
330
1E
100
AcDbEntity
  8
DETAIL
  6
Continuous
 62
     5
100
AcDbLine
 10
-68.12457314416497
 20
-290.4232773304827
 30
0.0
 11
-107.4177009165478
 21
-289.4523502736092
 31
0.0
  0
LINE
  5
903A5
330
1E
100
AcDbEntity
  8
DETAIL
  6
Continuous
 62
     5
100
AcDbLine
 10
-181.3079529122824
 20
-291.6646877216876
 30
0.0
 11
-174.4166867902349
 21
-291.9053360377063
 31
0.0
  0
LINE
  5
903A6
330
1E
100
AcDbEntity
  8
DETAIL
  6
Continuous
 62
     5
100
AcDbLine
 10
-68.12457314416497
 20
-295.4171403246366
 30
0.0
 11
-205.5568616475539
 21
-290.6178990567866
 31
0.0
  0
LINE
  5
903A7
330
1E
100
AcDbEntity
  8
DETAIL
  6
Continuous
 62
     5
100
AcDbLine
 10
-180.02154957335
 20
-285.9222057985048
 30
0.0
 11
-108.8644561473147
 21
-288.407066256281
 31
0.0
  0
LINE
  5
903A8
330
1E
100
AcDbEntity
  8
DETAIL
  6
Continuous
 62
     5
100
AcDbLine
 10
-108.8644561473147
 20
-287.7451402288132
 30
0.0
 11
-179.9747643857736
 21
-285.261913547512
 31
0.0
  0
LINE
  5
903A9
330
1E
100
AcDbEntity
  8
DETAIL
  6
Continuous
 62
     5
100
AcDbLine
 10
-255.7433388696336
 20
-232.4298150829386
 30
0.0
 11
-239.2186679412052
 21
-233.0068477793134
 31
0.0
  0
LINE
  5
903AA
330
1E
100
AcDbEntity
  8
DETAIL
  6
Continuous
 62
     5
100
AcDbLine
 10
-239.3011671321647
 20
-124.8382510490073
 30
0.0
 11
-239.8182967834546
 21
-124.8201924837517
 31
0.0
  0
LINE
  5
903AB
330
1E
100
AcDbEntity
  8
DETAIL
  6
Continuous
 62
     5
100
AcDbLine
 10
-255.7433388696336
 20
-114.0494695596674
 30
0.0
 11
-239.8182967834546
 21
-114.6055842842245
 31
0.0
  0
LINE
  5
903AC
330
1E
100
AcDbEntity
  8
DETAIL
  6
Continuous
 62
     5
100
AcDbLine
 10
-4.181602826099151
 20
-19.33504132759754
 30
0.0
 11
-3.1473435235348
 21
-19.37115845810285
 31
0.0
  0
LINE
  5
903AD
330
1E
100
AcDbEntity
  8
DETAIL
  6
Continuous
 62
     5
100
AcDbLine
 10
-239.3011671321647
 20
-6.457905527066486
 30
0.0
 11
-239.8182967834546
 21
-6.439846961810872
 31
0.0
  0
LINE
  5
903AE
330
1E
100
AcDbEntity
  8
DETAIL
  6
Continuous
 62
     5
100
AcDbLine
 10
-181.9411196123865
 20
-291.4425789405186
 30
0.0
 11
-181.7422561505118
 21
-291.5483165193559
 31
0.0
  0
LINE
  5
903AF
330
1E
100
AcDbEntity
  8
DETAIL
  6
Continuous
 62
     5
100
AcDbLine
 10
-181.6891636040672
 20
-291.3501724393686
 30
0.0
 11
-183.3693788609252
 21
-290.4567861412841
 31
0.0
  0
LINE
  5
903B1
330
1E
100
AcDbEntity
  8
DETAIL
  6
Continuous
 62
     5
100
AcDbLine
 10
-202.5802543568779
 20
-275.951733932244
 30
0.0
 11
-201.4881487343755
 21
-277.0174751698946
 31
0.0
  0
LINE
  5
903B2
330
1E
100
AcDbEntity
  8
DETAIL
  6
Continuous
 62
     5
100
AcDbLine
 10
-200.5454007930703
 20
-276.1151880461004
 30
0.0
 11
-201.7012699598554
 21
-274.9872225715249
 31
0.0
  0
LINE
  5
903B4
330
1E
100
AcDbEntity
  8
DETAIL
  6
Continuous
 62
     5
100
AcDbLine
 10
-183.590928406873
 20
-290.293490996454
 30
0.0
 11
-240.5125350227063
 21
-234.7460217254575
 31
0.0
  0
LINE
  5
903B5
330
1E
100
AcDbEntity
  8
DETAIL
  6
Continuous
 62
     5
100
AcDbLine
 10
-234.0000839127306
 20
-234.1193399785498
 30
0.0
 11
-181.613002375896
 21
-285.2417515681193
 31
0.0
  0
LINE
  5
903B6
330
1E
100
AcDbEntity
  8
DETAIL
  6
Continuous
 62
     5
100
AcDbLine
 10
-181.1020434549664
 20
-284.7799251328795
 30
0.0
 11
-233.7489333429585
 21
-233.4039794454495
 31
0.0
  0
LINE
  5
903B7
330
1E
100
AcDbEntity
  8
DETAIL
  6
Continuous
 62
     5
100
AcDbLine
 10
-183.367891666333
 20
-290.4584311405704
 30
0.0
 11
-183.3693788609252
 21
-290.4567861412841
 31
0.0
  0
LINE
  5
903B8
330
1E
100
AcDbEntity
  8
DETAIL
  6
Continuous
 62
     5
100
AcDbLine
 10
-41.89081152873677
 20
-230.2574733788779
 30
0.0
 11
-42.10074384480321
 21
-229.9576589604164
 31
0.0
  0
LINE
  5
903B9
330
1E
100
AcDbEntity
  8
DETAIL
  6
Continuous
 62
     5
100
AcDbLine
 10
-42.45063103826123
 20
-229.4579682629783
 30
0.0
 11
-42.66056335433041
 21
-229.1581538445168
 31
0.0
  0
LINE
  5
903BA
330
1E
100
AcDbEntity
  8
DETAIL
  6
Continuous
 62
     5
100
AcDbLine
 10
-43.01045054778478
 20
-228.6584631470805
 30
0.0
 11
-43.22038286252154
 21
-228.3586487286175
 31
0.0
  0
LINE
  5
903BB
330
1E
100
AcDbEntity
  8
DETAIL
  6
Continuous
 62
     5
100
AcDbLine
 10
-43.57027005597956
 20
-227.8589580311812
 30
0.0
 11
-44.63911036463196
 21
-226.3324958747264
 31
0.0
  0
LINE
  5
903BC
330
1E
100
AcDbEntity
  8
DETAIL
  6
Continuous
 62
     5
100
AcDbLine
 10
-7.911844103033217
 20
-230.2574733788779
 30
0.0
 11
-8.121776419103298
 21
-229.9576589604164
 31
0.0
  0
LINE
  5
903BD
330
1E
100
AcDbEntity
  8
DETAIL
  6
Continuous
 62
     5
100
AcDbLine
 10
-8.471663612554038
 20
-229.4579682629783
 30
0.0
 11
-8.681595928626848
 21
-229.1581538445168
 31
0.0
  0
LINE
  5
903BE
330
1E
100
AcDbEntity
  8
DETAIL
  6
Continuous
 62
     5
100
AcDbLine
 10
-9.031483122077588
 20
-228.6584631470805
 30
0.0
 11
-9.241415436821625
 21
-228.3586487286175
 31
0.0
  0
LINE
  5
903BF
330
1E
100
AcDbEntity
  8
DETAIL
  6
Continuous
 62
     5
100
AcDbLine
 10
-9.591302630279642
 20
-227.8589580311812
 30
0.0
 11
-10.66014293893204
 21
-226.3324958747264
 31
0.0
  0
LINE
  5
903C0
330
1E
100
AcDbEntity
  8
DETAIL
  6
Continuous
 62
     5
100
AcDbLine
 10
-11.15983363637406
 20
-0.399752557949796
 30
0.0
 11
-2.845799290636932
 21
-12.27342413851647
 31
0.0
  0
LINE
  5
903C1
330
1E
100
AcDbEntity
  8
DETAIL
  6
Continuous
 62
     5
100
AcDbLine
 10
-3.876366880667774
 20
-287.9955303231591
 30
0.0
 11
-3.875737937316444
 21
-287.9969008797846
 31
0.0
  0
LINE
  5
903C2
330
1E
100
AcDbEntity
  8
DETAIL
  6
Continuous
 62
     5
100
AcDbLine
 10
-237.0374678316502
 20
-219.0656213052528
 30
0.0
 11
-237.1385039919451
 21
-218.782815206044
 31
0.0
  0
LINE
  5
903C3
330
1E
100
AcDbEntity
  8
DETAIL
  6
Continuous
 62
     5
100
AcDbLine
 10
-4.668215305153353
 20
-285.2240608394627
 30
0.0
 11
-3.876366880667774
 21
-287.9955303231591
 31
0.0
  0
LINE
  5
903C4
330
1E
100
AcDbEntity
  8
DETAIL
  6
Continuous
 62
     5
100
AcDbLine
 10
-3.518757443333015
 20
-289.2471633558352
 30
0.0
 11
-3.240702095680717
 21
-290.2203570712952
 31
0.0
  0
LINE
  5
903C5
330
1E
100
AcDbEntity
  8
DETAIL
  6
Continuous
 62
     5
100
AcDbLine
 10
-3.728866949199982
 20
-288.4959067686341
 30
0.0
 11
-3.657186909474148
 21
-288.7467869103586
 31
0.0
  0
LINE
  5
903C6
330
1E
100
AcDbEntity
  8
DETAIL
  6
Continuous
 62
     5
100
AcDbLine
 10
-4.667987081749743
 20
-233.2308004407139
 30
0.0
 11
-4.668215305153353
 21
-233.2294298840848
 31
0.0
  0
LINE
  5
903C7
330
1E
100
AcDbEntity
  8
DETAIL
  6
Continuous
 62
     5
100
AcDbLine
 10
-3.518757443333015
 20
-289.2471633558352
 30
0.0
 11
-3.518911675198069
 21
-289.2457927992079
 31
0.0
  0
ARC
  5
903C8
330
1E
100
AcDbEntity
  8
DETAIL
  6
Continuous
 62
     5
100
AcDbCircle
 10
-25.65086386203893
 20
-269.2333477789496
 30
0.0
 40
20.0138155768853
100
AcDbArc
 50
180.0
 51
270.0
  0
ARC
  5
903C9
330
1E
100
AcDbEntity
  8
DETAIL
  6
Continuous
 62
     5
100
AcDbCircle
 10
-25.65086386203893
 20
-253.2432454609705
 30
0.0
 40
20.0138155768853
100
AcDbArc
 50
90.0
 51
180.0
  0
ARC
  5
903CA
330
1E
100
AcDbEntity
  8
DETAIL
  6
Continuous
 62
     5
100
AcDbCircle
 10
-25.65086386203893
 20
-269.2333477789496
 30
0.0
 40
18.76218254421037
100
AcDbArc
 50
180.0
 51
270.0
  0
ARC
  5
903CB
330
1E
100
AcDbEntity
  8
DETAIL
  6
Continuous
 62
     5
100
AcDbCircle
 10
-25.65086386203893
 20
-253.2432454609705
 30
0.0
 40
18.76218254421037
100
AcDbArc
 50
90.0
 51
180.0
  0
ARC
  5
903CC
330
1E
100
AcDbEntity
  8
DETAIL
  6
Continuous
 62
     5
100
AcDbCircle
 10
-179.9378425951627
 20
-283.5251515617356
 30
0.0
 40
2.39851534769664
100
AcDbArc
 50
225.699999999995
 51
267.9999999999965
  0
ARC
  5
903CD
330
1E
100
AcDbEntity
  8
DETAIL
  6
Continuous
 62
     5
100
AcDbCircle
 10
-108.916773111313
 20
-289.2432992265928
 30
0.0
 40
1.499072194771476
100
AcDbArc
 50
0.0000037801005362
 51
87.9999962199118
  0
ARC
  5
903CE
330
1E
100
AcDbEntity
  8
DETAIL
  6
Continuous
 62
     5
100
AcDbCircle
 10
-124.6895629655828
 20
-272.7311826610055
 30
0.0
 40
1.282396610488458
100
AcDbArc
 50
89.99892984507281
 51
270.001070154875
  0
ARC
  5
903CF
330
1E
100
AcDbEntity
  8
DETAIL
  6
Continuous
 62
     5
100
AcDbCircle
 10
-124.6895629655828
 20
-278.7274710302481
 30
0.0
 40
1.282396610488458
100
AcDbArc
 50
89.99892984507281
 51
270.001070154875
  0
ARC
  5
903D0
330
1E
100
AcDbEntity
  8
DETAIL
  6
Continuous
 62
     5
100
AcDbCircle
 10
-114.6957038727596
 20
-272.7311826610055
 30
0.0
 40
1.282395329059662
100
AcDbArc
 50
269.9990498386754
 51
90.00095016127252
  0
ARC
  5
903D1
330
1E
100
AcDbEntity
  8
DETAIL
  6
Continuous
 62
     5
100
AcDbCircle
 10
-114.6957038727596
 20
-278.7274710302481
 30
0.0
 40
1.282395329059662
100
AcDbArc
 50
269.9990498386754
 51
90.00095016127252
  0
ARC
  5
903D2
330
1E
100
AcDbEntity
  8
DETAIL
  6
Continuous
 62
     5
100
AcDbCircle
 10
-5.663484705462906
 20
-276.2278476997021
 30
0.0
 40
1.000551268839574
100
AcDbArc
 50
270.0142439205801
 51
277.5153742611952
  0
ARC
  5
903D3
330
1E
100
AcDbEntity
  8
DETAIL
  6
Continuous
 62
     5
100
AcDbCircle
 10
-181.2730750045948
 20
-290.6659151225915
 30
0.0
 40
0.9993813948735997
100
AcDbArc
 50
242.0000000000058
 51
267.9999999999965
  0
ARC
  5
903D4
330
1E
100
AcDbEntity
  8
DETAIL
  6
Continuous
 62
     5
100
AcDbCircle
 10
-181.2199824594818
 20
-290.4677710426044
 30
0.0
 40
0.9993813948735997
100
AcDbArc
 50
242.0000000001289
 51
267.9999999996837
  0
ARC
  5
903D5
330
1E
100
AcDbEntity
  8
DETAIL
  6
Continuous
 62
     5
100
AcDbCircle
 10
-182.89294516468
 20
-289.5782409935721
 30
0.0
 40
0.9993813948735997
100
AcDbArc
 50
225.699999999995
 51
242.0000000000058
  0
ARC
  5
903D6
330
1E
100
AcDbEntity
  8
DETAIL
  6
Continuous
 62
     5
100
AcDbCircle
 10
-108.8993340550068
 20
-289.4058388553755
 30
0.0
 40
0.9993813948735997
100
AcDbArc
 50
5.092056019899207
 51
88.00000000010074
  0
ARC
  5
903D7
330
1E
100
AcDbEntity
  8
DETAIL
  6
Continuous
 62
     5
100
AcDbCircle
 10
-67.12519174928821
 20
-294.7665076249604
 30
0.0
 40
0.9993813948735997
100
AcDbArc
 50
93.0000000000056
 51
180.0
  0
ARC
  5
903D8
330
1E
100
AcDbEntity
  8
DETAIL
  6
Continuous
 62
     5
100
AcDbCircle
 10
-255.7084609619415
 20
-231.4310424838422
 30
0.0
 40
0.9993813948735997
100
AcDbArc
 50
180.0
 51
267.9999999999965
  0
ARC
  5
903D9
330
1E
100
AcDbEntity
  8
DETAIL
  6
Continuous
 62
     5
100
AcDbCircle
 10
-234.6980671549272
 20
-234.8345899814317
 30
0.0
 40
0.9993813948735997
100
AcDbArc
 50
45.70000000012488
 51
92.00000000010803
  0
ARC
  5
903DA
330
1E
100
AcDbEntity
  8
DETAIL
  6
Continuous
 62
     5
100
AcDbCircle
 10
-255.7084609619415
 20
-126.1752035284339
 30
0.0
 40
0.9993813948735997
100
AcDbArc
 50
92.00000000000352
 51
180.0
  0
ARC
  5
903DB
330
1E
100
AcDbEntity
  8
DETAIL
  6
Continuous
 62
     5
100
AcDbCircle
 10
-5.663258953105469
 20
-276.2290278836478
 30
0.0
 40
0.9993516984598411
100
AcDbArc
 50
277.5113922775947
 51
359.9852118552946
  0
ARC
  5
903DC
330
1E
100
AcDbEntity
  8
DETAIL
  6
Continuous
 62
     5
100
AcDbCircle
 10
-8.019521867528055
 20
-278.2271784910822
 30
0.0
 40
0.9987796542739552
100
AcDbArc
 50
89.97424418500221
 51
158.2001708214153
  0
ARC
  5
903DD
330
1E
100
AcDbEntity
  8
DETAIL
  6
Continuous
 62
     5
100
AcDbCircle
 10
-3.464596895840259
 20
-290.3133484788232
 30
0.0
 40
0.79950511589888
100
AcDbArc
 50
0.0
 51
88.06899483121235
  0
ARC
  5
903DE
330
1E
100
AcDbEntity
  8
DETAIL
  6
Continuous
 62
     5
100
AcDbCircle
 10
-202.1614641701753
 20
-275.5225836824791
 30
0.0
 40
0.5996288369241601
100
AcDbArc
 50
137.7000000000007
 51
225.6999999475824
  0
ARC
  5
903DF
330
1E
100
AcDbEntity
  8
DETAIL
  6
Continuous
 62
     5
100
AcDbCircle
 10
-201.0693585450181
 20
-276.5883249187991
 30
0.0
 40
0.5996288369241601
100
AcDbArc
 50
225.7000000529129
 51
313.7000000000069
  0
ARC
  5
903E0
330
1E
100
AcDbEntity
  8
DETAIL
  6
Continuous
 62
     5
100
AcDbCircle
 10
-205.5395043751496
 20
-290.118509904961
 30
0.0
 40
0.4996906974367999
100
AcDbArc
 50
180.0000077803927
 51
267.9999999999965
  0
ARC
  5
903E1
330
1E
100
AcDbEntity
  8
DETAIL
  6
Continuous
 62
     5
100
AcDbCircle
 10
-198.4047458743971
 20
-276.5354836920744
 30
0.0
 40
0.4996906974367999
100
AcDbArc
 50
3.399999999895749
 51
33.41129310219868
  0
ARC
  5
903E2
330
1E
100
AcDbEntity
  8
DETAIL
  6
Continuous
 62
     5
100
AcDbCircle
 10
-196.5780296869006
 20
-290.4314514969112
 30
0.0
 40
0.4996906974367999
100
AcDbArc
 50
183.3996296615914
 51
267.9999999999965
  0
ARC
  5
903E3
330
1E
100
AcDbEntity
  8
DETAIL
  6
Continuous
 62
     5
100
AcDbCircle
 10
-174.3992478377231
 20
-291.4059497374928
 30
0.0
 40
0.4996906974367999
100
AcDbArc
 50
268.0000001839009
 51
310.7000001350877
  0
ARC
  5
903E4
330
1E
100
AcDbEntity
  8
DETAIL
  6
Continuous
 62
     5
100
AcDbCircle
 10
-107.4002619626999
 20
-293.5456077671044
 30
0.0
 40
0.4996906974367999
100
AcDbArc
 50
180.0000000004038
 51
267.9999999999965
  0
ARC
  5
903E5
330
1E
100
AcDbEntity
  8
DETAIL
  6
Continuous
 62
     5
100
AcDbCircle
 10
-240.0244241901237
 20
-234.5241574776294
 30
0.0
 40
0.4996906974367999
100
AcDbArc
 50
92.00000000010803
 51
135.3095112359904
  0
ARC
  5
903E6
330
1E
100
AcDbEntity
  8
DETAIL
  6
Continuous
 62
     5
100
AcDbCircle
 10
-239.3186060860125
 20
-232.2686086630536
 30
0.0
 40
0.4996906974367999
100
AcDbArc
 50
272.0000000000035
 51
0.0
  0
ARC
  5
903E7
330
1E
100
AcDbEntity
  8
DETAIL
  6
Continuous
 62
     5
100
AcDbCircle
 10
-239.018791667555
 20
-231.659769755591
 30
0.0
 40
0.4996906974367999
100
AcDbArc
 50
293.61583078298
 51
0.0
  0
ARC
  5
903E8
330
1E
100
AcDbEntity
  8
DETAIL
  6
Continuous
 62
     5
100
AcDbCircle
 10
-239.3186060860125
 20
-125.337637349219
 30
0.0
 40
0.4996906974367999
100
AcDbArc
 50
0.0
 51
87.99999999999647
  0
ARC
  5
903E9
330
1E
100
AcDbEntity
  8
DETAIL
  6
Continuous
 62
     5
100
AcDbCircle
 10
-251.4111209639823
 20
-124.5251727926077
 30
0.0
 40
0.4996906974367999
100
AcDbArc
 50
271.9999999998993
 51
0.0
  0
ARC
  5
903EA
330
1E
100
AcDbEntity
  8
DETAIL
  6
Continuous
 62
     5
100
AcDbCircle
 10
-3.164782477382686
 20
-174.1666283650577
 30
0.0
 40
0.4996906974367999
100
AcDbArc
 50
271.011075570989
 51
359.9999999998958
  0
ARC
  5
903ED
330
1E
100
AcDbEntity
  8
DETAIL
  6
Continuous
 62
     5
100
AcDbCircle
 10
-240.3031400511117
 20
-234.5314467249937
 30
0.0
 40
0.29981441846208
100
AcDbArc
 50
138.699999999904
 51
225.699999999995
  0
ARC
  5
903EE
330
1E
100
AcDbEntity
  8
DETAIL
  6
Continuous
 62
     5
100
AcDbCircle
 10
-232.5228126008706
 20
-15.95570403857436
 30
0.0
 40
4.996906974367998
100
AcDbArc
 50
161.7733127687002
 51
180.0
  0
ARC
  5
903EF
330
1E
100
AcDbEntity
  8
DETAIL
  6
Continuous
 62
     5
100
AcDbCircle
 10
-232.5120388305832
 20
-15.96022972439323
 30
0.0
 40
4.525431264524221
100
AcDbArc
 50
161.8306117794035
 51
179.9427009893019
  0
ARC
  5
903F0
330
1E
100
AcDbEntity
  8
DETAIL
  6
Continuous
 62
     5
100
AcDbCircle
 10
-255.7084609619415
 20
-113.0506969619018
 30
0.0
 40
0.9993813948735997
100
AcDbArc
 50
180.0
 51
267.9999999999965
  0
ARC
  5
903F1
330
1E
100
AcDbEntity
  8
DETAIL
  6
Continuous
 62
     5
100
AcDbCircle
 10
-255.7084609619415
 20
-7.794858005160676
 30
0.0
 40
0.9993813948735997
100
AcDbArc
 50
92.00000000000352
 51
180.0
  0
ARC
  5
903F2
330
1E
100
AcDbEntity
  8
DETAIL
  6
Continuous
 62
     5
100
AcDbCircle
 10
-238.5191009701129
 20
-10.49456161734861
 30
0.0
 40
0.9993813948735997
100
AcDbArc
 50
271.9999999998993
 51
0.0
  0
ARC
  5
903F3
330
1E
100
AcDbEntity
  8
DETAIL
  6
Continuous
 62
     5
100
AcDbCircle
 10
-236.5203381803676
 20
-8.390632281645594
 30
0.0
 40
0.9993813948735997
100
AcDbArc
 50
153.8431728205974
 51
180.0000000000912
  0
ARC
  5
903F4
330
1E
100
AcDbEntity
  8
DETAIL
  6
Continuous
 62
     5
100
AcDbCircle
 10
-3.66447317481743
 20
-12.84660495174421
 30
0.0
 40
0.9993813948735997
100
AcDbArc
 50
0.0
 51
34.99714405459786
  0
ARC
  5
903F5
330
1E
100
AcDbEntity
  8
DETAIL
  6
Continuous
 62
     5
100
AcDbCircle
 10
-4.164163872254903
 20
-22.40227963263078
 30
0.0
 40
0.4996912829286697
100
AcDbArc
 50
90.99999765372102
 51
179.9998655600018
  0
ARC
  5
903F6
330
1E
100
AcDbEntity
  8
DETAIL
  6
Continuous
 62
     5
100
AcDbCircle
 10
-4.164163872254903
 20
-15.64300383959971
 30
0.0
 40
0.4996910700225352
100
AcDbArc
 50
91.99999701769145
 51
179.9999145463069
  0
ARC
  5
903F7
330
1E
100
AcDbEntity
  8
DETAIL
  6
Continuous
 62
     5
100
AcDbCircle
 10
-239.3186060860125
 20
-113.8882631397844
 30
0.0
 40
0.4996906974367999
100
AcDbArc
 50
272.0000000000035
 51
0.0
  0
ARC
  5
903F8
330
1E
100
AcDbEntity
  8
DETAIL
  6
Continuous
 62
     5
100
AcDbCircle
 10
-251.4111209639823
 20
-114.7007492238658
 30
0.0
 40
0.4996906974367999
100
AcDbArc
 50
0.0
 51
88.00000000020473
  0
ARC
  5
903F9
330
1E
100
AcDbEntity
  8
DETAIL
  6
Continuous
 62
     5
100
AcDbCircle
 10
-239.3186060860125
 20
-6.957291825947777
 30
0.0
 40
0.4996906974367999
100
AcDbArc
 50
0.0
 51
87.99999999999647
  0
ARC
  5
903FA
330
1E
100
AcDbEntity
  8
DETAIL
  6
Continuous
 62
     5
100
AcDbCircle
 10
-239.018791667555
 20
-7.566109205942211
 30
0.0
 40
0.4996906974367999
100
AcDbArc
 50
0.0
 51
66.39296769376257
  0
ARC
  5
903FB
330
1E
100
AcDbEntity
  8
DETAIL
  6
Continuous
 62
     5
100
AcDbCircle
 10
-234.157758991636
 20
-6.542296063022604
 30
0.0
 40
0.4996906974367999
100
AcDbArc
 50
92.0000000002123
 51
161.773312768892
  0
ARC
  5
903FC
330
1E
100
AcDbEntity
  8
DETAIL
  6
Continuous
 62
     5
100
AcDbCircle
 10
-4.164163872254903
 20
-12.06627236059057
 30
0.0
 40
0.4996906974367999
100
AcDbArc
 50
180.0
 51
268.9999999999721
  0
ARC
  5
903FD
330
1E
100
AcDbEntity
  8
DETAIL
  6
Continuous
 62
     5
100
AcDbCircle
 10
-4.164163872254903
 20
-18.83565502871261
 30
0.0
 40
0.4996906974367999
100
AcDbArc
 50
180.0
 51
267.9999999999965
  0
ARC
  5
903FE
330
1E
100
AcDbEntity
  8
DETAIL
  6
Continuous
 62
     5
100
AcDbCircle
 10
-3.164782477382686
 20
-21.38530056505079
 30
0.0
 40
0.4996906974367999
100
AcDbArc
 50
270.9990041175814
 51
359.9999999998958
  0
ARC
  5
903FF
330
1E
100
AcDbEntity
  8
DETAIL
  6
Continuous
 62
     5
100
AcDbCircle
 10
-3.164782477382686
 20
-19.87054475831837
 30
0.0
 40
0.4996906974367999
100
AcDbArc
 50
0.0
 51
88.00000000020473
  0
ARC
  5
90400
330
1E
100
AcDbEntity
  8
DETAIL
  6
Continuous
 62
     5
100
AcDbCircle
 10
-3.164782477382686
 20
-14.60811336482311
 30
0.0
 40
0.4996906974367999
100
AcDbArc
 50
272.0019181361987
 51
359.9999999998958
  0
ARC
  5
90401
330
1E
100
AcDbEntity
  8
DETAIL
  6
Continuous
 62
     5
100
AcDbCircle
 10
-3.164782477382686
 20
-13.08325025585691
 30
0.0
 40
0.4996906974367999
100
AcDbArc
 50
0.0
 51
88.99999999986802
  0
ARC
  5
90402
330
1E
100
AcDbEntity
  8
DETAIL
  6
Continuous
 62
     5
100
AcDbCircle
 10
-236.2043765934095
 20
-6.61376692514068
 30
0.0
 40
0.4996892975789663
100
AcDbArc
 50
91.99996575143662
 51
153.8431728204952
  0
SPLINE
  5
90403
330
1E
100
AcDbEntity
  8
DETAIL
  6
Continuous
 62
     5
100
AcDbSpline
210
0.0
220
0.0
230
1.0
 70
     8
 71
     3
 72
     9
 73
     5
 74
     0
 42
0.0000001
 43
0.0000000001
 40
0.0
 40
0.0
 40
0.0
 40
0.0
 40
0.5084854975000001
 40
1.0
 40
1.0
 40
1.0
 40
1.0
 10
-200.5454007930703
 20
-276.1151880447696
 30
0.0
 10
-200.4392798474646
 20
-276.2194215641878
 30
0.0
 10
-200.1441255996442
 20
-276.3549951194152
 30
0.0
 10
-199.8362207054906
 20
-276.2393126458055
 30
0.0
 10
-199.732269257428
 20
-276.1399744851205
 30
0.0
  0
SPLINE
  5
90404
330
1E
100
AcDbEntity
  8
DETAIL
  6
Continuous
 62
     5
100
AcDbSpline
210
0.0
220
0.0
230
1.0
 70
     8
 71
     3
 72
     9
 73
     5
 74
     0
 42
0.0000001
 43
0.0000000001
 40
0.0
 40
0.0
 40
0.0
 40
0.0
 40
0.5084854724
 40
1.0
 40
1.0
 40
1.0
 40
1.0
 10
-201.7012699598554
 20
-274.9872225715249
 30
0.0
 10
-201.8080651126611
 20
-274.8836799538026
 30
0.0
 10
-201.9508094449657
 20
-274.5919261868721
 30
0.0
 10
-201.8426843247589
 20
-274.2812868194781
 30
0.0
 10
-201.7459155738515
 20
-274.174939351059
 30
0.0
  0
SPLINE
  5
90405
330
1E
100
AcDbEntity
  8
DETAIL
  6
Continuous
 62
     5
100
AcDbSpline
210
0.0
220
0.0
230
1.0
 70
     8
 71
     3
 72
    11
 73
     7
 74
     0
 42
0.0000001
 43
0.0000000001
 40
0.0
 40
0.0
 40
0.0
 40
0.0
 40
0.3399907038
 40
0.4961769723
 40
0.6368365414000001
 40
1.0
 40
1.0
 40
1.0
 40
1.0
 10
-58.11422465087616
 20
-290.2196546606888
 30
0.0
 10
-58.11421062036334
 20
-290.864215953389
 30
0.0
 10
-58.18504664295961
 20
-291.8035821974452
 30
0.0
 10
-58.45253413515365
 20
-292.995598211113
 30
0.0
 10
-58.82893014099682
 20
-294.1380375809611
 30
0.0
 10
-59.5174761777298
 20
-295.2166897619688
 30
0.0
 10
-60.20596861002468
 20
-295.2172640456618
 30
0.0
  0
SPLINE
  5
90406
330
1E
100
AcDbEntity
  8
DETAIL
  6
Continuous
 62
     5
100
AcDbSpline
210
0.0
220
0.0
230
1.0
 70
     8
 71
     3
 72
    12
 73
     8
 74
     0
 42
0.0000001
 43
0.0000000001
 40
0.0
 40
0.0
 40
0.0
 40
0.0
 40
0.1855322359
 40
0.2937799134
 40
0.4149480146000001
 40
0.6924073618000001
 40
1.0
 40
1.0
 40
1.0
 40
1.0
 10
-53.25180993337653
 20
-295.2172640456618
 30
0.0
 10
-52.8648451445979
 20
-295.2172640456618
 30
0.0
 10
-52.2470229821538
 20
-294.9745284617752
 30
0.0
 10
-51.62407094220816
 20
-294.3704098762566
 30
0.0
 10
-51.02206868757367
 20
-293.4926539329963
 30
0.0
 10
-50.51836562100925
 20
-292.0856200541434
 30
0.0
 10
-50.38570183795127
 20
-290.8619033736111
 30
0.0
 10
-50.38570183795127
 20
-290.2203570712952
 30
0.0
  0
SPLINE
  5
90407
330
1E
100
AcDbEntity
  8
DETAIL
  6
Continuous
 62
     5
100
AcDbSpline
210
0.0
220
0.0
230
1.0
 70
     8
 71
     3
 72
     8
 73
     4
 74
     0
 42
0.0000001
 43
0.0000000001
 40
0.0
 40
0.0
 40
0.0
 40
0.0
 40
1.0
 40
1.0
 40
1.0
 40
1.0
 10
-181.2547830489748
 20
-291.4665463416166
 30
0.0
 10
-181.4046368373947
 20
-291.4613133323835
 30
0.0
 10
-181.5568997226028
 20
-291.4204959143988
 30
0.0
 10
-181.6892773890849
 20
-291.3500708072931
 30
0.0
  0
SPLINE
  5
90408
330
1E
100
AcDbEntity
  8
DETAIL
  6
Continuous
 62
     5
100
AcDbSpline
210
0.0
220
0.0
230
1.0
 70
     8
 71
     3
 72
    12
 73
     8
 74
     0
 42
0.0000001
 43
0.0000000001
 40
0.0
 40
0.0
 40
0.0
 40
0.0
 40
0.3075927725
 40
0.5850518375
 40
0.7062200702000001
 40
0.814467622
 40
1.0
 40
1.0
 40
1.0
 40
1.0
 10
-50.38570183928368
 20
-5.396659532318153
 30
0.0
 10
-50.38570183928368
 20
-4.755113071651067
 30
0.0
 10
-50.51836548927622
 20
-3.531396416402913
 30
0.0
 10
-51.02207175741568
 20
-2.124364916774993
 30
0.0
 10
-51.62407024360982
 20
-1.246607153167133
 30
0.0
 10
-52.24702368873568
 20
-0.6424898850073078
 30
0.0
 10
-52.86484492503769
 20
-0.399752557949796
 30
0.0
 10
-53.25180993470894
 20
-0.399752557949796
 30
0.0
  0
SPLINE
  5
90409
330
1E
100
AcDbEntity
  8
DETAIL
  6
Continuous
 62
     5
100
AcDbSpline
210
0.0
220
0.0
230
1.0
 70
     8
 71
     3
 72
    11
 73
     7
 74
     0
 42
0.0000001
 43
0.0000000001
 40
0.0
 40
0.0
 40
0.0
 40
0.0
 40
0.3400113111
 40
0.4961974526
 40
0.6368557579000001
 40
1.0
 40
1.0
 40
1.0
 40
1.0
 10
-58.11421565559249
 20
-5.396823439436047
 30
0.0
 10
-58.11421237817103
 20
-4.752251996435916
 30
0.0
 10
-58.18511110161944
 20
-3.812898299204789
 30
0.0
 10
-58.45267869709187
 20
-2.620899739850301
 30
0.0
 10
-58.82909640871094
 20
-1.47864392436395
 30
0.0
 10
-59.51788495751407
 20
-0.3997516890262886
 30
0.0
 10
-60.20631031505764
 20
-0.3997526244843357
 30
0.0
  0
SPLINE
  5
9040A
330
1E
100
AcDbEntity
  8
DETAIL
  6
Continuous
 62
     5
100
AcDbSpline
210
0.0
220
0.0
230
1.0
 70
     8
 71
     3
 72
     8
 73
     4
 74
     0
 42
0.0000001
 43
0.0000000001
 40
0.0
 40
0.0
 40
0.0
 40
0.0
 40
1.0
 40
1.0
 40
1.0
 40
1.0
 10
-233.7489333429585
 20
-233.4039794454495
 30
0.0
 10
-233.9265332331324
 20
-233.2306794408337
 30
0.0
 10
-234.1890117532293
 20
-233.1223901101203
 30
0.0
 10
-234.4371443106829
 20
-233.1201887219024
 30
0.0
  0
SPLINE
  5
9040B
330
1E
100
AcDbEntity
  8
DETAIL
  6
Continuous
 62
     5
100
AcDbSpline
210
0.0
220
0.0
230
1.0
 70
     8
 71
     3
 72
    15
 73
    11
 74
     0
 42
0.0000001
 43
0.0000000001
 40
0.0
 40
0.0
 40
0.0
 40
0.0
 40
0.1249040673
 40
0.249900764
 40
0.3749404971
 40
0.4999943665
 40
0.6250482848
 40
0.7500874411
 40
0.8750887454999999
 40
1.0
 40
1.0
 40
1.0
 40
1.0
 10
-237.0374678316502
 20
-196.4771002950404
 30
0.0
 10
-235.9061033399121
 20
-196.895940698314
 30
0.0
 10
-233.7685808160477
 20
-198.1173242349962
 30
0.0
 10
-231.2776232601773
 20
-200.8172704470687
 30
0.0
 10
-229.6906310407503
 20
-204.1347693502842
 30
0.0
 10
-229.1456672403819
 20
-207.7712463730784
 30
0.0
 10
-229.6905164639811
 20
-211.4077376699013
 30
0.0
 10
-231.2774734833738
 20
-214.7253066072599
 30
0.0
 10
-233.7684746583846
 20
-217.4253433430272
 30
0.0
 10
-235.9060379843813
 20
-218.6469017475019
 30
0.0
 10
-237.0374678316502
 20
-219.0657655637967
 30
0.0
  0
SPLINE
  5
9040C
330
1E
100
AcDbEntity
  8
DETAIL
  6
Continuous
 62
     5
100
AcDbSpline
210
0.0
220
0.0
230
1.0
 70
     8
 71
     3
 72
     8
 73
     4
 74
     0
 42
0.0000001
 43
0.0000000001
 40
0.0
 40
0.0
 40
0.0
 40
0.0
 40
1.0
 40
1.0
 40
1.0
 40
1.0
 10
-179.9747643857736
 20
-285.261913547512
 30
0.0
 10
-180.3831811907985
 20
-285.2476448831062
 30
0.0
 10
-180.8095581771477
 20
-285.0653375424927
 30
0.0
 10
-181.1020434549664
 20
-284.7799251328795
 30
0.0
  0
SPLINE
  5
9040D
330
1E
100
AcDbEntity
  8
DETAIL
  6
Continuous
 62
     5
100
AcDbSpline
210
0.0
220
0.0
230
1.0
 70
     8
 71
     3
 72
    18
 73
    14
 74
     0
 42
0.0000001
 43
0.0000000001
 40
0.0
 40
0.0
 40
0.0
 40
0.0
 40
0.0041248755
 40
0.0164807378
 40
0.0371808704
 40
0.0664399035
 40
0.1044298137
 40
0.1510938611
 40
0.269769738
 40
0.4206459314
 40
0.5982035242000001
 40
0.7944413054
 40
1.0
 40
1.0
 40
1.0
 40
1.0
 10
-107.4177009538025
 20
-294.0449940659871
 30
0.0
 10
-107.4240111696044
 20
-294.0447536217742
 30
0.0
 10
-107.4117729218078
 20
-294.0048583960647
 30
0.0
 10
-107.4253944739876
 20
-293.9621427402526
 30
0.0
 10
-107.418988799056
 20
-293.8585967945412
 30
0.0
 10
-107.4230104801645
 20
-293.7276039547155
 30
0.0
 10
-107.4223449289384
 20
-293.5517845493107
 30
0.0
 10
-107.4235624805715
 20
-293.2411934823349
 30
0.0
 10
-107.4233594599318
 20
-292.7566473052193
 30
0.0
 10
-107.4230619262726
 20
-292.0723571849294
 30
0.0
 10
-107.4218345596664
 20
-291.2690692526346
 30
0.0
 10
-107.4200452180048
 20
-290.3821557720928
 30
0.0
 10
-107.4185479130346
 20
-289.7670400804104
 30
0.0
 10
-107.4177009431605
 20
-289.4523502722805
 30
0.0
  0
SPLINE
  5
9040E
330
1E
100
AcDbEntity
  8
DETAIL
  6
Continuous
 62
     5
100
AcDbSpline
210
0.0
220
0.0
230
1.0
 70
     8
 71
     3
 72
     9
 73
     5
 74
     0
 42
0.0000001
 43
0.0000000001
 40
0.0
 40
0.0
 40
0.0
 40
0.0
 40
0.5000047035000001
 40
1.0
 40
1.0
 40
1.0
 40
1.0
 10
-237.0536424517286
 20
-215.5680921710414
 30
0.0
 10
-237.0646745423628
 20
-212.9691995802284
 30
0.0
 10
-237.0968734149065
 20
-207.7714402800025
 30
0.0
 10
-237.0646826567481
 20
-202.5736809159071
 30
0.0
 10
-237.053643561504
 20
-199.9748372509207
 30
0.0
  0
SPLINE
  5
9040F
330
1E
100
AcDbEntity
  8
DETAIL
  6
Continuous
 62
     5
100
AcDbSpline
210
0.0
220
0.0
230
1.0
 70
     8
 71
     3
 72
     8
 73
     4
 74
     0
 42
0.0000001
 43
0.0000000001
 40
0.0
 40
0.0
 40
0.0
 40
0.0
 40
1.0
 40
1.0
 40
1.0
 40
1.0
 10
-237.053643561504
 20
-199.9748372509207
 30
0.0
 10
-236.5484399404831
 20
-200.2687437144393
 30
0.0
 10
-236.0644842545434
 20
-200.6050489908534
 30
0.0
 10
-235.6208178582874
 20
-200.9855379348296
 30
0.0
  0
SPLINE
  5
90410
330
1E
100
AcDbEntity
  8
DETAIL
  6
Continuous
 62
     5
100
AcDbSpline
210
0.0
220
0.0
230
1.0
 70
     8
 71
     3
 72
    11
 73
     7
 74
     0
 42
0.0000001
 43
0.0000000001
 40
0.0
 40
0.0
 40
0.0
 40
0.0
 40
0.2499941451
 40
0.4999992698
 40
0.7500054722
 40
1.0
 40
1.0
 40
1.0
 40
1.0
 10
-235.6208178582874
 20
-200.9855379348296
 30
0.0
 10
-234.6613407881942
 20
-201.8209750340677
 30
0.0
 10
-233.0780690675346
 20
-203.9284326568827
 30
0.0
 10
-232.2446182135355
 20
-207.7714170506131
 30
0.0
 10
-233.0781319320658
 20
-211.6140447879784
 30
0.0
 10
-234.6607777126801
 20
-213.7223191719527
 30
0.0
 10
-235.62076057988
 20
-214.5571779861946
 30
0.0
  0
SPLINE
  5
90411
330
1E
100
AcDbEntity
  8
DETAIL
  6
Continuous
 62
     5
100
AcDbSpline
210
0.0
220
0.0
230
1.0
 70
     8
 71
     3
 72
     8
 73
     4
 74
     0
 42
0.0000001
 43
0.0000000001
 40
0.0
 40
0.0
 40
0.0
 40
0.0
 40
1.0
 40
1.0
 40
1.0
 40
1.0
 10
-235.62076057988
 20
-214.5571779861946
 30
0.0
 10
-236.0645152177476
 20
-214.9376505497051
 30
0.0
 10
-236.5483037431031
 20
-215.2743059582403
 30
0.0
 10
-237.0536424517286
 20
-215.5680921710414
 30
0.0
  0
SPLINE
  5
90412
330
1E
100
AcDbEntity
  8
DETAIL
  6
Continuous
 62
     5
100
AcDbSpline
210
0.0
220
0.0
230
1.0
 70
     8
 71
     3
 72
     9
 73
     5
 74
     0
 42
0.0000001
 43
0.0000000001
 40
0.0
 40
0.0
 40
0.0
 40
0.0
 40
0.2388395358
 40
1.0
 40
1.0
 40
1.0
 40
1.0
 10
-237.1385013958179
 20
-218.7828139778408
 30
0.0
 10
-237.1268169701043
 20
-218.5270444826674
 30
0.0
 10
-237.0809908794154
 20
-217.4560325008324
 30
0.0
 10
-237.0561400469396
 20
-216.3840296525188
 30
0.0
 10
-237.0529449645819
 20
-215.5680710401093
 30
0.0
  0
SPLINE
  5
90413
330
1E
100
AcDbEntity
  8
DETAIL
  6
Continuous
 62
     5
100
AcDbSpline
210
0.0
220
0.0
230
1.0
 70
     8
 71
     3
 72
     9
 73
     5
 74
     0
 42
0.0000001
 43
0.0000000001
 40
0.0
 40
0.0
 40
0.0
 40
0.0
 40
0.2614060069
 40
1.0
 40
1.0
 40
1.0
 40
1.0
 10
-237.0529480929699
 20
-199.9748671855248
 30
0.0
 10
-237.0540417292414
 20
-199.6946253118294
 30
0.0
 10
-237.0640157029957
 20
-198.6225769401915
 30
0.0
 10
-237.1023646140766
 20
-197.5509685869833
 30
0.0
 10
-237.1384984750157
 20
-196.7599733412546
 30
0.0
  0
SPLINE
  5
90414
330
1E
100
AcDbEntity
  8
DETAIL
  6
Continuous
 62
     5
100
AcDbSpline
210
0.0
220
0.0
230
1.0
 70
     8
 71
     3
 72
    14
 73
    10
 74
     0
 42
0.0000001
 43
0.0000000001
 40
0.0
 40
0.0
 40
0.0
 40
0.0
 40
0.3796388783
 40
0.5520145105
 40
0.7037976946
 40
0.8289790598999999
 40
0.9224471315
 40
0.9802791237
 40
1.0
 40
1.0
 40
1.0
 40
1.0
 10
-234.3427244719824
 20
-7.051032144112468
 30
0.0
 10
-234.3222997717457
 20
-6.923327318841984
 30
0.0
 10
-234.2924813082136
 20
-6.73748316023375
 30
0.0
 10
-234.2534026999483
 20
-6.501354599270143
 30
0.0
 10
-234.2293654363648
 20
-6.349171910484074
 30
0.0
 10
-234.2059677015595
 20
-6.227949868091855
 30
0.0
 10
-234.1962892974025
 20
-6.127327574701212
 30
0.0
 10
-234.1749407136176
 20
-6.084138547381371
 30
0.0
 10
-234.1819117621162
 20
-6.0431500925838
 30
0.0
 10
-234.1751979454766
 20
-6.042909764139494
 30
0.0
  0
SPLINE
  5
90415
330
1E
100
AcDbEntity
  8
DETAIL
  6
Continuous
 62
     5
100
AcDbSpline
210
0.0
220
0.0
230
1.0
 70
     8
 71
     3
 72
     9
 73
     5
 74
     0
 42
0.0000001
 43
0.0000000001
 40
0.0
 40
0.0
 40
0.0
 40
0.0
 40
0.3581359932
 40
1.0
 40
1.0
 40
1.0
 40
1.0
 10
-237.5192690991253
 20
-199.7833277465706
 30
0.0
 10
-237.5192690991253
 20
-199.8460264355021
 30
0.0
 10
-237.3247918203206
 20
-199.9597751159583
 30
0.0
 10
-237.1650903327691
 20
-199.9719378100217
 30
0.0
 10
-237.0527552652129
 20
-199.974771868779
 30
0.0
  0
SPLINE
  5
90416
330
1E
100
AcDbEntity
  8
DETAIL
  6
Continuous
 62
     5
100
AcDbSpline
210
0.0
220
0.0
230
1.0
 70
     8
 71
     3
 72
     9
 73
     5
 74
     0
 42
0.0000001
 43
0.0000000001
 40
0.0
 40
0.0
 40
0.0
 40
0.0
 40
0.3581191411
 40
1.0
 40
1.0
 40
1.0
 40
1.0
 10
-237.5201759608299
 20
-215.7596150751722
 30
0.0
 10
-237.5201759608299
 20
-215.6969035213897
 30
0.0
 10
-237.3257628439524
 20
-215.5830320087282
 30
0.0
 10
-237.1660040686793
 20
-215.5707883331577
 30
0.0
 10
-237.053639645359
 20
-215.5678779688424
 30
0.0
  0
ELLIPSE
  5
90418
330
1E
100
AcDbEntity
  8
DETAIL
  6
Continuous
 62
     5
100
AcDbEllipse
 10
-3.195349770374377
 20
-290.2203570712952
 30
0.0
 11
-1.427792341392889
 21
4.996892611187907
 31
0.0
210
0.0
220
0.0
230
1.0
 40
0.0083910441
 41
1.568398707599999
 42
1.9799375662
  0
ELLIPSE
  5
90419
330
1E
100
AcDbEntity
  8
DETAIL
  6
Continuous
 62
     5
100
AcDbEllipse
 10
-5.667634754337086
 20
-281.2086324834561
 30
0.0
 11
0.4469948084248518
 21
0.8940577055621485
 31
0.0
210
0.0
220
0.0
230
1.0
 40
0.9998096355999997
 41
-1.1071030277
 42
0.4635410001000001
  0
ELLIPSE
  5
9041A
330
1E
100
AcDbEntity
  8
DETAIL
  6
Continuous
 62
     5
100
AcDbEllipse
 10
-3.661722141468999
 20
-288.7467869103586
 30
0.0
 11
-0.1427792342723552
 21
0.4996892616510561
 31
0.0
210
0.0
220
0.0
230
1.0
 40
0.0083910441
 41
-3.091630395299999
 42
-1.573193945999999
  0
ELLIPSE
  5
9041B
330
1E
100
AcDbEntity
  8
DETAIL
  6
Continuous
 62
     5
100
AcDbEllipse
 10
-3.733402182534518
 20
-288.4959067686341
 30
0.0
 11
-0.1427792342723552
 21
0.4996892616510561
 31
0.0
210
0.0
220
0.0
230
1.0
 40
0.0083910441
 41
-1.573193945999999
 42
-0.0547574967
  0
ELLIPSE
  5
9041C
330
1E
100
AcDbEntity
  8
DETAIL
  6
Continuous
 62
     5
100
AcDbEllipse
 10
-2.625845168779051
 20
-290.2203570712952
 30
0.0
 11
0.0
 21
4.996906974367998
 31
0.0
210
0.0
220
0.0
230
1.0
 40
0.0087268678
 41
1.9823351854
 42
3.1415926536
  0
ELLIPSE
  5
9041D
330
1E
100
AcDbEntity
  8
DETAIL
  6
Continuous
 62
     5
100
AcDbEllipse
 10
-6.031278699358153
 20
-277.2104979684655
 30
0.0
 11
2.120653908295975
 21
2.120653908295975
 31
0.0
210
0.0
220
0.0
230
1.0
 40
0.9996954599
 41
2.3563467834
 42
3.926838523699999
  0
ELLIPSE
  5
9041E
330
1E
100
AcDbEntity
  8
DETAIL
  6
Continuous
 62
     5
100
AcDbEllipse
 10
-6.031278699358153
 20
-270.2506301419635
 30
0.0
 11
-2.120653908295975
 21
2.120653908295975
 31
0.0
210
0.0
220
0.0
230
1.0
 40
0.9996954599
 41
-0.7852458701
 42
0.7852458701999999
  0
ELLIPSE
  5
9041F
330
1E
100
AcDbEntity
  8
DETAIL
  6
Continuous
 62
     5
100
AcDbEllipse
 10
-4.668215305153353
 20
-233.9806864712862
 30
0.0
 11
0.0
 21
0.4996906974367999
 31
0.0
210
0.0
220
0.0
230
1.0
 40
0.0087268678
 41
-3.089232776
 42
-1.570809950299999
  0
ELLIPSE
  5
90420
330
1E
100
AcDbEntity
  8
DETAIL
  6
Continuous
 62
     5
100
AcDbEllipse
 10
-4.668215305153353
 20
-233.7298063295595
 30
0.0
 11
0.0
 21
0.4996906974367999
 31
0.0
210
0.0
220
0.0
230
1.0
 40
0.0087268678
 41
-1.570782702599999
 42
-0.0523598776
  0
ELLIPSE
  5
90421
330
1E
100
AcDbEntity
  8
DETAIL
  6
Continuous
 62
     5
100
AcDbEllipse
 10
-48.09281536055095
 20
-219.4034627859187
 30
0.0
 11
3.997525579494399
 21
0.0
 31
0.0
210
0.0
220
0.0
230
1.0
 40
0.0087268678
 41
1.5707963268
 42
2.181661564799999
  0
ELLIPSE
  5
90422
330
1E
100
AcDbEntity
  8
DETAIL
  6
Continuous
 62
     5
100
AcDbEllipse
 10
-5.667634754337086
 20
-266.2524956269729
 30
0.0
 11
-0.4469948084248518
 21
0.8940577055621485
 31
0.0
210
0.0
220
0.0
230
1.0
 40
0.9998096355999997
 41
2.678051653499999
 42
4.2486956813
  0
ELLIPSE
  5
90423
330
1E
100
AcDbEntity
  8
DETAIL
  6
Continuous
 62
     5
100
AcDbEllipse
 10
-66.66474766435204
 20
-290.2203570712952
 30
0.0
 11
0.0
 21
4.996906974367998
 31
0.0
210
0.0
220
0.0
230
1.0
 40
0.0087268678
 41
3.1415926536
 42
4.7123889804
  0
ELLIPSE
  5
90424
330
1E
100
AcDbEntity
  8
DETAIL
  6
Continuous
 62
     5
100
AcDbEllipse
 10
-4.968041139379238
 20
-219.6684027444399
 30
0.0
 11
-0.2120169532202918
 21
-0.2120169532202918
 31
0.0
210
0.0
220
0.0
230
1.0
 40
0.9999238504999999
 41
2.356232566399999
 42
3.9269527408
  0
ELLIPSE
  5
90425
330
1E
100
AcDbEntity
  8
DETAIL
  6
Continuous
 62
     5
100
AcDbEllipse
 10
-59.2606573799967
 20
-219.4078235213808
 30
0.0
 11
1.998762789747199
 21
0.0
 31
0.0
210
0.0
220
0.0
230
1.0
 40
0.0087268678
 41
4.7123889804
 42
5.323254218399999
  0
LINE
  5
90426
330
1E
100
AcDbEntity
  8
OUTLINE
  6
Continuous
 62
     3
100
AcDbLine
 10
-4.459827756151753
 20
-174.7809708375487
 30
0.0
 11
-4.416321146063637
 21
-174.7524010086147
 31
0.0
  0
LINE
  5
90427
330
1E
100
AcDbEntity
  8
OUTLINE
  6
Continuous
 62
     3
100
AcDbLine
 10
-4.416321146063637
 20
-174.7524010086147
 30
0.0
 11
-4.370078704129809
 21
-174.7285117467304
 31
0.0
  0
LINE
  5
90428
330
1E
100
AcDbEntity
  8
OUTLINE
  6
Continuous
 62
     3
100
AcDbLine
 10
-4.370078704129809
 20
-174.7285117467304
 30
0.0
 11
-4.32160214763644
 21
-174.7095622478136
 31
0.0
  0
LINE
  5
90429
330
1E
100
AcDbEntity
  8
OUTLINE
  6
Continuous
 62
     3
100
AcDbLine
 10
-197.2514531233558
 20
-287.5220273051354
 30
0.0
 11
-197.9059347188167
 21
-276.5058488494406
 31
0.0
  0
LINE
  5
9042A
330
1E
100
AcDbEntity
  8
OUTLINE
  6
Continuous
 62
     3
100
AcDbLine
 10
-27.71593506974841
 20
-0.399752557949796
 30
0.0
 11
-27.72989473682719
 21
0.0
 31
0.0
  0
LINE
  5
9042B
330
1E
100
AcDbEntity
  8
OUTLINE
  6
Continuous
 62
     3
100
AcDbLine
 10
-256.7078423568182
 20
-231.4310424838422
 30
0.0
 11
-256.7078423568182
 21
-126.1752035284339
 31
0.0
  0
LINE
  5
9042C
330
1E
100
AcDbEntity
  8
OUTLINE
  6
Continuous
 62
     3
100
AcDbLine
 10
-256.7078423568182
 20
-113.0506969619018
 30
0.0
 11
-256.7078423568182
 21
-7.794858005160676
 31
0.0
  0
LINE
  5
9042D
330
1E
100
AcDbEntity
  8
OUTLINE
  6
Continuous
 62
     3
100
AcDbLine
 10
-250.9114302665484
 20
-124.5251727926077
 30
0.0
 11
-250.9114302665484
 21
-114.7007492238658
 31
0.0
  0
LINE
  5
90430
330
1E
100
AcDbEntity
  8
OUTLINE
  6
Continuous
 62
     3
100
AcDbLine
 10
-239.218667946524
 20
-6.219031105038084
 30
0.0
 11
-239.218667946524
 21
-6.46769693077374
 31
0.0
  0
LINE
  5
90431
330
1E
100
AcDbEntity
  8
OUTLINE
  6
Continuous
 62
     3
100
AcDbLine
 10
-239.218667946524
 20
-232.7582035582276
 30
0.0
 11
-239.218667946524
 21
-233.0068478591524
 31
0.0
  0
LINE
  5
90433
330
1E
100
AcDbEntity
  8
OUTLINE
  6
Continuous
 62
     3
100
AcDbLine
 10
-238.8189153885742
 20
-6.957291825947777
 30
0.0
 11
-238.8189153885742
 21
-7.108235831551837
 31
0.0
  0
LINE
  5
90434
330
1E
100
AcDbEntity
  8
OUTLINE
  6
Continuous
 62
     3
100
AcDbLine
 10
-238.8189153885742
 20
-232.1560477167276
 30
0.0
 11
-238.8189153885742
 21
-232.2686086630536
 31
0.0
  0
LINE
  5
90436
330
1E
100
AcDbEntity
  8
OUTLINE
  6
Continuous
 62
     3
100
AcDbLine
 10
-237.5197195752408
 20
-233.9331336927036
 30
0.0
 11
-237.5197195752408
 21
-232.1333701688561
 31
0.0
  0
LINE
  5
90437
330
1E
100
AcDbEntity
  8
OUTLINE
  6
Continuous
 62
     3
100
AcDbLine
 10
-237.5197195752408
 20
-10.49456161734861
 30
0.0
 11
-237.5197195752408
 21
-8.390632281645594
 31
0.0
  0
LINE
  5
9043A
330
1E
100
AcDbEntity
  8
OUTLINE
  6
Continuous
 62
     3
100
AcDbLine
 10
-206.03920563672
 20
-290.1185099728243
 30
0.0
 11
-206.03920563672
 21
-287.5220273051354
 31
0.0
  0
LINE
  5
9044B
330
1E
100
AcDbEntity
  8
OUTLINE
  6
Continuous
 62
     3
100
AcDbLine
 10
-4.668215305153353
 20
-219.6683799115867
 30
0.0
 11
-4.668215305153353
 21
-233.2294298840848
 31
0.0
  0
LINE
  5
9044C
330
1E
100
AcDbEntity
  8
OUTLINE
  6
Continuous
 62
     3
100
AcDbLine
 10
-4.668215305153353
 20
-234.4810629167609
 30
0.0
 11
-4.668215305153353
 21
-266.2526478548587
 31
0.0
  0
LINE
  5
9044D
330
1E
100
AcDbEntity
  8
OUTLINE
  6
Continuous
 62
     3
100
AcDbLine
 10
-4.668215305153353
 20
-281.2084802555703
 30
0.0
 11
-4.668215305153353
 21
-285.2240608394627
 31
0.0
  0
LINE
  5
9044F
330
1E
100
AcDbEntity
  8
OUTLINE
  6
Continuous
 62
     3
100
AcDbLine
 10
-4.663854569689647
 20
-266.2613699884494
 30
0.0
 11
-4.663854569689647
 21
-276.2288653085241
 31
0.0
  0
LINE
  5
90450
330
1E
100
AcDbEntity
  8
OUTLINE
  6
Continuous
 62
     3
100
AcDbLine
 10
-4.663854569689647
 20
-233.9806898751244
 30
0.0
 11
-4.663854569689647
 21
-233.7298029257231
 31
0.0
  0
LINE
  5
90451
330
1E
100
AcDbEntity
  8
OUTLINE
  6
Continuous
 62
     3
100
AcDbLine
 10
-2.665091779944305
 20
-292.2044447881001
 30
0.0
 11
-2.665091779944305
 21
-290.3133484788232
 31
0.0
  0
LINE
  5
90452
330
1E
100
AcDbEntity
  8
OUTLINE
  6
Continuous
 62
     3
100
AcDbLine
 10
-2.665091779944305
 20
-174.1666190357778
 30
0.0
 11
-2.665091779944305
 21
-12.84660495174421
 31
0.0
  0
LINE
  5
90453
330
1E
100
AcDbEntity
  8
OUTLINE
  6
Continuous
 62
     3
100
AcDbLine
 10
-4.667987081749743
 20
-234.4796923601336
 30
0.0
 11
-4.668215305153353
 21
-234.4810629167609
 31
0.0
  0
LINE
  5
90459
330
1E
100
AcDbEntity
  8
OUTLINE
  6
Continuous
 62
     3
100
AcDbLine
 10
-236.652893663394
 20
-6.393487031616587
 30
0.0
 11
-237.4173737202027
 21
-7.950075344879678
 31
0.0
  0
LINE
  5
9045B
330
1E
100
AcDbEntity
  8
OUTLINE
  6
Continuous
 62
     3
100
AcDbLine
 10
-4.593641989980496
 20
-174.9290248009899
 30
0.0
 11
-4.569391016045301
 21
-174.8914307489644
 31
0.0
  0
LINE
  5
90465
330
1E
100
AcDbEntity
  8
OUTLINE
  6
Continuous
 62
     3
100
AcDbLine
 10
-4.569391016045301
 20
-174.8914307489644
 30
0.0
 11
-4.536780146181627
 21
-174.8508648769143
 31
0.0
  0
LINE
  5
90466
330
1E
100
AcDbEntity
  8
OUTLINE
  6
Continuous
 62
     3
100
AcDbLine
 10
-240.5283798698174
 20
-234.3335687084773
 30
0.0
 11
-240.3859098071889
 21
-234.1713984399016
 31
0.0
  0
LINE
  5
90467
330
1E
100
AcDbEntity
  8
OUTLINE
  6
Continuous
 62
     3
100
AcDbLine
 10
-200.9756612019528
 20
-273.3284408480045
 30
0.0
 11
-202.6050179763497
 21
-275.11908056208
 31
0.0
  0
LINE
  5
90468
330
1E
100
AcDbEntity
  8
OUTLINE
  6
Continuous
 62
     3
100
AcDbLine
 10
-4.536780146181627
 20
-174.8508648769143
 30
0.0
 11
-4.500126500200167
 21
-174.8139112594954
 31
0.0
  0
LINE
  5
9046A
330
1E
100
AcDbEntity
  8
OUTLINE
  6
Continuous
 62
     3
100
AcDbLine
 10
-200.6551389327297
 20
-277.0218879023551
 30
0.0
 11
-198.904842436129
 21
-275.3492682395065
 31
0.0
  0
LINE
  5
9046B
330
1E
100
AcDbEntity
  8
OUTLINE
  6
Continuous
 62
     3
100
AcDbLine
 10
-174.0734003296611
 20
-291.7847824127916
 30
0.0
 11
-173.9980345134845
 21
-291.7199575846544
 31
0.0
  0
LINE
  5
9046C
330
1E
100
AcDbEntity
  8
OUTLINE
  6
Continuous
 62
     3
100
AcDbLine
 10
-4.500126500200167
 20
-174.8139112594954
 30
0.0
 11
-4.459827756151753
 21
-174.7809708375487
 31
0.0
  0
LINE
  5
9046D
330
1E
100
AcDbEntity
  8
OUTLINE
  6
Continuous
 62
     3
100
AcDbLine
 10
-4.32160214763644
 20
-174.7095622478136
 30
0.0
 11
-4.2714174345856
 21
-174.6957581060048
 31
0.0
  0
LINE
  5
9046E
330
1E
100
AcDbEntity
  8
OUTLINE
  6
Continuous
 62
     3
100
AcDbLine
 10
-4.2714174345856
 20
-174.6957581060048
 30
0.0
 11
-4.220069053783845
 21
-174.6872490927833
 31
0.0
  0
LINE
  5
9046F
330
1E
100
AcDbEntity
  8
OUTLINE
  6
Continuous
 62
     3
100
AcDbLine
 10
-4.668215305153353
 20
-285.2240608394627
 30
0.0
 11
-4.663854569689647
 21
-285.2234500969252
 31
0.0
  0
LINE
  5
90471
330
1E
100
AcDbEntity
  8
OUTLINE
  6
Continuous
 62
     3
100
AcDbLine
 10
-4.220069053783845
 20
-174.6872490927833
 30
0.0
 11
-4.172981232110942
 21
-174.6841897141337
 31
0.0
  0
LINE
  5
90472
330
1E
100
AcDbEntity
  8
OUTLINE
  6
Continuous
 62
     3
100
AcDbLine
 10
-67.17749533081041
 20
-293.7684958472673
 30
0.0
 11
-66.64326424843693
 21
-293.7404979826788
 31
0.0
  0
LINE
  5
90473
330
1E
100
AcDbEntity
  8
OUTLINE
  6
Continuous
 62
     3
100
AcDbLine
 10
-240.0418631439716
 20
-234.0247711774159
 30
0.0
 11
-240.0204213272564
 21
-234.0240224131542
 31
0.0
  0
LINE
  5
90474
330
1E
100
AcDbEntity
  8
OUTLINE
  6
Continuous
 62
     3
100
AcDbLine
 10
-239.9767951304502
 20
-234.0189366617797
 30
0.0
 11
-237.5197195752408
 21
-233.9331336927036
 31
0.0
  0
LINE
  5
9047A
330
1E
100
AcDbEntity
  8
OUTLINE
  6
Continuous
 62
     3
100
AcDbLine
 10
-238.5191009701129
 20
-11.49455217925288
 30
0.0
 11
-238.4842230624244
 21
-11.4933342151121
 31
0.0
  0
LINE
  5
9047B
330
1E
100
AcDbEntity
  8
OUTLINE
  6
Continuous
 62
     3
100
AcDbLine
 10
-239.2186679412052
 20
-6.219031182217804
 30
0.0
 11
-255.7433388696336
 21
-6.796085406064776
 31
0.0
  0
LINE
  5
9047C
330
1E
100
AcDbEntity
  8
OUTLINE
  6
Continuous
 62
     3
100
AcDbLine
 10
-236.221814847323
 20
-6.114379201116207
 30
0.0
 11
-61.12890338005309
 21
0.0
 31
0.0
  0
LINE
  5
9047D
330
1E
100
AcDbEntity
  8
OUTLINE
  6
Continuous
 62
     3
100
AcDbLine
 10
-3.155965185392233
 20
-174.6662440530026
 30
0.0
 11
-4.172981040493141
 21
-174.6841926123186
 31
0.0
  0
LINE
  5
9047E
330
1E
100
AcDbEntity
  8
OUTLINE
  6
Continuous
 62
     3
100
AcDbLine
 10
-237.5197195752408
 20
-232.1333701688561
 30
0.0
 11
-238.8189153885742
 21
-232.1560477167276
 31
0.0
  0
LINE
  5
90481
330
1E
100
AcDbEntity
  8
OUTLINE
  6
Continuous
 62
     3
100
AcDbLine
 10
-66.66474766435204
 20
-295.2172640456618
 30
0.0
 11
-2.625845168779051
 21
-295.2172640456618
 31
0.0
  0
LINE
  5
9048A
330
1E
100
AcDbEntity
  8
OUTLINE
  6
Continuous
 62
     3
100
AcDbLine
 10
-206.03920563672
 20
-287.5220273051354
 30
0.0
 11
-197.2514531233558
 21
-287.5220273051354
 31
0.0
  0
LINE
  5
9048B
330
1E
100
AcDbEntity
  8
OUTLINE
  6
Continuous
 62
     3
100
AcDbLine
 10
-6.032192032075727
 20
-280.2090988553753
 30
0.0
 11
-5.6674825437467
 21
-280.2090988553753
 31
0.0
  0
LINE
  5
9048E
330
1E
100
AcDbEntity
  8
OUTLINE
  6
Continuous
 62
     3
100
AcDbLine
 10
-8.019072892403528
 20
-277.2283989379373
 30
0.0
 11
-5.663235964565501
 21
-277.2283989379373
 31
0.0
  0
LINE
  5
904AE
330
1E
100
AcDbEntity
  8
OUTLINE
  6
Continuous
 62
     3
100
AcDbLine
 10
-61.12890338005309
 20
0.0
 30
0.0
 11
-27.72989473682719
 21
0.0
 31
0.0
  0
LINE
  5
904B2
330
1E
100
AcDbEntity
  8
OUTLINE
  6
Continuous
 62
     3
100
AcDbLine
 10
-181.3079529122824
 20
-291.6646877216876
 30
0.0
 11
-174.4166867902349
 21
-291.9053360377063
 31
0.0
  0
LINE
  5
904B3
330
1E
100
AcDbEntity
  8
OUTLINE
  6
Continuous
 62
     3
100
AcDbLine
 10
-68.12457314416497
 20
-295.4171403246366
 30
0.0
 11
-173.998034513462
 21
-291.7199575846352
 31
0.0
  0
LINE
  5
904B6
330
1E
100
AcDbEntity
  8
OUTLINE
  6
Continuous
 62
     3
100
AcDbLine
 10
-255.7433388696336
 20
-232.4298150829386
 30
0.0
 11
-239.2186679412052
 21
-233.0068477793134
 31
0.0
  0
LINE
  5
904B8
330
1E
100
AcDbEntity
  8
OUTLINE
  6
Continuous
 62
     3
100
AcDbLine
 10
-255.7433388696336
 20
-114.0494695596674
 30
0.0
 11
-251.3936820101339
 21
-114.2013629244226
 31
0.0
  0
LINE
  5
904BB
330
1E
100
AcDbEntity
  8
OUTLINE
  6
Continuous
 62
     3
100
AcDbLine
 10
-181.9411196123865
 20
-291.4425789405186
 30
0.0
 11
-181.7422561505118
 21
-291.5483165193559
 31
0.0
  0
LINE
  5
904BE
330
1E
100
AcDbEntity
  8
OUTLINE
  6
Continuous
 62
     3
100
AcDbLine
 10
-202.5802543568779
 20
-275.951733932244
 30
0.0
 11
-201.4881487343755
 21
-277.0174751698946
 31
0.0
  0
LINE
  5
904CD
330
1E
100
AcDbEntity
  8
OUTLINE
  6
Continuous
 62
     3
100
AcDbLine
 10
-11.15983363637406
 20
-0.399752557949796
 30
0.0
 11
-2.845799290636932
 21
-12.27342413851647
 31
0.0
  0
LINE
  5
904CE
330
1E
100
AcDbEntity
  8
OUTLINE
  6
Continuous
 62
     3
100
AcDbLine
 10
-3.876366880667774
 20
-287.9955303231591
 30
0.0
 11
-3.875737937316444
 21
-287.9969008797846
 31
0.0
  0
LINE
  5
904D0
330
1E
100
AcDbEntity
  8
OUTLINE
  6
Continuous
 62
     3
100
AcDbLine
 10
-4.668215305153353
 20
-285.2240608394627
 30
0.0
 11
-3.876366880667774
 21
-287.9955303231591
 31
0.0
  0
LINE
  5
904D1
330
1E
100
AcDbEntity
  8
OUTLINE
  6
Continuous
 62
     3
100
AcDbLine
 10
-3.518757443333015
 20
-289.2471633558352
 30
0.0
 11
-3.442072932332678
 21
-289.5155591439715
 31
0.0
  0
LINE
  5
904D2
330
1E
100
AcDbEntity
  8
OUTLINE
  6
Continuous
 62
     3
100
AcDbLine
 10
-3.728866949199982
 20
-288.4959067686341
 30
0.0
 11
-3.657186909474148
 21
-288.7467869103586
 31
0.0
  0
LINE
  5
904D3
330
1E
100
AcDbEntity
  8
OUTLINE
  6
Continuous
 62
     3
100
AcDbLine
 10
-4.667987081749743
 20
-233.2308004407139
 30
0.0
 11
-4.668215305153353
 21
-233.2294298840848
 31
0.0
  0
LINE
  5
904D4
330
1E
100
AcDbEntity
  8
OUTLINE
  6
Continuous
 62
     3
100
AcDbLine
 10
-3.518757443333015
 20
-289.2471633558352
 30
0.0
 11
-3.518911675198069
 21
-289.2457927992079
 31
0.0
  0
ARC
  5
904DF
330
1E
100
AcDbEntity
  8
OUTLINE
  6
Continuous
 62
     3
100
AcDbCircle
 10
-5.663484705462906
 20
-276.2278476997021
 30
0.0
 40
1.000551268839574
100
AcDbArc
 50
270.0142439205801
 51
277.5153742611956
  0
ARC
  5
904E0
330
1E
100
AcDbEntity
  8
OUTLINE
  6
Continuous
 62
     3
100
AcDbCircle
 10
-181.2730750045948
 20
-290.6659151225915
 30
0.0
 40
0.9993813948735997
100
AcDbArc
 50
242.0000000000068
 51
267.9999999999962
  0
ARC
  5
904E4
330
1E
100
AcDbEntity
  8
OUTLINE
  6
Continuous
 62
     3
100
AcDbCircle
 10
-67.12519174928821
 20
-294.7665076249604
 30
0.0
 40
0.9993813948735997
100
AcDbArc
 50
93.0000000000057
 51
180.0
  0
ARC
  5
904E5
330
1E
100
AcDbEntity
  8
OUTLINE
  6
Continuous
 62
     3
100
AcDbCircle
 10
-255.7084609619415
 20
-231.4310424838422
 30
0.0
 40
0.9993813948735997
100
AcDbArc
 50
180.0
 51
267.9999999999962
  0
ARC
  5
904E7
330
1E
100
AcDbEntity
  8
OUTLINE
  6
Continuous
 62
     3
100
AcDbCircle
 10
-255.7084609619415
 20
-126.1752035284339
 30
0.0
 40
0.9993813948735997
100
AcDbArc
 50
92.00000000000365
 51
180.0
  0
ARC
  5
904E8
330
1E
100
AcDbEntity
  8
OUTLINE
  6
Continuous
 62
     3
100
AcDbCircle
 10
-5.663258953105469
 20
-276.2290278836478
 30
0.0
 40
0.9993516984598411
100
AcDbArc
 50
277.5113922775939
 51
359.9852118552946
  0
ARC
  5
904E9
330
1E
100
AcDbEntity
  8
OUTLINE
  6
Continuous
 62
     3
100
AcDbCircle
 10
-8.019521867528055
 20
-278.2271784910822
 30
0.0
 40
0.9987796542739552
100
AcDbArc
 50
89.97424418500221
 51
158.2001708214154
  0
ARC
  5
904EA
330
1E
100
AcDbEntity
  8
OUTLINE
  6
Continuous
 62
     3
100
AcDbCircle
 10
-3.464596895840259
 20
-290.3133484788232
 30
0.0
 40
0.79950511589888
100
AcDbArc
 50
0.0
 51
88.06899483121226
  0
ARC
  5
904EB
330
1E
100
AcDbEntity
  8
OUTLINE
  6
Continuous
 62
     3
100
AcDbCircle
 10
-202.1614641701753
 20
-275.5225836824791
 30
0.0
 40
0.5996288369241601
100
AcDbArc
 50
137.7000000000004
 51
225.6999999475816
  0
ARC
  5
904EC
330
1E
100
AcDbEntity
  8
OUTLINE
  6
Continuous
 62
     3
100
AcDbCircle
 10
-201.0693585450181
 20
-276.5883249187991
 30
0.0
 40
0.5996288369241601
100
AcDbArc
 50
225.7000000529131
 51
313.7000000000065
  0
ARC
  5
904ED
330
1E
100
AcDbEntity
  8
OUTLINE
  6
Continuous
 62
     3
100
AcDbCircle
 10
-205.5395043751496
 20
-290.118509904961
 30
0.0
 40
0.4996906974367999
100
AcDbArc
 50
180.0000077803927
 51
267.9999999999962
  0
ARC
  5
904EE
330
1E
100
AcDbEntity
  8
OUTLINE
  6
Continuous
 62
     3
100
AcDbCircle
 10
-198.4047458743971
 20
-276.5354836920744
 30
0.0
 40
0.4996906974367999
100
AcDbArc
 50
3.399999999895749
 51
33.41129310219903
  0
ARC
  5
904F0
330
1E
100
AcDbEntity
  8
OUTLINE
  6
Continuous
 62
     3
100
AcDbCircle
 10
-174.3992478377231
 20
-291.4059497374928
 30
0.0
 40
0.4996906974367999
100
AcDbArc
 50
268.0000001839011
 51
310.7000001350877
  0
ARC
  5
904F2
330
1E
100
AcDbEntity
  8
OUTLINE
  6
Continuous
 62
     3
100
AcDbCircle
 10
-240.0244241901237
 20
-234.5241574776294
 30
0.0
 40
0.4996906974367999
100
AcDbArc
 50
92.00000000010781
 51
135.3095112359908
  0
ARC
  5
904F6
330
1E
100
AcDbEntity
  8
OUTLINE
  6
Continuous
 62
     3
100
AcDbCircle
 10
-251.4111209639823
 20
-124.5251727926077
 30
0.0
 40
0.4996906974367999
100
AcDbArc
 50
271.9999999998993
 51
0.0
  0
ARC
  5
904F7
330
1E
100
AcDbEntity
  8
OUTLINE
  6
Continuous
 62
     3
100
AcDbCircle
 10
-3.164782477382686
 20
-174.1666283650577
 30
0.0
 40
0.4996906974367999
100
AcDbArc
 50
271.011075570989
 51
359.9999999998958
  0
ARC
  5
904FA
330
1E
100
AcDbEntity
  8
OUTLINE
  6
Continuous
 62
     3
100
AcDbCircle
 10
-240.3031400511117
 20
-234.5314467249937
 30
0.0
 40
0.29981441846208
100
AcDbArc
 50
138.6999999999047
 51
225.6999999999942
  0
ARC
  5
904FD
330
1E
100
AcDbEntity
  8
OUTLINE
  6
Continuous
 62
     3
100
AcDbCircle
 10
-255.7084609619415
 20
-113.0506969619018
 30
0.0
 40
0.9993813948735997
100
AcDbArc
 50
180.0
 51
267.9999999999962
  0
ARC
  5
904FE
330
1E
100
AcDbEntity
  8
OUTLINE
  6
Continuous
 62
     3
100
AcDbCircle
 10
-255.7084609619415
 20
-7.794858005160676
 30
0.0
 40
0.9993813948735997
100
AcDbArc
 50
92.00000000000365
 51
180.0
  0
ARC
  5
904FF
330
1E
100
AcDbEntity
  8
OUTLINE
  6
Continuous
 62
     3
100
AcDbCircle
 10
-238.5191009701129
 20
-10.49456161734861
 30
0.0
 40
0.9993813948735997
100
AcDbArc
 50
271.9999999998993
 51
0.0
  0
ARC
  5
90500
330
1E
100
AcDbEntity
  8
OUTLINE
  6
Continuous
 62
     3
100
AcDbCircle
 10
-236.5203381803676
 20
-8.390632281645594
 30
0.0
 40
0.9993813948735997
100
AcDbArc
 50
153.8431728205975
 51
180.0000000000912
  0
ARC
  5
90501
330
1E
100
AcDbEntity
  8
OUTLINE
  6
Continuous
 62
     3
100
AcDbCircle
 10
-3.66447317481743
 20
-12.84660495174421
 30
0.0
 40
0.9993813948735997
100
AcDbArc
 50
0.0
 51
34.99714405459753
  0
ARC
  5
90505
330
1E
100
AcDbEntity
  8
OUTLINE
  6
Continuous
 62
     3
100
AcDbCircle
 10
-251.4111209639823
 20
-114.7007492238658
 30
0.0
 40
0.4996906974367999
100
AcDbArc
 50
0.0
 51
88.00000000020482
  0
ARC
  5
90506
330
1E
100
AcDbEntity
  8
OUTLINE
  6
Continuous
 62
     3
100
AcDbCircle
 10
-239.3186060860125
 20
-6.957291825947777
 30
0.0
 40
0.4996906974367999
100
AcDbArc
 50
0.0
 51
78.46304096704262
  0
ARC
  5
90507
330
1E
100
AcDbEntity
  8
OUTLINE
  6
Continuous
 62
     3
100
AcDbCircle
 10
-239.018791667555
 20
-7.566109205942211
 30
0.0
 40
0.4996906974367999
100
AcDbArc
 50
0.0
 51
66.39296769376263
  0
ARC
  5
9050F
330
1E
100
AcDbEntity
  8
OUTLINE
  6
Continuous
 62
     3
100
AcDbCircle
 10
-236.2043765934095
 20
-6.61376692514068
 30
0.0
 40
0.4996892975789663
100
AcDbArc
 50
91.99996575143641
 51
153.8431728204954
  0
ELLIPSE
  5
90526
330
1E
100
AcDbEntity
  8
OUTLINE
  6
Continuous
 62
     3
100
AcDbEllipse
 10
-5.667634754337086
 20
-281.2086324834561
 30
0.0
 11
0.4469948084248518
 21
0.8940577055621485
 31
0.0
210
0.0
220
0.0
230
1.0
 40
0.9998096355999997
 41
-1.1071030277
 42
0.4635410001000001
  0
ELLIPSE
  5
90527
330
1E
100
AcDbEntity
  8
OUTLINE
  6
Continuous
 62
     3
100
AcDbEllipse
 10
-3.661722141468999
 20
-288.7467869103586
 30
0.0
 11
-0.1427792342723552
 21
0.4996892616510561
 31
0.0
210
0.0
220
0.0
230
1.0
 40
0.0083910441
 41
-3.091630395299999
 42
-1.573193945999999
  0
ELLIPSE
  5
90528
330
1E
100
AcDbEntity
  8
OUTLINE
  6
Continuous
 62
     3
100
AcDbEllipse
 10
-3.733402182534518
 20
-288.4959067686341
 30
0.0
 11
-0.1427792342723552
 21
0.4996892616510561
 31
0.0
210
0.0
220
0.0
230
1.0
 40
0.0083910441
 41
-1.573193945999999
 42
-0.0547574967
  0
ELLIPSE
  5
90529
330
1E
100
AcDbEntity
  8
OUTLINE
  6
Continuous
 62
     3
100
AcDbEllipse
 10
-2.625845168779051
 20
-290.2203570712952
 30
0.0
 11
0.0
 21
4.996906974367998
 31
0.0
210
0.0
220
0.0
230
1.0
 40
0.0087268678
 41
1.9823351854
 42
3.1415926536
  0
ELLIPSE
  5
9052C
330
1E
100
AcDbEntity
  8
OUTLINE
  6
Continuous
 62
     3
100
AcDbEllipse
 10
-4.668215305153353
 20
-233.9806864712862
 30
0.0
 11
0.0
 21
0.4996906974367999
 31
0.0
210
0.0
220
0.0
230
1.0
 40
0.0087268678
 41
-3.089232776
 42
-1.570809950299999
  0
ELLIPSE
  5
9052D
330
1E
100
AcDbEntity
  8
OUTLINE
  6
Continuous
 62
     3
100
AcDbEllipse
 10
-4.668215305153353
 20
-233.7298063295595
 30
0.0
 11
0.0
 21
0.4996906974367999
 31
0.0
210
0.0
220
0.0
230
1.0
 40
0.0087268678
 41
-1.570782702599999
 42
-0.0523598776
  0
ELLIPSE
  5
90530
330
1E
100
AcDbEntity
  8
OUTLINE
  6
Continuous
 62
     3
100
AcDbEllipse
 10
-66.66474766435204
 20
-290.2203570712952
 30
0.0
 11
0.0
 21
4.996906974367998
 31
0.0
210
0.0
220
0.0
230
1.0
 40
0.0087268678
 41
3.1415926536
 42
3.931003368188641
  0
LINE
  5
90533
330
1E
100
AcDbEntity
  8
OUTLINE
  6
Continuous
 62
     3
100
AcDbLine
 10
-238.5191009701129
 20
-11.49455217925288
 30
0.0
 11
-238.5191009701129
 21
-7.566109205942211
 31
0.0
  0
LINE
  5
90540
330
1E
100
AcDbEntity
  8
OUTLINE
  6
Continuous
 62
     3
100
AcDbLine
 10
-251.3890487216864
 20
-125.0243757665821
 30
0.0
 11
-255.7433388696336
 21
-125.176430929336
 31
0.0
  0
ARC
  5
90542
330
1E
100
AcDbEntity
  8
OUTLINE
  6
Continuous
 62
     3
100
AcDbCircle
 10
-239.3186060860125
 20
-232.2686086630536
 30
0.0
 40
0.4996906974367999
100
AcDbArc
 50
281.5369590329573
 51
0.0
  0
LINE
  5
90545
330
1E
100
AcDbEntity
  8
OUTLINE
  6
Continuous
 62
     3
100
AcDbLine
 10
-200.9756612023809
 20
-273.328440848443
 30
0.0
 11
-240.5125350227063
 21
-234.7460217254575
 31
0.0
  0
LINE
  5
90547
330
1E
100
AcDbEntity
  8
OUTLINE
  6
Continuous
 62
     3
100
AcDbLine
 10
-197.9796381333235
 20
-276.2521373014764
 30
0.0
 11
-198.9048424360549
 21
-275.3492682394307
 31
0.0
  0
LINE
  5
90548
330
1E
100
AcDbEntity
  8
OUTLINE
  6
Continuous
 62
     3
100
AcDbLine
 10
-181.9411196123972
 20
-291.4425789408245
 30
0.0
 11
-205.5568616475539
 21
-290.6178990567866
 31
0.0
  0
LINE
  5
9054A
330
1E
100
AcDbEntity
  8
OUTLINE
  6
Continuous
 62
     3
100
AcDbLine
 10
-68.12457314416497
 20
-294.7555724410672
 30
0.0
 11
-68.12457314416497
 21
-295.4171403246366
 31
0.0
  0
ELLIPSE
  5
9054D
330
1E
100
AcDbEntity
  8
OUTLINE
  6
Continuous
 62
     3
100
AcDbEllipse
 10
-6.031278699358153
 20
-277.2104979684655
 30
0.0
 11
2.120653908295975
 21
2.120653908295975
 31
0.0
210
0.0
220
0.0
230
1.0
 40
0.9996954599
 41
2.574024077074881
 42
3.926838523699999
  0
LINE
  5
9054F
330
1E
100
AcDbEntity
  8
OUTLINE
  6
Continuous
 62
     3
100
AcDbLine
 10
-4.663854569689647
 20
-184.8062021575864
 30
0.0
 11
-4.663854569689647
 21
-219.6640267941743
 31
0.0
  0
LINE
  5
90550
330
1E
100
AcDbEntity
  8
OUTLINE
  6
Continuous
 62
     3
100
AcDbLine
 10
-27.71593506974841
 20
-0.399752557949796
 30
0.0
 11
-11.15983363637406
 21
-0.399752557949796
 31
0.0
  0
CIRCLE
  5
90565
330
1E
100
AcDbEntity
  8
ARRANGE
  6
Continuous
100
AcDbCircle
 10
0.0
 20
0.0
 30
0.0
 40
13.00138232471456
  0
POINT
  5
90566
330
1E
100
AcDbEntity
  8
ARRANGE
  6
Continuous
100
AcDbPoint
 10
0.0
 20
0.0
 30
0.0
  0
DIMENSION
  5
90567
330
1E
100
AcDbEntity
  8
SIZE
  6
Continuous
100
AcDbDimension
  2
*D3
 10
0.0000000000000041
 20
67.70571372295922
 30
0.0
 11
-128.3539211784075
 21
102.7057137229592
 31
0.0
 70
    32
 71
     5
 42
256.707842356815
  3
STANDARD
100
AcDbAlignedDimension
 13
-256.707842356815
 23
-7.794858005160676
 33
0.0
 14
0.0
 24
0.0
 34
0.0
100
AcDbRotatedDimension
1001
ACAD
1000
DSTYLE
1002
{
1070
    41
1040
10.0
1070
    42
1040
20.0
1070
    43
1040
200.0
1070
    44
1040
20.0
1070
    73
1070
     0
1070
    74
1070
     0
1070
    77
1070
     1
1070
    78
1070
     8
1070
   140
1040
50.0
1070
   141
1040
0.082
1070
   147
1040
10.0
1070
   172
1070
     1
1070
   271
1070
     0
1070
   272
1070
     0
1070
   341
1005
46
1070
   342
1005
46
1002
}
  0
LINE
  5
90593
330
1E
100
AcDbEntity
  8
OUTLINE
  6
Continuous
 62
     3
100
AcDbLine
 10
0.0
 20
-178.1455275493242
 30
0.0
 11
-4.663854569689647
 21
-184.8062021575864
 31
0.0
  0
LINE
  5
905C4
330
1E
100
AcDbEntity
  8
OUTLINE
  6
Continuous
 62
     3
100
AcDbLine
 10
0.0
 20
-178.1455275493242
 30
0.0
 11
-4.593641989482421
 21
-174.9290248013387
 31
0.0
  0
LINE
  5
905F4
330
1E
100
AcDbEntity
  8
DETAIL
  6
Continuous
 62
     5
100
AcDbLine
 10
0.0
 20
-178.1455275493242
 30
0.0
 11
-4.663854569689647
 21
-184.8062021575864
 31
0.0
  0
LINE
  5
905F5
330
1E
100
AcDbEntity
  8
DETAIL
  6
Continuous
 62
     5
100
AcDbLine
 10
0.0
 20
-178.1455275493242
 30
0.0
 11
-4.593641989482421
 21
-174.9290248013387
 31
0.0
  0
DIMENSION
  5
90602
330
1E
100
AcDbEntity
  8
SIZE
  6
Continuous
100
AcDbDimension
  2
*D4
 10
191.089016546257
 20
-254.2172640456632
 30
0.0
 11
156.089016546257
 21
-207.4315497599489
 31
0.0
 70
    32
 71
     5
 42
41.0
  3
STANDARD
100
AcDbAlignedDimension
 13
-2.625845168778606
 23
-295.2172640456632
 33
0.0
 14
15.33178469484665
 24
-254.2172640456632
 34
0.0
 50
90.0
100
AcDbRotatedDimension
1001
ACAD
1000
DSTYLE
1002
{
1070
    41
1040
10.0
1070
    42
1040
20.0
1070
    43
1040
200.0
1070
    44
1040
20.0
1070
    73
1070
     0
1070
    74
1070
     0
1070
    77
1070
     1
1070
    78
1070
     8
1070
   140
1040
50.0
1070
   141
1040
0.082
1070
   147
1040
10.0
1070
   172
1070
     1
1070
   271
1070
     0
1070
   272
1070
     0
1070
   341
1005
46
1070
   342
1005
46
1002
}
  0
DIMENSION
  5
90610
330
1E
100
AcDbEntity
  8
SIZE
  6
Continuous
100
AcDbDimension
  2
*D5
 10
258.0260223467557
 20
-295.2172640456633
 30
0.0
 11
258.0260223467558
 21
-196.788692617341
 31
0.0
 70
   160
 71
     5
 42
41.99999999975079
  3
STANDARD
100
AcDbAlignedDimension
 13
15.33178469484665
 23
-253.2172640459124
 33
0.0
 14
-2.625845168778606
 24
-295.2172640456632
 34
0.0
 50
90.0
100
AcDbRotatedDimension
1001
ACAD
1000
DSTYLE
1002
{
1070
    41
1040
10.0
1070
    42
1040
20.0
1070
    43
1040
200.0
1070
    44
1040
20.0
1070
    73
1070
     0
1070
    74
1070
     0
1070
    77
1070
     1
1070
    78
1070
     8
1070
   140
1040
50.0
1070
   141
1040
0.082
1070
   147
1040
10.0
1070
   172
1070
     1
1070
   271
1070
     0
1070
   272
1070
     0
1070
   341
1005
46
1070
   342
1005
46
1002
}
  0
DIMENSION
  5
90628
330
1E
100
AcDbEntity
  8
SIZE
  6
Continuous
100
AcDbDimension
  2
*D6
 10
366.4938682607789
 20
-295.2172640456618
 30
0.0
 11
331.493868260779
 21
-147.6086320228309
 31
0.0
 70
    32
 71
     5
 42
295.2172640456618
  3
STANDARD
100
AcDbAlignedDimension
 13
0.0
 23
0.0
 33
0.0
 14
-4.668557804960073
 24
-295.2172640456618
 34
0.0
 50
90.0
100
AcDbRotatedDimension
1001
ACAD
1000
DSTYLE
1002
{
1070
    41
1040
10.0
1070
    42
1040
20.0
1070
    43
1040
200.0
1070
    44
1040
20.0
1070
    73
1070
     0
1070
    74
1070
     0
1070
    77
1070
     1
1070
    78
1070
     8
1070
   140
1040
50.0
1070
   141
1040
0.082
1070
   147
1040
10.0
1070
   172
1070
     1
1070
   271
1070
     0
1070
   272
1070
     0
1070
   341
1005
46
1070
   342
1005
46
1002
}
  0
ENDSEC
  0
SECTION
  2
OBJECTS
  0
DICTIONARY
  5
C
330
0
100
AcDbDictionary
281
     1
  3
ACAD_CIP_PREVIOUS_PRODUCT_INFO
350
8E66C
  3
ACAD_COLOR
350
8E64E
  3
ACAD_DETAILVIEWSTYLE
350
8E667
  3
ACAD_GROUP
350
D
  3
ACAD_LAYOUT
350
19
  3
ACAD_MATERIAL
350
8E61C
  3
ACAD_MLEADERSTYLE
350
8E663
  3
ACAD_MLINESTYLE
350
16
  3
ACAD_PLOTSETTINGS
350
18
  3
ACAD_PLOTSTYLENAME
350
E
  3
ACAD_SCALELIST
350
8E651
  3
ACAD_SECTIONVIEWSTYLE
350
8E665
  3
ACAD_TABLESTYLE
350
8E64F
  3
ACAD_VISUALSTYLE
350
8E635
  3
ACDB_RECOMPOSE_DATA
350
906CF
  3
AcDbVariableDictionary
350
906C6
  3
AcDsDecomposeData
350
906D5
  0
DICTIONARY
  5
8E690
330
2
100
AcDbDictionary
280
     1
281
     1
  3
ACAD_LAYERSTATES
360
8E691
  0
DICTIONARY
  5
8E66D
330
10
100
AcDbDictionary
280
     1
281
     1
  3
ADSK_XREC_LAYER_RECONCILED
360
8E66E
  0
DICTIONARY
  5
8E66F
330
22
100
AcDbDictionary
280
     1
281
     1
  3
ADSK_XREC_LAYER_RECONCILED
360
8E670
  0
DICTIONARY
  5
8E671
330
31
100
AcDbDictionary
280
     1
281
     1
  3
ADSK_XREC_LAYER_RECONCILED
360
8E672
  0
DICTIONARY
  5
8E673
330
32
100
AcDbDictionary
280
     1
281
     1
  3
ADSK_XREC_LAYER_RECONCILED
360
8E674
  0
DICTIONARY
  5
8E675
330
33
100
AcDbDictionary
280
     1
281
     1
  3
ADSK_XREC_LAYER_RECONCILED
360
8E676
  0
DICTIONARY
  5
8E677
330
34
100
AcDbDictionary
280
     1
281
     1
  3
ADSK_XREC_LAYER_RECONCILED
360
8E678
  0
DICTIONARY
  5
8E679
330
35
100
AcDbDictionary
280
     1
281
     1
  3
ADSK_XREC_LAYER_RECONCILED
360
8E67A
  0
DICTIONARY
  5
8E67B
330
37
100
AcDbDictionary
280
     1
281
     1
  3
ADSK_XREC_LAYER_RECONCILED
360
8E67C
  0
DICTIONARY
  5
8E68F
330
8E68E
100
AcDbDictionary
280
     1
281
     1
  0
DICTIONARY
  5
66E76
330
1E
100
AcDbDictionary
280
     1
281
     1
  3
ACAD_LAYOUTSELFREF
360
8E617
  3
ACAD_SORTENTS
360
90534
  0
DICTIONARY
  5
66E74
330
1A
100
AcDbDictionary
280
     1
281
     1
  3
ACAD_LAYOUTSELFREF
360
8E616
  0
XRECORD
  5
8E66C
102
{ACAD_REACTORS
330
C
102
}
330
C
100
AcDbXrecord
280
     1
300
ACDLT
300
2014
300
ACDLT_F_S
  0
DICTIONARY
  5
8E64E
102
{ACAD_REACTORS
330
C
102
}
330
C
100
AcDbDictionary
281
     1
  0
DICTIONARY
  5
8E667
102
{ACAD_REACTORS
330
C
102
}
330
C
100
AcDbDictionary
281
     1
  3
Imperial24
350
8E668
  0
DICTIONARY
  5
D
102
{ACAD_REACTORS
330
C
102
}
330
C
100
AcDbDictionary
281
     1
  0
DICTIONARY
  5
19
102
{ACAD_REACTORS
330
C
102
}
330
C
100
AcDbDictionary
281
     1
  3
Model
350
8E669
  3
レイアウト1
350
8E66A
  0
DICTIONARY
  5
8E61C
102
{ACAD_REACTORS
330
C
102
}
330
C
100
AcDbDictionary
281
     1
  3
ByBlock
350
8E625
  3
ByLayer
350
8E61D
  3
Global
350
8E62D
  0
DICTIONARY
  5
8E663
102
{ACAD_REACTORS
330
C
102
}
330
C
100
AcDbDictionary
281
     1
  3
Standard
350
8E664
  0
DICTIONARY
  5
16
102
{ACAD_REACTORS
330
C
102
}
330
C
100
AcDbDictionary
281
     1
  3
STANDARD
350
17
  0
DICTIONARY
  5
18
102
{ACAD_REACTORS
330
C
102
}
330
C
100
AcDbDictionary
281
     1
  0
ACDBDICTIONARYWDFLT
  5
E
102
{ACAD_REACTORS
330
C
102
}
330
C
100
AcDbDictionary
281
     1
  3
Normal
350
F
100
AcDbDictionaryWithDefault
340
F
  0
DICTIONARY
  5
8E651
102
{ACAD_REACTORS
330
C
102
}
330
C
100
AcDbDictionary
281
     1
  3
A0
350
8E652
  3
A1
350
8E653
  3
A2
350
8E654
  3
A3
350
8E655
  3
A4
350
8E656
  3
A5
350
8E657
  3
A6
350
8E658
  3
A7
350
8E659
  3
A8
350
8E65A
  3
A9
350
8E65B
  3
B0
350
8E65C
  3
B1
350
8E65D
  3
B2
350
8E65E
  3
B3
350
8E65F
  3
B4
350
8E660
  3
B5
350
8E661
  3
B6
350
8E662
  0
DICTIONARY
  5
8E665
102
{ACAD_REACTORS
330
C
102
}
330
C
100
AcDbDictionary
281
     1
  3
Imperial24
350
8E666
  0
DICTIONARY
  5
8E64F
102
{ACAD_REACTORS
330
C
102
}
330
C
100
AcDbDictionary
281
     1
  3
Standard
350
8E650
  0
DICTIONARY
  5
8E635
102
{ACAD_REACTORS
330
C
102
}
330
C
100
AcDbDictionary
281
     1
  3
2dWireframe
350
8E63B
  3
Basic
350
8E63A
  3
Brighten
350
8E641
  3
ColorChange
350
8E645
  3
Conceptual
350
8E63E
  3
Dim
350
8E640
  3
EdgeColorOff
350
8E64D
  3
Facepattern
350
8E644
  3
Flat
350
8E636
  3
FlatWithEdges
350
8E637
  3
Gouraud
350
8E638
  3
GouraudWithEdges
350
8E639
  3
Hidden
350
8E63D
  3
JitterOff
350
8E64B
  3
Linepattern
350
8E643
  3
OverhangOff
350
8E64C
  3
Realistic
350
8E63F
  3
Shaded
350
8E64A
  3
Shaded with edges
350
8E649
  3
Shades of Gray
350
8E646
  3
Sketchy
350
8E647
  3
Thicken
350
8E642
  3
Wireframe
350
8E63C
  3
X-Ray
350
8E648
  0
XRECORD
  5
906CF
102
{ACAD_REACTORS
330
C
102
}
330
C
100
AcDbXrecord
280
     1
 90
        1
330
8E650
  0
DICTIONARY
  5
906C6
102
{ACAD_REACTORS
330
C
102
}
330
C
100
AcDbDictionary
281
     1
  3
CANNOSCALE
350
906CB
  3
CMLEADERSTYLE
350
906C8
  3
CTABLESTYLE
350
906C7
  3
CVIEWDETAILSTYLE
350
906C9
  3
CVIEWSECTIONSTYLE
350
906CA
  3
XCLIPFRAME
350
906CC
  0
DICTIONARY
  5
906D5
102
{ACAD_REACTORS
330
C
102
}
330
C
100
AcDbDictionary
281
     1
  3
AcDsRecords
350
906D7
  3
AcDsSchemas
350
906D6
1001
ACAD
1070
     2
  0
DICTIONARY
  5
8E691
102
{ACAD_REACTORS
330
8E690
102
}
330
8E690
100
AcDbDictionary
281
     1
  0
XRECORD
  5
8E66E
102
{ACAD_REACTORS
330
8E66D
102
}
330
8E66D
100
AcDbXrecord
280
     1
290
     1
  0
XRECORD
  5
8E670
102
{ACAD_REACTORS
330
8E66F
102
}
330
8E66F
100
AcDbXrecord
280
     1
290
     1
  0
XRECORD
  5
8E672
102
{ACAD_REACTORS
330
8E671
102
}
330
8E671
100
AcDbXrecord
280
     1
290
     1
  0
XRECORD
  5
8E674
102
{ACAD_REACTORS
330
8E673
102
}
330
8E673
100
AcDbXrecord
280
     1
290
     1
  0
XRECORD
  5
8E676
102
{ACAD_REACTORS
330
8E675
102
}
330
8E675
100
AcDbXrecord
280
     1
290
     1
  0
XRECORD
  5
8E678
102
{ACAD_REACTORS
330
8E677
102
}
330
8E677
100
AcDbXrecord
280
     1
290
     1
  0
XRECORD
  5
8E67A
102
{ACAD_REACTORS
330
8E679
102
}
330
8E679
100
AcDbXrecord
280
     1
290
     1
  0
XRECORD
  5
8E67C
102
{ACAD_REACTORS
330
8E67B
102
}
330
8E67B
100
AcDbXrecord
280
     1
290
     1
  0
XRECORD
  5
8E617
102
{ACAD_REACTORS
330
66E76
102
}
330
66E76
100
AcDbXrecord
280
     1
340
1E
  0
SORTENTSTABLE
  5
90534
102
{ACAD_REACTORS
330
66E76
102
}
330
66E76
100
AcDbSortentsTable
330
1E
331
903F8
  5
903F8
331
903A0
  5
903A0
331
9041A
  5
9041A
331
903C2
  5
903C2
331
903E4
  5
903E4
331
9054D
  5
90546
331
90567
  5
90567
331
9038F
  5
9038F
331
90409
  5
90409
331
903B1
  5
903B1
331
9042B
  5
9042B
331
903D3
  5
903D3
331
9044D
  5
90451
331
903F5
  5
903F5
331
8AEAE
  5
8AEAE
331
9046F
  5
90475
331
90320
  5
90320
331
90342
  5
90342
331
685C5
  5
685C5
331
90364
  5
90364
331
904CD
  5
904DB
331
6866E
  5
6866E
331
685AC
  5
685AC
331
6847B
  5
6847B
331
90418
  5
90418
331
903C0
  5
903C0
331
90529
  5
90544
331
9043A
  5
9043D
331
903E2
  5
903E2
331
90565
  5
90565
331
9032F
  5
9032F
331
90351
  5
90351
331
90373
  5
90373
331
9038D
  5
9038D
331
904F6
  5
90508
331
90407
  5
90407
331
903AF
  5
903AF
331
90429
  5
90429
331
903D1
  5
903D1
331
9044B
  5
9044F
331
903F3
  5
903F3
331
9046D
  5
90472
331
9031E
  5
9031E
331
90340
  5
90340
331
90362
  5
90362
331
9039E
  5
9039E
331
90507
  5
90518
331
685AA
  5
685AA
331
903E0
  5
903E0
331
90474
  5
90479
331
9032D
  5
9032D
331
9034F
  5
9034F
331
904B8
  5
904C2
331
90371
  5
90371
331
9038B
  5
9038B
331
90405
  5
90405
331
903AD
  5
903AD
331
90427
  5
90427
331
903CF
  5
903CF
331
903F1
  5
903F1
331
9046B
  5
90470
331
9031C
  5
9031C
331
9033E
  5
9033E
331
90360
  5
90360
331
9039C
  5
9039C
331
90505
  5
90515
331
90416
  5
90416
331
903BE
  5
903BE
331
90527
  5
90542
331
90472
  5
90477
331
9032B
  5
9032B
331
9034D
  5
9034D
331
904B6
  5
904C0
331
9036F
  5
9036F
331
90389
  5
90389
331
904F2
  5
90503
331
90403
  5
90403
331
903AB
  5
903AB
331
90425
  5
90425
331
903CD
  5
903CD
331
903EF
  5
903EF
331
9031A
  5
9031A
331
9033C
  5
9033C
331
9035E
  5
9035E
331
9039A
  5
9039A
331
90414
  5
90414
331
903BC
  5
903BC
331
90436
  5
90438
331
903DE
  5
903DE
331
90547
  5
904CD
331
90329
  5
90329
331
9034B
  5
9034B
331
9036D
  5
9036D
331
90387
  5
90387
331
904F0
  5
90501
331
90401
  5
90401
331
903A9
  5
903A9
331
90423
  5
90423
331
903CB
  5
903CB
331
903ED
  5
903ED
331
90467
  5
9046C
331
90481
  5
9048A
331
9033A
  5
9033A
331
9035C
  5
9035C
331
9037E
  5
9037E
331
904E7
  5
904F6
331
90398
  5
90398
331
90501
  5
90511
331
90412
  5
90412
331
903BA
  5
903BA
331
90434
  5
90435
331
903DC
  5
903DC
331
905F5
  5
905F5
331
90545
  5
904CF
331
90349
  5
90349
331
904B2
  5
904BB
331
9036B
  5
9036B
331
904D4
  5
904E3
331
90385
  5
90385
331
904EE
  5
904FE
331
903FF
  5
903FF
331
903A7
  5
903A7
331
90421
  5
90421
331
903C9
  5
903C9
331
90465
  5
9046A
331
90338
  5
90338
331
9035A
  5
9035A
331
9037C
  5
9037C
331
904E5
  5
904F4
331
90396
  5
90396
331
904FF
  5
9050F
331
90410
  5
90410
331
903B8
  5
903B8
331
903DA
  5
903DA
331
90327
  5
90327
331
90369
  5
90369
331
904D2
  5
904E1
331
90383
  5
90383
331
904EC
  5
904FC
331
903FD
  5
903FD
331
903A5
  5
903A5
331
9041F
  5
9041F
331
903C7
  5
903C7
331
90530
  5
9054C
331
903E9
  5
903E9
331
9047D
  5
90484
331
90336
  5
90336
331
90358
  5
90358
331
9037A
  5
9037A
331
90394
  5
90394
331
904FD
  5
9050D
331
9040E
  5
9040E
331
903B6
  5
903B6
331
90430
  5
90430
331
903D8
  5
903D8
331
90452
  5
90457
331
90325
  5
90325
331
9048E
  5
90495
331
90347
  5
90347
331
6867B
  5
6867B
331
685B1
  5
685B1
331
904D0
  5
904DF
331
90381
  5
90381
331
904EA
  5
904FA
331
903FB
  5
903FB
331
903A3
  5
903A3
331
9041D
  5
9041D
331
903C5
  5
903C5
331
903E7
  5
903E7
331
90550
  5
904B5
331
9047B
  5
90482
331
90334
  5
90334
331
90356
  5
90356
331
90378
  5
90378
331
90392
  5
90392
331
9040C
  5
9040C
331
903B4
  5
903B4
331
903D6
  5
903D6
331
90450
  5
90455
331
90323
  5
90323
331
90345
  5
90345
331
904AE
  5
904B6
331
90367
  5
90367
331
685AF
  5
685AF
331
6847E
  5
6847E
331
904E8
  5
904F7
331
903F9
  5
903F9
331
903A1
  5
903A1
331
9041B
  5
9041B
331
903C3
  5
903C3
331
9052C
  5
90548
331
903E5
  5
903E5
331
90354
  5
90354
331
90376
  5
90376
331
904DF
  5
904EE
331
90390
  5
90390
331
9040A
  5
9040A
331
903B2
  5
903B2
331
9042C
  5
9042C
331
903D4
  5
903D4
331
903F6
  5
903F6
331
90321
  5
90321
331
9048A
  5
90491
331
90343
  5
90343
331
90365
  5
90365
331
904CE
  5
904DC
331
90419
  5
90419
331
903C1
  5
903C1
331
903E3
  5
903E3
331
90566
  5
90566
331
90330
  5
90330
331
90352
  5
90352
331
904BB
  5
904C8
331
90374
  5
90374
331
9038E
  5
9038E
331
904F7
  5
90509
331
90408
  5
90408
331
9042A
  5
9042A
331
903D2
  5
903D2
331
9044C
  5
90450
331
903F4
  5
903F4
331
8AEAD
  5
8AEAD
331
9046E
  5
90473
331
9031F
  5
9031F
331
90341
  5
90341
331
90363
  5
90363
331
9039F
  5
9039F
331
6866D
  5
6866D
331
90528
  5
90543
331
903E1
  5
903E1
331
9054A
  5
90441
331
9045B
  5
90460
331
9032E
  5
9032E
331
90350
  5
90350
331
90372
  5
90372
331
9038C
  5
9038C
331
90406
  5
90406
331
903AE
  5
903AE
331
90428
  5
90428
331
903D0
  5
903D0
331
903F2
  5
903F2
331
9046C
  5
90471
331
9031D
  5
9031D
331
9033F
  5
9033F
331
90361
  5
90361
331
9039D
  5
9039D
331
90506
  5
90516
331
903BF
  5
903BF
331
685A9
  5
685A9
331
90548
  5
904BD
331
90459
  5
9045E
331
90473
  5
90478
331
9032C
  5
9032C
331
9034E
  5
9034E
331
90370
  5
90370
331
9038A
  5
9038A
331
90404
  5
90404
331
903AC
  5
903AC
331
90426
  5
90426
331
903CE
  5
903CE
331
903F0
  5
903F0
331
9046A
  5
9046F
331
9031B
  5
9031B
331
9033D
  5
9033D
331
9035F
  5
9035F
331
9039B
  5
9039B
331
90415
  5
90415
331
903BD
  5
903BD
331
90526
  5
90540
331
90437
  5
9043A
331
903DF
  5
903DF
331
90471
  5
90476
331
9032A
  5
9032A
331
9034C
  5
9034C
331
9036E
  5
9036E
331
90388
  5
90388
331
90402
  5
90402
331
903AA
  5
903AA
331
90424
  5
90424
331
903CC
  5
903CC
331
903EE
  5
903EE
331
90468
  5
9046D
331
90319
  5
90319
331
90593
  5
90593
331
9033B
  5
9033B
331
9035D
  5
9035D
331
9037F
  5
9037F
331
90399
  5
90399
331
90413
  5
90413
331
903BB
  5
903BB
331
903DD
  5
903DD
331
685A5
  5
685A5
331
90328
  5
90328
331
9034A
  5
9034A
331
904B3
  5
904BC
331
905C4
  5
905C4
331
9036C
  5
9036C
331
90386
  5
90386
331
90400
  5
90400
331
903A8
  5
903A8
331
90422
  5
90422
331
903CA
  5
903CA
331
90533
  5
90437
331
90466
  5
9046B
331
90339
  5
90339
331
9035B
  5
9035B
331
9037D
  5
9037D
331
90397
  5
90397
331
90500
  5
90510
331
90411
  5
90411
331
903B9
  5
903B9
331
90433
  5
90433
331
903DB
  5
903DB
331
905F4
  5
905F4
331
90348
  5
90348
331
9036A
  5
9036A
331
904D3
  5
904E2
331
90384
  5
90384
331
904ED
  5
904FD
331
903FE
  5
903FE
331
903A6
  5
903A6
331
9050F
  5
90520
331
90420
  5
90420
331
903C8
  5
903C8
331
903EA
  5
903EA
331
8AEA3
  5
8AEA3
331
9047E
  5
90485
331
90337
  5
90337
331
90359
  5
90359
331
9037B
  5
9037B
331
904E4
  5
904F3
331
90395
  5
90395
331
904FE
  5
9050E
331
9040F
  5
9040F
331
903B7
  5
903B7
331
90431
  5
90431
331
903D9
  5
903D9
331
90542
  5
90505
331
90453
  5
90458
331
90326
  5
90326
331
6867C
  5
6867C
331
685B2
  5
685B2
331
90368
  5
90368
331
904D1
  5
904E0
331
90382
  5
90382
331
904EB
  5
904FB
331
903FC
  5
903FC
331
903A4
  5
903A4
331
9041E
  5
9041E
331
903C6
  5
903C6
331
903E8
  5
903E8
331
9047C
  5
90483
331
90335
  5
90335
331
90357
  5
90357
331
90379
  5
90379
331
90393
  5
90393
331
9040D
  5
9040D
331
903B5
  5
903B5
331
903D7
  5
903D7
331
90540
  5
9047D
331
90451
  5
90456
331
90324
  5
90324
331
90346
  5
90346
331
685B0
  5
685B0
331
90380
  5
90380
331
904E9
  5
904F9
331
903FA
  5
903FA
331
903A2
  5
903A2
331
9041C
  5
9041C
331
903C4
  5
903C4
331
9052D
  5
90549
331
903E6
  5
903E6
331
9054F
  5
90453
331
9047A
  5
90481
331
90333
  5
90333
331
90355
  5
90355
331
904BE
  5
904CA
331
90377
  5
90377
331
904E0
  5
904EF
331
90391
  5
90391
331
904FA
  5
9050A
331
9040B
  5
9040B
331
9042D
  5
9042D
331
903D5
  5
903D5
331
9044F
  5
90454
331
903F7
  5
903F7
331
90322
  5
90322
331
9048B
  5
90492
331
90344
  5
90344
331
90366
  5
90366
331
38341
  5
38341
  0
XRECORD
  5
8E616
102
{ACAD_REACTORS
330
66E74
102
}
330
66E74
100
AcDbXrecord
280
     1
340
1A
  0
ACDBDETAILVIEWSTYLE
  5
8E668
102
{ACAD_XDICTIONARY
360
9070F
102
}
102
{ACAD_REACTORS
330
8E667
102
}
330
8E667
100
AcDbModelDocViewStyle
 70
     0
  3
Imperial24
290
     0
100
AcDbDetailViewStyle
 70
     0
 71
     0
 90
        3
 71
     1
340
11
 62
   256
 40
0.24
340
0
 62
   256
 40
0.24
300

 40
0.36
280
     3
 71
     2
340
15
 90
       25
 62
   256
 71
     3
340
11
 62
   256
 40
0.24
 90
        1
 40
0.75
 90
        1
300
%<\AcVar ViewType \f "%tc1">% %<\AcVar ViewDetailId>%\PSCALE %<\AcVar ViewScale \f "%sn">%
 71
     4
340
15
 90
       25
 62
   256
340
15
 90
       25
 62
   256
280
     0
  0
LAYOUT
  5
8E669
102
{ACAD_REACTORS
330
19
102
}
330
19
100
AcDbPlotSettings
  1

  2
なし
  4

  6

 40
0.0
 41
0.0
 42
0.0
 43
0.0
 44
0.0
 45
0.0
 46
0.0
 47
0.0
 48
0.0
 49
0.0
140
0.0
141
0.0
142
1.0
143
1.0
 70
  1712
 72
     0
 73
     0
 74
     0
  7

 75
     0
147
1.0
 76
     0
 77
     2
 78
   300
148
0.0
149
0.0
100
AcDbLayout
  1
Model
 70
     1
 71
     0
 10
0.0
 20
0.0
 11
12.0
 21
9.0
 12
0.0
 22
0.0
 32
0.0
 14
0.0
 24
0.0
 34
0.0
 15
0.0
 25
0.0
 35
0.0
146
0.0
 13
0.0
 23
0.0
 33
0.0
 16
1.0
 26
0.0
 36
0.0
 17
0.0
 27
1.0
 37
0.0
 76
     0
330
1E
331
8E5F4
  0
LAYOUT
  5
8E66A
102
{ACAD_REACTORS
330
19
102
}
330
19
100
AcDbPlotSettings
  1

  2
なし
  4

  6

 40
0.0
 41
0.0
 42
0.0
 43
0.0
 44
0.0
 45
0.0
 46
0.0
 47
0.0
 48
0.0
 49
0.0
140
0.0
141
0.0
142
1.0
143
1.0
 70
   688
 72
     0
 73
     0
 74
     5
  7

 75
    16
147
1.0
 76
     0
 77
     2
 78
   300
148
0.0
149
0.0
100
AcDbLayout
  1
レイアウト1
 70
     1
 71
     1
 10
0.0
 20
0.0
 11
12.0
 21
9.0
 12
0.0
 22
0.0
 32
0.0
 14
1.000000000000000E+20
 24
1.000000000000000E+20
 34
1.000000000000000E+20
 15
-1.000000000000000E+20
 25
-1.000000000000000E+20
 35
-1.000000000000000E+20
146
0.0
 13
0.0
 23
0.0
 33
0.0
 16
1.0
 26
0.0
 36
0.0
 17
0.0
 27
1.0
 37
0.0
 76
     0
330
1A
  0
MATERIAL
  5
8E625
102
{ACAD_XDICTIONARY
360
8E626
102
}
102
{ACAD_REACTORS
330
8E61C
102
}
330
8E61C
100
AcDbMaterial
  1
ByBlock
 72
     0
 43
0.0208333333333333
 43
0.0
 43
0.0
 43
0.0
 43
0.0
 43
0.0208333333333333
 43
0.0
 43
0.0
 43
0.0
 43
0.0
 43
1.0
 43
0.0
 43
0.0
 43
0.0
 43
0.0
 43
1.0
 77
     0
 47
0.0208333333333333
 47
0.0
 47
0.0
 47
0.0
 47
0.0
 47
0.0208333333333333
 47
0.0
 47
0.0
 47
0.0
 47
0.0
 47
1.0
 47
0.0
 47
0.0
 47
0.0
 47
0.0
 47
1.0
171
     0
 49
0.0208333333333333
 49
0.0
 49
0.0
 49
0.0
 49
0.0
 49
0.0208333333333333
 49
0.0
 49
0.0
 49
0.0
 49
0.0
 49
1.0
 49
0.0
 49
0.0
 49
0.0
 49
0.0
 49
1.0
175
     0
142
0.0208333333333333
142
0.0
142
0.0
142
0.0
142
0.0
142
0.0208333333333333
142
0.0
142
0.0
142
0.0
142
0.0
142
1.0
142
0.0
142
0.0
142
0.0
142
0.0
142
1.0
179
     0
144
0.0208333333333333
144
0.0
144
0.0
144
0.0
144
0.0
144
0.0208333333333333
144
0.0
144
0.0
144
0.0
144
0.0
144
1.0
144
0.0
144
0.0
144
0.0
144
0.0
144
1.0
147
0.0208333333333333
147
0.0
147
0.0
147
0.0
147
0.0
147
0.0208333333333333
147
0.0
147
0.0
147
0.0
147
0.0
147
1.0
147
0.0
147
0.0
147
0.0
147
0.0
147
1.0
  0
MATERIAL
  5
8E61D
102
{ACAD_XDICTIONARY
360
8E61E
102
}
102
{ACAD_REACTORS
330
8E61C
102
}
330
8E61C
100
AcDbMaterial
  1
ByLayer
 72
     0
 43
0.0208333333333333
 43
0.0
 43
0.0
 43
0.0
 43
0.0
 43
0.0208333333333333
 43
0.0
 43
0.0
 43
0.0
 43
0.0
 43
1.0
 43
0.0
 43
0.0
 43
0.0
 43
0.0
 43
1.0
 77
     0
 47
0.0208333333333333
 47
0.0
 47
0.0
 47
0.0
 47
0.0
 47
0.0208333333333333
 47
0.0
 47
0.0
 47
0.0
 47
0.0
 47
1.0
 47
0.0
 47
0.0
 47
0.0
 47
0.0
 47
1.0
171
     0
 49
0.0208333333333333
 49
0.0
 49
0.0
 49
0.0
 49
0.0
 49
0.0208333333333333
 49
0.0
 49
0.0
 49
0.0
 49
0.0
 49
1.0
 49
0.0
 49
0.0
 49
0.0
 49
0.0
 49
1.0
175
     0
142
0.0208333333333333
142
0.0
142
0.0
142
0.0
142
0.0
142
0.0208333333333333
142
0.0
142
0.0
142
0.0
142
0.0
142
1.0
142
0.0
142
0.0
142
0.0
142
0.0
142
1.0
179
     0
144
0.0208333333333333
144
0.0
144
0.0
144
0.0
144
0.0
144
0.0208333333333333
144
0.0
144
0.0
144
0.0
144
0.0
144
1.0
144
0.0
144
0.0
144
0.0
144
0.0
144
1.0
147
0.0208333333333333
147
0.0
147
0.0
147
0.0
147
0.0
147
0.0208333333333333
147
0.0
147
0.0
147
0.0
147
0.0
147
1.0
147
0.0
147
0.0
147
0.0
147
0.0
147
1.0
  0
MATERIAL
  5
8E62D
102
{ACAD_XDICTIONARY
360
8E62E
102
}
102
{ACAD_REACTORS
330
8E61C
102
}
330
8E61C
100
AcDbMaterial
  1
Global
 72
     0
 43
0.0208333333333333
 43
0.0
 43
0.0
 43
0.0
 43
0.0
 43
0.0208333333333333
 43
0.0
 43
0.0
 43
0.0
 43
0.0
 43
1.0
 43
0.0
 43
0.0
 43
0.0
 43
0.0
 43
1.0
 77
     0
 47
0.0208333333333333
 47
0.0
 47
0.0
 47
0.0
 47
0.0
 47
0.0208333333333333
 47
0.0
 47
0.0
 47
0.0
 47
0.0
 47
1.0
 47
0.0
 47
0.0
 47
0.0
 47
0.0
 47
1.0
171
     0
 49
0.0208333333333333
 49
0.0
 49
0.0
 49
0.0
 49
0.0
 49
0.0208333333333333
 49
0.0
 49
0.0
 49
0.0
 49
0.0
 49
1.0
 49
0.0
 49
0.0
 49
0.0
 49
0.0
 49
1.0
175
     0
142
0.0208333333333333
142
0.0
142
0.0
142
0.0
142
0.0
142
0.0208333333333333
142
0.0
142
0.0
142
0.0
142
0.0
142
1.0
142
0.0
142
0.0
142
0.0
142
0.0
142
1.0
179
     0
144
0.0208333333333333
144
0.0
144
0.0
144
0.0
144
0.0
144
0.0208333333333333
144
0.0
144
0.0
144
0.0
144
0.0
144
1.0
144
0.0
144
0.0
144
0.0
144
0.0
144
1.0
147
0.0208333333333333
147
0.0
147
0.0
147
0.0
147
0.0
147
0.0208333333333333
147
0.0
147
0.0
147
0.0
147
0.0
147
1.0
147
0.0
147
0.0
147
0.0
147
0.0
147
1.0
  0
MLEADERSTYLE
  5
8E664
102
{ACAD_REACTORS
330
8E663
102
}
330
8E663
100
AcDbMLeaderStyle
170
     2
171
     1
172
     0
 90
        2
 40
0.0
 41
0.0
173
     1
 91
-1056964608
340
13
 92
       -2
290
     1
 42
0.09
291
     1
 43
0.36
  3
Standard
 44
0.18
300

342
11
174
     1
178
     6
175
     1
176
     0
 93
-1056964608
 45
0.18
292
     0
297
     0
 46
0.18
 94
-1056964608
 47
1.0
 49
1.0
140
1.0
293
     1
141
0.0
294
     1
177
     0
142
1.0
295
     0
296
     0
143
0.125
1001
ACAD_MLEADERVER
1070
     2
  0
MLINESTYLE
  5
17
102
{ACAD_REACTORS
330
16
102
}
330
16
100
AcDbMlineStyle
  2
STANDARD
 70
     0
  3

 62
   256
 51
90.0
 52
90.0
 71
     2
 49
0.5
 62
   256
  6
BYLAYER
 49
-0.5
 62
   256
  6
BYLAYER
  0
ACDBPLACEHOLDER
  5
F
102
{ACAD_REACTORS
330
E
102
}
330
E
  0
SCALE
  5
8E652
102
{ACAD_REACTORS
330
8E651
102
}
330
8E651
100
AcDbScale
 70
     0
300
1:1
140
1.0
141
1.0
290
     1
  0
SCALE
  5
8E653
102
{ACAD_REACTORS
330
8E651
102
}
330
8E651
100
AcDbScale
 70
     0
300
1/128" = 1'-0"
140
0.0078125
141
12.0
290
     0
  0
SCALE
  5
8E654
102
{ACAD_REACTORS
330
8E651
102
}
330
8E651
100
AcDbScale
 70
     0
300
1/64" = 1'-0"
140
0.015625
141
12.0
290
     0
  0
SCALE
  5
8E655
102
{ACAD_REACTORS
330
8E651
102
}
330
8E651
100
AcDbScale
 70
     0
300
1/32" = 1'-0"
140
0.03125
141
12.0
290
     0
  0
SCALE
  5
8E656
102
{ACAD_REACTORS
330
8E651
102
}
330
8E651
100
AcDbScale
 70
     0
300
1/16" = 1'-0"
140
0.0625
141
12.0
290
     0
  0
SCALE
  5
8E657
102
{ACAD_REACTORS
330
8E651
102
}
330
8E651
100
AcDbScale
 70
     0
300
3/32" = 1'-0"
140
0.09375
141
12.0
290
     0
  0
SCALE
  5
8E658
102
{ACAD_REACTORS
330
8E651
102
}
330
8E651
100
AcDbScale
 70
     0
300
1/8" = 1'-0"
140
0.125
141
12.0
290
     0
  0
SCALE
  5
8E659
102
{ACAD_REACTORS
330
8E651
102
}
330
8E651
100
AcDbScale
 70
     0
300
3/16" = 1'-0"
140
0.1875
141
12.0
290
     0
  0
SCALE
  5
8E65A
102
{ACAD_REACTORS
330
8E651
102
}
330
8E651
100
AcDbScale
 70
     0
300
1/4" = 1'-0"
140
0.25
141
12.0
290
     0
  0
SCALE
  5
8E65B
102
{ACAD_REACTORS
330
8E651
102
}
330
8E651
100
AcDbScale
 70
     0
300
3/8" = 1'-0"
140
0.375
141
12.0
290
     0
  0
SCALE
  5
8E65C
102
{ACAD_REACTORS
330
8E651
102
}
330
8E651
100
AcDbScale
 70
     0
300
1/2" = 1'-0"
140
0.5
141
12.0
290
     0
  0
SCALE
  5
8E65D
102
{ACAD_REACTORS
330
8E651
102
}
330
8E651
100
AcDbScale
 70
     0
300
3/4" = 1'-0"
140
0.75
141
12.0
290
     0
  0
SCALE
  5
8E65E
102
{ACAD_REACTORS
330
8E651
102
}
330
8E651
100
AcDbScale
 70
     0
300
1" = 1'-0"
140
1.0
141
12.0
290
     0
  0
SCALE
  5
8E65F
102
{ACAD_REACTORS
330
8E651
102
}
330
8E651
100
AcDbScale
 70
     0
300
1-1/2" = 1'-0"
140
1.5
141
12.0
290
     0
  0
SCALE
  5
8E660
102
{ACAD_REACTORS
330
8E651
102
}
330
8E651
100
AcDbScale
 70
     0
300
3" = 1'-0"
140
3.0
141
12.0
290
     0
  0
SCALE
  5
8E661
102
{ACAD_REACTORS
330
8E651
102
}
330
8E651
100
AcDbScale
 70
     0
300
6" = 1'-0"
140
6.0
141
12.0
290
     0
  0
SCALE
  5
8E662
102
{ACAD_REACTORS
330
8E651
102
}
330
8E651
100
AcDbScale
 70
     0
300
1'-0" = 1'-0"
140
12.0
141
12.0
290
     0
  0
ACDBSECTIONVIEWSTYLE
  5
8E666
102
{ACAD_XDICTIONARY
360
9070D
102
}
102
{ACAD_REACTORS
330
8E665
102
}
330
8E665
100
AcDbModelDocViewStyle
 70
     0
  3
Imperial24
290
     0
100
AcDbSectionViewStyle
 70
     0
 71
     0
 90
       78
 71
     1
340
11
 62
   256
 40
0.24
340
0
340
0
 62
   256
 40
0.24
300
I, O, Q, S, X, Z
 40
0.48
 90
        3
 40
0.18
 90
        1
 71
     2
340
15
 90
       25
 62
   256
340
15
 90
       50
 62
   256
 40
0.24
 40
0.0
 40
0.24
 71
     3
340
11
 62
   256
 40
0.24
 90
        1
 40
0.75
 90
        1
300
%<\AcVar ViewType \f "%tc1">% %<\AcVar ViewSectionStartId>%-%<\AcVar ViewSectionEndId>%\PSCALE %<\AcVar ViewScale \f "%sn">%
 71
     4
 62
   256
 62
   257
300
ANSI31
 40
1.0
 90
        0
290
     0
290
     0
 90
        6
 40
0.0
 40
1.570796326794896
 40
0.2617993877991494
 40
1.308996938995747
 40
-0.2617993877991494
 40
1.832595714594046
  0
TABLESTYLE
  5
8E650
102
{ACAD_XDICTIONARY
360
906CD
102
}
102
{ACAD_REACTORS
330
8E64F
102
}
330
8E64F
100
AcDbTableStyle
  3
Standard
 70
     0
 71
     0
 40
0.06
 41
0.06
280
     0
281
     0
  7
STANDARD
140
0.18
170
     2
 62
     0
 63
     7
283
     0
274
    -2
284
     1
 64
     0
275
    -2
285
     1
 65
     0
276
    -2
286
     1
 66
     0
277
    -2
287
     1
 67
     0
278
    -2
288
     1
 68
     0
279
    -2
289
     1
 69
     0
  7
STANDARD
140
0.25
170
     5
 62
     0
 63
     7
283
     0
274
    -2
284
     1
 64
     0
275
    -2
285
     1
 65
     0
276
    -2
286
     1
 66
     0
277
    -2
287
     1
 67
     0
278
    -2
288
     1
 68
     0
279
    -2
289
     1
 69
     0
  7
STANDARD
140
0.18
170
     5
 62
     0
 63
     7
283
     0
274
    -2
284
     1
 64
     0
275
    -2
285
     1
 65
     0
276
    -2
286
     1
 66
     0
277
    -2
287
     1
 67
     0
278
    -2
288
     1
 68
     0
279
    -2
289
     1
 69
     0
  0
VISUALSTYLE
  5
8E63B
102
{ACAD_XDICTIONARY
360
906E5
102
}
102
{ACAD_REACTORS
330
8E635
102
}
330
8E635
100
AcDbVisualStyle
  2
2dWireframe
 70
     4
 71
     0
 72
     2
 73
     0
 90
        0
 40
-0.6
 41
-30.0
 62
     5
 63
     7
421
 16777215
 74
     1
 91
        4
 64
     7
 65
   257
 75
     1
175
     1
 42
1.0
 92
        0
 66
   257
 43
1.0
 76
     1
 77
     6
 78
     2
 67
     7
 79
     5
170
     0
171
     0
290
     0
174
     0
 93
        1
 44
0.0
173
     0
291
     0
 45
0.0
1001
ACAD
1000
AcDbSavedByObjectVersion
1070
     0
  0
VISUALSTYLE
  5
8E63A
102
{ACAD_XDICTIONARY
360
906E3
102
}
102
{ACAD_REACTORS
330
8E635
102
}
330
8E635
100
AcDbVisualStyle
  2
Basic
 70
     7
 71
     1
 72
     0
 73
     1
 90
        0
 40
-0.6
 41
-30.0
 62
     5
 63
     7
421
 16777215
 74
     0
 91
        4
 64
     7
 65
   257
 75
     1
175
     1
 42
1.0
 92
        8
 66
     7
 43
1.0
 76
     1
 77
     6
 78
     2
 67
     7
 79
     5
170
     0
171
     0
290
     0
174
     0
 93
        1
 44
0.0
173
     0
291
     1
 45
0.0
1001
ACAD
1000
AcDbSavedByObjectVersion
1070
     0
  0
VISUALSTYLE
  5
8E641
102
{ACAD_XDICTIONARY
360
906F1
102
}
102
{ACAD_REACTORS
330
8E635
102
}
330
8E635
100
AcDbVisualStyle
  2
Brighten
 70
    12
 71
     2
 72
     2
 73
     0
 90
        0
 40
-0.6
 41
-30.0
 62
     5
 63
     7
421
 16777215
 74
     1
 91
        4
 64
     7
 65
   257
 75
     1
175
     1
 42
1.0
 92
        8
 66
     7
 43
1.0
 76
     1
 77
     6
 78
     2
 67
     7
 79
     5
170
     0
171
     0
290
     0
174
     0
 93
        1
 44
50.0
173
     0
291
     1
 45
0.0
1001
ACAD
1000
AcDbSavedByObjectVersion
1070
     0
  0
VISUALSTYLE
  5
8E645
102
{ACAD_XDICTIONARY
360
906F9
102
}
102
{ACAD_REACTORS
330
8E635
102
}
330
8E635
100
AcDbVisualStyle
  2
ColorChange
 70
    16
 71
     2
 72
     2
 73
     3
 90
        0
 40
-0.6
 41
-30.0
 62
     5
 63
     8
421
  8421504
 74
     1
 91
        4
 64
     7
 65
   257
 75
     1
175
     1
 42
1.0
 92
        8
 66
     8
424
  8421504
 43
1.0
 76
     1
 77
     6
 78
     2
 67
     7
 79
     5
170
     0
171
     0
290
     0
174
     0
 93
        1
 44
0.0
173
     0
291
     1
 45
0.0
1001
ACAD
1000
AcDbSavedByObjectVersion
1070
     0
  0
VISUALSTYLE
  5
8E63E
102
{ACAD_XDICTIONARY
360
906EB
102
}
102
{ACAD_REACTORS
330
8E635
102
}
330
8E635
100
AcDbVisualStyle
  2
Conceptual
 70
     9
 71
     3
 72
     2
 73
     0
 90
        0
 40
-0.6
 41
-30.0
 62
     5
 63
     7
421
 16777215
 74
     2
 91
        2
 64
     7
 65
   257
 75
     1
175
     1
 42
179.0
 92
        8
 66
     7
 43
1.0
 76
     1
 77
     6
 78
     2
 67
     7
 79
     3
170
     0
171
     0
290
     0
174
     0
 93
        1
 44
0.0
173
     0
291
     0
 45
0.0
1001
ACAD
1000
AcDbSavedByObjectVersion
1070
     0
  0
VISUALSTYLE
  5
8E640
102
{ACAD_XDICTIONARY
360
906EF
102
}
102
{ACAD_REACTORS
330
8E635
102
}
330
8E635
100
AcDbVisualStyle
  2
Dim
 70
    11
 71
     2
 72
     2
 73
     0
 90
        0
 40
-0.6
 41
-30.0
 62
     5
 63
     7
421
 16777215
 74
     1
 91
        4
 64
     7
 65
   257
 75
     1
175
     1
 42
1.0
 92
        8
 66
     7
 43
1.0
 76
     1
 77
     6
 78
     2
 67
     7
 79
     5
170
     0
171
     0
290
     0
174
     0
 93
        1
 44
-50.0
173
     0
291
     1
 45
0.0
1001
ACAD
1000
AcDbSavedByObjectVersion
1070
     0
  0
VISUALSTYLE
  5
8E64D
102
{ACAD_XDICTIONARY
360
90709
102
}
102
{ACAD_REACTORS
330
8E635
102
}
330
8E635
100
AcDbVisualStyle
  2
EdgeColorOff
 70
    22
 71
     2
 72
     2
 73
     0
 90
        0
 40
-0.6
 41
-30.0
 62
     5
 63
     7
421
 16777215
 74
     1
 91
        4
 64
     7
 65
   257
 75
     1
175
     1
 42
1.0
 92
        8
 66
     7
 43
1.0
 76
     1
 77
     6
 78
     2
 67
     7
 79
     5
170
     0
171
     0
290
     0
174
     0
 93
        1
 44
0.0
173
     0
291
     1
 45
0.0
1001
ACAD
1000
AcDbSavedByObjectVersion
1070
     0
  0
VISUALSTYLE
  5
8E644
102
{ACAD_XDICTIONARY
360
906F7
102
}
102
{ACAD_REACTORS
330
8E635
102
}
330
8E635
100
AcDbVisualStyle
  2
Facepattern
 70
    15
 71
     2
 72
     2
 73
     0
 90
        0
 40
-0.6
 41
-30.0
 62
     5
 63
     7
421
 16777215
 74
     1
 91
        4
 64
     7
 65
   257
 75
     1
175
     1
 42
1.0
 92
        8
 66
     7
 43
1.0
 76
     1
 77
     6
 78
     2
 67
     7
 79
     5
170
     0
171
     0
290
     0
174
     0
 93
        1
 44
0.0
173
     0
291
     1
 45
0.0
1001
ACAD
1000
AcDbSavedByObjectVersion
1070
     0
  0
VISUALSTYLE
  5
8E636
102
{ACAD_XDICTIONARY
360
906DB
102
}
102
{ACAD_REACTORS
330
8E635
102
}
330
8E635
100
AcDbVisualStyle
  2
Flat
 70
     0
 71
     2
 72
     1
 73
     1
 90
        2
 40
-0.6
 41
30.0
 62
     5
 63
     7
421
 16777215
 74
     0
 91
        0
 64
     7
 65
   257
 75
     1
175
     1
 42
1.0
 92
        8
 66
     7
 43
1.0
 76
     1
 77
     6
 78
     2
 67
     7
 79
     5
170
     0
171
     0
290
     0
174
     0
 93
       13
 44
0.0
173
     0
291
     1
 45
0.0
1001
ACAD
1000
AcDbSavedByObjectVersion
1070
     0
  0
VISUALSTYLE
  5
8E637
102
{ACAD_XDICTIONARY
360
906DD
102
}
102
{ACAD_REACTORS
330
8E635
102
}
330
8E635
100
AcDbVisualStyle
  2
FlatWithEdges
 70
     1
 71
     2
 72
     1
 73
     1
 90
        2
 40
-0.6
 41
30.0
 62
     5
 63
     7
421
 16777215
 74
     1
 91
        0
 64
     7
 65
   257
 75
     1
175
     1
 42
1.0
 92
        0
 66
   257
 43
1.0
 76
     1
 77
     6
 78
     2
 67
     7
 79
     5
170
     0
171
     0
290
     0
174
     0
 93
       13
 44
0.0
173
     0
291
     1
 45
0.0
1001
ACAD
1000
AcDbSavedByObjectVersion
1070
     0
  0
VISUALSTYLE
  5
8E638
102
{ACAD_XDICTIONARY
360
906DF
102
}
102
{ACAD_REACTORS
330
8E635
102
}
330
8E635
100
AcDbVisualStyle
  2
Gouraud
 70
     2
 71
     2
 72
     2
 73
     1
 90
        2
 40
-0.6
 41
30.0
 62
     5
 63
     7
421
 16777215
 74
     0
 91
        0
 64
     7
 65
   257
 75
     1
175
     1
 42
1.0
 92
        0
 66
     7
 43
1.0
 76
     1
 77
     6
 78
     2
 67
     7
 79
     5
170
     0
171
     0
290
     0
174
     0
 93
       13
 44
0.0
173
     0
291
     1
 45
0.0
1001
ACAD
1000
AcDbSavedByObjectVersion
1070
     0
  0
VISUALSTYLE
  5
8E639
102
{ACAD_XDICTIONARY
360
906E1
102
}
102
{ACAD_REACTORS
330
8E635
102
}
330
8E635
100
AcDbVisualStyle
  2
GouraudWithEdges
 70
     3
 71
     2
 72
     2
 73
     1
 90
        2
 40
-0.6
 41
30.0
 62
     5
 63
     7
421
 16777215
 74
     1
 91
        0
 64
     7
 65
   257
 75
     1
175
     1
 42
1.0
 92
        0
 66
   257
 43
1.0
 76
     1
 77
     6
 78
     2
 67
     7
 79
     5
170
     0
171
     0
290
     0
174
     0
 93
       13
 44
0.0
173
     0
291
     1
 45
0.0
1001
ACAD
1000
AcDbSavedByObjectVersion
1070
     0
  0
VISUALSTYLE
  5
8E63D
102
{ACAD_XDICTIONARY
360
906E9
102
}
102
{ACAD_REACTORS
330
8E635
102
}
330
8E635
100
AcDbVisualStyle
  2
Hidden
 70
     6
 71
     1
 72
     2
 73
     2
 90
        0
 40
-0.6
 41
-30.0
 62
     5
 63
     7
421
 16777215
 74
     2
 91
        2
 64
     7
 65
   257
 75
     2
175
     1
 42
40.0
 92
        0
 66
   257
 43
1.0
 76
     1
 77
     6
 78
     2
 67
     7
 79
     3
170
     0
171
     0
290
     0
174
     0
 93
        1
 44
0.0
173
     0
291
     0
 45
0.0
1001
ACAD
1000
AcDbSavedByObjectVersion
1070
     0
  0
VISUALSTYLE
  5
8E64B
102
{ACAD_XDICTIONARY
360
90705
102
}
102
{ACAD_REACTORS
330
8E635
102
}
330
8E635
100
AcDbVisualStyle
  2
JitterOff
 70
    20
 71
     2
 72
     2
 73
     0
 90
        0
 40
-0.6
 41
-30.0
 62
     5
 63
     7
421
 16777215
 74
     1
 91
        4
 64
     7
 65
   257
 75
     1
175
     1
 42
1.0
 92
       10
 66
     7
 43
1.0
 76
     1
 77
     6
 78
     2
 67
     7
 79
     5
170
     0
171
     0
290
     0
174
     0
 93
        1
 44
0.0
173
     0
291
     1
 45
0.0
1001
ACAD
1000
AcDbSavedByObjectVersion
1070
     0
  0
VISUALSTYLE
  5
8E643
102
{ACAD_XDICTIONARY
360
906F5
102
}
102
{ACAD_REACTORS
330
8E635
102
}
330
8E635
100
AcDbVisualStyle
  2
Linepattern
 70
    14
 71
     2
 72
     2
 73
     0
 90
        0
 40
-0.6
 41
-30.0
 62
     5
 63
     7
421
 16777215
 74
     1
 91
        4
 64
     7
 65
   257
 75
     7
175
     7
 42
1.0
 92
        8
 66
     7
 43
1.0
 76
     1
 77
     6
 78
     2
 67
     7
 79
     5
170
     0
171
     0
290
     0
174
     0
 93
        1
 44
0.0
173
     0
291
     1
 45
0.0
1001
ACAD
1000
AcDbSavedByObjectVersion
1070
     0
  0
VISUALSTYLE
  5
8E64C
102
{ACAD_XDICTIONARY
360
90707
102
}
102
{ACAD_REACTORS
330
8E635
102
}
330
8E635
100
AcDbVisualStyle
  2
OverhangOff
 70
    21
 71
     2
 72
     2
 73
     0
 90
        0
 40
-0.6
 41
-30.0
 62
     5
 63
     7
421
 16777215
 74
     1
 91
        4
 64
     7
 65
   257
 75
     1
175
     1
 42
1.0
 92
        9
 66
     7
 43
1.0
 76
     1
 77
     6
 78
     2
 67
     7
 79
     5
170
     0
171
     0
290
     0
174
     0
 93
        1
 44
0.0
173
     0
291
     1
 45
0.0
1001
ACAD
1000
AcDbSavedByObjectVersion
1070
     0
  0
VISUALSTYLE
  5
8E63F
102
{ACAD_XDICTIONARY
360
906ED
102
}
102
{ACAD_REACTORS
330
8E635
102
}
330
8E635
100
AcDbVisualStyle
  2
Realistic
 70
     8
 71
     2
 72
     3
 73
     0
 90
        2
 40
-0.6
 41
30.0
 62
     5
 63
     7
421
 16777215
 74
     0
 91
        0
 64
     7
 65
   257
 75
     1
175
     1
 42
1.0
 92
        8
 66
   257
 43
1.0
 76
     1
 77
     6
 78
     2
 67
     7
 79
     3
170
     0
171
     0
290
     0
174
     0
 93
       13
 44
0.0
173
     0
291
     0
 45
0.0
1001
ACAD
1000
AcDbSavedByObjectVersion
1070
     0
  0
VISUALSTYLE
  5
8E64A
102
{ACAD_XDICTIONARY
360
90703
102
}
102
{ACAD_REACTORS
330
8E635
102
}
330
8E635
100
AcDbVisualStyle
  2
Shaded
 70
    27
 71
     2
 72
     2
 73
     1
 90
        2
 40
-0.6
 41
30.0
 62
     5
 63
     7
421
 16777215
 74
     0
 91
        4
 64
     7
 65
   257
 75
     1
175
     1
 42
1.0
 92
        8
 66
   257
 43
1.0
 76
     1
 77
     6
 78
     2
 67
     8
425
  7895160
 79
     3
170
     0
171
     0
290
     0
174
     0
 93
        5
 44
0.0
173
     0
291
     0
 45
0.0
1001
ACAD
1000
AcDbSavedByObjectVersion
1070
     0
  0
VISUALSTYLE
  5
8E649
102
{ACAD_XDICTIONARY
360
90701
102
}
102
{ACAD_REACTORS
330
8E635
102
}
330
8E635
100
AcDbVisualStyle
  2
Shaded with edges
 70
    26
 71
     2
 72
     2
 73
     1
 90
        2
 40
-0.6
 41
30.0
 62
     5
 63
     7
421
 16777215
 74
     1
 91
       10
 64
     7
 65
   257
 75
     2
175
     1
 42
1.0
 92
        8
 66
   257
 43
1.0
 76
     1
 77
     6
 78
     2
 67
     7
 79
     3
170
     0
171
     0
290
     0
174
     0
 93
        5
 44
0.0
173
     0
291
     0
 45
0.0
1001
ACAD
1000
AcDbSavedByObjectVersion
1070
     0
  0
VISUALSTYLE
  5
8E646
102
{ACAD_XDICTIONARY
360
906FB
102
}
102
{ACAD_REACTORS
330
8E635
102
}
330
8E635
100
AcDbVisualStyle
  2
Shades of Gray
 70
    23
 71
     2
 72
     2
 73
     3
 90
        0
 40
-0.6
 41
-30.0
 62
     5
 63
     7
421
 16777215
 74
     2
 91
        2
 64
     7
 65
     7
 75
     1
175
     1
 42
40.0
 92
        8
 66
     7
 43
1.0
 76
     1
 77
     6
 78
     2
 67
     7
 79
     3
170
     0
171
     0
290
     0
174
     0
 93
        1
 44
0.0
173
     0
291
     0
 45
0.0
1001
ACAD
1000
AcDbSavedByObjectVersion
1070
     0
  0
VISUALSTYLE
  5
8E647
102
{ACAD_XDICTIONARY
360
906FD
102
}
102
{ACAD_REACTORS
330
8E635
102
}
330
8E635
100
AcDbVisualStyle
  2
Sketchy
 70
    24
 71
     1
 72
     2
 73
     2
 90
        0
 40
-0.6
 41
-30.0
 62
     5
 63
     7
421
 16777215
 74
     2
 91
        2
 64
     7
 65
     7
 75
     1
175
     1
 42
40.0
 92
       11
 66
     7
 43
1.0
 76
     1
 77
     6
 78
     2
 67
     7
 79
     6
170
     0
171
     0
290
     0
174
     0
 93
        1
 44
0.0
173
     0
291
     0
 45
0.0
1001
ACAD
1000
AcDbSavedByObjectVersion
1070
     0
  0
VISUALSTYLE
  5
8E642
102
{ACAD_XDICTIONARY
360
906F3
102
}
102
{ACAD_REACTORS
330
8E635
102
}
330
8E635
100
AcDbVisualStyle
  2
Thicken
 70
    13
 71
     2
 72
     2
 73
     0
 90
        0
 40
-0.6
 41
-30.0
 62
     5
 63
     7
421
 16777215
 74
     1
 91
        4
 64
     7
 65
   257
 75
     1
175
     1
 42
1.0
 92
       12
 66
     7
 43
1.0
 76
     1
 77
     6
 78
     2
 67
     7
 79
     5
170
     0
171
     0
290
     0
174
     0
 93
        1
 44
0.0
173
     0
291
     1
 45
0.0
1001
ACAD
1000
AcDbSavedByObjectVersion
1070
     0
  0
VISUALSTYLE
  5
8E63C
102
{ACAD_XDICTIONARY
360
906E7
102
}
102
{ACAD_REACTORS
330
8E635
102
}
330
8E635
100
AcDbVisualStyle
  2
Wireframe
 70
     5
 71
     0
 72
     2
 73
     0
 90
        0
 40
-0.6
 41
-30.0
 62
     5
 63
     7
421
 16777215
 74
     1
 91
        4
 64
     7
 65
   257
 75
     1
175
     1
 42
1.0
 92
        0
 66
   257
 43
1.0
 76
     1
 77
     6
 78
     2
 67
     7
 79
     3
170
     0
171
     0
290
     0
174
     0
 93
        1
 44
0.0
173
     0
291
     0
 45
0.0
1001
ACAD
1000
AcDbSavedByObjectVersion
1070
     0
  0
VISUALSTYLE
  5
8E648
102
{ACAD_XDICTIONARY
360
906FF
102
}
102
{ACAD_REACTORS
330
8E635
102
}
330
8E635
100
AcDbVisualStyle
  2
X-Ray
 70
    25
 71
     2
 72
     2
 73
     1
 90
        1
 40
0.5
 41
-30.0
 62
     5
 63
     7
421
 16777215
 74
     1
 91
        0
 64
     7
 65
   257
 75
     1
175
     1
 42
1.0
 92
        8
 66
     7
 43
1.0
 76
     1
 77
     6
 78
     2
 67
     7
 79
     3
170
     0
171
     0
290
     0
174
     0
 93
       13
 44
0.0
173
     0
291
     0
 45
0.0
1001
ACAD
1000
AcDbSavedByObjectVersion
1070
     0
  0
DICTIONARYVAR
  5
906CB
102
{ACAD_REACTORS
330
906C6
102
}
330
906C6
100
DictionaryVariables
280
     0
  1
1:1
  0
DICTIONARYVAR
  5
906C8
102
{ACAD_REACTORS
330
906C6
102
}
330
906C6
100
DictionaryVariables
280
     0
  1
STANDARD
  0
DICTIONARYVAR
  5
906C7
102
{ACAD_REACTORS
330
906C6
102
}
330
906C6
100
DictionaryVariables
280
     0
  1
STANDARD
  0
DICTIONARYVAR
  5
906C9
102
{ACAD_REACTORS
330
906C6
102
}
330
906C6
100
DictionaryVariables
280
     0
  1
Imperial24
  0
DICTIONARYVAR
  5
906CA
102
{ACAD_REACTORS
330
906C6
102
}
330
906C6
100
DictionaryVariables
280
     0
  1
Imperial24
  0
DICTIONARYVAR
  5
906CC
102
{ACAD_REACTORS
330
906C6
102
}
330
906C6
100
DictionaryVariables
280
     0
  1
2
  0
DICTIONARY
  5
906D7
102
{ACAD_REACTORS
330
906D5
102
}
330
906D5
100
AcDbDictionary
281
     1
  0
DICTIONARY
  5
906D6
102
{ACAD_REACTORS
330
906D5
102
}
330
906D5
100
AcDbDictionary
281
     1
  3
2128889920
350
906D0
  3
2128889928
350
906D1
  3
2128889936
350
906D2
  3
2128889944
350
906D3
  3
2128889952
350
906D4
  0
DICTIONARY
  5
9070F
330
8E668
100
AcDbDictionary
280
     1
281
     1
  3
ACAD_XREC_ROUNDTRIP
360
90710
  0
DICTIONARY
  5
8E626
330
8E625
100
AcDbDictionary
280
     1
281
     1
  3
ACAD_XREC_ROUNDTRIP
360
906D9
  3
BUMPTILE
360
8E628
  3
DIFFUSETILE
360
8E627
  3
OPACITYTILE
360
8E62B
  3
REFLECTIONTILE
360
8E62A
  3
REFRACTIONTILE
360
8E62C
  3
SPECULARTILE
360
8E629
  0
DICTIONARY
  5
8E61E
330
8E61D
100
AcDbDictionary
280
     1
281
     1
  3
ACAD_XREC_ROUNDTRIP
360
906D8
  3
BUMPTILE
360
8E620
  3
DIFFUSETILE
360
8E61F
  3
OPACITYTILE
360
8E623
  3
REFLECTIONTILE
360
8E622
  3
REFRACTIONTILE
360
8E624
  3
SPECULARTILE
360
8E621
  0
DICTIONARY
  5
8E62E
330
8E62D
100
AcDbDictionary
280
     1
281
     1
  3
ACAD_XREC_ROUNDTRIP
360
906DA
  3
BUMPTILE
360
8E630
  3
DIFFUSETILE
360
8E62F
  3
OPACITYTILE
360
8E633
  3
REFLECTIONTILE
360
8E632
  3
REFRACTIONTILE
360
8E634
  3
SPECULARTILE
360
8E631
  0
DICTIONARY
  5
9070D
330
8E666
100
AcDbDictionary
280
     1
281
     1
  3
ACAD_XREC_ROUNDTRIP
360
9070E
  0
DICTIONARY
  5
906CD
330
8E650
100
AcDbDictionary
280
     1
281
     1
  3
ACAD_ROUNDTRIP_2008_TABLESTYLE_CELLSTYLEMAP
360
906CE
  3
ACAD_XREC_ROUNDTRIP
360
9070B
  0
DICTIONARY
  5
906E5
330
8E63B
100
AcDbDictionary
280
     1
281
     1
  3
ACAD_XREC_ROUNDTRIP
360
906E6
  0
DICTIONARY
  5
906E3
330
8E63A
100
AcDbDictionary
280
     1
281
     1
  3
ACAD_XREC_ROUNDTRIP
360
906E4
  0
DICTIONARY
  5
906F1
330
8E641
100
AcDbDictionary
280
     1
281
     1
  3
ACAD_XREC_ROUNDTRIP
360
906F2
  0
DICTIONARY
  5
906F9
330
8E645
100
AcDbDictionary
280
     1
281
     1
  3
ACAD_XREC_ROUNDTRIP
360
906FA
  0
DICTIONARY
  5
906EB
330
8E63E
100
AcDbDictionary
280
     1
281
     1
  3
ACAD_XREC_ROUNDTRIP
360
906EC
  0
DICTIONARY
  5
906EF
330
8E640
100
AcDbDictionary
280
     1
281
     1
  3
ACAD_XREC_ROUNDTRIP
360
906F0
  0
DICTIONARY
  5
90709
330
8E64D
100
AcDbDictionary
280
     1
281
     1
  3
ACAD_XREC_ROUNDTRIP
360
9070A
  0
DICTIONARY
  5
906F7
330
8E644
100
AcDbDictionary
280
     1
281
     1
  3
ACAD_XREC_ROUNDTRIP
360
906F8
  0
DICTIONARY
  5
906DB
330
8E636
100
AcDbDictionary
280
     1
281
     1
  3
ACAD_XREC_ROUNDTRIP
360
906DC
  0
DICTIONARY
  5
906DD
330
8E637
100
AcDbDictionary
280
     1
281
     1
  3
ACAD_XREC_ROUNDTRIP
360
906DE
  0
DICTIONARY
  5
906DF
330
8E638
100
AcDbDictionary
280
     1
281
     1
  3
ACAD_XREC_ROUNDTRIP
360
906E0
  0
DICTIONARY
  5
906E1
330
8E639
100
AcDbDictionary
280
     1
281
     1
  3
ACAD_XREC_ROUNDTRIP
360
906E2
  0
DICTIONARY
  5
906E9
330
8E63D
100
AcDbDictionary
280
     1
281
     1
  3
ACAD_XREC_ROUNDTRIP
360
906EA
  0
DICTIONARY
  5
90705
330
8E64B
100
AcDbDictionary
280
     1
281
     1
  3
ACAD_XREC_ROUNDTRIP
360
90706
  0
DICTIONARY
  5
906F5
330
8E643
100
AcDbDictionary
280
     1
281
     1
  3
ACAD_XREC_ROUNDTRIP
360
906F6
  0
DICTIONARY
  5
90707
330
8E64C
100
AcDbDictionary
280
     1
281
     1
  3
ACAD_XREC_ROUNDTRIP
360
90708
  0
DICTIONARY
  5
906ED
330
8E63F
100
AcDbDictionary
280
     1
281
     1
  3
ACAD_XREC_ROUNDTRIP
360
906EE
  0
DICTIONARY
  5
90703
330
8E64A
100
AcDbDictionary
280
     1
281
     1
  3
ACAD_XREC_ROUNDTRIP
360
90704
  0
DICTIONARY
  5
90701
330
8E649
100
AcDbDictionary
280
     1
281
     1
  3
ACAD_XREC_ROUNDTRIP
360
90702
  0
DICTIONARY
  5
906FB
330
8E646
100
AcDbDictionary
280
     1
281
     1
  3
ACAD_XREC_ROUNDTRIP
360
906FC
  0
DICTIONARY
  5
906FD
330
8E647
100
AcDbDictionary
280
     1
281
     1
  3
ACAD_XREC_ROUNDTRIP
360
906FE
  0
DICTIONARY
  5
906F3
330
8E642
100
AcDbDictionary
280
     1
281
     1
  3
ACAD_XREC_ROUNDTRIP
360
906F4
  0
DICTIONARY
  5
906E7
330
8E63C
100
AcDbDictionary
280
     1
281
     1
  3
ACAD_XREC_ROUNDTRIP
360
906E8
  0
DICTIONARY
  5
906FF
330
8E648
100
AcDbDictionary
280
     1
281
     1
  3
ACAD_XREC_ROUNDTRIP
360
90700
  0
XRECORD
  5
906D0
102
{ACAD_REACTORS
330
906D6
102
}
330
906D6
100
AcDbXrecord
280
     1
  1
AcDb_Thumbnail_Schema
102
{ATTRRECORD
341
906D1
  2
AcDbDs::TreatedAsObjectData
280
     1
291
     1
102
ATTRRECORD}
102
{ATTRRECORD
341
906D2
  2
AcDbDs::Legacy
280
     1
291
     1
102
ATTRRECORD}
  2
AcDbDs::ID
280
    10
 91
        8
102
{ATTRRECORD
341
906D3
  2
AcDs:Indexable
280
     1
291
     1
102
ATTRRECORD}
102
{ATTRRECORD
341
906D4
  2
AcDbDs::HandleAttribute
280
     7
282
     1
102
ATTRRECORD}
  2
Thumbnail_Data
280
    15
 91
        0
  0
XRECORD
  5
906D1
102
{ACAD_REACTORS
330
906D6
102
}
330
906D6
100
AcDbXrecord
280
     1
  1
AcDbDs::TreatedAsObjectDataSchema
  2
AcDbDs::TreatedAsObjectData
280
     1
 91
        0
  0
XRECORD
  5
906D2
102
{ACAD_REACTORS
330
906D6
102
}
330
906D6
100
AcDbXrecord
280
     1
  1
AcDbDs::LegacySchema
  2
AcDbDs::Legacy
280
     1
 91
        0
  0
XRECORD
  5
906D3
102
{ACAD_REACTORS
330
906D6
102
}
330
906D6
100
AcDbXrecord
280
     1
  1
AcDbDs::IndexedPropertySchema
  2
AcDs:Indexable
280
     1
 91
        0
  0
XRECORD
  5
906D4
102
{ACAD_REACTORS
330
906D6
102
}
330
906D6
100
AcDbXrecord
280
     1
  1
AcDbDs::HandleAttributeSchema
  2
AcDbDs::HandleAttribute
280
     7
 91
        1
284
     1
  0
XRECORD
  5
90710
102
{ACAD_REACTORS
330
9070F
102
}
330
9070F
100
AcDbXrecord
280
     1
102
DISPLAYNAME
  1
Imperial24
102
FLAGS
 90
        0
  0
XRECORD
  5
906D9
102
{ACAD_REACTORS
330
8E626
102
}
330
8E626
100
AcDbXrecord
280
     1
102
MATERIAL
148
0.0
149
0.0
149
0.0
 93
        0
 94
      127
282
     0
 72
     0
 77
     0
171
     0
175
     0
179
     0
273
     0
  0
XRECORD
  5
8E628
102
{ACAD_REACTORS
330
8E626
102
}
330
8E626
100
AcDbXrecord
280
     1
270
     1
271
     1
  0
XRECORD
  5
8E627
102
{ACAD_REACTORS
330
8E626
102
}
330
8E626
100
AcDbXrecord
280
     1
270
     1
271
     1
  0
XRECORD
  5
8E62B
102
{ACAD_REACTORS
330
8E626
102
}
330
8E626
100
AcDbXrecord
280
     1
270
     1
271
     1
  0
XRECORD
  5
8E62A
102
{ACAD_REACTORS
330
8E626
102
}
330
8E626
100
AcDbXrecord
280
     1
270
     1
271
     1
  0
XRECORD
  5
8E62C
102
{ACAD_REACTORS
330
8E626
102
}
330
8E626
100
AcDbXrecord
280
     1
270
     1
271
     1
  0
XRECORD
  5
8E629
102
{ACAD_REACTORS
330
8E626
102
}
330
8E626
100
AcDbXrecord
280
     1
270
     1
271
     1
  0
XRECORD
  5
906D8
102
{ACAD_REACTORS
330
8E61E
102
}
330
8E61E
100
AcDbXrecord
280
     1
102
MATERIAL
148
0.0
149
0.0
149
0.0
 93
        0
 94
      127
282
     0
 72
     0
 77
     0
171
     0
175
     0
179
     0
273
     0
  0
XRECORD
  5
8E620
102
{ACAD_REACTORS
330
8E61E
102
}
330
8E61E
100
AcDbXrecord
280
     1
270
     1
271
     1
  0
XRECORD
  5
8E61F
102
{ACAD_REACTORS
330
8E61E
102
}
330
8E61E
100
AcDbXrecord
280
     1
270
     1
271
     1
  0
XRECORD
  5
8E623
102
{ACAD_REACTORS
330
8E61E
102
}
330
8E61E
100
AcDbXrecord
280
     1
270
     1
271
     1
  0
XRECORD
  5
8E622
102
{ACAD_REACTORS
330
8E61E
102
}
330
8E61E
100
AcDbXrecord
280
     1
270
     1
271
     1
  0
XRECORD
  5
8E624
102
{ACAD_REACTORS
330
8E61E
102
}
330
8E61E
100
AcDbXrecord
280
     1
270
     1
271
     1
  0
XRECORD
  5
8E621
102
{ACAD_REACTORS
330
8E61E
102
}
330
8E61E
100
AcDbXrecord
280
     1
270
     1
271
     1
  0
XRECORD
  5
906DA
102
{ACAD_REACTORS
330
8E62E
102
}
330
8E62E
100
AcDbXrecord
280
     1
102
MATERIAL
148
0.0
149
0.0
149
0.0
 93
        0
 94
      127
282
     0
 72
     0
 77
     0
171
     0
175
     0
179
     0
273
     0
  0
XRECORD
  5
8E630
102
{ACAD_REACTORS
330
8E62E
102
}
330
8E62E
100
AcDbXrecord
280
     1
270
     1
271
     1
  0
XRECORD
  5
8E62F
102
{ACAD_REACTORS
330
8E62E
102
}
330
8E62E
100
AcDbXrecord
280
     1
270
     1
271
     1
  0
XRECORD
  5
8E633
102
{ACAD_REACTORS
330
8E62E
102
}
330
8E62E
100
AcDbXrecord
280
     1
270
     1
271
     1
  0
XRECORD
  5
8E632
102
{ACAD_REACTORS
330
8E62E
102
}
330
8E62E
100
AcDbXrecord
280
     1
270
     1
271
     1
  0
XRECORD
  5
8E634
102
{ACAD_REACTORS
330
8E62E
102
}
330
8E62E
100
AcDbXrecord
280
     1
270
     1
271
     1
  0
XRECORD
  5
8E631
102
{ACAD_REACTORS
330
8E62E
102
}
330
8E62E
100
AcDbXrecord
280
     1
270
     1
271
     1
  0
XRECORD
  5
9070E
102
{ACAD_REACTORS
330
9070D
102
}
330
9070D
100
AcDbXrecord
280
     1
102
DISPLAYNAME
  1
Imperial24
102
FLAGS
 90
        0
  0
CELLSTYLEMAP
  5
906CE
102
{ACAD_REACTORS
330
906CD
102
}
330
906CD
100
AcDbCellStyleMap
 90
        3
300
CELLSTYLE
  1
TABLEFORMAT_BEGIN
 90
        5
170
     1
 91
        0
 92
    32768
 62
   257
 93
        1
300
CONTENTFORMAT
  1
CONTENTFORMAT_BEGIN
 90
        0
 91
        0
 92
      512
 93
        0
300

 40
0.0
140
1.0
 94
        5
 62
     0
340
11
144
0.25
309
CONTENTFORMAT_END
171
     0
 94
        0
309
TABLEFORMAT_END
  1
CELLSTYLE_BEGIN
 90
        1
 91
        1
300
_TITLE
309
CELLSTYLE_END
300
CELLSTYLE
  1
TABLEFORMAT_BEGIN
 90
        5
170
     1
 91
        0
 92
        0
 62
   257
 93
        1
300
CONTENTFORMAT
  1
CONTENTFORMAT_BEGIN
 90
        0
 91
        0
 92
      512
 93
        0
300

 40
0.0
140
1.0
 94
        5
 62
     0
340
11
144
0.18
309
CONTENTFORMAT_END
171
     0
 94
        0
309
TABLEFORMAT_END
  1
CELLSTYLE_BEGIN
 90
        2
 91
        1
300
_HEADER
309
CELLSTYLE_END
300
CELLSTYLE
  1
TABLEFORMAT_BEGIN
 90
        5
170
     1
 91
        0
 92
        0
 62
   257
 93
        1
300
CONTENTFORMAT
  1
CONTENTFORMAT_BEGIN
 90
        0
 91
        0
 92
      512
 93
        0
300

 40
0.0
140
1.0
 94
        2
 62
     0
340
11
144
0.18
309
CONTENTFORMAT_END
171
     0
 94
        0
309
TABLEFORMAT_END
  1
CELLSTYLE_BEGIN
 90
        3
 91
        2
300
_DATA
309
CELLSTYLE_END
  0
XRECORD
  5
9070B
102
{ACAD_REACTORS
330
906CD
102
}
330
906CD
100
AcDbXrecord
280
     1
102
ACAD_ROUNDTRIP_PRE2007_TABLESTYLE
 90
      512
 91
        0
  1

 92
      512
 93
        0
  2

 94
      512
 95
        0
  3

  0
XRECORD
  5
906E6
102
{ACAD_REACTORS
330
906E5
102
}
330
906E5
100
AcDbXrecord
280
     1
102
RTVSPost2010Prop28
280
     1
102
RTVSPost2010PropOp28
 70
     1
102
RTVSPost2010Prop29
280
     1
102
RTVSPost2010PropOp29
 70
     1
102
RTVSPost2010Prop30
280
     0
102
RTVSPost2010PropOp30
 70
     1
102
RTVSPost2010Prop31
280
     0
102
RTVSPost2010PropOp31
 70
     1
102
RTVSPost2010Prop32
280
     0
102
RTVSPost2010PropOp32
 70
     1
102
RTVSPost2010Prop33
280
     0
102
RTVSPost2010PropOp33
 70
     1
102
RTVSPost2010Prop34
280
     0
102
RTVSPost2010PropOp34
 70
     1
102
RTVSPost2010Prop35
280
     0
102
RTVSPost2010PropOp35
 70
     1
102
RTVSPost2010Prop36
280
     0
102
RTVSPost2010PropOp36
 70
     1
102
RTVSPost2010Prop37
 90
       50
102
RTVSPost2010PropOp37
 70
     1
102
RTVSPost2010Prop38
140
0.0
102
RTVSPost2010PropOp38
 70
     1
102
RTVSPost2010Prop39
140
1.0
102
RTVSPost2010PropOp39
 70
     1
102
RTVSPost2010Prop40
 90
        0
102
RTVSPost2010PropOp40
 70
     1
102
RTVSPost2010Prop41ColorIndex
 90
       18
102
RTVSPost2010Prop41ColorRGB
 90
        0
102
RTVSPost2010PropOp41
 70
     1
102
RTVSPost2010Prop42
 90
       50
102
RTVSPost2010PropOp42
 70
     1
102
RTVSPost2010Prop43
 90
        3
102
RTVSPost2010PropOp43
 70
     1
102
RTVSPost2010Prop44ColorIndex
 90
        5
102
RTVSPost2010Prop44ColorRGB
 90
      255
102
RTVSPost2010PropOp44
 70
     1
102
RTVSPost2010Prop45
280
     0
102
RTVSPost2010PropOp45
 70
     1
102
RTVSPost2010Prop46
 90
       50
102
RTVSPost2010PropOp46
 70
     1
102
RTVSPost2010Prop47
 90
       50
102
RTVSPost2010PropOp47
 70
     1
102
RTVSPost2010Prop48
 90
       50
102
RTVSPost2010PropOp48
 70
     1
102
RTVSPost2010Prop49
280
     0
102
RTVSPost2010PropOp49
 70
     1
102
RTVSPost2010Prop50
 90
       50
102
RTVSPost2010PropOp50
 70
     1
102
RTVSPost2010Prop51ColorIndex
 90
      256
102
RTVSPost2010Prop51ColorRGB
 90
-16777216
102
RTVSPost2010PropOp51
 70
     0
102
RTVSPost2010Prop52
140
1.0
102
RTVSPost2010PropOp52
 70
     0
102
RTVSPost2010Prop53
 90
        2
102
RTVSPost2010PropOp53
 70
     1
102
RTVSPost2010Prop54
  1
strokes_ogs.tif
102
RTVSPost2010PropOp54
 70
     1
102
RTVSPost2010Prop55
280
     0
102
RTVSPost2010PropOp55
 70
     1
102
RTVSPost2010Prop56
140
1.0
102
RTVSPost2010PropOp56
 70
     1
102
RTVSPost2010Prop57
140
1.0
102
RTVSPost2010PropOp57
 70
     1
102
RTVSPropertyOp0
 70
     1
102
RTVSPropertyOp1
 70
     1
102
RTVSPropertyOp2
 70
     1
102
RTVSPropertyOp3
 70
     1
102
RTVSPropertyOp4
 70
     1
102
RTVSPropertyOp5
 70
     1
102
RTVSPropertyOp6
 70
     1
102
RTVSPropertyOp7
 70
     1
102
RTVSPropertyOp8
 70
     1
102
RTVSPropertyOp9
 70
     1
102
RTVSPropertyOp10
 70
     1
102
RTVSPropertyOp11
 70
     1
102
RTVSPropertyOp12
 70
     1
102
RTVSPropertyOp13
 70
     1
102
RTVSPropertyOp14
 70
     1
102
RTVSPropertyOp15
 70
     1
102
RTVSPropertyOp16
 70
     1
102
RTVSPropertyOp17
 70
     1
102
RTVSPropertyOp18
 70
     1
102
RTVSPropertyOp19
 70
     1
102
RTVSPropertyOp20
 70
     1
102
RTVSPropertyOp21
 70
     1
102
RTVSPropertyOp22
 70
     1
102
RTVSPropertyOp23
 70
     1
102
RTVSPropertyOp24
 70
     1
102
RTVSPropertyOp25
 70
     1
102
RTVSPropertyOp26
 70
     1
102
RTVSPropertyOp27
 70
     1
102
RTVSPropertyOp28
 70
     1
102
RTVSPropertyOp29
 70
     1
102
RTVSPropertyOp30
 70
     1
102
RTVSPropertyOp31
 70
     1
102
RTVSPropertyOp32
 70
     1
102
RTVSPropertyOp33
 70
     1
102
RTVSPropertyOp34
 70
     1
102
RTVSPropertyOp35
 70
     1
102
RTVSPropertyOp36
 70
     1
102
RTVSPropertyOp37
 70
     1
102
RTVSPropertyOp38
 70
     1
102
RTVSPropertyOp39
 70
     1
102
RTVSPropertyOp40
 70
     1
102
RTVSPropertyOp41
 70
     1
102
RTVSPropertyOp42
 70
     1
102
RTVSPropertyOp43
 70
     1
102
RTVSPropertyOp44
 70
     1
102
RTVSPropertyOp45
 70
     1
102
RTVSPropertyOp46
 70
     1
102
RTVSPropertyOp47
 70
     1
102
RTVSPropertyOp48
 70
     1
102
RTVSPropertyOp49
 70
     1
102
RTVSPropertyOp50
 70
     1
102
RTVSPropertyOp51
 70
     0
102
RTVSPropertyOp52
 70
     0
102
RTVSPropertyOp53
 70
     1
102
RTVSPropertyOp54
 70
     1
102
RTVSPropertyOp55
 70
     1
102
RTVSPropertyOp56
 70
     1
102
RTVSPropertyOp57
 70
     1
102
RTVSPropertyOp58
 70
     1
102
RTVSPropertyOp59
 70
     1
102
RTVSPropertyOp60
 70
     1
102
RTVSPropertyOp61
 70
     1
102
RTVSPropertyOp62
 70
     1
  0
XRECORD
  5
906E4
102
{ACAD_REACTORS
330
906E3
102
}
330
906E3
100
AcDbXrecord
280
     1
102
RTVSPost2010Prop28
280
     0
102
RTVSPost2010PropOp28
 70
     1
102
RTVSPost2010Prop29
280
     1
102
RTVSPost2010PropOp29
 70
     1
102
RTVSPost2010Prop30
280
     1
102
RTVSPost2010PropOp30
 70
     1
102
RTVSPost2010Prop31
280
     0
102
RTVSPost2010PropOp31
 70
     1
102
RTVSPost2010Prop32
280
     0
102
RTVSPost2010PropOp32
 70
     1
102
RTVSPost2010Prop33
280
     0
102
RTVSPost2010PropOp33
 70
     1
102
RTVSPost2010Prop34
280
     0
102
RTVSPost2010PropOp34
 70
     1
102
RTVSPost2010Prop35
280
     0
102
RTVSPost2010PropOp35
 70
     1
102
RTVSPost2010Prop36
280
     0
102
RTVSPost2010PropOp36
 70
     1
102
RTVSPost2010Prop37
 90
       50
102
RTVSPost2010PropOp37
 70
     1
102
RTVSPost2010Prop38
140
0.0
102
RTVSPost2010PropOp38
 70
     1
102
RTVSPost2010Prop39
140
1.0
102
RTVSPost2010PropOp39
 70
     1
102
RTVSPost2010Prop40
 90
        0
102
RTVSPost2010PropOp40
 70
     1
102
RTVSPost2010Prop41ColorIndex
 90
       18
102
RTVSPost2010Prop41ColorRGB
 90
        0
102
RTVSPost2010PropOp41
 70
     1
102
RTVSPost2010Prop42
 90
       50
102
RTVSPost2010PropOp42
 70
     1
102
RTVSPost2010Prop43
 90
        3
102
RTVSPost2010PropOp43
 70
     1
102
RTVSPost2010Prop44ColorIndex
 90
        5
102
RTVSPost2010Prop44ColorRGB
 90
      255
102
RTVSPost2010PropOp44
 70
     1
102
RTVSPost2010Prop45
280
     0
102
RTVSPost2010PropOp45
 70
     1
102
RTVSPost2010Prop46
 90
       50
102
RTVSPost2010PropOp46
 70
     1
102
RTVSPost2010Prop47
 90
       50
102
RTVSPost2010PropOp47
 70
     1
102
RTVSPost2010Prop48
 90
       50
102
RTVSPost2010PropOp48
 70
     1
102
RTVSPost2010Prop49
280
     0
102
RTVSPost2010PropOp49
 70
     1
102
RTVSPost2010Prop50
 90
       50
102
RTVSPost2010PropOp50
 70
     1
102
RTVSPost2010Prop51ColorIndex
 90
      256
102
RTVSPost2010Prop51ColorRGB
 90
-16777216
102
RTVSPost2010PropOp51
 70
     0
102
RTVSPost2010Prop52
140
1.0
102
RTVSPost2010PropOp52
 70
     0
102
RTVSPost2010Prop53
 90
        2
102
RTVSPost2010PropOp53
 70
     1
102
RTVSPost2010Prop54
  1
strokes_ogs.tif
102
RTVSPost2010PropOp54
 70
     1
102
RTVSPost2010Prop55
280
     0
102
RTVSPost2010PropOp55
 70
     1
102
RTVSPost2010Prop56
140
1.0
102
RTVSPost2010PropOp56
 70
     1
102
RTVSPost2010Prop57
140
1.0
102
RTVSPost2010PropOp57
 70
     1
102
RTVSPropertyOp0
 70
     1
102
RTVSPropertyOp1
 70
     1
102
RTVSPropertyOp2
 70
     1
102
RTVSPropertyOp3
 70
     1
102
RTVSPropertyOp4
 70
     1
102
RTVSPropertyOp5
 70
     1
102
RTVSPropertyOp6
 70
     1
102
RTVSPropertyOp7
 70
     1
102
RTVSPropertyOp8
 70
     1
102
RTVSPropertyOp9
 70
     1
102
RTVSPropertyOp10
 70
     1
102
RTVSPropertyOp11
 70
     1
102
RTVSPropertyOp12
 70
     1
102
RTVSPropertyOp13
 70
     1
102
RTVSPropertyOp14
 70
     1
102
RTVSPropertyOp15
 70
     1
102
RTVSPropertyOp16
 70
     1
102
RTVSPropertyOp17
 70
     1
102
RTVSPropertyOp18
 70
     1
102
RTVSPropertyOp19
 70
     1
102
RTVSPropertyOp20
 70
     1
102
RTVSPropertyOp21
 70
     1
102
RTVSPropertyOp22
 70
     1
102
RTVSPropertyOp23
 70
     1
102
RTVSPropertyOp24
 70
     1
102
RTVSPropertyOp25
 70
     1
102
RTVSPropertyOp26
 70
     1
102
RTVSPropertyOp27
 70
     1
102
RTVSPropertyOp28
 70
     1
102
RTVSPropertyOp29
 70
     1
102
RTVSPropertyOp30
 70
     1
102
RTVSPropertyOp31
 70
     1
102
RTVSPropertyOp32
 70
     1
102
RTVSPropertyOp33
 70
     1
102
RTVSPropertyOp34
 70
     1
102
RTVSPropertyOp35
 70
     1
102
RTVSPropertyOp36
 70
     1
102
RTVSPropertyOp37
 70
     1
102
RTVSPropertyOp38
 70
     1
102
RTVSPropertyOp39
 70
     1
102
RTVSPropertyOp40
 70
     1
102
RTVSPropertyOp41
 70
     1
102
RTVSPropertyOp42
 70
     1
102
RTVSPropertyOp43
 70
     1
102
RTVSPropertyOp44
 70
     1
102
RTVSPropertyOp45
 70
     1
102
RTVSPropertyOp46
 70
     1
102
RTVSPropertyOp47
 70
     1
102
RTVSPropertyOp48
 70
     1
102
RTVSPropertyOp49
 70
     1
102
RTVSPropertyOp50
 70
     1
102
RTVSPropertyOp51
 70
     0
102
RTVSPropertyOp52
 70
     0
102
RTVSPropertyOp53
 70
     1
102
RTVSPropertyOp54
 70
     1
102
RTVSPropertyOp55
 70
     1
102
RTVSPropertyOp56
 70
     1
102
RTVSPropertyOp57
 70
     1
102
RTVSPropertyOp58
 70
     1
102
RTVSPropertyOp59
 70
     1
102
RTVSPropertyOp60
 70
     1
102
RTVSPropertyOp61
 70
     1
102
RTVSPropertyOp62
 70
     1
  0
XRECORD
  5
906F2
102
{ACAD_REACTORS
330
906F1
102
}
330
906F1
100
AcDbXrecord
280
     1
102
RTVSPost2010Prop28
280
     0
102
RTVSPost2010PropOp28
 70
     1
102
RTVSPost2010Prop29
280
     1
102
RTVSPost2010PropOp29
 70
     1
102
RTVSPost2010Prop30
280
     1
102
RTVSPost2010PropOp30
 70
     1
102
RTVSPost2010Prop31
280
     0
102
RTVSPost2010PropOp31
 70
     1
102
RTVSPost2010Prop32
280
     0
102
RTVSPost2010PropOp32
 70
     1
102
RTVSPost2010Prop33
280
     0
102
RTVSPost2010PropOp33
 70
     1
102
RTVSPost2010Prop34
280
     0
102
RTVSPost2010PropOp34
 70
     1
102
RTVSPost2010Prop35
280
     0
102
RTVSPost2010PropOp35
 70
     1
102
RTVSPost2010Prop36
280
     0
102
RTVSPost2010PropOp36
 70
     1
102
RTVSPost2010Prop37
 90
       50
102
RTVSPost2010PropOp37
 70
     1
102
RTVSPost2010Prop38
140
0.0
102
RTVSPost2010PropOp38
 70
     1
102
RTVSPost2010Prop39
140
1.0
102
RTVSPost2010PropOp39
 70
     1
102
RTVSPost2010Prop40
 90
        0
102
RTVSPost2010PropOp40
 70
     1
102
RTVSPost2010Prop41ColorIndex
 90
       18
102
RTVSPost2010Prop41ColorRGB
 90
        0
102
RTVSPost2010PropOp41
 70
     1
102
RTVSPost2010Prop42
 90
       50
102
RTVSPost2010PropOp42
 70
     1
102
RTVSPost2010Prop43
 90
        3
102
RTVSPost2010PropOp43
 70
     1
102
RTVSPost2010Prop44ColorIndex
 90
        5
102
RTVSPost2010Prop44ColorRGB
 90
      255
102
RTVSPost2010PropOp44
 70
     1
102
RTVSPost2010Prop45
280
     0
102
RTVSPost2010PropOp45
 70
     1
102
RTVSPost2010Prop46
 90
       50
102
RTVSPost2010PropOp46
 70
     1
102
RTVSPost2010Prop47
 90
       50
102
RTVSPost2010PropOp47
 70
     1
102
RTVSPost2010Prop48
 90
       50
102
RTVSPost2010PropOp48
 70
     1
102
RTVSPost2010Prop49
280
     0
102
RTVSPost2010PropOp49
 70
     1
102
RTVSPost2010Prop50
 90
       50
102
RTVSPost2010PropOp50
 70
     1
102
RTVSPost2010Prop51ColorIndex
 90
      256
102
RTVSPost2010Prop51ColorRGB
 90
-16777216
102
RTVSPost2010PropOp51
 70
     0
102
RTVSPost2010Prop52
140
1.0
102
RTVSPost2010PropOp52
 70
     0
102
RTVSPost2010Prop53
 90
        2
102
RTVSPost2010PropOp53
 70
     1
102
RTVSPost2010Prop54
  1
strokes_ogs.tif
102
RTVSPost2010PropOp54
 70
     1
102
RTVSPost2010Prop55
280
     0
102
RTVSPost2010PropOp55
 70
     1
102
RTVSPost2010Prop56
140
1.0
102
RTVSPost2010PropOp56
 70
     1
102
RTVSPost2010Prop57
140
1.0
102
RTVSPost2010PropOp57
 70
     1
102
RTVSPropertyOp0
 70
     1
102
RTVSPropertyOp1
 70
     1
102
RTVSPropertyOp2
 70
     1
102
RTVSPropertyOp3
 70
     1
102
RTVSPropertyOp4
 70
     1
102
RTVSPropertyOp5
 70
     1
102
RTVSPropertyOp6
 70
     1
102
RTVSPropertyOp7
 70
     1
102
RTVSPropertyOp8
 70
     1
102
RTVSPropertyOp9
 70
     1
102
RTVSPropertyOp10
 70
     1
102
RTVSPropertyOp11
 70
     1
102
RTVSPropertyOp12
 70
     1
102
RTVSPropertyOp13
 70
     1
102
RTVSPropertyOp14
 70
     1
102
RTVSPropertyOp15
 70
     1
102
RTVSPropertyOp16
 70
     1
102
RTVSPropertyOp17
 70
     1
102
RTVSPropertyOp18
 70
     1
102
RTVSPropertyOp19
 70
     1
102
RTVSPropertyOp20
 70
     1
102
RTVSPropertyOp21
 70
     1
102
RTVSPropertyOp22
 70
     1
102
RTVSPropertyOp23
 70
     1
102
RTVSPropertyOp24
 70
     1
102
RTVSPropertyOp25
 70
     1
102
RTVSPropertyOp26
 70
     1
102
RTVSPropertyOp27
 70
     1
102
RTVSPropertyOp28
 70
     1
102
RTVSPropertyOp29
 70
     1
102
RTVSPropertyOp30
 70
     1
102
RTVSPropertyOp31
 70
     1
102
RTVSPropertyOp32
 70
     1
102
RTVSPropertyOp33
 70
     1
102
RTVSPropertyOp34
 70
     1
102
RTVSPropertyOp35
 70
     1
102
RTVSPropertyOp36
 70
     1
102
RTVSPropertyOp37
 70
     1
102
RTVSPropertyOp38
 70
     1
102
RTVSPropertyOp39
 70
     1
102
RTVSPropertyOp40
 70
     1
102
RTVSPropertyOp41
 70
     1
102
RTVSPropertyOp42
 70
     1
102
RTVSPropertyOp43
 70
     1
102
RTVSPropertyOp44
 70
     1
102
RTVSPropertyOp45
 70
     1
102
RTVSPropertyOp46
 70
     1
102
RTVSPropertyOp47
 70
     1
102
RTVSPropertyOp48
 70
     1
102
RTVSPropertyOp49
 70
     1
102
RTVSPropertyOp50
 70
     1
102
RTVSPropertyOp51
 70
     0
102
RTVSPropertyOp52
 70
     0
102
RTVSPropertyOp53
 70
     1
102
RTVSPropertyOp54
 70
     1
102
RTVSPropertyOp55
 70
     1
102
RTVSPropertyOp56
 70
     1
102
RTVSPropertyOp57
 70
     1
102
RTVSPropertyOp58
 70
     1
102
RTVSPropertyOp59
 70
     1
102
RTVSPropertyOp60
 70
     1
102
RTVSPropertyOp61
 70
     1
102
RTVSPropertyOp62
 70
     1
  0
XRECORD
  5
906FA
102
{ACAD_REACTORS
330
906F9
102
}
330
906F9
100
AcDbXrecord
280
     1
102
RTVSPost2010Prop28
280
     0
102
RTVSPost2010PropOp28
 70
     1
102
RTVSPost2010Prop29
280
     1
102
RTVSPost2010PropOp29
 70
     1
102
RTVSPost2010Prop30
280
     1
102
RTVSPost2010PropOp30
 70
     1
102
RTVSPost2010Prop31
280
     0
102
RTVSPost2010PropOp31
 70
     1
102
RTVSPost2010Prop32
280
     0
102
RTVSPost2010PropOp32
 70
     1
102
RTVSPost2010Prop33
280
     0
102
RTVSPost2010PropOp33
 70
     1
102
RTVSPost2010Prop34
280
     0
102
RTVSPost2010PropOp34
 70
     1
102
RTVSPost2010Prop35
280
     0
102
RTVSPost2010PropOp35
 70
     1
102
RTVSPost2010Prop36
280
     0
102
RTVSPost2010PropOp36
 70
     1
102
RTVSPost2010Prop37
 90
       50
102
RTVSPost2010PropOp37
 70
     1
102
RTVSPost2010Prop38
140
0.0
102
RTVSPost2010PropOp38
 70
     1
102
RTVSPost2010Prop39
140
1.0
102
RTVSPost2010PropOp39
 70
     1
102
RTVSPost2010Prop40
 90
        0
102
RTVSPost2010PropOp40
 70
     1
102
RTVSPost2010Prop41ColorIndex
 90
       18
102
RTVSPost2010Prop41ColorRGB
 90
        0
102
RTVSPost2010PropOp41
 70
     1
102
RTVSPost2010Prop42
 90
       50
102
RTVSPost2010PropOp42
 70
     1
102
RTVSPost2010Prop43
 90
        3
102
RTVSPost2010PropOp43
 70
     1
102
RTVSPost2010Prop44ColorIndex
 90
        5
102
RTVSPost2010Prop44ColorRGB
 90
      255
102
RTVSPost2010PropOp44
 70
     1
102
RTVSPost2010Prop45
280
     0
102
RTVSPost2010PropOp45
 70
     1
102
RTVSPost2010Prop46
 90
       50
102
RTVSPost2010PropOp46
 70
     1
102
RTVSPost2010Prop47
 90
       50
102
RTVSPost2010PropOp47
 70
     1
102
RTVSPost2010Prop48
 90
       50
102
RTVSPost2010PropOp48
 70
     1
102
RTVSPost2010Prop49
280
     0
102
RTVSPost2010PropOp49
 70
     1
102
RTVSPost2010Prop50
 90
       50
102
RTVSPost2010PropOp50
 70
     1
102
RTVSPost2010Prop51ColorIndex
 90
      256
102
RTVSPost2010Prop51ColorRGB
 90
-16777216
102
RTVSPost2010PropOp51
 70
     0
102
RTVSPost2010Prop52
140
1.0
102
RTVSPost2010PropOp52
 70
     0
102
RTVSPost2010Prop53
 90
        2
102
RTVSPost2010PropOp53
 70
     1
102
RTVSPost2010Prop54
  1
strokes_ogs.tif
102
RTVSPost2010PropOp54
 70
     1
102
RTVSPost2010Prop55
280
     0
102
RTVSPost2010PropOp55
 70
     1
102
RTVSPost2010Prop56
140
1.0
102
RTVSPost2010PropOp56
 70
     1
102
RTVSPost2010Prop57
140
1.0
102
RTVSPost2010PropOp57
 70
     1
102
RTVSPropertyOp0
 70
     1
102
RTVSPropertyOp1
 70
     1
102
RTVSPropertyOp2
 70
     1
102
RTVSPropertyOp3
 70
     1
102
RTVSPropertyOp4
 70
     1
102
RTVSPropertyOp5
 70
     1
102
RTVSPropertyOp6
 70
     1
102
RTVSPropertyOp7
 70
     1
102
RTVSPropertyOp8
 70
     1
102
RTVSPropertyOp9
 70
     1
102
RTVSPropertyOp10
 70
     1
102
RTVSPropertyOp11
 70
     1
102
RTVSPropertyOp12
 70
     1
102
RTVSPropertyOp13
 70
     1
102
RTVSPropertyOp14
 70
     1
102
RTVSPropertyOp15
 70
     1
102
RTVSPropertyOp16
 70
     1
102
RTVSPropertyOp17
 70
     1
102
RTVSPropertyOp18
 70
     1
102
RTVSPropertyOp19
 70
     1
102
RTVSPropertyOp20
 70
     1
102
RTVSPropertyOp21
 70
     1
102
RTVSPropertyOp22
 70
     1
102
RTVSPropertyOp23
 70
     1
102
RTVSPropertyOp24
 70
     1
102
RTVSPropertyOp25
 70
     1
102
RTVSPropertyOp26
 70
     1
102
RTVSPropertyOp27
 70
     1
102
RTVSPropertyOp28
 70
     1
102
RTVSPropertyOp29
 70
     1
102
RTVSPropertyOp30
 70
     1
102
RTVSPropertyOp31
 70
     1
102
RTVSPropertyOp32
 70
     1
102
RTVSPropertyOp33
 70
     1
102
RTVSPropertyOp34
 70
     1
102
RTVSPropertyOp35
 70
     1
102
RTVSPropertyOp36
 70
     1
102
RTVSPropertyOp37
 70
     1
102
RTVSPropertyOp38
 70
     1
102
RTVSPropertyOp39
 70
     1
102
RTVSPropertyOp40
 70
     1
102
RTVSPropertyOp41
 70
     1
102
RTVSPropertyOp42
 70
     1
102
RTVSPropertyOp43
 70
     1
102
RTVSPropertyOp44
 70
     1
102
RTVSPropertyOp45
 70
     1
102
RTVSPropertyOp46
 70
     1
102
RTVSPropertyOp47
 70
     1
102
RTVSPropertyOp48
 70
     1
102
RTVSPropertyOp49
 70
     1
102
RTVSPropertyOp50
 70
     1
102
RTVSPropertyOp51
 70
     0
102
RTVSPropertyOp52
 70
     0
102
RTVSPropertyOp53
 70
     1
102
RTVSPropertyOp54
 70
     1
102
RTVSPropertyOp55
 70
     1
102
RTVSPropertyOp56
 70
     1
102
RTVSPropertyOp57
 70
     1
102
RTVSPropertyOp58
 70
     1
102
RTVSPropertyOp59
 70
     1
102
RTVSPropertyOp60
 70
     1
102
RTVSPropertyOp61
 70
     1
102
RTVSPropertyOp62
 70
     1
  0
XRECORD
  5
906EC
102
{ACAD_REACTORS
330
906EB
102
}
330
906EB
100
AcDbXrecord
280
     1
102
RTVSPost2010Prop28
280
     0
102
RTVSPost2010PropOp28
 70
     1
102
RTVSPost2010Prop29
280
     1
102
RTVSPost2010PropOp29
 70
     1
102
RTVSPost2010Prop30
280
     1
102
RTVSPost2010PropOp30
 70
     1
102
RTVSPost2010Prop31
280
     0
102
RTVSPost2010PropOp31
 70
     1
102
RTVSPost2010Prop32
280
     0
102
RTVSPost2010PropOp32
 70
     1
102
RTVSPost2010Prop33
280
     0
102
RTVSPost2010PropOp33
 70
     1
102
RTVSPost2010Prop34
280
     0
102
RTVSPost2010PropOp34
 70
     1
102
RTVSPost2010Prop35
280
     0
102
RTVSPost2010PropOp35
 70
     1
102
RTVSPost2010Prop36
280
     0
102
RTVSPost2010PropOp36
 70
     1
102
RTVSPost2010Prop37
 90
       50
102
RTVSPost2010PropOp37
 70
     1
102
RTVSPost2010Prop38
140
0.0
102
RTVSPost2010PropOp38
 70
     1
102
RTVSPost2010Prop39
140
1.0
102
RTVSPost2010PropOp39
 70
     1
102
RTVSPost2010Prop40
 90
        0
102
RTVSPost2010PropOp40
 70
     1
102
RTVSPost2010Prop41ColorIndex
 90
       18
102
RTVSPost2010Prop41ColorRGB
 90
        0
102
RTVSPost2010PropOp41
 70
     1
102
RTVSPost2010Prop42
 90
       50
102
RTVSPost2010PropOp42
 70
     1
102
RTVSPost2010Prop43
 90
        3
102
RTVSPost2010PropOp43
 70
     1
102
RTVSPost2010Prop44ColorIndex
 90
        5
102
RTVSPost2010Prop44ColorRGB
 90
      255
102
RTVSPost2010PropOp44
 70
     1
102
RTVSPost2010Prop45
280
     0
102
RTVSPost2010PropOp45
 70
     1
102
RTVSPost2010Prop46
 90
       50
102
RTVSPost2010PropOp46
 70
     1
102
RTVSPost2010Prop47
 90
       50
102
RTVSPost2010PropOp47
 70
     1
102
RTVSPost2010Prop48
 90
       50
102
RTVSPost2010PropOp48
 70
     1
102
RTVSPost2010Prop49
280
     0
102
RTVSPost2010PropOp49
 70
     1
102
RTVSPost2010Prop50
 90
       50
102
RTVSPost2010PropOp50
 70
     1
102
RTVSPost2010Prop51ColorIndex
 90
      256
102
RTVSPost2010Prop51ColorRGB
 90
-16777216
102
RTVSPost2010PropOp51
 70
     0
102
RTVSPost2010Prop52
140
1.0
102
RTVSPost2010PropOp52
 70
     0
102
RTVSPost2010Prop53
 90
        2
102
RTVSPost2010PropOp53
 70
     1
102
RTVSPost2010Prop54
  1
strokes_ogs.tif
102
RTVSPost2010PropOp54
 70
     1
102
RTVSPost2010Prop55
280
     0
102
RTVSPost2010PropOp55
 70
     1
102
RTVSPost2010Prop56
140
1.0
102
RTVSPost2010PropOp56
 70
     1
102
RTVSPost2010Prop57
140
1.0
102
RTVSPost2010PropOp57
 70
     1
102
RTVSPropertyOp0
 70
     1
102
RTVSPropertyOp1
 70
     1
102
RTVSPropertyOp2
 70
     1
102
RTVSPropertyOp3
 70
     1
102
RTVSPropertyOp4
 70
     1
102
RTVSPropertyOp5
 70
     1
102
RTVSPropertyOp6
 70
     1
102
RTVSPropertyOp7
 70
     1
102
RTVSPropertyOp8
 70
     1
102
RTVSPropertyOp9
 70
     1
102
RTVSPropertyOp10
 70
     1
102
RTVSPropertyOp11
 70
     1
102
RTVSPropertyOp12
 70
     1
102
RTVSPropertyOp13
 70
     1
102
RTVSPropertyOp14
 70
     1
102
RTVSPropertyOp15
 70
     1
102
RTVSPropertyOp16
 70
     1
102
RTVSPropertyOp17
 70
     1
102
RTVSPropertyOp18
 70
     1
102
RTVSPropertyOp19
 70
     1
102
RTVSPropertyOp20
 70
     1
102
RTVSPropertyOp21
 70
     1
102
RTVSPropertyOp22
 70
     1
102
RTVSPropertyOp23
 70
     1
102
RTVSPropertyOp24
 70
     1
102
RTVSPropertyOp25
 70
     1
102
RTVSPropertyOp26
 70
     1
102
RTVSPropertyOp27
 70
     1
102
RTVSPropertyOp28
 70
     1
102
RTVSPropertyOp29
 70
     1
102
RTVSPropertyOp30
 70
     1
102
RTVSPropertyOp31
 70
     1
102
RTVSPropertyOp32
 70
     1
102
RTVSPropertyOp33
 70
     1
102
RTVSPropertyOp34
 70
     1
102
RTVSPropertyOp35
 70
     1
102
RTVSPropertyOp36
 70
     1
102
RTVSPropertyOp37
 70
     1
102
RTVSPropertyOp38
 70
     1
102
RTVSPropertyOp39
 70
     1
102
RTVSPropertyOp40
 70
     1
102
RTVSPropertyOp41
 70
     1
102
RTVSPropertyOp42
 70
     1
102
RTVSPropertyOp43
 70
     1
102
RTVSPropertyOp44
 70
     1
102
RTVSPropertyOp45
 70
     1
102
RTVSPropertyOp46
 70
     1
102
RTVSPropertyOp47
 70
     1
102
RTVSPropertyOp48
 70
     1
102
RTVSPropertyOp49
 70
     1
102
RTVSPropertyOp50
 70
     1
102
RTVSPropertyOp51
 70
     0
102
RTVSPropertyOp52
 70
     0
102
RTVSPropertyOp53
 70
     1
102
RTVSPropertyOp54
 70
     1
102
RTVSPropertyOp55
 70
     1
102
RTVSPropertyOp56
 70
     1
102
RTVSPropertyOp57
 70
     1
102
RTVSPropertyOp58
 70
     1
102
RTVSPropertyOp59
 70
     1
102
RTVSPropertyOp60
 70
     1
102
RTVSPropertyOp61
 70
     1
102
RTVSPropertyOp62
 70
     1
  0
XRECORD
  5
906F0
102
{ACAD_REACTORS
330
906EF
102
}
330
906EF
100
AcDbXrecord
280
     1
102
RTVSPost2010Prop28
280
     0
102
RTVSPost2010PropOp28
 70
     1
102
RTVSPost2010Prop29
280
     1
102
RTVSPost2010PropOp29
 70
     1
102
RTVSPost2010Prop30
280
     1
102
RTVSPost2010PropOp30
 70
     1
102
RTVSPost2010Prop31
280
     0
102
RTVSPost2010PropOp31
 70
     1
102
RTVSPost2010Prop32
280
     0
102
RTVSPost2010PropOp32
 70
     1
102
RTVSPost2010Prop33
280
     0
102
RTVSPost2010PropOp33
 70
     1
102
RTVSPost2010Prop34
280
     0
102
RTVSPost2010PropOp34
 70
     1
102
RTVSPost2010Prop35
280
     0
102
RTVSPost2010PropOp35
 70
     1
102
RTVSPost2010Prop36
280
     0
102
RTVSPost2010PropOp36
 70
     1
102
RTVSPost2010Prop37
 90
       50
102
RTVSPost2010PropOp37
 70
     1
102
RTVSPost2010Prop38
140
0.0
102
RTVSPost2010PropOp38
 70
     1
102
RTVSPost2010Prop39
140
1.0
102
RTVSPost2010PropOp39
 70
     1
102
RTVSPost2010Prop40
 90
        0
102
RTVSPost2010PropOp40
 70
     1
102
RTVSPost2010Prop41ColorIndex
 90
       18
102
RTVSPost2010Prop41ColorRGB
 90
        0
102
RTVSPost2010PropOp41
 70
     1
102
RTVSPost2010Prop42
 90
       50
102
RTVSPost2010PropOp42
 70
     1
102
RTVSPost2010Prop43
 90
        3
102
RTVSPost2010PropOp43
 70
     1
102
RTVSPost2010Prop44ColorIndex
 90
        5
102
RTVSPost2010Prop44ColorRGB
 90
      255
102
RTVSPost2010PropOp44
 70
     1
102
RTVSPost2010Prop45
280
     0
102
RTVSPost2010PropOp45
 70
     1
102
RTVSPost2010Prop46
 90
       50
102
RTVSPost2010PropOp46
 70
     1
102
RTVSPost2010Prop47
 90
       50
102
RTVSPost2010PropOp47
 70
     1
102
RTVSPost2010Prop48
 90
       50
102
RTVSPost2010PropOp48
 70
     1
102
RTVSPost2010Prop49
280
     0
102
RTVSPost2010PropOp49
 70
     1
102
RTVSPost2010Prop50
 90
       50
102
RTVSPost2010PropOp50
 70
     1
102
RTVSPost2010Prop51ColorIndex
 90
      256
102
RTVSPost2010Prop51ColorRGB
 90
-16777216
102
RTVSPost2010PropOp51
 70
     0
102
RTVSPost2010Prop52
140
1.0
102
RTVSPost2010PropOp52
 70
     0
102
RTVSPost2010Prop53
 90
        2
102
RTVSPost2010PropOp53
 70
     1
102
RTVSPost2010Prop54
  1
strokes_ogs.tif
102
RTVSPost2010PropOp54
 70
     1
102
RTVSPost2010Prop55
280
     0
102
RTVSPost2010PropOp55
 70
     1
102
RTVSPost2010Prop56
140
1.0
102
RTVSPost2010PropOp56
 70
     1
102
RTVSPost2010Prop57
140
1.0
102
RTVSPost2010PropOp57
 70
     1
102
RTVSPropertyOp0
 70
     1
102
RTVSPropertyOp1
 70
     1
102
RTVSPropertyOp2
 70
     1
102
RTVSPropertyOp3
 70
     1
102
RTVSPropertyOp4
 70
     1
102
RTVSPropertyOp5
 70
     1
102
RTVSPropertyOp6
 70
     1
102
RTVSPropertyOp7
 70
     1
102
RTVSPropertyOp8
 70
     1
102
RTVSPropertyOp9
 70
     1
102
RTVSPropertyOp10
 70
     1
102
RTVSPropertyOp11
 70
     1
102
RTVSPropertyOp12
 70
     1
102
RTVSPropertyOp13
 70
     1
102
RTVSPropertyOp14
 70
     1
102
RTVSPropertyOp15
 70
     1
102
RTVSPropertyOp16
 70
     1
102
RTVSPropertyOp17
 70
     1
102
RTVSPropertyOp18
 70
     1
102
RTVSPropertyOp19
 70
     1
102
RTVSPropertyOp20
 70
     1
102
RTVSPropertyOp21
 70
     1
102
RTVSPropertyOp22
 70
     1
102
RTVSPropertyOp23
 70
     1
102
RTVSPropertyOp24
 70
     1
102
RTVSPropertyOp25
 70
     1
102
RTVSPropertyOp26
 70
     1
102
RTVSPropertyOp27
 70
     1
102
RTVSPropertyOp28
 70
     1
102
RTVSPropertyOp29
 70
     1
102
RTVSPropertyOp30
 70
     1
102
RTVSPropertyOp31
 70
     1
102
RTVSPropertyOp32
 70
     1
102
RTVSPropertyOp33
 70
     1
102
RTVSPropertyOp34
 70
     1
102
RTVSPropertyOp35
 70
     1
102
RTVSPropertyOp36
 70
     1
102
RTVSPropertyOp37
 70
     1
102
RTVSPropertyOp38
 70
     1
102
RTVSPropertyOp39
 70
     1
102
RTVSPropertyOp40
 70
     1
102
RTVSPropertyOp41
 70
     1
102
RTVSPropertyOp42
 70
     1
102
RTVSPropertyOp43
 70
     1
102
RTVSPropertyOp44
 70
     1
102
RTVSPropertyOp45
 70
     1
102
RTVSPropertyOp46
 70
     1
102
RTVSPropertyOp47
 70
     1
102
RTVSPropertyOp48
 70
     1
102
RTVSPropertyOp49
 70
     1
102
RTVSPropertyOp50
 70
     1
102
RTVSPropertyOp51
 70
     0
102
RTVSPropertyOp52
 70
     0
102
RTVSPropertyOp53
 70
     1
102
RTVSPropertyOp54
 70
     1
102
RTVSPropertyOp55
 70
     1
102
RTVSPropertyOp56
 70
     1
102
RTVSPropertyOp57
 70
     1
102
RTVSPropertyOp58
 70
     1
102
RTVSPropertyOp59
 70
     1
102
RTVSPropertyOp60
 70
     1
102
RTVSPropertyOp61
 70
     1
102
RTVSPropertyOp62
 70
     1
  0
XRECORD
  5
9070A
102
{ACAD_REACTORS
330
90709
102
}
330
90709
100
AcDbXrecord
280
     1
102
RTVSPost2010Prop28
280
     0
102
RTVSPost2010PropOp28
 70
     1
102
RTVSPost2010Prop29
280
     1
102
RTVSPost2010PropOp29
 70
     1
102
RTVSPost2010Prop30
280
     1
102
RTVSPost2010PropOp30
 70
     1
102
RTVSPost2010Prop31
280
     0
102
RTVSPost2010PropOp31
 70
     1
102
RTVSPost2010Prop32
280
     0
102
RTVSPost2010PropOp32
 70
     1
102
RTVSPost2010Prop33
280
     0
102
RTVSPost2010PropOp33
 70
     1
102
RTVSPost2010Prop34
280
     0
102
RTVSPost2010PropOp34
 70
     1
102
RTVSPost2010Prop35
280
     0
102
RTVSPost2010PropOp35
 70
     1
102
RTVSPost2010Prop36
280
     0
102
RTVSPost2010PropOp36
 70
     1
102
RTVSPost2010Prop37
 90
       50
102
RTVSPost2010PropOp37
 70
     0
102
RTVSPost2010Prop38
140
0.0
102
RTVSPost2010PropOp38
 70
     0
102
RTVSPost2010Prop39
140
1.0
102
RTVSPost2010PropOp39
 70
     0
102
RTVSPost2010Prop40
 90
        0
102
RTVSPost2010PropOp40
 70
     0
102
RTVSPost2010Prop41ColorIndex
 90
       18
102
RTVSPost2010Prop41ColorRGB
 90
        0
102
RTVSPost2010PropOp41
 70
     0
102
RTVSPost2010Prop42
 90
       50
102
RTVSPost2010PropOp42
 70
     0
102
RTVSPost2010Prop43
 90
        3
102
RTVSPost2010PropOp43
 70
     0
102
RTVSPost2010Prop44ColorIndex
 90
        5
102
RTVSPost2010Prop44ColorRGB
 90
      255
102
RTVSPost2010PropOp44
 70
     0
102
RTVSPost2010Prop45
280
     0
102
RTVSPost2010PropOp45
 70
     1
102
RTVSPost2010Prop46
 90
       50
102
RTVSPost2010PropOp46
 70
     0
102
RTVSPost2010Prop47
 90
       50
102
RTVSPost2010PropOp47
 70
     0
102
RTVSPost2010Prop48
 90
       50
102
RTVSPost2010PropOp48
 70
     0
102
RTVSPost2010Prop49
280
     0
102
RTVSPost2010PropOp49
 70
     1
102
RTVSPost2010Prop50
 90
       50
102
RTVSPost2010PropOp50
 70
     0
102
RTVSPost2010Prop51ColorIndex
 90
      256
102
RTVSPost2010Prop51ColorRGB
 90
-16777216
102
RTVSPost2010PropOp51
 70
     0
102
RTVSPost2010Prop52
140
1.0
102
RTVSPost2010PropOp52
 70
     0
102
RTVSPost2010Prop53
 90
        2
102
RTVSPost2010PropOp53
 70
     0
102
RTVSPost2010Prop54
  1
strokes_ogs.tif
102
RTVSPost2010PropOp54
 70
     0
102
RTVSPost2010Prop55
280
     0
102
RTVSPost2010PropOp55
 70
     1
102
RTVSPost2010Prop56
140
1.0
102
RTVSPost2010PropOp56
 70
     0
102
RTVSPost2010Prop57
140
1.0
102
RTVSPost2010PropOp57
 70
     0
102
RTVSPropertyOp0
 70
     0
102
RTVSPropertyOp1
 70
     0
102
RTVSPropertyOp2
 70
     0
102
RTVSPropertyOp3
 70
     0
102
RTVSPropertyOp4
 70
     0
102
RTVSPropertyOp5
 70
     0
102
RTVSPropertyOp6
 70
     0
102
RTVSPropertyOp7
 70
     0
102
RTVSPropertyOp8
 70
     0
102
RTVSPropertyOp9
 70
     0
102
RTVSPropertyOp10
 70
     0
102
RTVSPropertyOp11
 70
     0
102
RTVSPropertyOp12
 70
     0
102
RTVSPropertyOp13
 70
     0
102
RTVSPropertyOp14
 70
     2
102
RTVSPropertyOp15
 70
     0
102
RTVSPropertyOp16
 70
     0
102
RTVSPropertyOp17
 70
     0
102
RTVSPropertyOp18
 70
     0
102
RTVSPropertyOp19
 70
     0
102
RTVSPropertyOp20
 70
     0
102
RTVSPropertyOp21
 70
     0
102
RTVSPropertyOp22
 70
     0
102
RTVSPropertyOp23
 70
     0
102
RTVSPropertyOp24
 70
     0
102
RTVSPropertyOp25
 70
     0
102
RTVSPropertyOp26
 70
     0
102
RTVSPropertyOp27
 70
     0
102
RTVSPropertyOp28
 70
     1
102
RTVSPropertyOp29
 70
     1
102
RTVSPropertyOp30
 70
     1
102
RTVSPropertyOp31
 70
     1
102
RTVSPropertyOp32
 70
     1
102
RTVSPropertyOp33
 70
     1
102
RTVSPropertyOp34
 70
     1
102
RTVSPropertyOp35
 70
     1
102
RTVSPropertyOp36
 70
     1
102
RTVSPropertyOp37
 70
     0
102
RTVSPropertyOp38
 70
     0
102
RTVSPropertyOp39
 70
     0
102
RTVSPropertyOp40
 70
     0
102
RTVSPropertyOp41
 70
     0
102
RTVSPropertyOp42
 70
     0
102
RTVSPropertyOp43
 70
     0
102
RTVSPropertyOp44
 70
     0
102
RTVSPropertyOp45
 70
     1
102
RTVSPropertyOp46
 70
     0
102
RTVSPropertyOp47
 70
     0
102
RTVSPropertyOp48
 70
     0
102
RTVSPropertyOp49
 70
     1
102
RTVSPropertyOp50
 70
     0
102
RTVSPropertyOp51
 70
     0
102
RTVSPropertyOp52
 70
     0
102
RTVSPropertyOp53
 70
     0
102
RTVSPropertyOp54
 70
     0
102
RTVSPropertyOp55
 70
     1
102
RTVSPropertyOp56
 70
     0
102
RTVSPropertyOp57
 70
     0
102
RTVSPropertyOp58
 70
     0
102
RTVSPropertyOp59
 70
     0
102
RTVSPropertyOp60
 70
     0
102
RTVSPropertyOp61
 70
     0
102
RTVSPropertyOp62
 70
     0
  0
XRECORD
  5
906F8
102
{ACAD_REACTORS
330
906F7
102
}
330
906F7
100
AcDbXrecord
280
     1
102
RTVSPost2010Prop28
280
     0
102
RTVSPost2010PropOp28
 70
     1
102
RTVSPost2010Prop29
280
     1
102
RTVSPost2010PropOp29
 70
     1
102
RTVSPost2010Prop30
280
     1
102
RTVSPost2010PropOp30
 70
     1
102
RTVSPost2010Prop31
280
     0
102
RTVSPost2010PropOp31
 70
     1
102
RTVSPost2010Prop32
280
     0
102
RTVSPost2010PropOp32
 70
     1
102
RTVSPost2010Prop33
280
     0
102
RTVSPost2010PropOp33
 70
     1
102
RTVSPost2010Prop34
280
     0
102
RTVSPost2010PropOp34
 70
     1
102
RTVSPost2010Prop35
280
     0
102
RTVSPost2010PropOp35
 70
     1
102
RTVSPost2010Prop36
280
     0
102
RTVSPost2010PropOp36
 70
     1
102
RTVSPost2010Prop37
 90
       50
102
RTVSPost2010PropOp37
 70
     1
102
RTVSPost2010Prop38
140
0.0
102
RTVSPost2010PropOp38
 70
     1
102
RTVSPost2010Prop39
140
1.0
102
RTVSPost2010PropOp39
 70
     1
102
RTVSPost2010Prop40
 90
        0
102
RTVSPost2010PropOp40
 70
     1
102
RTVSPost2010Prop41ColorIndex
 90
       18
102
RTVSPost2010Prop41ColorRGB
 90
        0
102
RTVSPost2010PropOp41
 70
     1
102
RTVSPost2010Prop42
 90
       50
102
RTVSPost2010PropOp42
 70
     1
102
RTVSPost2010Prop43
 90
        3
102
RTVSPost2010PropOp43
 70
     1
102
RTVSPost2010Prop44ColorIndex
 90
        5
102
RTVSPost2010Prop44ColorRGB
 90
      255
102
RTVSPost2010PropOp44
 70
     1
102
RTVSPost2010Prop45
280
     0
102
RTVSPost2010PropOp45
 70
     1
102
RTVSPost2010Prop46
 90
       50
102
RTVSPost2010PropOp46
 70
     1
102
RTVSPost2010Prop47
 90
       50
102
RTVSPost2010PropOp47
 70
     1
102
RTVSPost2010Prop48
 90
       50
102
RTVSPost2010PropOp48
 70
     1
102
RTVSPost2010Prop49
280
     0
102
RTVSPost2010PropOp49
 70
     1
102
RTVSPost2010Prop50
 90
       50
102
RTVSPost2010PropOp50
 70
     1
102
RTVSPost2010Prop51ColorIndex
 90
      256
102
RTVSPost2010Prop51ColorRGB
 90
-16777216
102
RTVSPost2010PropOp51
 70
     0
102
RTVSPost2010Prop52
140
1.0
102
RTVSPost2010PropOp52
 70
     0
102
RTVSPost2010Prop53
 90
        2
102
RTVSPost2010PropOp53
 70
     1
102
RTVSPost2010Prop54
  1
strokes_ogs.tif
102
RTVSPost2010PropOp54
 70
     1
102
RTVSPost2010Prop55
280
     0
102
RTVSPost2010PropOp55
 70
     1
102
RTVSPost2010Prop56
140
1.0
102
RTVSPost2010PropOp56
 70
     1
102
RTVSPost2010Prop57
140
1.0
102
RTVSPost2010PropOp57
 70
     1
102
RTVSPropertyOp0
 70
     1
102
RTVSPropertyOp1
 70
     1
102
RTVSPropertyOp2
 70
     1
102
RTVSPropertyOp3
 70
     1
102
RTVSPropertyOp4
 70
     1
102
RTVSPropertyOp5
 70
     1
102
RTVSPropertyOp6
 70
     1
102
RTVSPropertyOp7
 70
     1
102
RTVSPropertyOp8
 70
     1
102
RTVSPropertyOp9
 70
     1
102
RTVSPropertyOp10
 70
     1
102
RTVSPropertyOp11
 70
     1
102
RTVSPropertyOp12
 70
     1
102
RTVSPropertyOp13
 70
     1
102
RTVSPropertyOp14
 70
     1
102
RTVSPropertyOp15
 70
     1
102
RTVSPropertyOp16
 70
     1
102
RTVSPropertyOp17
 70
     1
102
RTVSPropertyOp18
 70
     1
102
RTVSPropertyOp19
 70
     1
102
RTVSPropertyOp20
 70
     1
102
RTVSPropertyOp21
 70
     1
102
RTVSPropertyOp22
 70
     1
102
RTVSPropertyOp23
 70
     1
102
RTVSPropertyOp24
 70
     1
102
RTVSPropertyOp25
 70
     1
102
RTVSPropertyOp26
 70
     1
102
RTVSPropertyOp27
 70
     1
102
RTVSPropertyOp28
 70
     1
102
RTVSPropertyOp29
 70
     1
102
RTVSPropertyOp30
 70
     1
102
RTVSPropertyOp31
 70
     1
102
RTVSPropertyOp32
 70
     1
102
RTVSPropertyOp33
 70
     1
102
RTVSPropertyOp34
 70
     1
102
RTVSPropertyOp35
 70
     1
102
RTVSPropertyOp36
 70
     1
102
RTVSPropertyOp37
 70
     1
102
RTVSPropertyOp38
 70
     1
102
RTVSPropertyOp39
 70
     1
102
RTVSPropertyOp40
 70
     1
102
RTVSPropertyOp41
 70
     1
102
RTVSPropertyOp42
 70
     1
102
RTVSPropertyOp43
 70
     1
102
RTVSPropertyOp44
 70
     1
102
RTVSPropertyOp45
 70
     1
102
RTVSPropertyOp46
 70
     1
102
RTVSPropertyOp47
 70
     1
102
RTVSPropertyOp48
 70
     1
102
RTVSPropertyOp49
 70
     1
102
RTVSPropertyOp50
 70
     1
102
RTVSPropertyOp51
 70
     0
102
RTVSPropertyOp52
 70
     0
102
RTVSPropertyOp53
 70
     1
102
RTVSPropertyOp54
 70
     1
102
RTVSPropertyOp55
 70
     1
102
RTVSPropertyOp56
 70
     1
102
RTVSPropertyOp57
 70
     1
102
RTVSPropertyOp58
 70
     1
102
RTVSPropertyOp59
 70
     1
102
RTVSPropertyOp60
 70
     1
102
RTVSPropertyOp61
 70
     1
102
RTVSPropertyOp62
 70
     1
  0
XRECORD
  5
906DC
102
{ACAD_REACTORS
330
906DB
102
}
330
906DB
100
AcDbXrecord
280
     1
102
RTVSPost2010Prop28
280
     0
102
RTVSPost2010PropOp28
 70
     1
102
RTVSPost2010Prop29
280
     1
102
RTVSPost2010PropOp29
 70
     1
102
RTVSPost2010Prop30
280
     1
102
RTVSPost2010PropOp30
 70
     1
102
RTVSPost2010Prop31
280
     0
102
RTVSPost2010PropOp31
 70
     1
102
RTVSPost2010Prop32
280
     0
102
RTVSPost2010PropOp32
 70
     1
102
RTVSPost2010Prop33
280
     0
102
RTVSPost2010PropOp33
 70
     1
102
RTVSPost2010Prop34
280
     0
102
RTVSPost2010PropOp34
 70
     1
102
RTVSPost2010Prop35
280
     0
102
RTVSPost2010PropOp35
 70
     1
102
RTVSPost2010Prop36
280
     0
102
RTVSPost2010PropOp36
 70
     1
102
RTVSPost2010Prop37
 90
       50
102
RTVSPost2010PropOp37
 70
     1
102
RTVSPost2010Prop38
140
0.0
102
RTVSPost2010PropOp38
 70
     1
102
RTVSPost2010Prop39
140
1.0
102
RTVSPost2010PropOp39
 70
     1
102
RTVSPost2010Prop40
 90
        0
102
RTVSPost2010PropOp40
 70
     1
102
RTVSPost2010Prop41ColorIndex
 90
       18
102
RTVSPost2010Prop41ColorRGB
 90
        0
102
RTVSPost2010PropOp41
 70
     1
102
RTVSPost2010Prop42
 90
       50
102
RTVSPost2010PropOp42
 70
     1
102
RTVSPost2010Prop43
 90
        3
102
RTVSPost2010PropOp43
 70
     1
102
RTVSPost2010Prop44ColorIndex
 90
        5
102
RTVSPost2010Prop44ColorRGB
 90
      255
102
RTVSPost2010PropOp44
 70
     1
102
RTVSPost2010Prop45
280
     0
102
RTVSPost2010PropOp45
 70
     1
102
RTVSPost2010Prop46
 90
       50
102
RTVSPost2010PropOp46
 70
     1
102
RTVSPost2010Prop47
 90
       50
102
RTVSPost2010PropOp47
 70
     1
102
RTVSPost2010Prop48
 90
       50
102
RTVSPost2010PropOp48
 70
     1
102
RTVSPost2010Prop49
280
     0
102
RTVSPost2010PropOp49
 70
     1
102
RTVSPost2010Prop50
 90
       50
102
RTVSPost2010PropOp50
 70
     1
102
RTVSPost2010Prop51ColorIndex
 90
      256
102
RTVSPost2010Prop51ColorRGB
 90
-16777216
102
RTVSPost2010PropOp51
 70
     0
102
RTVSPost2010Prop52
140
1.0
102
RTVSPost2010PropOp52
 70
     0
102
RTVSPost2010Prop53
 90
        2
102
RTVSPost2010PropOp53
 70
     1
102
RTVSPost2010Prop54
  1
strokes_ogs.tif
102
RTVSPost2010PropOp54
 70
     1
102
RTVSPost2010Prop55
280
     0
102
RTVSPost2010PropOp55
 70
     1
102
RTVSPost2010Prop56
140
1.0
102
RTVSPost2010PropOp56
 70
     1
102
RTVSPost2010Prop57
140
1.0
102
RTVSPost2010PropOp57
 70
     1
102
RTVSPropertyOp0
 70
     1
102
RTVSPropertyOp1
 70
     1
102
RTVSPropertyOp2
 70
     1
102
RTVSPropertyOp3
 70
     1
102
RTVSPropertyOp4
 70
     1
102
RTVSPropertyOp5
 70
     1
102
RTVSPropertyOp6
 70
     1
102
RTVSPropertyOp7
 70
     1
102
RTVSPropertyOp8
 70
     1
102
RTVSPropertyOp9
 70
     1
102
RTVSPropertyOp10
 70
     1
102
RTVSPropertyOp11
 70
     1
102
RTVSPropertyOp12
 70
     1
102
RTVSPropertyOp13
 70
     1
102
RTVSPropertyOp14
 70
     1
102
RTVSPropertyOp15
 70
     1
102
RTVSPropertyOp16
 70
     1
102
RTVSPropertyOp17
 70
     1
102
RTVSPropertyOp18
 70
     1
102
RTVSPropertyOp19
 70
     1
102
RTVSPropertyOp20
 70
     1
102
RTVSPropertyOp21
 70
     1
102
RTVSPropertyOp22
 70
     1
102
RTVSPropertyOp23
 70
     1
102
RTVSPropertyOp24
 70
     1
102
RTVSPropertyOp25
 70
     1
102
RTVSPropertyOp26
 70
     1
102
RTVSPropertyOp27
 70
     1
102
RTVSPropertyOp28
 70
     1
102
RTVSPropertyOp29
 70
     1
102
RTVSPropertyOp30
 70
     1
102
RTVSPropertyOp31
 70
     1
102
RTVSPropertyOp32
 70
     1
102
RTVSPropertyOp33
 70
     1
102
RTVSPropertyOp34
 70
     1
102
RTVSPropertyOp35
 70
     1
102
RTVSPropertyOp36
 70
     1
102
RTVSPropertyOp37
 70
     1
102
RTVSPropertyOp38
 70
     1
102
RTVSPropertyOp39
 70
     1
102
RTVSPropertyOp40
 70
     1
102
RTVSPropertyOp41
 70
     1
102
RTVSPropertyOp42
 70
     1
102
RTVSPropertyOp43
 70
     1
102
RTVSPropertyOp44
 70
     1
102
RTVSPropertyOp45
 70
     1
102
RTVSPropertyOp46
 70
     1
102
RTVSPropertyOp47
 70
     1
102
RTVSPropertyOp48
 70
     1
102
RTVSPropertyOp49
 70
     1
102
RTVSPropertyOp50
 70
     1
102
RTVSPropertyOp51
 70
     0
102
RTVSPropertyOp52
 70
     0
102
RTVSPropertyOp53
 70
     1
102
RTVSPropertyOp54
 70
     1
102
RTVSPropertyOp55
 70
     1
102
RTVSPropertyOp56
 70
     1
102
RTVSPropertyOp57
 70
     1
102
RTVSPropertyOp58
 70
     1
102
RTVSPropertyOp59
 70
     1
102
RTVSPropertyOp60
 70
     1
102
RTVSPropertyOp61
 70
     1
102
RTVSPropertyOp62
 70
     1
  0
XRECORD
  5
906DE
102
{ACAD_REACTORS
330
906DD
102
}
330
906DD
100
AcDbXrecord
280
     1
102
RTVSPost2010Prop28
280
     0
102
RTVSPost2010PropOp28
 70
     1
102
RTVSPost2010Prop29
280
     1
102
RTVSPost2010PropOp29
 70
     1
102
RTVSPost2010Prop30
280
     1
102
RTVSPost2010PropOp30
 70
     1
102
RTVSPost2010Prop31
280
     0
102
RTVSPost2010PropOp31
 70
     1
102
RTVSPost2010Prop32
280
     0
102
RTVSPost2010PropOp32
 70
     1
102
RTVSPost2010Prop33
280
     0
102
RTVSPost2010PropOp33
 70
     1
102
RTVSPost2010Prop34
280
     0
102
RTVSPost2010PropOp34
 70
     1
102
RTVSPost2010Prop35
280
     0
102
RTVSPost2010PropOp35
 70
     1
102
RTVSPost2010Prop36
280
     0
102
RTVSPost2010PropOp36
 70
     1
102
RTVSPost2010Prop37
 90
       50
102
RTVSPost2010PropOp37
 70
     1
102
RTVSPost2010Prop38
140
0.0
102
RTVSPost2010PropOp38
 70
     1
102
RTVSPost2010Prop39
140
1.0
102
RTVSPost2010PropOp39
 70
     1
102
RTVSPost2010Prop40
 90
        0
102
RTVSPost2010PropOp40
 70
     1
102
RTVSPost2010Prop41ColorIndex
 90
       18
102
RTVSPost2010Prop41ColorRGB
 90
        0
102
RTVSPost2010PropOp41
 70
     1
102
RTVSPost2010Prop42
 90
       50
102
RTVSPost2010PropOp42
 70
     1
102
RTVSPost2010Prop43
 90
        3
102
RTVSPost2010PropOp43
 70
     1
102
RTVSPost2010Prop44ColorIndex
 90
        5
102
RTVSPost2010Prop44ColorRGB
 90
      255
102
RTVSPost2010PropOp44
 70
     1
102
RTVSPost2010Prop45
280
     0
102
RTVSPost2010PropOp45
 70
     1
102
RTVSPost2010Prop46
 90
       50
102
RTVSPost2010PropOp46
 70
     1
102
RTVSPost2010Prop47
 90
       50
102
RTVSPost2010PropOp47
 70
     1
102
RTVSPost2010Prop48
 90
       50
102
RTVSPost2010PropOp48
 70
     1
102
RTVSPost2010Prop49
280
     0
102
RTVSPost2010PropOp49
 70
     1
102
RTVSPost2010Prop50
 90
       50
102
RTVSPost2010PropOp50
 70
     1
102
RTVSPost2010Prop51ColorIndex
 90
      256
102
RTVSPost2010Prop51ColorRGB
 90
-16777216
102
RTVSPost2010PropOp51
 70
     0
102
RTVSPost2010Prop52
140
1.0
102
RTVSPost2010PropOp52
 70
     0
102
RTVSPost2010Prop53
 90
        2
102
RTVSPost2010PropOp53
 70
     1
102
RTVSPost2010Prop54
  1
strokes_ogs.tif
102
RTVSPost2010PropOp54
 70
     1
102
RTVSPost2010Prop55
280
     0
102
RTVSPost2010PropOp55
 70
     1
102
RTVSPost2010Prop56
140
1.0
102
RTVSPost2010PropOp56
 70
     1
102
RTVSPost2010Prop57
140
1.0
102
RTVSPost2010PropOp57
 70
     1
102
RTVSPropertyOp0
 70
     1
102
RTVSPropertyOp1
 70
     1
102
RTVSPropertyOp2
 70
     1
102
RTVSPropertyOp3
 70
     1
102
RTVSPropertyOp4
 70
     1
102
RTVSPropertyOp5
 70
     1
102
RTVSPropertyOp6
 70
     1
102
RTVSPropertyOp7
 70
     1
102
RTVSPropertyOp8
 70
     1
102
RTVSPropertyOp9
 70
     1
102
RTVSPropertyOp10
 70
     1
102
RTVSPropertyOp11
 70
     1
102
RTVSPropertyOp12
 70
     1
102
RTVSPropertyOp13
 70
     1
102
RTVSPropertyOp14
 70
     1
102
RTVSPropertyOp15
 70
     1
102
RTVSPropertyOp16
 70
     1
102
RTVSPropertyOp17
 70
     1
102
RTVSPropertyOp18
 70
     1
102
RTVSPropertyOp19
 70
     1
102
RTVSPropertyOp20
 70
     1
102
RTVSPropertyOp21
 70
     1
102
RTVSPropertyOp22
 70
     1
102
RTVSPropertyOp23
 70
     1
102
RTVSPropertyOp24
 70
     1
102
RTVSPropertyOp25
 70
     1
102
RTVSPropertyOp26
 70
     1
102
RTVSPropertyOp27
 70
     1
102
RTVSPropertyOp28
 70
     1
102
RTVSPropertyOp29
 70
     1
102
RTVSPropertyOp30
 70
     1
102
RTVSPropertyOp31
 70
     1
102
RTVSPropertyOp32
 70
     1
102
RTVSPropertyOp33
 70
     1
102
RTVSPropertyOp34
 70
     1
102
RTVSPropertyOp35
 70
     1
102
RTVSPropertyOp36
 70
     1
102
RTVSPropertyOp37
 70
     1
102
RTVSPropertyOp38
 70
     1
102
RTVSPropertyOp39
 70
     1
102
RTVSPropertyOp40
 70
     1
102
RTVSPropertyOp41
 70
     1
102
RTVSPropertyOp42
 70
     1
102
RTVSPropertyOp43
 70
     1
102
RTVSPropertyOp44
 70
     1
102
RTVSPropertyOp45
 70
     1
102
RTVSPropertyOp46
 70
     1
102
RTVSPropertyOp47
 70
     1
102
RTVSPropertyOp48
 70
     1
102
RTVSPropertyOp49
 70
     1
102
RTVSPropertyOp50
 70
     1
102
RTVSPropertyOp51
 70
     0
102
RTVSPropertyOp52
 70
     0
102
RTVSPropertyOp53
 70
     1
102
RTVSPropertyOp54
 70
     1
102
RTVSPropertyOp55
 70
     1
102
RTVSPropertyOp56
 70
     1
102
RTVSPropertyOp57
 70
     1
102
RTVSPropertyOp58
 70
     1
102
RTVSPropertyOp59
 70
     1
102
RTVSPropertyOp60
 70
     1
102
RTVSPropertyOp61
 70
     1
102
RTVSPropertyOp62
 70
     1
  0
XRECORD
  5
906E0
102
{ACAD_REACTORS
330
906DF
102
}
330
906DF
100
AcDbXrecord
280
     1
102
RTVSPost2010Prop28
280
     0
102
RTVSPost2010PropOp28
 70
     1
102
RTVSPost2010Prop29
280
     1
102
RTVSPost2010PropOp29
 70
     1
102
RTVSPost2010Prop30
280
     1
102
RTVSPost2010PropOp30
 70
     1
102
RTVSPost2010Prop31
280
     0
102
RTVSPost2010PropOp31
 70
     1
102
RTVSPost2010Prop32
280
     0
102
RTVSPost2010PropOp32
 70
     1
102
RTVSPost2010Prop33
280
     0
102
RTVSPost2010PropOp33
 70
     1
102
RTVSPost2010Prop34
280
     0
102
RTVSPost2010PropOp34
 70
     1
102
RTVSPost2010Prop35
280
     0
102
RTVSPost2010PropOp35
 70
     1
102
RTVSPost2010Prop36
280
     0
102
RTVSPost2010PropOp36
 70
     1
102
RTVSPost2010Prop37
 90
       50
102
RTVSPost2010PropOp37
 70
     1
102
RTVSPost2010Prop38
140
0.0
102
RTVSPost2010PropOp38
 70
     1
102
RTVSPost2010Prop39
140
1.0
102
RTVSPost2010PropOp39
 70
     1
102
RTVSPost2010Prop40
 90
        0
102
RTVSPost2010PropOp40
 70
     1
102
RTVSPost2010Prop41ColorIndex
 90
       18
102
RTVSPost2010Prop41ColorRGB
 90
        0
102
RTVSPost2010PropOp41
 70
     1
102
RTVSPost2010Prop42
 90
       50
102
RTVSPost2010PropOp42
 70
     1
102
RTVSPost2010Prop43
 90
        3
102
RTVSPost2010PropOp43
 70
     1
102
RTVSPost2010Prop44ColorIndex
 90
        5
102
RTVSPost2010Prop44ColorRGB
 90
      255
102
RTVSPost2010PropOp44
 70
     1
102
RTVSPost2010Prop45
280
     0
102
RTVSPost2010PropOp45
 70
     1
102
RTVSPost2010Prop46
 90
       50
102
RTVSPost2010PropOp46
 70
     1
102
RTVSPost2010Prop47
 90
       50
102
RTVSPost2010PropOp47
 70
     1
102
RTVSPost2010Prop48
 90
       50
102
RTVSPost2010PropOp48
 70
     1
102
RTVSPost2010Prop49
280
     0
102
RTVSPost2010PropOp49
 70
     1
102
RTVSPost2010Prop50
 90
       50
102
RTVSPost2010PropOp50
 70
     1
102
RTVSPost2010Prop51ColorIndex
 90
      256
102
RTVSPost2010Prop51ColorRGB
 90
-16777216
102
RTVSPost2010PropOp51
 70
     0
102
RTVSPost2010Prop52
140
1.0
102
RTVSPost2010PropOp52
 70
     0
102
RTVSPost2010Prop53
 90
        2
102
RTVSPost2010PropOp53
 70
     1
102
RTVSPost2010Prop54
  1
strokes_ogs.tif
102
RTVSPost2010PropOp54
 70
     1
102
RTVSPost2010Prop55
280
     0
102
RTVSPost2010PropOp55
 70
     1
102
RTVSPost2010Prop56
140
1.0
102
RTVSPost2010PropOp56
 70
     1
102
RTVSPost2010Prop57
140
1.0
102
RTVSPost2010PropOp57
 70
     1
102
RTVSPropertyOp0
 70
     1
102
RTVSPropertyOp1
 70
     1
102
RTVSPropertyOp2
 70
     1
102
RTVSPropertyOp3
 70
     1
102
RTVSPropertyOp4
 70
     1
102
RTVSPropertyOp5
 70
     1
102
RTVSPropertyOp6
 70
     1
102
RTVSPropertyOp7
 70
     1
102
RTVSPropertyOp8
 70
     1
102
RTVSPropertyOp9
 70
     1
102
RTVSPropertyOp10
 70
     1
102
RTVSPropertyOp11
 70
     1
102
RTVSPropertyOp12
 70
     1
102
RTVSPropertyOp13
 70
     1
102
RTVSPropertyOp14
 70
     1
102
RTVSPropertyOp15
 70
     1
102
RTVSPropertyOp16
 70
     1
102
RTVSPropertyOp17
 70
     1
102
RTVSPropertyOp18
 70
     1
102
RTVSPropertyOp19
 70
     1
102
RTVSPropertyOp20
 70
     1
102
RTVSPropertyOp21
 70
     1
102
RTVSPropertyOp22
 70
     1
102
RTVSPropertyOp23
 70
     1
102
RTVSPropertyOp24
 70
     1
102
RTVSPropertyOp25
 70
     1
102
RTVSPropertyOp26
 70
     1
102
RTVSPropertyOp27
 70
     1
102
RTVSPropertyOp28
 70
     1
102
RTVSPropertyOp29
 70
     1
102
RTVSPropertyOp30
 70
     1
102
RTVSPropertyOp31
 70
     1
102
RTVSPropertyOp32
 70
     1
102
RTVSPropertyOp33
 70
     1
102
RTVSPropertyOp34
 70
     1
102
RTVSPropertyOp35
 70
     1
102
RTVSPropertyOp36
 70
     1
102
RTVSPropertyOp37
 70
     1
102
RTVSPropertyOp38
 70
     1
102
RTVSPropertyOp39
 70
     1
102
RTVSPropertyOp40
 70
     1
102
RTVSPropertyOp41
 70
     1
102
RTVSPropertyOp42
 70
     1
102
RTVSPropertyOp43
 70
     1
102
RTVSPropertyOp44
 70
     1
102
RTVSPropertyOp45
 70
     1
102
RTVSPropertyOp46
 70
     1
102
RTVSPropertyOp47
 70
     1
102
RTVSPropertyOp48
 70
     1
102
RTVSPropertyOp49
 70
     1
102
RTVSPropertyOp50
 70
     1
102
RTVSPropertyOp51
 70
     0
102
RTVSPropertyOp52
 70
     0
102
RTVSPropertyOp53
 70
     1
102
RTVSPropertyOp54
 70
     1
102
RTVSPropertyOp55
 70
     1
102
RTVSPropertyOp56
 70
     1
102
RTVSPropertyOp57
 70
     1
102
RTVSPropertyOp58
 70
     1
102
RTVSPropertyOp59
 70
     1
102
RTVSPropertyOp60
 70
     1
102
RTVSPropertyOp61
 70
     1
102
RTVSPropertyOp62
 70
     1
  0
XRECORD
  5
906E2
102
{ACAD_REACTORS
330
906E1
102
}
330
906E1
100
AcDbXrecord
280
     1
102
RTVSPost2010Prop28
280
     0
102
RTVSPost2010PropOp28
 70
     1
102
RTVSPost2010Prop29
280
     1
102
RTVSPost2010PropOp29
 70
     1
102
RTVSPost2010Prop30
280
     1
102
RTVSPost2010PropOp30
 70
     1
102
RTVSPost2010Prop31
280
     0
102
RTVSPost2010PropOp31
 70
     1
102
RTVSPost2010Prop32
280
     0
102
RTVSPost2010PropOp32
 70
     1
102
RTVSPost2010Prop33
280
     0
102
RTVSPost2010PropOp33
 70
     1
102
RTVSPost2010Prop34
280
     0
102
RTVSPost2010PropOp34
 70
     1
102
RTVSPost2010Prop35
280
     0
102
RTVSPost2010PropOp35
 70
     1
102
RTVSPost2010Prop36
280
     0
102
RTVSPost2010PropOp36
 70
     1
102
RTVSPost2010Prop37
 90
       50
102
RTVSPost2010PropOp37
 70
     1
102
RTVSPost2010Prop38
140
0.0
102
RTVSPost2010PropOp38
 70
     1
102
RTVSPost2010Prop39
140
1.0
102
RTVSPost2010PropOp39
 70
     1
102
RTVSPost2010Prop40
 90
        0
102
RTVSPost2010PropOp40
 70
     1
102
RTVSPost2010Prop41ColorIndex
 90
       18
102
RTVSPost2010Prop41ColorRGB
 90
        0
102
RTVSPost2010PropOp41
 70
     1
102
RTVSPost2010Prop42
 90
       50
102
RTVSPost2010PropOp42
 70
     1
102
RTVSPost2010Prop43
 90
        3
102
RTVSPost2010PropOp43
 70
     1
102
RTVSPost2010Prop44ColorIndex
 90
        5
102
RTVSPost2010Prop44ColorRGB
 90
      255
102
RTVSPost2010PropOp44
 70
     1
102
RTVSPost2010Prop45
280
     0
102
RTVSPost2010PropOp45
 70
     1
102
RTVSPost2010Prop46
 90
       50
102
RTVSPost2010PropOp46
 70
     1
102
RTVSPost2010Prop47
 90
       50
102
RTVSPost2010PropOp47
 70
     1
102
RTVSPost2010Prop48
 90
       50
102
RTVSPost2010PropOp48
 70
     1
102
RTVSPost2010Prop49
280
     0
102
RTVSPost2010PropOp49
 70
     1
102
RTVSPost2010Prop50
 90
       50
102
RTVSPost2010PropOp50
 70
     1
102
RTVSPost2010Prop51ColorIndex
 90
      256
102
RTVSPost2010Prop51ColorRGB
 90
-16777216
102
RTVSPost2010PropOp51
 70
     0
102
RTVSPost2010Prop52
140
1.0
102
RTVSPost2010PropOp52
 70
     0
102
RTVSPost2010Prop53
 90
        2
102
RTVSPost2010PropOp53
 70
     1
102
RTVSPost2010Prop54
  1
strokes_ogs.tif
102
RTVSPost2010PropOp54
 70
     1
102
RTVSPost2010Prop55
280
     0
102
RTVSPost2010PropOp55
 70
     1
102
RTVSPost2010Prop56
140
1.0
102
RTVSPost2010PropOp56
 70
     1
102
RTVSPost2010Prop57
140
1.0
102
RTVSPost2010PropOp57
 70
     1
102
RTVSPropertyOp0
 70
     1
102
RTVSPropertyOp1
 70
     1
102
RTVSPropertyOp2
 70
     1
102
RTVSPropertyOp3
 70
     1
102
RTVSPropertyOp4
 70
     1
102
RTVSPropertyOp5
 70
     1
102
RTVSPropertyOp6
 70
     1
102
RTVSPropertyOp7
 70
     1
102
RTVSPropertyOp8
 70
     1
102
RTVSPropertyOp9
 70
     1
102
RTVSPropertyOp10
 70
     1
102
RTVSPropertyOp11
 70
     1
102
RTVSPropertyOp12
 70
     1
102
RTVSPropertyOp13
 70
     1
102
RTVSPropertyOp14
 70
     1
102
RTVSPropertyOp15
 70
     1
102
RTVSPropertyOp16
 70
     1
102
RTVSPropertyOp17
 70
     1
102
RTVSPropertyOp18
 70
     1
102
RTVSPropertyOp19
 70
     1
102
RTVSPropertyOp20
 70
     1
102
RTVSPropertyOp21
 70
     1
102
RTVSPropertyOp22
 70
     1
102
RTVSPropertyOp23
 70
     1
102
RTVSPropertyOp24
 70
     1
102
RTVSPropertyOp25
 70
     1
102
RTVSPropertyOp26
 70
     1
102
RTVSPropertyOp27
 70
     1
102
RTVSPropertyOp28
 70
     1
102
RTVSPropertyOp29
 70
     1
102
RTVSPropertyOp30
 70
     1
102
RTVSPropertyOp31
 70
     1
102
RTVSPropertyOp32
 70
     1
102
RTVSPropertyOp33
 70
     1
102
RTVSPropertyOp34
 70
     1
102
RTVSPropertyOp35
 70
     1
102
RTVSPropertyOp36
 70
     1
102
RTVSPropertyOp37
 70
     1
102
RTVSPropertyOp38
 70
     1
102
RTVSPropertyOp39
 70
     1
102
RTVSPropertyOp40
 70
     1
102
RTVSPropertyOp41
 70
     1
102
RTVSPropertyOp42
 70
     1
102
RTVSPropertyOp43
 70
     1
102
RTVSPropertyOp44
 70
     1
102
RTVSPropertyOp45
 70
     1
102
RTVSPropertyOp46
 70
     1
102
RTVSPropertyOp47
 70
     1
102
RTVSPropertyOp48
 70
     1
102
RTVSPropertyOp49
 70
     1
102
RTVSPropertyOp50
 70
     1
102
RTVSPropertyOp51
 70
     0
102
RTVSPropertyOp52
 70
     0
102
RTVSPropertyOp53
 70
     1
102
RTVSPropertyOp54
 70
     1
102
RTVSPropertyOp55
 70
     1
102
RTVSPropertyOp56
 70
     1
102
RTVSPropertyOp57
 70
     1
102
RTVSPropertyOp58
 70
     1
102
RTVSPropertyOp59
 70
     1
102
RTVSPropertyOp60
 70
     1
102
RTVSPropertyOp61
 70
     1
102
RTVSPropertyOp62
 70
     1
  0
XRECORD
  5
906EA
102
{ACAD_REACTORS
330
906E9
102
}
330
906E9
100
AcDbXrecord
280
     1
102
RTVSPost2010Prop28
280
     0
102
RTVSPost2010PropOp28
 70
     1
102
RTVSPost2010Prop29
280
     1
102
RTVSPost2010PropOp29
 70
     1
102
RTVSPost2010Prop30
280
     1
102
RTVSPost2010PropOp30
 70
     1
102
RTVSPost2010Prop31
280
     0
102
RTVSPost2010PropOp31
 70
     1
102
RTVSPost2010Prop32
280
     0
102
RTVSPost2010PropOp32
 70
     1
102
RTVSPost2010Prop33
280
     0
102
RTVSPost2010PropOp33
 70
     1
102
RTVSPost2010Prop34
280
     0
102
RTVSPost2010PropOp34
 70
     1
102
RTVSPost2010Prop35
280
     0
102
RTVSPost2010PropOp35
 70
     1
102
RTVSPost2010Prop36
280
     0
102
RTVSPost2010PropOp36
 70
     1
102
RTVSPost2010Prop37
 90
       50
102
RTVSPost2010PropOp37
 70
     1
102
RTVSPost2010Prop38
140
0.0
102
RTVSPost2010PropOp38
 70
     1
102
RTVSPost2010Prop39
140
1.0
102
RTVSPost2010PropOp39
 70
     1
102
RTVSPost2010Prop40
 90
        0
102
RTVSPost2010PropOp40
 70
     1
102
RTVSPost2010Prop41ColorIndex
 90
       18
102
RTVSPost2010Prop41ColorRGB
 90
        0
102
RTVSPost2010PropOp41
 70
     1
102
RTVSPost2010Prop42
 90
       50
102
RTVSPost2010PropOp42
 70
     1
102
RTVSPost2010Prop43
 90
        3
102
RTVSPost2010PropOp43
 70
     1
102
RTVSPost2010Prop44ColorIndex
 90
        5
102
RTVSPost2010Prop44ColorRGB
 90
      255
102
RTVSPost2010PropOp44
 70
     1
102
RTVSPost2010Prop45
280
     0
102
RTVSPost2010PropOp45
 70
     1
102
RTVSPost2010Prop46
 90
       50
102
RTVSPost2010PropOp46
 70
     1
102
RTVSPost2010Prop47
 90
       50
102
RTVSPost2010PropOp47
 70
     1
102
RTVSPost2010Prop48
 90
       50
102
RTVSPost2010PropOp48
 70
     1
102
RTVSPost2010Prop49
280
     0
102
RTVSPost2010PropOp49
 70
     1
102
RTVSPost2010Prop50
 90
       50
102
RTVSPost2010PropOp50
 70
     1
102
RTVSPost2010Prop51ColorIndex
 90
      256
102
RTVSPost2010Prop51ColorRGB
 90
-16777216
102
RTVSPost2010PropOp51
 70
     0
102
RTVSPost2010Prop52
140
1.0
102
RTVSPost2010PropOp52
 70
     0
102
RTVSPost2010Prop53
 90
        2
102
RTVSPost2010PropOp53
 70
     1
102
RTVSPost2010Prop54
  1
strokes_ogs.tif
102
RTVSPost2010PropOp54
 70
     1
102
RTVSPost2010Prop55
280
     0
102
RTVSPost2010PropOp55
 70
     1
102
RTVSPost2010Prop56
140
1.0
102
RTVSPost2010PropOp56
 70
     1
102
RTVSPost2010Prop57
140
1.0
102
RTVSPost2010PropOp57
 70
     1
102
RTVSPropertyOp0
 70
     1
102
RTVSPropertyOp1
 70
     1
102
RTVSPropertyOp2
 70
     1
102
RTVSPropertyOp3
 70
     1
102
RTVSPropertyOp4
 70
     1
102
RTVSPropertyOp5
 70
     1
102
RTVSPropertyOp6
 70
     1
102
RTVSPropertyOp7
 70
     1
102
RTVSPropertyOp8
 70
     1
102
RTVSPropertyOp9
 70
     1
102
RTVSPropertyOp10
 70
     1
102
RTVSPropertyOp11
 70
     1
102
RTVSPropertyOp12
 70
     1
102
RTVSPropertyOp13
 70
     1
102
RTVSPropertyOp14
 70
     1
102
RTVSPropertyOp15
 70
     1
102
RTVSPropertyOp16
 70
     1
102
RTVSPropertyOp17
 70
     1
102
RTVSPropertyOp18
 70
     1
102
RTVSPropertyOp19
 70
     1
102
RTVSPropertyOp20
 70
     1
102
RTVSPropertyOp21
 70
     1
102
RTVSPropertyOp22
 70
     1
102
RTVSPropertyOp23
 70
     1
102
RTVSPropertyOp24
 70
     1
102
RTVSPropertyOp25
 70
     1
102
RTVSPropertyOp26
 70
     1
102
RTVSPropertyOp27
 70
     1
102
RTVSPropertyOp28
 70
     1
102
RTVSPropertyOp29
 70
     1
102
RTVSPropertyOp30
 70
     1
102
RTVSPropertyOp31
 70
     1
102
RTVSPropertyOp32
 70
     1
102
RTVSPropertyOp33
 70
     1
102
RTVSPropertyOp34
 70
     1
102
RTVSPropertyOp35
 70
     1
102
RTVSPropertyOp36
 70
     1
102
RTVSPropertyOp37
 70
     1
102
RTVSPropertyOp38
 70
     1
102
RTVSPropertyOp39
 70
     1
102
RTVSPropertyOp40
 70
     1
102
RTVSPropertyOp41
 70
     1
102
RTVSPropertyOp42
 70
     1
102
RTVSPropertyOp43
 70
     1
102
RTVSPropertyOp44
 70
     1
102
RTVSPropertyOp45
 70
     1
102
RTVSPropertyOp46
 70
     1
102
RTVSPropertyOp47
 70
     1
102
RTVSPropertyOp48
 70
     1
102
RTVSPropertyOp49
 70
     1
102
RTVSPropertyOp50
 70
     1
102
RTVSPropertyOp51
 70
     0
102
RTVSPropertyOp52
 70
     0
102
RTVSPropertyOp53
 70
     1
102
RTVSPropertyOp54
 70
     1
102
RTVSPropertyOp55
 70
     1
102
RTVSPropertyOp56
 70
     1
102
RTVSPropertyOp57
 70
     1
102
RTVSPropertyOp58
 70
     1
102
RTVSPropertyOp59
 70
     1
102
RTVSPropertyOp60
 70
     1
102
RTVSPropertyOp61
 70
     1
102
RTVSPropertyOp62
 70
     1
  0
XRECORD
  5
90706
102
{ACAD_REACTORS
330
90705
102
}
330
90705
100
AcDbXrecord
280
     1
102
RTVSPost2010Prop28
280
     0
102
RTVSPost2010PropOp28
 70
     1
102
RTVSPost2010Prop29
280
     1
102
RTVSPost2010PropOp29
 70
     1
102
RTVSPost2010Prop30
280
     1
102
RTVSPost2010PropOp30
 70
     1
102
RTVSPost2010Prop31
280
     0
102
RTVSPost2010PropOp31
 70
     1
102
RTVSPost2010Prop32
280
     0
102
RTVSPost2010PropOp32
 70
     1
102
RTVSPost2010Prop33
280
     0
102
RTVSPost2010PropOp33
 70
     1
102
RTVSPost2010Prop34
280
     0
102
RTVSPost2010PropOp34
 70
     1
102
RTVSPost2010Prop35
280
     0
102
RTVSPost2010PropOp35
 70
     1
102
RTVSPost2010Prop36
280
     0
102
RTVSPost2010PropOp36
 70
     1
102
RTVSPost2010Prop37
 90
       50
102
RTVSPost2010PropOp37
 70
     0
102
RTVSPost2010Prop38
140
0.0
102
RTVSPost2010PropOp38
 70
     0
102
RTVSPost2010Prop39
140
1.0
102
RTVSPost2010PropOp39
 70
     0
102
RTVSPost2010Prop40
 90
        0
102
RTVSPost2010PropOp40
 70
     0
102
RTVSPost2010Prop41ColorIndex
 90
       18
102
RTVSPost2010Prop41ColorRGB
 90
        0
102
RTVSPost2010PropOp41
 70
     0
102
RTVSPost2010Prop42
 90
       50
102
RTVSPost2010PropOp42
 70
     0
102
RTVSPost2010Prop43
 90
        3
102
RTVSPost2010PropOp43
 70
     0
102
RTVSPost2010Prop44ColorIndex
 90
        5
102
RTVSPost2010Prop44ColorRGB
 90
      255
102
RTVSPost2010PropOp44
 70
     0
102
RTVSPost2010Prop45
280
     0
102
RTVSPost2010PropOp45
 70
     1
102
RTVSPost2010Prop46
 90
       50
102
RTVSPost2010PropOp46
 70
     0
102
RTVSPost2010Prop47
 90
       50
102
RTVSPost2010PropOp47
 70
     0
102
RTVSPost2010Prop48
 90
       50
102
RTVSPost2010PropOp48
 70
     0
102
RTVSPost2010Prop49
280
     0
102
RTVSPost2010PropOp49
 70
     1
102
RTVSPost2010Prop50
 90
       50
102
RTVSPost2010PropOp50
 70
     0
102
RTVSPost2010Prop51ColorIndex
 90
      256
102
RTVSPost2010Prop51ColorRGB
 90
-16777216
102
RTVSPost2010PropOp51
 70
     0
102
RTVSPost2010Prop52
140
1.0
102
RTVSPost2010PropOp52
 70
     0
102
RTVSPost2010Prop53
 90
        2
102
RTVSPost2010PropOp53
 70
     0
102
RTVSPost2010Prop54
  1
strokes_ogs.tif
102
RTVSPost2010PropOp54
 70
     0
102
RTVSPost2010Prop55
280
     0
102
RTVSPost2010PropOp55
 70
     1
102
RTVSPost2010Prop56
140
1.0
102
RTVSPost2010PropOp56
 70
     0
102
RTVSPost2010Prop57
140
1.0
102
RTVSPost2010PropOp57
 70
     0
102
RTVSPropertyOp0
 70
     0
102
RTVSPropertyOp1
 70
     0
102
RTVSPropertyOp2
 70
     0
102
RTVSPropertyOp3
 70
     0
102
RTVSPropertyOp4
 70
     0
102
RTVSPropertyOp5
 70
     0
102
RTVSPropertyOp6
 70
     0
102
RTVSPropertyOp7
 70
     0
102
RTVSPropertyOp8
 70
     0
102
RTVSPropertyOp9
 70
     0
102
RTVSPropertyOp10
 70
     0
102
RTVSPropertyOp11
 70
     0
102
RTVSPropertyOp12
 70
     0
102
RTVSPropertyOp13
 70
     0
102
RTVSPropertyOp14
 70
     2
102
RTVSPropertyOp15
 70
     0
102
RTVSPropertyOp16
 70
     0
102
RTVSPropertyOp17
 70
     0
102
RTVSPropertyOp18
 70
     0
102
RTVSPropertyOp19
 70
     0
102
RTVSPropertyOp20
 70
     0
102
RTVSPropertyOp21
 70
     0
102
RTVSPropertyOp22
 70
     0
102
RTVSPropertyOp23
 70
     0
102
RTVSPropertyOp24
 70
     0
102
RTVSPropertyOp25
 70
     0
102
RTVSPropertyOp26
 70
     0
102
RTVSPropertyOp27
 70
     0
102
RTVSPropertyOp28
 70
     1
102
RTVSPropertyOp29
 70
     1
102
RTVSPropertyOp30
 70
     1
102
RTVSPropertyOp31
 70
     1
102
RTVSPropertyOp32
 70
     1
102
RTVSPropertyOp33
 70
     1
102
RTVSPropertyOp34
 70
     1
102
RTVSPropertyOp35
 70
     1
102
RTVSPropertyOp36
 70
     1
102
RTVSPropertyOp37
 70
     0
102
RTVSPropertyOp38
 70
     0
102
RTVSPropertyOp39
 70
     0
102
RTVSPropertyOp40
 70
     0
102
RTVSPropertyOp41
 70
     0
102
RTVSPropertyOp42
 70
     0
102
RTVSPropertyOp43
 70
     0
102
RTVSPropertyOp44
 70
     0
102
RTVSPropertyOp45
 70
     1
102
RTVSPropertyOp46
 70
     0
102
RTVSPropertyOp47
 70
     0
102
RTVSPropertyOp48
 70
     0
102
RTVSPropertyOp49
 70
     1
102
RTVSPropertyOp50
 70
     0
102
RTVSPropertyOp51
 70
     0
102
RTVSPropertyOp52
 70
     0
102
RTVSPropertyOp53
 70
     0
102
RTVSPropertyOp54
 70
     0
102
RTVSPropertyOp55
 70
     1
102
RTVSPropertyOp56
 70
     0
102
RTVSPropertyOp57
 70
     0
102
RTVSPropertyOp58
 70
     0
102
RTVSPropertyOp59
 70
     0
102
RTVSPropertyOp60
 70
     0
102
RTVSPropertyOp61
 70
     0
102
RTVSPropertyOp62
 70
     0
  0
XRECORD
  5
906F6
102
{ACAD_REACTORS
330
906F5
102
}
330
906F5
100
AcDbXrecord
280
     1
102
RTVSPost2010Prop28
280
     0
102
RTVSPost2010PropOp28
 70
     1
102
RTVSPost2010Prop29
280
     1
102
RTVSPost2010PropOp29
 70
     1
102
RTVSPost2010Prop30
280
     1
102
RTVSPost2010PropOp30
 70
     1
102
RTVSPost2010Prop31
280
     0
102
RTVSPost2010PropOp31
 70
     1
102
RTVSPost2010Prop32
280
     0
102
RTVSPost2010PropOp32
 70
     1
102
RTVSPost2010Prop33
280
     0
102
RTVSPost2010PropOp33
 70
     1
102
RTVSPost2010Prop34
280
     0
102
RTVSPost2010PropOp34
 70
     1
102
RTVSPost2010Prop35
280
     0
102
RTVSPost2010PropOp35
 70
     1
102
RTVSPost2010Prop36
280
     0
102
RTVSPost2010PropOp36
 70
     1
102
RTVSPost2010Prop37
 90
       50
102
RTVSPost2010PropOp37
 70
     1
102
RTVSPost2010Prop38
140
0.0
102
RTVSPost2010PropOp38
 70
     1
102
RTVSPost2010Prop39
140
1.0
102
RTVSPost2010PropOp39
 70
     1
102
RTVSPost2010Prop40
 90
        0
102
RTVSPost2010PropOp40
 70
     1
102
RTVSPost2010Prop41ColorIndex
 90
       18
102
RTVSPost2010Prop41ColorRGB
 90
        0
102
RTVSPost2010PropOp41
 70
     1
102
RTVSPost2010Prop42
 90
       50
102
RTVSPost2010PropOp42
 70
     1
102
RTVSPost2010Prop43
 90
        3
102
RTVSPost2010PropOp43
 70
     1
102
RTVSPost2010Prop44ColorIndex
 90
        5
102
RTVSPost2010Prop44ColorRGB
 90
      255
102
RTVSPost2010PropOp44
 70
     1
102
RTVSPost2010Prop45
280
     0
102
RTVSPost2010PropOp45
 70
     1
102
RTVSPost2010Prop46
 90
       50
102
RTVSPost2010PropOp46
 70
     1
102
RTVSPost2010Prop47
 90
       50
102
RTVSPost2010PropOp47
 70
     1
102
RTVSPost2010Prop48
 90
       50
102
RTVSPost2010PropOp48
 70
     1
102
RTVSPost2010Prop49
280
     0
102
RTVSPost2010PropOp49
 70
     1
102
RTVSPost2010Prop50
 90
       50
102
RTVSPost2010PropOp50
 70
     1
102
RTVSPost2010Prop51ColorIndex
 90
      256
102
RTVSPost2010Prop51ColorRGB
 90
-16777216
102
RTVSPost2010PropOp51
 70
     0
102
RTVSPost2010Prop52
140
1.0
102
RTVSPost2010PropOp52
 70
     0
102
RTVSPost2010Prop53
 90
        2
102
RTVSPost2010PropOp53
 70
     1
102
RTVSPost2010Prop54
  1
strokes_ogs.tif
102
RTVSPost2010PropOp54
 70
     1
102
RTVSPost2010Prop55
280
     0
102
RTVSPost2010PropOp55
 70
     1
102
RTVSPost2010Prop56
140
1.0
102
RTVSPost2010PropOp56
 70
     1
102
RTVSPost2010Prop57
140
1.0
102
RTVSPost2010PropOp57
 70
     1
102
RTVSPropertyOp0
 70
     1
102
RTVSPropertyOp1
 70
     1
102
RTVSPropertyOp2
 70
     1
102
RTVSPropertyOp3
 70
     1
102
RTVSPropertyOp4
 70
     1
102
RTVSPropertyOp5
 70
     1
102
RTVSPropertyOp6
 70
     1
102
RTVSPropertyOp7
 70
     1
102
RTVSPropertyOp8
 70
     1
102
RTVSPropertyOp9
 70
     1
102
RTVSPropertyOp10
 70
     1
102
RTVSPropertyOp11
 70
     1
102
RTVSPropertyOp12
 70
     1
102
RTVSPropertyOp13
 70
     1
102
RTVSPropertyOp14
 70
     1
102
RTVSPropertyOp15
 70
     1
102
RTVSPropertyOp16
 70
     1
102
RTVSPropertyOp17
 70
     1
102
RTVSPropertyOp18
 70
     1
102
RTVSPropertyOp19
 70
     1
102
RTVSPropertyOp20
 70
     1
102
RTVSPropertyOp21
 70
     1
102
RTVSPropertyOp22
 70
     1
102
RTVSPropertyOp23
 70
     1
102
RTVSPropertyOp24
 70
     1
102
RTVSPropertyOp25
 70
     1
102
RTVSPropertyOp26
 70
     1
102
RTVSPropertyOp27
 70
     1
102
RTVSPropertyOp28
 70
     1
102
RTVSPropertyOp29
 70
     1
102
RTVSPropertyOp30
 70
     1
102
RTVSPropertyOp31
 70
     1
102
RTVSPropertyOp32
 70
     1
102
RTVSPropertyOp33
 70
     1
102
RTVSPropertyOp34
 70
     1
102
RTVSPropertyOp35
 70
     1
102
RTVSPropertyOp36
 70
     1
102
RTVSPropertyOp37
 70
     1
102
RTVSPropertyOp38
 70
     1
102
RTVSPropertyOp39
 70
     1
102
RTVSPropertyOp40
 70
     1
102
RTVSPropertyOp41
 70
     1
102
RTVSPropertyOp42
 70
     1
102
RTVSPropertyOp43
 70
     1
102
RTVSPropertyOp44
 70
     1
102
RTVSPropertyOp45
 70
     1
102
RTVSPropertyOp46
 70
     1
102
RTVSPropertyOp47
 70
     1
102
RTVSPropertyOp48
 70
     1
102
RTVSPropertyOp49
 70
     1
102
RTVSPropertyOp50
 70
     1
102
RTVSPropertyOp51
 70
     0
102
RTVSPropertyOp52
 70
     0
102
RTVSPropertyOp53
 70
     1
102
RTVSPropertyOp54
 70
     1
102
RTVSPropertyOp55
 70
     1
102
RTVSPropertyOp56
 70
     1
102
RTVSPropertyOp57
 70
     1
102
RTVSPropertyOp58
 70
     1
102
RTVSPropertyOp59
 70
     1
102
RTVSPropertyOp60
 70
     1
102
RTVSPropertyOp61
 70
     1
102
RTVSPropertyOp62
 70
     1
  0
XRECORD
  5
90708
102
{ACAD_REACTORS
330
90707
102
}
330
90707
100
AcDbXrecord
280
     1
102
RTVSPost2010Prop28
280
     0
102
RTVSPost2010PropOp28
 70
     1
102
RTVSPost2010Prop29
280
     1
102
RTVSPost2010PropOp29
 70
     1
102
RTVSPost2010Prop30
280
     1
102
RTVSPost2010PropOp30
 70
     1
102
RTVSPost2010Prop31
280
     0
102
RTVSPost2010PropOp31
 70
     1
102
RTVSPost2010Prop32
280
     0
102
RTVSPost2010PropOp32
 70
     1
102
RTVSPost2010Prop33
280
     0
102
RTVSPost2010PropOp33
 70
     1
102
RTVSPost2010Prop34
280
     0
102
RTVSPost2010PropOp34
 70
     1
102
RTVSPost2010Prop35
280
     0
102
RTVSPost2010PropOp35
 70
     1
102
RTVSPost2010Prop36
280
     0
102
RTVSPost2010PropOp36
 70
     1
102
RTVSPost2010Prop37
 90
       50
102
RTVSPost2010PropOp37
 70
     0
102
RTVSPost2010Prop38
140
0.0
102
RTVSPost2010PropOp38
 70
     0
102
RTVSPost2010Prop39
140
1.0
102
RTVSPost2010PropOp39
 70
     0
102
RTVSPost2010Prop40
 90
        0
102
RTVSPost2010PropOp40
 70
     0
102
RTVSPost2010Prop41ColorIndex
 90
       18
102
RTVSPost2010Prop41ColorRGB
 90
        0
102
RTVSPost2010PropOp41
 70
     0
102
RTVSPost2010Prop42
 90
       50
102
RTVSPost2010PropOp42
 70
     0
102
RTVSPost2010Prop43
 90
        3
102
RTVSPost2010PropOp43
 70
     0
102
RTVSPost2010Prop44ColorIndex
 90
        5
102
RTVSPost2010Prop44ColorRGB
 90
      255
102
RTVSPost2010PropOp44
 70
     0
102
RTVSPost2010Prop45
280
     0
102
RTVSPost2010PropOp45
 70
     1
102
RTVSPost2010Prop46
 90
       50
102
RTVSPost2010PropOp46
 70
     0
102
RTVSPost2010Prop47
 90
       50
102
RTVSPost2010PropOp47
 70
     0
102
RTVSPost2010Prop48
 90
       50
102
RTVSPost2010PropOp48
 70
     0
102
RTVSPost2010Prop49
280
     0
102
RTVSPost2010PropOp49
 70
     1
102
RTVSPost2010Prop50
 90
       50
102
RTVSPost2010PropOp50
 70
     0
102
RTVSPost2010Prop51ColorIndex
 90
      256
102
RTVSPost2010Prop51ColorRGB
 90
-16777216
102
RTVSPost2010PropOp51
 70
     0
102
RTVSPost2010Prop52
140
1.0
102
RTVSPost2010PropOp52
 70
     0
102
RTVSPost2010Prop53
 90
        2
102
RTVSPost2010PropOp53
 70
     0
102
RTVSPost2010Prop54
  1
strokes_ogs.tif
102
RTVSPost2010PropOp54
 70
     0
102
RTVSPost2010Prop55
280
     0
102
RTVSPost2010PropOp55
 70
     1
102
RTVSPost2010Prop56
140
1.0
102
RTVSPost2010PropOp56
 70
     0
102
RTVSPost2010Prop57
140
1.0
102
RTVSPost2010PropOp57
 70
     0
102
RTVSPropertyOp0
 70
     0
102
RTVSPropertyOp1
 70
     0
102
RTVSPropertyOp2
 70
     0
102
RTVSPropertyOp3
 70
     0
102
RTVSPropertyOp4
 70
     0
102
RTVSPropertyOp5
 70
     0
102
RTVSPropertyOp6
 70
     0
102
RTVSPropertyOp7
 70
     0
102
RTVSPropertyOp8
 70
     0
102
RTVSPropertyOp9
 70
     0
102
RTVSPropertyOp10
 70
     0
102
RTVSPropertyOp11
 70
     0
102
RTVSPropertyOp12
 70
     0
102
RTVSPropertyOp13
 70
     0
102
RTVSPropertyOp14
 70
     2
102
RTVSPropertyOp15
 70
     0
102
RTVSPropertyOp16
 70
     0
102
RTVSPropertyOp17
 70
     0
102
RTVSPropertyOp18
 70
     0
102
RTVSPropertyOp19
 70
     0
102
RTVSPropertyOp20
 70
     0
102
RTVSPropertyOp21
 70
     0
102
RTVSPropertyOp22
 70
     0
102
RTVSPropertyOp23
 70
     0
102
RTVSPropertyOp24
 70
     0
102
RTVSPropertyOp25
 70
     0
102
RTVSPropertyOp26
 70
     0
102
RTVSPropertyOp27
 70
     0
102
RTVSPropertyOp28
 70
     1
102
RTVSPropertyOp29
 70
     1
102
RTVSPropertyOp30
 70
     1
102
RTVSPropertyOp31
 70
     1
102
RTVSPropertyOp32
 70
     1
102
RTVSPropertyOp33
 70
     1
102
RTVSPropertyOp34
 70
     1
102
RTVSPropertyOp35
 70
     1
102
RTVSPropertyOp36
 70
     1
102
RTVSPropertyOp37
 70
     0
102
RTVSPropertyOp38
 70
     0
102
RTVSPropertyOp39
 70
     0
102
RTVSPropertyOp40
 70
     0
102
RTVSPropertyOp41
 70
     0
102
RTVSPropertyOp42
 70
     0
102
RTVSPropertyOp43
 70
     0
102
RTVSPropertyOp44
 70
     0
102
RTVSPropertyOp45
 70
     1
102
RTVSPropertyOp46
 70
     0
102
RTVSPropertyOp47
 70
     0
102
RTVSPropertyOp48
 70
     0
102
RTVSPropertyOp49
 70
     1
102
RTVSPropertyOp50
 70
     0
102
RTVSPropertyOp51
 70
     0
102
RTVSPropertyOp52
 70
     0
102
RTVSPropertyOp53
 70
     0
102
RTVSPropertyOp54
 70
     0
102
RTVSPropertyOp55
 70
     1
102
RTVSPropertyOp56
 70
     0
102
RTVSPropertyOp57
 70
     0
102
RTVSPropertyOp58
 70
     0
102
RTVSPropertyOp59
 70
     0
102
RTVSPropertyOp60
 70
     0
102
RTVSPropertyOp61
 70
     0
102
RTVSPropertyOp62
 70
     0
  0
XRECORD
  5
906EE
102
{ACAD_REACTORS
330
906ED
102
}
330
906ED
100
AcDbXrecord
280
     1
102
RTVSPost2010Prop28
280
     0
102
RTVSPost2010PropOp28
 70
     1
102
RTVSPost2010Prop29
280
     1
102
RTVSPost2010PropOp29
 70
     1
102
RTVSPost2010Prop30
280
     1
102
RTVSPost2010PropOp30
 70
     1
102
RTVSPost2010Prop31
280
     0
102
RTVSPost2010PropOp31
 70
     1
102
RTVSPost2010Prop32
280
     0
102
RTVSPost2010PropOp32
 70
     1
102
RTVSPost2010Prop33
280
     0
102
RTVSPost2010PropOp33
 70
     1
102
RTVSPost2010Prop34
280
     0
102
RTVSPost2010PropOp34
 70
     1
102
RTVSPost2010Prop35
280
     0
102
RTVSPost2010PropOp35
 70
     1
102
RTVSPost2010Prop36
280
     0
102
RTVSPost2010PropOp36
 70
     1
102
RTVSPost2010Prop37
 90
       50
102
RTVSPost2010PropOp37
 70
     1
102
RTVSPost2010Prop38
140
0.0
102
RTVSPost2010PropOp38
 70
     1
102
RTVSPost2010Prop39
140
1.0
102
RTVSPost2010PropOp39
 70
     1
102
RTVSPost2010Prop40
 90
        0
102
RTVSPost2010PropOp40
 70
     1
102
RTVSPost2010Prop41ColorIndex
 90
       18
102
RTVSPost2010Prop41ColorRGB
 90
        0
102
RTVSPost2010PropOp41
 70
     1
102
RTVSPost2010Prop42
 90
       50
102
RTVSPost2010PropOp42
 70
     1
102
RTVSPost2010Prop43
 90
        3
102
RTVSPost2010PropOp43
 70
     1
102
RTVSPost2010Prop44ColorIndex
 90
        5
102
RTVSPost2010Prop44ColorRGB
 90
      255
102
RTVSPost2010PropOp44
 70
     1
102
RTVSPost2010Prop45
280
     0
102
RTVSPost2010PropOp45
 70
     1
102
RTVSPost2010Prop46
 90
       50
102
RTVSPost2010PropOp46
 70
     1
102
RTVSPost2010Prop47
 90
       50
102
RTVSPost2010PropOp47
 70
     1
102
RTVSPost2010Prop48
 90
       50
102
RTVSPost2010PropOp48
 70
     1
102
RTVSPost2010Prop49
280
     0
102
RTVSPost2010PropOp49
 70
     1
102
RTVSPost2010Prop50
 90
       50
102
RTVSPost2010PropOp50
 70
     1
102
RTVSPost2010Prop51ColorIndex
 90
      256
102
RTVSPost2010Prop51ColorRGB
 90
-16777216
102
RTVSPost2010PropOp51
 70
     0
102
RTVSPost2010Prop52
140
1.0
102
RTVSPost2010PropOp52
 70
     0
102
RTVSPost2010Prop53
 90
        2
102
RTVSPost2010PropOp53
 70
     1
102
RTVSPost2010Prop54
  1
strokes_ogs.tif
102
RTVSPost2010PropOp54
 70
     1
102
RTVSPost2010Prop55
280
     0
102
RTVSPost2010PropOp55
 70
     1
102
RTVSPost2010Prop56
140
1.0
102
RTVSPost2010PropOp56
 70
     1
102
RTVSPost2010Prop57
140
1.0
102
RTVSPost2010PropOp57
 70
     1
102
RTVSPropertyOp0
 70
     1
102
RTVSPropertyOp1
 70
     1
102
RTVSPropertyOp2
 70
     1
102
RTVSPropertyOp3
 70
     1
102
RTVSPropertyOp4
 70
     1
102
RTVSPropertyOp5
 70
     1
102
RTVSPropertyOp6
 70
     1
102
RTVSPropertyOp7
 70
     1
102
RTVSPropertyOp8
 70
     1
102
RTVSPropertyOp9
 70
     1
102
RTVSPropertyOp10
 70
     1
102
RTVSPropertyOp11
 70
     1
102
RTVSPropertyOp12
 70
     1
102
RTVSPropertyOp13
 70
     1
102
RTVSPropertyOp14
 70
     1
102
RTVSPropertyOp15
 70
     1
102
RTVSPropertyOp16
 70
     1
102
RTVSPropertyOp17
 70
     1
102
RTVSPropertyOp18
 70
     1
102
RTVSPropertyOp19
 70
     1
102
RTVSPropertyOp20
 70
     1
102
RTVSPropertyOp21
 70
     1
102
RTVSPropertyOp22
 70
     1
102
RTVSPropertyOp23
 70
     1
102
RTVSPropertyOp24
 70
     1
102
RTVSPropertyOp25
 70
     1
102
RTVSPropertyOp26
 70
     1
102
RTVSPropertyOp27
 70
     1
102
RTVSPropertyOp28
 70
     1
102
RTVSPropertyOp29
 70
     1
102
RTVSPropertyOp30
 70
     1
102
RTVSPropertyOp31
 70
     1
102
RTVSPropertyOp32
 70
     1
102
RTVSPropertyOp33
 70
     1
102
RTVSPropertyOp34
 70
     1
102
RTVSPropertyOp35
 70
     1
102
RTVSPropertyOp36
 70
     1
102
RTVSPropertyOp37
 70
     1
102
RTVSPropertyOp38
 70
     1
102
RTVSPropertyOp39
 70
     1
102
RTVSPropertyOp40
 70
     1
102
RTVSPropertyOp41
 70
     1
102
RTVSPropertyOp42
 70
     1
102
RTVSPropertyOp43
 70
     1
102
RTVSPropertyOp44
 70
     1
102
RTVSPropertyOp45
 70
     1
102
RTVSPropertyOp46
 70
     1
102
RTVSPropertyOp47
 70
     1
102
RTVSPropertyOp48
 70
     1
102
RTVSPropertyOp49
 70
     1
102
RTVSPropertyOp50
 70
     1
102
RTVSPropertyOp51
 70
     0
102
RTVSPropertyOp52
 70
     0
102
RTVSPropertyOp53
 70
     1
102
RTVSPropertyOp54
 70
     1
102
RTVSPropertyOp55
 70
     1
102
RTVSPropertyOp56
 70
     1
102
RTVSPropertyOp57
 70
     1
102
RTVSPropertyOp58
 70
     1
102
RTVSPropertyOp59
 70
     1
102
RTVSPropertyOp60
 70
     1
102
RTVSPropertyOp61
 70
     1
102
RTVSPropertyOp62
 70
     1
  0
XRECORD
  5
90704
102
{ACAD_REACTORS
330
90703
102
}
330
90703
100
AcDbXrecord
280
     1
102
RTVSPost2010Prop28
280
     0
102
RTVSPost2010PropOp28
 70
     1
102
RTVSPost2010Prop29
280
     1
102
RTVSPost2010PropOp29
 70
     1
102
RTVSPost2010Prop30
280
     1
102
RTVSPost2010PropOp30
 70
     1
102
RTVSPost2010Prop31
280
     0
102
RTVSPost2010PropOp31
 70
     1
102
RTVSPost2010Prop32
280
     0
102
RTVSPost2010PropOp32
 70
     1
102
RTVSPost2010Prop33
280
     0
102
RTVSPost2010PropOp33
 70
     1
102
RTVSPost2010Prop34
280
     0
102
RTVSPost2010PropOp34
 70
     1
102
RTVSPost2010Prop35
280
     0
102
RTVSPost2010PropOp35
 70
     1
102
RTVSPost2010Prop36
280
     0
102
RTVSPost2010PropOp36
 70
     1
102
RTVSPost2010Prop37
 90
       50
102
RTVSPost2010PropOp37
 70
     1
102
RTVSPost2010Prop38
140
0.0
102
RTVSPost2010PropOp38
 70
     1
102
RTVSPost2010Prop39
140
1.0
102
RTVSPost2010PropOp39
 70
     1
102
RTVSPost2010Prop40
 90
        0
102
RTVSPost2010PropOp40
 70
     1
102
RTVSPost2010Prop41ColorIndex
 90
       18
102
RTVSPost2010Prop41ColorRGB
 90
        0
102
RTVSPost2010PropOp41
 70
     1
102
RTVSPost2010Prop42
 90
       50
102
RTVSPost2010PropOp42
 70
     1
102
RTVSPost2010Prop43
 90
        3
102
RTVSPost2010PropOp43
 70
     1
102
RTVSPost2010Prop44ColorIndex
 90
        5
102
RTVSPost2010Prop44ColorRGB
 90
      255
102
RTVSPost2010PropOp44
 70
     1
102
RTVSPost2010Prop45
280
     0
102
RTVSPost2010PropOp45
 70
     1
102
RTVSPost2010Prop46
 90
       50
102
RTVSPost2010PropOp46
 70
     1
102
RTVSPost2010Prop47
 90
       50
102
RTVSPost2010PropOp47
 70
     1
102
RTVSPost2010Prop48
 90
       50
102
RTVSPost2010PropOp48
 70
     1
102
RTVSPost2010Prop49
280
     0
102
RTVSPost2010PropOp49
 70
     1
102
RTVSPost2010Prop50
 90
       50
102
RTVSPost2010PropOp50
 70
     1
102
RTVSPost2010Prop51ColorIndex
 90
      256
102
RTVSPost2010Prop51ColorRGB
 90
-16777216
102
RTVSPost2010PropOp51
 70
     0
102
RTVSPost2010Prop52
140
1.0
102
RTVSPost2010PropOp52
 70
     0
102
RTVSPost2010Prop53
 90
        2
102
RTVSPost2010PropOp53
 70
     1
102
RTVSPost2010Prop54
  1
strokes_ogs.tif
102
RTVSPost2010PropOp54
 70
     1
102
RTVSPost2010Prop55
280
     0
102
RTVSPost2010PropOp55
 70
     1
102
RTVSPost2010Prop56
140
1.0
102
RTVSPost2010PropOp56
 70
     1
102
RTVSPost2010Prop57
140
1.0
102
RTVSPost2010PropOp57
 70
     1
102
RTVSPropertyOp0
 70
     1
102
RTVSPropertyOp1
 70
     1
102
RTVSPropertyOp2
 70
     1
102
RTVSPropertyOp3
 70
     1
102
RTVSPropertyOp4
 70
     1
102
RTVSPropertyOp5
 70
     1
102
RTVSPropertyOp6
 70
     1
102
RTVSPropertyOp7
 70
     1
102
RTVSPropertyOp8
 70
     1
102
RTVSPropertyOp9
 70
     1
102
RTVSPropertyOp10
 70
     1
102
RTVSPropertyOp11
 70
     1
102
RTVSPropertyOp12
 70
     1
102
RTVSPropertyOp13
 70
     1
102
RTVSPropertyOp14
 70
     1
102
RTVSPropertyOp15
 70
     1
102
RTVSPropertyOp16
 70
     1
102
RTVSPropertyOp17
 70
     1
102
RTVSPropertyOp18
 70
     1
102
RTVSPropertyOp19
 70
     1
102
RTVSPropertyOp20
 70
     1
102
RTVSPropertyOp21
 70
     1
102
RTVSPropertyOp22
 70
     1
102
RTVSPropertyOp23
 70
     1
102
RTVSPropertyOp24
 70
     1
102
RTVSPropertyOp25
 70
     1
102
RTVSPropertyOp26
 70
     1
102
RTVSPropertyOp27
 70
     1
102
RTVSPropertyOp28
 70
     1
102
RTVSPropertyOp29
 70
     1
102
RTVSPropertyOp30
 70
     1
102
RTVSPropertyOp31
 70
     1
102
RTVSPropertyOp32
 70
     1
102
RTVSPropertyOp33
 70
     1
102
RTVSPropertyOp34
 70
     1
102
RTVSPropertyOp35
 70
     1
102
RTVSPropertyOp36
 70
     1
102
RTVSPropertyOp37
 70
     1
102
RTVSPropertyOp38
 70
     1
102
RTVSPropertyOp39
 70
     1
102
RTVSPropertyOp40
 70
     1
102
RTVSPropertyOp41
 70
     1
102
RTVSPropertyOp42
 70
     1
102
RTVSPropertyOp43
 70
     1
102
RTVSPropertyOp44
 70
     1
102
RTVSPropertyOp45
 70
     1
102
RTVSPropertyOp46
 70
     1
102
RTVSPropertyOp47
 70
     1
102
RTVSPropertyOp48
 70
     1
102
RTVSPropertyOp49
 70
     1
102
RTVSPropertyOp50
 70
     1
102
RTVSPropertyOp51
 70
     0
102
RTVSPropertyOp52
 70
     0
102
RTVSPropertyOp53
 70
     1
102
RTVSPropertyOp54
 70
     1
102
RTVSPropertyOp55
 70
     1
102
RTVSPropertyOp56
 70
     1
102
RTVSPropertyOp57
 70
     1
102
RTVSPropertyOp58
 70
     1
102
RTVSPropertyOp59
 70
     1
102
RTVSPropertyOp60
 70
     1
102
RTVSPropertyOp61
 70
     1
102
RTVSPropertyOp62
 70
     1
  0
XRECORD
  5
90702
102
{ACAD_REACTORS
330
90701
102
}
330
90701
100
AcDbXrecord
280
     1
102
RTVSPost2010Prop28
280
     0
102
RTVSPost2010PropOp28
 70
     1
102
RTVSPost2010Prop29
280
     1
102
RTVSPost2010PropOp29
 70
     1
102
RTVSPost2010Prop30
280
     1
102
RTVSPost2010PropOp30
 70
     1
102
RTVSPost2010Prop31
280
     0
102
RTVSPost2010PropOp31
 70
     1
102
RTVSPost2010Prop32
280
     0
102
RTVSPost2010PropOp32
 70
     1
102
RTVSPost2010Prop33
280
     0
102
RTVSPost2010PropOp33
 70
     1
102
RTVSPost2010Prop34
280
     0
102
RTVSPost2010PropOp34
 70
     1
102
RTVSPost2010Prop35
280
     0
102
RTVSPost2010PropOp35
 70
     1
102
RTVSPost2010Prop36
280
     0
102
RTVSPost2010PropOp36
 70
     1
102
RTVSPost2010Prop37
 90
       50
102
RTVSPost2010PropOp37
 70
     1
102
RTVSPost2010Prop38
140
0.0
102
RTVSPost2010PropOp38
 70
     1
102
RTVSPost2010Prop39
140
1.0
102
RTVSPost2010PropOp39
 70
     1
102
RTVSPost2010Prop40
 90
        0
102
RTVSPost2010PropOp40
 70
     1
102
RTVSPost2010Prop41ColorIndex
 90
       18
102
RTVSPost2010Prop41ColorRGB
 90
        0
102
RTVSPost2010PropOp41
 70
     1
102
RTVSPost2010Prop42
 90
       50
102
RTVSPost2010PropOp42
 70
     1
102
RTVSPost2010Prop43
 90
        3
102
RTVSPost2010PropOp43
 70
     1
102
RTVSPost2010Prop44ColorIndex
 90
        5
102
RTVSPost2010Prop44ColorRGB
 90
      255
102
RTVSPost2010PropOp44
 70
     1
102
RTVSPost2010Prop45
280
     0
102
RTVSPost2010PropOp45
 70
     1
102
RTVSPost2010Prop46
 90
       50
102
RTVSPost2010PropOp46
 70
     1
102
RTVSPost2010Prop47
 90
       50
102
RTVSPost2010PropOp47
 70
     1
102
RTVSPost2010Prop48
 90
       50
102
RTVSPost2010PropOp48
 70
     1
102
RTVSPost2010Prop49
280
     0
102
RTVSPost2010PropOp49
 70
     1
102
RTVSPost2010Prop50
 90
       50
102
RTVSPost2010PropOp50
 70
     1
102
RTVSPost2010Prop51ColorIndex
 90
      256
102
RTVSPost2010Prop51ColorRGB
 90
-16777216
102
RTVSPost2010PropOp51
 70
     0
102
RTVSPost2010Prop52
140
1.0
102
RTVSPost2010PropOp52
 70
     0
102
RTVSPost2010Prop53
 90
        2
102
RTVSPost2010PropOp53
 70
     1
102
RTVSPost2010Prop54
  1
strokes_ogs.tif
102
RTVSPost2010PropOp54
 70
     1
102
RTVSPost2010Prop55
280
     0
102
RTVSPost2010PropOp55
 70
     1
102
RTVSPost2010Prop56
140
1.0
102
RTVSPost2010PropOp56
 70
     1
102
RTVSPost2010Prop57
140
1.0
102
RTVSPost2010PropOp57
 70
     1
102
RTVSPropertyOp0
 70
     1
102
RTVSPropertyOp1
 70
     1
102
RTVSPropertyOp2
 70
     1
102
RTVSPropertyOp3
 70
     1
102
RTVSPropertyOp4
 70
     1
102
RTVSPropertyOp5
 70
     1
102
RTVSPropertyOp6
 70
     1
102
RTVSPropertyOp7
 70
     1
102
RTVSPropertyOp8
 70
     1
102
RTVSPropertyOp9
 70
     1
102
RTVSPropertyOp10
 70
     1
102
RTVSPropertyOp11
 70
     1
102
RTVSPropertyOp12
 70
     1
102
RTVSPropertyOp13
 70
     1
102
RTVSPropertyOp14
 70
     1
102
RTVSPropertyOp15
 70
     1
102
RTVSPropertyOp16
 70
     1
102
RTVSPropertyOp17
 70
     1
102
RTVSPropertyOp18
 70
     1
102
RTVSPropertyOp19
 70
     1
102
RTVSPropertyOp20
 70
     1
102
RTVSPropertyOp21
 70
     1
102
RTVSPropertyOp22
 70
     1
102
RTVSPropertyOp23
 70
     1
102
RTVSPropertyOp24
 70
     1
102
RTVSPropertyOp25
 70
     1
102
RTVSPropertyOp26
 70
     1
102
RTVSPropertyOp27
 70
     1
102
RTVSPropertyOp28
 70
     1
102
RTVSPropertyOp29
 70
     1
102
RTVSPropertyOp30
 70
     1
102
RTVSPropertyOp31
 70
     1
102
RTVSPropertyOp32
 70
     1
102
RTVSPropertyOp33
 70
     1
102
RTVSPropertyOp34
 70
     1
102
RTVSPropertyOp35
 70
     1
102
RTVSPropertyOp36
 70
     1
102
RTVSPropertyOp37
 70
     1
102
RTVSPropertyOp38
 70
     1
102
RTVSPropertyOp39
 70
     1
102
RTVSPropertyOp40
 70
     1
102
RTVSPropertyOp41
 70
     1
102
RTVSPropertyOp42
 70
     1
102
RTVSPropertyOp43
 70
     1
102
RTVSPropertyOp44
 70
     1
102
RTVSPropertyOp45
 70
     1
102
RTVSPropertyOp46
 70
     1
102
RTVSPropertyOp47
 70
     1
102
RTVSPropertyOp48
 70
     1
102
RTVSPropertyOp49
 70
     1
102
RTVSPropertyOp50
 70
     1
102
RTVSPropertyOp51
 70
     0
102
RTVSPropertyOp52
 70
     0
102
RTVSPropertyOp53
 70
     1
102
RTVSPropertyOp54
 70
     1
102
RTVSPropertyOp55
 70
     1
102
RTVSPropertyOp56
 70
     1
102
RTVSPropertyOp57
 70
     1
102
RTVSPropertyOp58
 70
     1
102
RTVSPropertyOp59
 70
     1
102
RTVSPropertyOp60
 70
     1
102
RTVSPropertyOp61
 70
     1
102
RTVSPropertyOp62
 70
     1
  0
XRECORD
  5
906FC
102
{ACAD_REACTORS
330
906FB
102
}
330
906FB
100
AcDbXrecord
280
     1
102
RTVSPost2010Prop28
280
     0
102
RTVSPost2010PropOp28
 70
     1
102
RTVSPost2010Prop29
280
     1
102
RTVSPost2010PropOp29
 70
     1
102
RTVSPost2010Prop30
280
     1
102
RTVSPost2010PropOp30
 70
     1
102
RTVSPost2010Prop31
280
     0
102
RTVSPost2010PropOp31
 70
     1
102
RTVSPost2010Prop32
280
     0
102
RTVSPost2010PropOp32
 70
     1
102
RTVSPost2010Prop33
280
     0
102
RTVSPost2010PropOp33
 70
     1
102
RTVSPost2010Prop34
280
     0
102
RTVSPost2010PropOp34
 70
     1
102
RTVSPost2010Prop35
280
     0
102
RTVSPost2010PropOp35
 70
     1
102
RTVSPost2010Prop36
280
     0
102
RTVSPost2010PropOp36
 70
     1
102
RTVSPost2010Prop37
 90
       50
102
RTVSPost2010PropOp37
 70
     1
102
RTVSPost2010Prop38
140
0.0
102
RTVSPost2010PropOp38
 70
     1
102
RTVSPost2010Prop39
140
1.0
102
RTVSPost2010PropOp39
 70
     1
102
RTVSPost2010Prop40
 90
        0
102
RTVSPost2010PropOp40
 70
     1
102
RTVSPost2010Prop41ColorIndex
 90
       18
102
RTVSPost2010Prop41ColorRGB
 90
        0
102
RTVSPost2010PropOp41
 70
     1
102
RTVSPost2010Prop42
 90
       50
102
RTVSPost2010PropOp42
 70
     1
102
RTVSPost2010Prop43
 90
        3
102
RTVSPost2010PropOp43
 70
     1
102
RTVSPost2010Prop44ColorIndex
 90
        5
102
RTVSPost2010Prop44ColorRGB
 90
      255
102
RTVSPost2010PropOp44
 70
     1
102
RTVSPost2010Prop45
280
     0
102
RTVSPost2010PropOp45
 70
     1
102
RTVSPost2010Prop46
 90
       50
102
RTVSPost2010PropOp46
 70
     1
102
RTVSPost2010Prop47
 90
       50
102
RTVSPost2010PropOp47
 70
     1
102
RTVSPost2010Prop48
 90
       50
102
RTVSPost2010PropOp48
 70
     1
102
RTVSPost2010Prop49
280
     0
102
RTVSPost2010PropOp49
 70
     1
102
RTVSPost2010Prop50
 90
       50
102
RTVSPost2010PropOp50
 70
     1
102
RTVSPost2010Prop51ColorIndex
 90
      256
102
RTVSPost2010Prop51ColorRGB
 90
-16777216
102
RTVSPost2010PropOp51
 70
     0
102
RTVSPost2010Prop52
140
1.0
102
RTVSPost2010PropOp52
 70
     0
102
RTVSPost2010Prop53
 90
        2
102
RTVSPost2010PropOp53
 70
     1
102
RTVSPost2010Prop54
  1
strokes_ogs.tif
102
RTVSPost2010PropOp54
 70
     1
102
RTVSPost2010Prop55
280
     0
102
RTVSPost2010PropOp55
 70
     1
102
RTVSPost2010Prop56
140
1.0
102
RTVSPost2010PropOp56
 70
     1
102
RTVSPost2010Prop57
140
1.0
102
RTVSPost2010PropOp57
 70
     1
102
RTVSPropertyOp0
 70
     1
102
RTVSPropertyOp1
 70
     1
102
RTVSPropertyOp2
 70
     1
102
RTVSPropertyOp3
 70
     1
102
RTVSPropertyOp4
 70
     1
102
RTVSPropertyOp5
 70
     1
102
RTVSPropertyOp6
 70
     1
102
RTVSPropertyOp7
 70
     1
102
RTVSPropertyOp8
 70
     1
102
RTVSPropertyOp9
 70
     1
102
RTVSPropertyOp10
 70
     1
102
RTVSPropertyOp11
 70
     1
102
RTVSPropertyOp12
 70
     1
102
RTVSPropertyOp13
 70
     1
102
RTVSPropertyOp14
 70
     1
102
RTVSPropertyOp15
 70
     1
102
RTVSPropertyOp16
 70
     1
102
RTVSPropertyOp17
 70
     1
102
RTVSPropertyOp18
 70
     1
102
RTVSPropertyOp19
 70
     1
102
RTVSPropertyOp20
 70
     1
102
RTVSPropertyOp21
 70
     1
102
RTVSPropertyOp22
 70
     1
102
RTVSPropertyOp23
 70
     1
102
RTVSPropertyOp24
 70
     1
102
RTVSPropertyOp25
 70
     1
102
RTVSPropertyOp26
 70
     1
102
RTVSPropertyOp27
 70
     1
102
RTVSPropertyOp28
 70
     1
102
RTVSPropertyOp29
 70
     1
102
RTVSPropertyOp30
 70
     1
102
RTVSPropertyOp31
 70
     1
102
RTVSPropertyOp32
 70
     1
102
RTVSPropertyOp33
 70
     1
102
RTVSPropertyOp34
 70
     1
102
RTVSPropertyOp35
 70
     1
102
RTVSPropertyOp36
 70
     1
102
RTVSPropertyOp37
 70
     1
102
RTVSPropertyOp38
 70
     1
102
RTVSPropertyOp39
 70
     1
102
RTVSPropertyOp40
 70
     1
102
RTVSPropertyOp41
 70
     1
102
RTVSPropertyOp42
 70
     1
102
RTVSPropertyOp43
 70
     1
102
RTVSPropertyOp44
 70
     1
102
RTVSPropertyOp45
 70
     1
102
RTVSPropertyOp46
 70
     1
102
RTVSPropertyOp47
 70
     1
102
RTVSPropertyOp48
 70
     1
102
RTVSPropertyOp49
 70
     1
102
RTVSPropertyOp50
 70
     1
102
RTVSPropertyOp51
 70
     0
102
RTVSPropertyOp52
 70
     0
102
RTVSPropertyOp53
 70
     1
102
RTVSPropertyOp54
 70
     1
102
RTVSPropertyOp55
 70
     1
102
RTVSPropertyOp56
 70
     1
102
RTVSPropertyOp57
 70
     1
102
RTVSPropertyOp58
 70
     1
102
RTVSPropertyOp59
 70
     1
102
RTVSPropertyOp60
 70
     1
102
RTVSPropertyOp61
 70
     1
102
RTVSPropertyOp62
 70
     1
  0
XRECORD
  5
906FE
102
{ACAD_REACTORS
330
906FD
102
}
330
906FD
100
AcDbXrecord
280
     1
102
RTVSPost2010Prop28
280
     0
102
RTVSPost2010PropOp28
 70
     1
102
RTVSPost2010Prop29
280
     1
102
RTVSPost2010PropOp29
 70
     1
102
RTVSPost2010Prop30
280
     1
102
RTVSPost2010PropOp30
 70
     1
102
RTVSPost2010Prop31
280
     0
102
RTVSPost2010PropOp31
 70
     1
102
RTVSPost2010Prop32
280
     0
102
RTVSPost2010PropOp32
 70
     1
102
RTVSPost2010Prop33
280
     0
102
RTVSPost2010PropOp33
 70
     1
102
RTVSPost2010Prop34
280
     0
102
RTVSPost2010PropOp34
 70
     1
102
RTVSPost2010Prop35
280
     0
102
RTVSPost2010PropOp35
 70
     1
102
RTVSPost2010Prop36
280
     0
102
RTVSPost2010PropOp36
 70
     1
102
RTVSPost2010Prop37
 90
       50
102
RTVSPost2010PropOp37
 70
     1
102
RTVSPost2010Prop38
140
0.0
102
RTVSPost2010PropOp38
 70
     1
102
RTVSPost2010Prop39
140
1.0
102
RTVSPost2010PropOp39
 70
     1
102
RTVSPost2010Prop40
 90
        0
102
RTVSPost2010PropOp40
 70
     1
102
RTVSPost2010Prop41ColorIndex
 90
       18
102
RTVSPost2010Prop41ColorRGB
 90
        0
102
RTVSPost2010PropOp41
 70
     1
102
RTVSPost2010Prop42
 90
       50
102
RTVSPost2010PropOp42
 70
     1
102
RTVSPost2010Prop43
 90
        3
102
RTVSPost2010PropOp43
 70
     1
102
RTVSPost2010Prop44ColorIndex
 90
        5
102
RTVSPost2010Prop44ColorRGB
 90
      255
102
RTVSPost2010PropOp44
 70
     1
102
RTVSPost2010Prop45
280
     0
102
RTVSPost2010PropOp45
 70
     1
102
RTVSPost2010Prop46
 90
       50
102
RTVSPost2010PropOp46
 70
     1
102
RTVSPost2010Prop47
 90
       50
102
RTVSPost2010PropOp47
 70
     1
102
RTVSPost2010Prop48
 90
       50
102
RTVSPost2010PropOp48
 70
     1
102
RTVSPost2010Prop49
280
     0
102
RTVSPost2010PropOp49
 70
     1
102
RTVSPost2010Prop50
 90
       50
102
RTVSPost2010PropOp50
 70
     1
102
RTVSPost2010Prop51ColorIndex
 90
      256
102
RTVSPost2010Prop51ColorRGB
 90
-16777216
102
RTVSPost2010PropOp51
 70
     0
102
RTVSPost2010Prop52
140
1.0
102
RTVSPost2010PropOp52
 70
     0
102
RTVSPost2010Prop53
 90
        2
102
RTVSPost2010PropOp53
 70
     1
102
RTVSPost2010Prop54
  1
strokes_ogs.tif
102
RTVSPost2010PropOp54
 70
     1
102
RTVSPost2010Prop55
280
     0
102
RTVSPost2010PropOp55
 70
     1
102
RTVSPost2010Prop56
140
1.0
102
RTVSPost2010PropOp56
 70
     1
102
RTVSPost2010Prop57
140
1.0
102
RTVSPost2010PropOp57
 70
     1
102
RTVSPropertyOp0
 70
     1
102
RTVSPropertyOp1
 70
     1
102
RTVSPropertyOp2
 70
     1
102
RTVSPropertyOp3
 70
     1
102
RTVSPropertyOp4
 70
     1
102
RTVSPropertyOp5
 70
     1
102
RTVSPropertyOp6
 70
     1
102
RTVSPropertyOp7
 70
     1
102
RTVSPropertyOp8
 70
     1
102
RTVSPropertyOp9
 70
     1
102
RTVSPropertyOp10
 70
     1
102
RTVSPropertyOp11
 70
     1
102
RTVSPropertyOp12
 70
     1
102
RTVSPropertyOp13
 70
     1
102
RTVSPropertyOp14
 70
     1
102
RTVSPropertyOp15
 70
     1
102
RTVSPropertyOp16
 70
     1
102
RTVSPropertyOp17
 70
     1
102
RTVSPropertyOp18
 70
     1
102
RTVSPropertyOp19
 70
     1
102
RTVSPropertyOp20
 70
     1
102
RTVSPropertyOp21
 70
     1
102
RTVSPropertyOp22
 70
     1
102
RTVSPropertyOp23
 70
     1
102
RTVSPropertyOp24
 70
     1
102
RTVSPropertyOp25
 70
     1
102
RTVSPropertyOp26
 70
     1
102
RTVSPropertyOp27
 70
     1
102
RTVSPropertyOp28
 70
     1
102
RTVSPropertyOp29
 70
     1
102
RTVSPropertyOp30
 70
     1
102
RTVSPropertyOp31
 70
     1
102
RTVSPropertyOp32
 70
     1
102
RTVSPropertyOp33
 70
     1
102
RTVSPropertyOp34
 70
     1
102
RTVSPropertyOp35
 70
     1
102
RTVSPropertyOp36
 70
     1
102
RTVSPropertyOp37
 70
     1
102
RTVSPropertyOp38
 70
     1
102
RTVSPropertyOp39
 70
     1
102
RTVSPropertyOp40
 70
     1
102
RTVSPropertyOp41
 70
     1
102
RTVSPropertyOp42
 70
     1
102
RTVSPropertyOp43
 70
     1
102
RTVSPropertyOp44
 70
     1
102
RTVSPropertyOp45
 70
     1
102
RTVSPropertyOp46
 70
     1
102
RTVSPropertyOp47
 70
     1
102
RTVSPropertyOp48
 70
     1
102
RTVSPropertyOp49
 70
     1
102
RTVSPropertyOp50
 70
     1
102
RTVSPropertyOp51
 70
     0
102
RTVSPropertyOp52
 70
     0
102
RTVSPropertyOp53
 70
     1
102
RTVSPropertyOp54
 70
     1
102
RTVSPropertyOp55
 70
     1
102
RTVSPropertyOp56
 70
     1
102
RTVSPropertyOp57
 70
     1
102
RTVSPropertyOp58
 70
     1
102
RTVSPropertyOp59
 70
     1
102
RTVSPropertyOp60
 70
     1
102
RTVSPropertyOp61
 70
     1
102
RTVSPropertyOp62
 70
     1
  0
XRECORD
  5
906F4
102
{ACAD_REACTORS
330
906F3
102
}
330
906F3
100
AcDbXrecord
280
     1
102
RTVSPost2010Prop28
280
     0
102
RTVSPost2010PropOp28
 70
     1
102
RTVSPost2010Prop29
280
     1
102
RTVSPost2010PropOp29
 70
     1
102
RTVSPost2010Prop30
280
     1
102
RTVSPost2010PropOp30
 70
     1
102
RTVSPost2010Prop31
280
     0
102
RTVSPost2010PropOp31
 70
     1
102
RTVSPost2010Prop32
280
     0
102
RTVSPost2010PropOp32
 70
     1
102
RTVSPost2010Prop33
280
     0
102
RTVSPost2010PropOp33
 70
     1
102
RTVSPost2010Prop34
280
     0
102
RTVSPost2010PropOp34
 70
     1
102
RTVSPost2010Prop35
280
     0
102
RTVSPost2010PropOp35
 70
     1
102
RTVSPost2010Prop36
280
     0
102
RTVSPost2010PropOp36
 70
     1
102
RTVSPost2010Prop37
 90
       50
102
RTVSPost2010PropOp37
 70
     1
102
RTVSPost2010Prop38
140
0.0
102
RTVSPost2010PropOp38
 70
     1
102
RTVSPost2010Prop39
140
1.0
102
RTVSPost2010PropOp39
 70
     1
102
RTVSPost2010Prop40
 90
        0
102
RTVSPost2010PropOp40
 70
     1
102
RTVSPost2010Prop41ColorIndex
 90
       18
102
RTVSPost2010Prop41ColorRGB
 90
        0
102
RTVSPost2010PropOp41
 70
     1
102
RTVSPost2010Prop42
 90
       50
102
RTVSPost2010PropOp42
 70
     1
102
RTVSPost2010Prop43
 90
        3
102
RTVSPost2010PropOp43
 70
     1
102
RTVSPost2010Prop44ColorIndex
 90
        5
102
RTVSPost2010Prop44ColorRGB
 90
      255
102
RTVSPost2010PropOp44
 70
     1
102
RTVSPost2010Prop45
280
     0
102
RTVSPost2010PropOp45
 70
     1
102
RTVSPost2010Prop46
 90
       50
102
RTVSPost2010PropOp46
 70
     1
102
RTVSPost2010Prop47
 90
       50
102
RTVSPost2010PropOp47
 70
     1
102
RTVSPost2010Prop48
 90
       50
102
RTVSPost2010PropOp48
 70
     1
102
RTVSPost2010Prop49
280
     0
102
RTVSPost2010PropOp49
 70
     1
102
RTVSPost2010Prop50
 90
       50
102
RTVSPost2010PropOp50
 70
     1
102
RTVSPost2010Prop51ColorIndex
 90
      256
102
RTVSPost2010Prop51ColorRGB
 90
-16777216
102
RTVSPost2010PropOp51
 70
     0
102
RTVSPost2010Prop52
140
1.0
102
RTVSPost2010PropOp52
 70
     0
102
RTVSPost2010Prop53
 90
        2
102
RTVSPost2010PropOp53
 70
     1
102
RTVSPost2010Prop54
  1
strokes_ogs.tif
102
RTVSPost2010PropOp54
 70
     1
102
RTVSPost2010Prop55
280
     0
102
RTVSPost2010PropOp55
 70
     1
102
RTVSPost2010Prop56
140
1.0
102
RTVSPost2010PropOp56
 70
     1
102
RTVSPost2010Prop57
140
1.0
102
RTVSPost2010PropOp57
 70
     1
102
RTVSPropertyOp0
 70
     1
102
RTVSPropertyOp1
 70
     1
102
RTVSPropertyOp2
 70
     1
102
RTVSPropertyOp3
 70
     1
102
RTVSPropertyOp4
 70
     1
102
RTVSPropertyOp5
 70
     1
102
RTVSPropertyOp6
 70
     1
102
RTVSPropertyOp7
 70
     1
102
RTVSPropertyOp8
 70
     1
102
RTVSPropertyOp9
 70
     1
102
RTVSPropertyOp10
 70
     1
102
RTVSPropertyOp11
 70
     1
102
RTVSPropertyOp12
 70
     1
102
RTVSPropertyOp13
 70
     1
102
RTVSPropertyOp14
 70
     1
102
RTVSPropertyOp15
 70
     1
102
RTVSPropertyOp16
 70
     1
102
RTVSPropertyOp17
 70
     1
102
RTVSPropertyOp18
 70
     1
102
RTVSPropertyOp19
 70
     1
102
RTVSPropertyOp20
 70
     1
102
RTVSPropertyOp21
 70
     1
102
RTVSPropertyOp22
 70
     1
102
RTVSPropertyOp23
 70
     1
102
RTVSPropertyOp24
 70
     1
102
RTVSPropertyOp25
 70
     1
102
RTVSPropertyOp26
 70
     1
102
RTVSPropertyOp27
 70
     1
102
RTVSPropertyOp28
 70
     1
102
RTVSPropertyOp29
 70
     1
102
RTVSPropertyOp30
 70
     1
102
RTVSPropertyOp31
 70
     1
102
RTVSPropertyOp32
 70
     1
102
RTVSPropertyOp33
 70
     1
102
RTVSPropertyOp34
 70
     1
102
RTVSPropertyOp35
 70
     1
102
RTVSPropertyOp36
 70
     1
102
RTVSPropertyOp37
 70
     1
102
RTVSPropertyOp38
 70
     1
102
RTVSPropertyOp39
 70
     1
102
RTVSPropertyOp40
 70
     1
102
RTVSPropertyOp41
 70
     1
102
RTVSPropertyOp42
 70
     1
102
RTVSPropertyOp43
 70
     1
102
RTVSPropertyOp44
 70
     1
102
RTVSPropertyOp45
 70
     1
102
RTVSPropertyOp46
 70
     1
102
RTVSPropertyOp47
 70
     1
102
RTVSPropertyOp48
 70
     1
102
RTVSPropertyOp49
 70
     1
102
RTVSPropertyOp50
 70
     1
102
RTVSPropertyOp51
 70
     0
102
RTVSPropertyOp52
 70
     0
102
RTVSPropertyOp53
 70
     1
102
RTVSPropertyOp54
 70
     1
102
RTVSPropertyOp55
 70
     1
102
RTVSPropertyOp56
 70
     1
102
RTVSPropertyOp57
 70
     1
102
RTVSPropertyOp58
 70
     1
102
RTVSPropertyOp59
 70
     1
102
RTVSPropertyOp60
 70
     1
102
RTVSPropertyOp61
 70
     1
102
RTVSPropertyOp62
 70
     1
  0
XRECORD
  5
906E8
102
{ACAD_REACTORS
330
906E7
102
}
330
906E7
100
AcDbXrecord
280
     1
102
RTVSPost2010Prop28
280
     0
102
RTVSPost2010PropOp28
 70
     1
102
RTVSPost2010Prop29
280
     1
102
RTVSPost2010PropOp29
 70
     1
102
RTVSPost2010Prop30
280
     1
102
RTVSPost2010PropOp30
 70
     1
102
RTVSPost2010Prop31
280
     0
102
RTVSPost2010PropOp31
 70
     1
102
RTVSPost2010Prop32
280
     0
102
RTVSPost2010PropOp32
 70
     1
102
RTVSPost2010Prop33
280
     0
102
RTVSPost2010PropOp33
 70
     1
102
RTVSPost2010Prop34
280
     0
102
RTVSPost2010PropOp34
 70
     1
102
RTVSPost2010Prop35
280
     0
102
RTVSPost2010PropOp35
 70
     1
102
RTVSPost2010Prop36
280
     0
102
RTVSPost2010PropOp36
 70
     1
102
RTVSPost2010Prop37
 90
       50
102
RTVSPost2010PropOp37
 70
     1
102
RTVSPost2010Prop38
140
0.0
102
RTVSPost2010PropOp38
 70
     1
102
RTVSPost2010Prop39
140
1.0
102
RTVSPost2010PropOp39
 70
     1
102
RTVSPost2010Prop40
 90
        0
102
RTVSPost2010PropOp40
 70
     1
102
RTVSPost2010Prop41ColorIndex
 90
       18
102
RTVSPost2010Prop41ColorRGB
 90
        0
102
RTVSPost2010PropOp41
 70
     1
102
RTVSPost2010Prop42
 90
       50
102
RTVSPost2010PropOp42
 70
     1
102
RTVSPost2010Prop43
 90
        3
102
RTVSPost2010PropOp43
 70
     1
102
RTVSPost2010Prop44ColorIndex
 90
        5
102
RTVSPost2010Prop44ColorRGB
 90
      255
102
RTVSPost2010PropOp44
 70
     1
102
RTVSPost2010Prop45
280
     0
102
RTVSPost2010PropOp45
 70
     1
102
RTVSPost2010Prop46
 90
       50
102
RTVSPost2010PropOp46
 70
     1
102
RTVSPost2010Prop47
 90
       50
102
RTVSPost2010PropOp47
 70
     1
102
RTVSPost2010Prop48
 90
       50
102
RTVSPost2010PropOp48
 70
     1
102
RTVSPost2010Prop49
280
     0
102
RTVSPost2010PropOp49
 70
     1
102
RTVSPost2010Prop50
 90
       50
102
RTVSPost2010PropOp50
 70
     1
102
RTVSPost2010Prop51ColorIndex
 90
      256
102
RTVSPost2010Prop51ColorRGB
 90
-16777216
102
RTVSPost2010PropOp51
 70
     0
102
RTVSPost2010Prop52
140
1.0
102
RTVSPost2010PropOp52
 70
     0
102
RTVSPost2010Prop53
 90
        2
102
RTVSPost2010PropOp53
 70
     1
102
RTVSPost2010Prop54
  1
strokes_ogs.tif
102
RTVSPost2010PropOp54
 70
     1
102
RTVSPost2010Prop55
280
     0
102
RTVSPost2010PropOp55
 70
     1
102
RTVSPost2010Prop56
140
1.0
102
RTVSPost2010PropOp56
 70
     1
102
RTVSPost2010Prop57
140
1.0
102
RTVSPost2010PropOp57
 70
     1
102
RTVSPropertyOp0
 70
     1
102
RTVSPropertyOp1
 70
     1
102
RTVSPropertyOp2
 70
     1
102
RTVSPropertyOp3
 70
     1
102
RTVSPropertyOp4
 70
     1
102
RTVSPropertyOp5
 70
     1
102
RTVSPropertyOp6
 70
     1
102
RTVSPropertyOp7
 70
     1
102
RTVSPropertyOp8
 70
     1
102
RTVSPropertyOp9
 70
     1
102
RTVSPropertyOp10
 70
     1
102
RTVSPropertyOp11
 70
     1
102
RTVSPropertyOp12
 70
     1
102
RTVSPropertyOp13
 70
     1
102
RTVSPropertyOp14
 70
     1
102
RTVSPropertyOp15
 70
     1
102
RTVSPropertyOp16
 70
     1
102
RTVSPropertyOp17
 70
     1
102
RTVSPropertyOp18
 70
     1
102
RTVSPropertyOp19
 70
     1
102
RTVSPropertyOp20
 70
     1
102
RTVSPropertyOp21
 70
     1
102
RTVSPropertyOp22
 70
     1
102
RTVSPropertyOp23
 70
     1
102
RTVSPropertyOp24
 70
     1
102
RTVSPropertyOp25
 70
     1
102
RTVSPropertyOp26
 70
     1
102
RTVSPropertyOp27
 70
     1
102
RTVSPropertyOp28
 70
     1
102
RTVSPropertyOp29
 70
     1
102
RTVSPropertyOp30
 70
     1
102
RTVSPropertyOp31
 70
     1
102
RTVSPropertyOp32
 70
     1
102
RTVSPropertyOp33
 70
     1
102
RTVSPropertyOp34
 70
     1
102
RTVSPropertyOp35
 70
     1
102
RTVSPropertyOp36
 70
     1
102
RTVSPropertyOp37
 70
     1
102
RTVSPropertyOp38
 70
     1
102
RTVSPropertyOp39
 70
     1
102
RTVSPropertyOp40
 70
     1
102
RTVSPropertyOp41
 70
     1
102
RTVSPropertyOp42
 70
     1
102
RTVSPropertyOp43
 70
     1
102
RTVSPropertyOp44
 70
     1
102
RTVSPropertyOp45
 70
     1
102
RTVSPropertyOp46
 70
     1
102
RTVSPropertyOp47
 70
     1
102
RTVSPropertyOp48
 70
     1
102
RTVSPropertyOp49
 70
     1
102
RTVSPropertyOp50
 70
     1
102
RTVSPropertyOp51
 70
     0
102
RTVSPropertyOp52
 70
     0
102
RTVSPropertyOp53
 70
     1
102
RTVSPropertyOp54
 70
     1
102
RTVSPropertyOp55
 70
     1
102
RTVSPropertyOp56
 70
     1
102
RTVSPropertyOp57
 70
     1
102
RTVSPropertyOp58
 70
     1
102
RTVSPropertyOp59
 70
     1
102
RTVSPropertyOp60
 70
     1
102
RTVSPropertyOp61
 70
     1
102
RTVSPropertyOp62
 70
     1
  0
XRECORD
  5
90700
102
{ACAD_REACTORS
330
906FF
102
}
330
906FF
100
AcDbXrecord
280
     1
102
RTVSPost2010Prop28
280
     0
102
RTVSPost2010PropOp28
 70
     1
102
RTVSPost2010Prop29
280
     1
102
RTVSPost2010PropOp29
 70
     1
102
RTVSPost2010Prop30
280
     1
102
RTVSPost2010PropOp30
 70
     1
102
RTVSPost2010Prop31
280
     0
102
RTVSPost2010PropOp31
 70
     1
102
RTVSPost2010Prop32
280
     0
102
RTVSPost2010PropOp32
 70
     1
102
RTVSPost2010Prop33
280
     0
102
RTVSPost2010PropOp33
 70
     1
102
RTVSPost2010Prop34
280
     0
102
RTVSPost2010PropOp34
 70
     1
102
RTVSPost2010Prop35
280
     0
102
RTVSPost2010PropOp35
 70
     1
102
RTVSPost2010Prop36
280
     0
102
RTVSPost2010PropOp36
 70
     1
102
RTVSPost2010Prop37
 90
       50
102
RTVSPost2010PropOp37
 70
     1
102
RTVSPost2010Prop38
140
0.0
102
RTVSPost2010PropOp38
 70
     1
102
RTVSPost2010Prop39
140
1.0
102
RTVSPost2010PropOp39
 70
     1
102
RTVSPost2010Prop40
 90
        0
102
RTVSPost2010PropOp40
 70
     1
102
RTVSPost2010Prop41ColorIndex
 90
       18
102
RTVSPost2010Prop41ColorRGB
 90
        0
102
RTVSPost2010PropOp41
 70
     1
102
RTVSPost2010Prop42
 90
       50
102
RTVSPost2010PropOp42
 70
     1
102
RTVSPost2010Prop43
 90
        3
102
RTVSPost2010PropOp43
 70
     1
102
RTVSPost2010Prop44ColorIndex
 90
        5
102
RTVSPost2010Prop44ColorRGB
 90
      255
102
RTVSPost2010PropOp44
 70
     1
102
RTVSPost2010Prop45
280
     0
102
RTVSPost2010PropOp45
 70
     1
102
RTVSPost2010Prop46
 90
       50
102
RTVSPost2010PropOp46
 70
     1
102
RTVSPost2010Prop47
 90
       50
102
RTVSPost2010PropOp47
 70
     1
102
RTVSPost2010Prop48
 90
       50
102
RTVSPost2010PropOp48
 70
     1
102
RTVSPost2010Prop49
280
     0
102
RTVSPost2010PropOp49
 70
     1
102
RTVSPost2010Prop50
 90
       50
102
RTVSPost2010PropOp50
 70
     1
102
RTVSPost2010Prop51ColorIndex
 90
      256
102
RTVSPost2010Prop51ColorRGB
 90
-16777216
102
RTVSPost2010PropOp51
 70
     0
102
RTVSPost2010Prop52
140
1.0
102
RTVSPost2010PropOp52
 70
     0
102
RTVSPost2010Prop53
 90
        2
102
RTVSPost2010PropOp53
 70
     1
102
RTVSPost2010Prop54
  1
strokes_ogs.tif
102
RTVSPost2010PropOp54
 70
     1
102
RTVSPost2010Prop55
280
     0
102
RTVSPost2010PropOp55
 70
     1
102
RTVSPost2010Prop56
140
1.0
102
RTVSPost2010PropOp56
 70
     1
102
RTVSPost2010Prop57
140
1.0
102
RTVSPost2010PropOp57
 70
     1
102
RTVSPropertyOp0
 70
     1
102
RTVSPropertyOp1
 70
     1
102
RTVSPropertyOp2
 70
     1
102
RTVSPropertyOp3
 70
     1
102
RTVSPropertyOp4
 70
     1
102
RTVSPropertyOp5
 70
     1
102
RTVSPropertyOp6
 70
     1
102
RTVSPropertyOp7
 70
     1
102
RTVSPropertyOp8
 70
     1
102
RTVSPropertyOp9
 70
     1
102
RTVSPropertyOp10
 70
     1
102
RTVSPropertyOp11
 70
     1
102
RTVSPropertyOp12
 70
     1
102
RTVSPropertyOp13
 70
     1
102
RTVSPropertyOp14
 70
     1
102
RTVSPropertyOp15
 70
     1
102
RTVSPropertyOp16
 70
     1
102
RTVSPropertyOp17
 70
     1
102
RTVSPropertyOp18
 70
     1
102
RTVSPropertyOp19
 70
     1
102
RTVSPropertyOp20
 70
     1
102
RTVSPropertyOp21
 70
     1
102
RTVSPropertyOp22
 70
     1
102
RTVSPropertyOp23
 70
     1
102
RTVSPropertyOp24
 70
     1
102
RTVSPropertyOp25
 70
     1
102
RTVSPropertyOp26
 70
     1
102
RTVSPropertyOp27
 70
     1
102
RTVSPropertyOp28
 70
     1
102
RTVSPropertyOp29
 70
     1
102
RTVSPropertyOp30
 70
     1
102
RTVSPropertyOp31
 70
     1
102
RTVSPropertyOp32
 70
     1
102
RTVSPropertyOp33
 70
     1
102
RTVSPropertyOp34
 70
     1
102
RTVSPropertyOp35
 70
     1
102
RTVSPropertyOp36
 70
     1
102
RTVSPropertyOp37
 70
     1
102
RTVSPropertyOp38
 70
     1
102
RTVSPropertyOp39
 70
     1
102
RTVSPropertyOp40
 70
     1
102
RTVSPropertyOp41
 70
     1
102
RTVSPropertyOp42
 70
     1
102
RTVSPropertyOp43
 70
     1
102
RTVSPropertyOp44
 70
     1
102
RTVSPropertyOp45
 70
     1
102
RTVSPropertyOp46
 70
     1
102
RTVSPropertyOp47
 70
     1
102
RTVSPropertyOp48
 70
     1
102
RTVSPropertyOp49
 70
     1
102
RTVSPropertyOp50
 70
     1
102
RTVSPropertyOp51
 70
     0
102
RTVSPropertyOp52
 70
     0
102
RTVSPropertyOp53
 70
     1
102
RTVSPropertyOp54
 70
     1
102
RTVSPropertyOp55
 70
     1
102
RTVSPropertyOp56
 70
     1
102
RTVSPropertyOp57
 70
     1
102
RTVSPropertyOp58
 70
     1
102
RTVSPropertyOp59
 70
     1
102
RTVSPropertyOp60
 70
     1
102
RTVSPropertyOp61
 70
     1
102
RTVSPropertyOp62
 70
     1
  0
ENDSEC
  0
EOF
