  0
SECTION
  2
HEADER
  9
$ACADVER
  1
AC1018
  9
$ACADMAINTVER
 70
   104
  9
$DWGCODEPAGE
  3
ANSI_932
  9
$LASTSAVEDBY
  1
SERIZAH
  9
$INSBASE
 10
0.0
 20
0.0
 30
0.0
  9
$EXTMIN
 10
-847.1808037158806
 20
-314.8386224775268
 30
-0.0000000349181948
  9
$EXTMAX
 10
1186.834395207742
 20
972.8047672458705
 30
0.0000000814935747
  9
$LIMMIN
 10
-1116.496722510957
 20
-755.8589898163773
  9
$LIMMAX
 10
1185.464464355012
 20
1117.534222162794
  9
$ORTHOMODE
 70
     0
  9
$REGENMODE
 70
     1
  9
$FILLMODE
 70
     1
  9
$QTEXTMODE
 70
     0
  9
$MIRRTEXT
 70
     0
  9
$LTSCALE
 40
50.0
  9
$ATTMODE
 70
     1
  9
$TEXTSIZE
 40
64.0
  9
$TRACEWID
 40
0.05
  9
$TEXTSTYLE
  7
STANDARD
  9
$CLAYER
  8
OUTLINE
  9
$CELTYPE
  6
CONTINUOUS
  9
$CECOLOR
 62
   256
  9
$CELTSCALE
 40
1.0
  9
$DISPSILH
 70
     0
  9
$DIMSCALE
 40
1.0
  9
$DIMASZ
 40
10.0
  9
$DIMEXO
 40
10.0
  9
$DIMDLI
 40
200.0
  9
$DIMRND
 40
0.0
  9
$DIMDLE
 40
0.0
  9
$DIMEXE
 40
10.0
  9
$DIMTP
 40
0.0
  9
$DIMTM
 40
0.0
  9
$DIMTXT
 40
45.0
  9
$DIMCEN
 40
0.082
  9
$DIMTSZ
 40
0.0
  9
$DIMTOL
 70
     0
  9
$DIMLIM
 70
     0
  9
$DIMTIH
 70
     0
  9
$DIMTOH
 70
     0
  9
$DIMSE1
 70
     0
  9
$DIMSE2
 70
     0
  9
$DIMTAD
 70
     1
  9
$DIMZIN
 70
     8
  9
$DIMBLK
  1
ORIGIN
  9
$DIMASO
 70
     1
  9
$DIMSHO
 70
     0
  9
$DIMPOST
  1

  9
$DIMAPOST
  1

  9
$DIMALT
 70
     0
  9
$DIMALTD
 70
     2
  9
$DIMALTF
 40
25.4
  9
$DIMLFAC
 40
1.0
  9
$DIMTOFL
 70
     1
  9
$DIMTVP
 40
0.0
  9
$DIMTIX
 70
     0
  9
$DIMSOXD
 70
     0
  9
$DIMSAH
 70
     0
  9
$DIMBLK1
  1

  9
$DIMBLK2
  1

  9
$DIMSTYLE
  2
STANDARD
  9
$DIMCLRD
 70
   256
  9
$DIMCLRE
 70
   256
  9
$DIMCLRT
 70
     0
  9
$DIMTFAC
 40
1.0
  9
$DIMGAP
 40
10.0
  9
$DIMJUST
 70
     0
  9
$DIMSD1
 70
     0
  9
$DIMSD2
 70
     0
  9
$DIMTOLJ
 70
     1
  9
$DIMTZIN
 70
     0
  9
$DIMALTZ
 70
     0
  9
$DIMALTTZ
 70
     0
  9
$DIMUPT
 70
     0
  9
$DIMDEC
 70
     6
  9
$DIMTDEC
 70
     6
  9
$DIMALTU
 70
     2
  9
$DIMALTTD
 70
     2
  9
$DIMTXSTY
  7
STANDARD
  9
$DIMAUNIT
 70
     0
  9
$DIMADEC
 70
     0
  9
$DIMALTRND
 40
0.0
  9
$DIMAZIN
 70
     0
  9
$DIMDSEP
 70
    46
  9
$DIMATFIT
 70
     3
  9
$DIMFRAC
 70
     0
  9
$DIMLDRBLK
  1
ORIGIN
  9
$DIMLUNIT
 70
     2
  9
$DIMLWD
 70
    -2
  9
$DIMLWE
 70
    -2
  9
$DIMTMOVE
 70
     0
  9
$LUNITS
 70
     2
  9
$LUPREC
 70
     4
  9
$SKETCHINC
 40
0.1
  9
$FILLETRAD
 40
0.0
  9
$AUNITS
 70
     1
  9
$AUPREC
 70
     3
  9
$MENU
  1
ACAD
  9
$ELEVATION
 40
0.0
  9
$PELEVATION
 40
0.0
  9
$THICKNESS
 40
0.0
  9
$LIMCHECK
 70
     0
  9
$CHAMFERA
 40
0.0
  9
$CHAMFERB
 40
0.0
  9
$CHAMFERC
 40
0.0
  9
$CHAMFERD
 40
0.0
  9
$SKPOLY
 70
     0
  9
$TDCREATE
 40
2450330.393194445
  9
$TDUCREATE
 40
2450330.018194445
  9
$TDUPDATE
 40
2459955.467303241
  9
$TDUUPDATE
 40
2459955.092303241
  9
$TDINDWG
 40
3.3371141088
  9
$TDUSRTIMER
 40
3.3371135532
  9
$USRTIMER
 70
     1
  9
$ANGBASE
 50
0.0
  9
$ANGDIR
 70
     0
  9
$PDMODE
 70
     3
  9
$PDSIZE
 40
-2.0
  9
$PLINEWID
 40
0.0
  9
$SPLFRAME
 70
     0
  9
$SPLINETYPE
 70
     6
  9
$SPLINESEGS
 70
     8
  9
$HANDSEED
  5
861A9
  9
$SURFTAB1
 70
     6
  9
$SURFTAB2
 70
     6
  9
$SURFTYPE
 70
     6
  9
$SURFU
 70
     6
  9
$SURFV
 70
     6
  9
$UCSBASE
  2

  9
$UCSNAME
  2

  9
$UCSORG
 10
0.0
 20
0.0
 30
0.0
  9
$UCSXDIR
 10
1.0
 20
0.0
 30
0.0
  9
$UCSYDIR
 10
0.0
 20
1.0
 30
0.0
  9
$UCSORTHOREF
  2

  9
$UCSORTHOVIEW
 70
     0
  9
$UCSORGTOP
 10
0.0
 20
0.0
 30
0.0
  9
$UCSORGBOTTOM
 10
0.0
 20
0.0
 30
0.0
  9
$UCSORGLEFT
 10
0.0
 20
0.0
 30
0.0
  9
$UCSORGRIGHT
 10
0.0
 20
0.0
 30
0.0
  9
$UCSORGFRONT
 10
0.0
 20
0.0
 30
0.0
  9
$UCSORGBACK
 10
0.0
 20
0.0
 30
0.0
  9
$PUCSBASE
  2

  9
$PUCSNAME
  2

  9
$PUCSORG
 10
0.0
 20
0.0
 30
0.0
  9
$PUCSXDIR
 10
1.0
 20
0.0
 30
0.0
  9
$PUCSYDIR
 10
0.0
 20
1.0
 30
0.0
  9
$PUCSORTHOREF
  2

  9
$PUCSORTHOVIEW
 70
     0
  9
$PUCSORGTOP
 10
0.0
 20
0.0
 30
0.0
  9
$PUCSORGBOTTOM
 10
0.0
 20
0.0
 30
0.0
  9
$PUCSORGLEFT
 10
0.0
 20
0.0
 30
0.0
  9
$PUCSORGRIGHT
 10
0.0
 20
0.0
 30
0.0
  9
$PUCSORGFRONT
 10
0.0
 20
0.0
 30
0.0
  9
$PUCSORGBACK
 10
0.0
 20
0.0
 30
0.0
  9
$USERI1
 70
     0
  9
$USERI2
 70
     0
  9
$USERI3
 70
     0
  9
$USERI4
 70
     0
  9
$USERI5
 70
     0
  9
$USERR1
 40
20.0
  9
$USERR2
 40
0.0
  9
$USERR3
 40
0.0
  9
$USERR4
 40
0.0
  9
$USERR5
 40
0.0
  9
$WORLDVIEW
 70
     1
  9
$SHADEDGE
 70
     3
  9
$SHADEDIF
 70
    70
  9
$TILEMODE
 70
     1
  9
$MAXACTVP
 70
    64
  9
$PINSBASE
 10
0.0
 20
0.0
 30
0.0
  9
$PLIMCHECK
 70
     0
  9
$PEXTMIN
 10
1.000000000000000E+20
 20
1.000000000000000E+20
 30
1.000000000000000E+20
  9
$PEXTMAX
 10
-1.000000000000000E+20
 20
-1.000000000000000E+20
 30
-1.000000000000000E+20
  9
$PLIMMIN
 10
0.0
 20
0.0
  9
$PLIMMAX
 10
12.0
 20
9.0
  9
$UNITMODE
 70
     0
  9
$VISRETAIN
 70
     1
  9
$PLINEGEN
 70
     0
  9
$PSLTSCALE
 70
     1
  9
$TREEDEPTH
 70
  3020
  9
$CMLSTYLE
  2
STANDARD
  9
$CMLJUST
 70
     0
  9
$CMLSCALE
 40
1.0
  9
$PROXYGRAPHICS
 70
     1
  9
$MEASUREMENT
 70
     0
  9
$CELWEIGHT
370
    -1
  9
$ENDCAPS
280
     0
  9
$JOINSTYLE
280
     0
  9
$LWDISPLAY
290
     0
  9
$INSUNITS
 70
     0
  9
$HYPERLINKBASE
  1

  9
$STYLESHEET
  1
MONOCHROME.CTB
  9
$XEDIT
290
     1
  9
$CEPSNTYPE
380
     0
  9
$PSTYLEMODE
290
     1
  9
$FINGERPRINTGUID
  2
{97DA8DB6-C4F0-4C3D-ABEB-53C4FBBC7EFF}
  9
$VERSIONGUID
  2
{1DD3EAD2-13F2-094A-9095-9DEA420AB049}
  9
$EXTNAMES
290
     1
  9
$PSVPSCALE
 40
0.0
  9
$OLESTARTUP
290
     0
  9
$SORTENTS
280
   127
  9
$INDEXCTL
280
     0
  9
$HIDETEXT
280
     0
  9
$XCLIPFRAME
290
     0
  9
$HALOGAP
280
     0
  9
$OBSCOLOR
 70
   257
  9
$OBSLTYPE
280
     0
  9
$INTERSECTIONDISPLAY
280
     0
  9
$INTERSECTIONCOLOR
 70
   257
  9
$DIMASSOC
280
     1
  9
$PROJECTNAME
  1

  0
ENDSEC
  0
SECTION
  2
CLASSES
  0
CLASS
  1
ACDBDICTIONARYWDFLT
  2
AcDbDictionaryWithDefault
  3
ObjectDBX Classes
 90
        0
 91
        1
280
     0
281
     0
  0
CLASS
  1
MATERIAL
  2
AcDbMaterial
  3
ObjectDBX Classes
 90
     1153
 91
        3
280
     0
281
     0
  0
CLASS
  1
VISUALSTYLE
  2
AcDbVisualStyle
  3
ObjectDBX Classes
 90
     4095
 91
       24
280
     0
281
     0
  0
CLASS
  1
TABLESTYLE
  2
AcDbTableStyle
  3
ObjectDBX Classes
 90
     4095
 91
        1
280
     0
281
     0
  0
CLASS
  1
SCALE
  2
AcDbScale
  3
ObjectDBX Classes
 90
     1153
 91
       17
280
     0
281
     0
  0
CLASS
  1
MLEADERSTYLE
  2
AcDbMLeaderStyle
  3
ACDB_MLEADERSTYLE_CLASS
 90
     4095
 91
        1
280
     0
281
     0
  0
CLASS
  1
ACDBSECTIONVIEWSTYLE
  2
AcDbSectionViewStyle
  3
ObjectDBX Classes
 90
     1025
 91
        1
280
     0
281
     0
  0
CLASS
  1
ACDBDETAILVIEWSTYLE
  2
AcDbDetailViewStyle
  3
ObjectDBX Classes
 90
     1025
 91
        1
280
     0
281
     0
  0
CLASS
  1
DICTIONARYVAR
  2
AcDbDictionaryVar
  3
ObjectDBX Classes
 90
        0
 91
       19
280
     0
281
     0
  0
CLASS
  1
CELLSTYLEMAP
  2
AcDbCellStyleMap
  3
ObjectDBX Classes
 90
     1152
 91
        2
280
     0
281
     0
  0
CLASS
  1
SORTENTSTABLE
  2
AcDbSortentsTable
  3
ObjectDBX Classes
 90
        0
 91
        0
280
     0
281
     0
  0
ENDSEC
  0
SECTION
  2
TABLES
  0
TABLE
  2
VPORT
  5
8
330
0
100
AcDbSymbolTable
 70
     1
1001
ACAD
1000
DbSaveVer
1071
       51
  0
VPORT
  5
84E9F
330
8
100
AcDbSymbolTableRecord
100
AcDbViewportTableRecord
  2
*ACTIVE
 70
     0
 10
0.0
 20
0.0
 11
1.0
 21
1.0
 12
169.8267957459305
 22
328.9830723841719
 13
0.0
 23
0.0
 14
50.0
 24
50.0
 15
100.0
 25
100.0
 16
0.0
 26
0.0
 36
1.0
 17
0.0
 27
0.0
 37
0.0
 40
1296.862793468434
 41
1.965352449223416
 42
50.0
 43
0.0
 44
0.0
 50
0.0
 51
0.0
 71
     0
 72
   500
 73
     1
 74
     0
 75
     0
 76
     0
 77
     0
 78
     0
281
     0
 65
     1
110
0.0
120
0.0
130
0.0
111
1.0
121
0.0
131
0.0
112
0.0
122
1.0
132
0.0
 79
     0
146
0.0
1001
ACAD_NAV_VCDISPLAY
1070
     3
  0
ENDTAB
  0
TABLE
  2
LTYPE
  5
5
330
0
100
AcDbSymbolTable
 70
     3
  0
LTYPE
  5
13
330
5
100
AcDbSymbolTableRecord
100
AcDbLinetypeTableRecord
  2
BYBLOCK
 70
     0
  3

 72
    65
 73
     0
 40
0.0
  0
LTYPE
  5
14
330
5
100
AcDbSymbolTableRecord
100
AcDbLinetypeTableRecord
  2
BYLAYER
 70
     0
  3

 72
    65
 73
     0
 40
0.0
  0
LTYPE
  5
15
330
5
100
AcDbSymbolTableRecord
100
AcDbLinetypeTableRecord
  2
CONTINUOUS
 70
     0
  3
実線
 72
    65
 73
     0
 40
0.0
  0
LTYPE
  5
84F1A
330
5
100
AcDbSymbolTableRecord
100
AcDbLinetypeTableRecord
  2
CENTER
 70
     0
  3
Center ____ _ ____ _ ____ _ ____ _ ____ _ ____
 72
    65
 73
     4
 40
2.0
 49
1.25
 74
     0
 49
-0.25
 74
     0
 49
0.25
 74
     0
 49
-0.25
 74
     0
  0
LTYPE
  5
86071
330
5
100
AcDbSymbolTableRecord
100
AcDbLinetypeTableRecord
  2
PHANTOM
 70
     0
  3
Phantom ______  __  __  ______  __  __  ______
 72
    65
 73
     6
 40
2.5
 49
1.25
 74
     0
 49
-0.25
 74
     0
 49
0.25
 74
     0
 49
-0.25
 74
     0
 49
0.25
 74
     0
 49
-0.25
 74
     0
  0
ENDTAB
  0
TABLE
  2
LAYER
  5
2
102
{ACAD_XDICTIONARY
360
85006
102
}
330
0
100
AcDbSymbolTable
 70
    11
  0
LAYER
  5
10
102
{ACAD_XDICTIONARY
360
84F2A
102
}
330
2
100
AcDbSymbolTableRecord
100
AcDbLayerTableRecord
  2
0
 70
     0
 62
     7
  6
CONTINUOUS
370
    -3
390
F
  0
LAYER
  5
22
102
{ACAD_XDICTIONARY
360
84F2C
102
}
330
2
100
AcDbSymbolTableRecord
100
AcDbLayerTableRecord
  2
SIZE
 70
     0
 62
    30
  6
CONTINUOUS
370
    -3
390
F
  0
LAYER
  5
31
102
{ACAD_XDICTIONARY
360
84F2E
102
}
330
2
100
AcDbSymbolTableRecord
100
AcDbLayerTableRecord
  2
DETAIL
 70
     0
 62
     5
  6
CONTINUOUS
370
    -3
390
F
  0
LAYER
  5
32
102
{ACAD_XDICTIONARY
360
84F30
102
}
330
2
100
AcDbSymbolTableRecord
100
AcDbLayerTableRecord
  2
OUTLINE
 70
     0
 62
     3
  6
CONTINUOUS
370
    -3
390
F
  0
LAYER
  5
33
102
{ACAD_XDICTIONARY
360
84F32
102
}
330
2
100
AcDbSymbolTableRecord
100
AcDbLayerTableRecord
  2
BASIS
 70
     0
 62
     6
  6
CENTER
370
    -3
390
F
  0
LAYER
  5
34
102
{ACAD_XDICTIONARY
360
84F34
102
}
330
2
100
AcDbSymbolTableRecord
100
AcDbLayerTableRecord
  2
NOTE
 70
     0
 62
     4
  6
CONTINUOUS
370
    -3
390
F
  0
LAYER
  5
35
102
{ACAD_XDICTIONARY
360
84F36
102
}
330
2
100
AcDbSymbolTableRecord
100
AcDbLayerTableRecord
  2
ARRANGE
 70
     0
 62
     1
  6
CONTINUOUS
370
    -3
390
F
  0
LAYER
  5
37
102
{ACAD_XDICTIONARY
360
84F38
102
}
330
2
100
AcDbSymbolTableRecord
100
AcDbLayerTableRecord
  2
ETC
 70
     0
 62
    61
  6
CONTINUOUS
370
    -3
390
F
  0
LAYER
  5
3A
330
2
100
AcDbSymbolTableRecord
100
AcDbLayerTableRecord
  2
DEFPOINTS
 70
     0
 62
     7
  6
CONTINUOUS
290
     0
370
    -3
390
F
  0
LAYER
  5
6ACAB
102
{ACAD_XDICTIONARY
360
84F3A
102
}
330
2
100
AcDbSymbolTableRecord
100
AcDbLayerTableRecord
  2
FIX
 70
     0
 62
    11
  6
CONTINUOUS
370
    -3
390
F
  0
LAYER
  5
6ACAC
102
{ACAD_XDICTIONARY
360
84F3C
102
}
330
2
100
AcDbSymbolTableRecord
100
AcDbLayerTableRecord
  2
SERVICE_SPACE
 70
     0
 62
     2
  6
PHANTOM
370
    18
390
F
  0
ENDTAB
  0
TABLE
  2
STYLE
  5
3
330
0
100
AcDbSymbolTable
 70
     1
  0
STYLE
  5
11
330
3
100
AcDbSymbolTableRecord
100
AcDbTextStyleTableRecord
  2
STANDARD
 70
     0
 40
45.0
 41
0.8
 50
0.0
 71
     0
 42
64.0
  3
SIMPLEX.shx
  4
BIGFONT.shx
  0
ENDTAB
  0
TABLE
  2
VIEW
  5
6
330
0
100
AcDbSymbolTable
 70
     1
  0
VIEW
  5
3C
330
6
100
AcDbSymbolTableRecord
100
AcDbViewTableRecord
  2
ALL
 70
     0
 40
4282.62
 10
0.0
 20
41.30990399999999
 41
5940.0
 11
0.0
 21
0.0
 31
1.0
 12
0.0
 22
0.0
 32
0.0
 42
50.0
 43
0.0
 44
0.0
 50
0.0
 71
     0
281
     0
 72
     0
  0
ENDTAB
  0
TABLE
  2
UCS
  5
7
330
0
100
AcDbSymbolTable
 70
     0
  0
ENDTAB
  0
TABLE
  2
APPID
  5
9
330
0
100
AcDbSymbolTable
 70
     9
  0
APPID
  5
12
330
9
100
AcDbSymbolTableRecord
100
AcDbRegAppTableRecord
  2
ACAD
 70
     0
  0
APPID
  5
84F1B
330
9
100
AcDbSymbolTableRecord
100
AcDbRegAppTableRecord
  2
ACAD_NAV_VCDISPLAY
 70
     0
  0
APPID
  5
84F27
330
9
100
AcDbSymbolTableRecord
100
AcDbRegAppTableRecord
  2
AcadAnnoPO
 70
     0
  0
APPID
  5
84F28
330
9
100
AcDbSymbolTableRecord
100
AcDbRegAppTableRecord
  2
ACAD_DSTYLE_DIMJAG
 70
     0
  0
APPID
  5
84F29
330
9
100
AcDbSymbolTableRecord
100
AcDbRegAppTableRecord
  2
ACAD_DSTYLE_DIMTALN
 70
     0
  0
APPID
  5
85C40
330
9
100
AcDbSymbolTableRecord
100
AcDbRegAppTableRecord
  2
ACAD_EXEMPT_FROM_CAD_STANDARDS
 70
     0
  0
APPID
  5
85C93
330
9
100
AcDbSymbolTableRecord
100
AcDbRegAppTableRecord
  2
AcadAnnoMonitorAlertIconDisabled
 70
     0
  0
APPID
  5
85D01
330
9
100
AcDbSymbolTableRecord
100
AcDbRegAppTableRecord
  2
ACAD_PSEXT
 70
     0
  0
APPID
  5
85DE1
330
9
100
AcDbSymbolTableRecord
100
AcDbRegAppTableRecord
  2
ACAD_MLEADERVER
 70
     0
  0
ENDTAB
  0
TABLE
  2
DIMSTYLE
  5
A
330
0
100
AcDbSymbolTable
 70
     1
100
AcDbDimStyleTable
 71
     1
340
213
  0
DIMSTYLE
105
213
102
{ACAD_REACTORS
330
85B1A
330
85B27
330
85B7E
330
85B8C
330
85B99
330
85BFB
330
85C85
330
85CB2
330
85CBF
330
85D53
102
}
330
A
100
AcDbSymbolTableRecord
100
AcDbDimStyleTableRecord
  2
STANDARD
 70
     0
340
11
  0
ENDTAB
  0
TABLE
  2
BLOCK_RECORD
  5
1
330
0
100
AcDbSymbolTable
 70
    11
  0
BLOCK_RECORD
  5
1E
102
{ACAD_XDICTIONARY
360
66E76
102
}
330
1
100
AcDbSymbolTableRecord
100
AcDbBlockTableRecord
  2
*MODEL_SPACE
340
84F14
  0
BLOCK_RECORD
  5
1A
102
{ACAD_XDICTIONARY
360
66E74
102
}
330
1
100
AcDbSymbolTableRecord
100
AcDbBlockTableRecord
  2
*PAPER_SPACE
340
84F15
  0
BLOCK_RECORD
  5
46
330
1
100
AcDbSymbolTableRecord
100
AcDbBlockTableRecord
  2
_ORIGIN
340
0
102
{BLKREFS
331
860D4
331
860D5
331
860DE
331
860DF
331
860E7
331
860E8
331
860F1
331
860F2
331
860FA
331
860FB
331
86103
331
86104
331
8610C
331
8610D
331
86116
331
86117
331
86121
331
86122
331
8612A
331
8612B
102
}
  0
BLOCK_RECORD
  5
85B1B
330
1
100
AcDbSymbolTableRecord
100
AcDbBlockTableRecord
  2
*D1
340
0
  0
BLOCK_RECORD
  5
85B28
330
1
100
AcDbSymbolTableRecord
100
AcDbBlockTableRecord
  2
*D2
340
0
  0
BLOCK_RECORD
  5
85B7F
330
1
100
AcDbSymbolTableRecord
100
AcDbBlockTableRecord
  2
*D3
340
0
  0
BLOCK_RECORD
  5
85B8D
330
1
100
AcDbSymbolTableRecord
100
AcDbBlockTableRecord
  2
*D4
340
0
  0
BLOCK_RECORD
  5
85B9A
330
1
100
AcDbSymbolTableRecord
100
AcDbBlockTableRecord
  2
*D5
340
0
  0
BLOCK_RECORD
  5
85BFC
330
1
100
AcDbSymbolTableRecord
100
AcDbBlockTableRecord
  2
*D6
340
0
  0
BLOCK_RECORD
  5
85C86
330
1
100
AcDbSymbolTableRecord
100
AcDbBlockTableRecord
  2
*D7
340
0
  0
BLOCK_RECORD
  5
85CB3
330
1
100
AcDbSymbolTableRecord
100
AcDbBlockTableRecord
  2
*D8
340
0
  0
BLOCK_RECORD
  5
85CC0
330
1
100
AcDbSymbolTableRecord
100
AcDbBlockTableRecord
  2
*D9
340
0
  0
BLOCK_RECORD
  5
85D54
330
1
100
AcDbSymbolTableRecord
100
AcDbBlockTableRecord
  2
*D10
340
0
  0
ENDTAB
  0
ENDSEC
  0
SECTION
  2
BLOCKS
  0
BLOCK
  5
1F
330
1E
100
AcDbEntity
  8
0
100
AcDbBlockBegin
  2
*MODEL_SPACE
 70
     0
 10
0.0
 20
0.0
 30
0.0
  3
*MODEL_SPACE
  1

  0
ENDBLK
  5
20
330
1E
100
AcDbEntity
  8
0
100
AcDbBlockEnd
  0
BLOCK
  5
1B
330
1A
100
AcDbEntity
 67
     1
  8
0
100
AcDbBlockBegin
  2
*PAPER_SPACE
 70
     0
 10
0.0
 20
0.0
 30
0.0
  3
*PAPER_SPACE
  1

  0
ENDBLK
  5
1C
330
1A
100
AcDbEntity
 67
     1
  8
0
100
AcDbBlockEnd
  0
BLOCK
  5
47
330
46
100
AcDbEntity
  8
0
100
AcDbBlockBegin
  2
_ORIGIN
 70
     0
 10
0.0
 20
0.0
 30
0.0
  3
_ORIGIN
  1

  0
CIRCLE
  5
48
330
46
100
AcDbEntity
  8
0
  6
ByBlock
 62
     0
100
AcDbCircle
 10
0.0
 20
0.0
 30
0.0
 40
0.5
  0
LINE
  5
49
330
46
100
AcDbEntity
  8
0
  6
ByBlock
 62
     0
100
AcDbLine
 10
0.0
 20
0.0
 30
0.0
 11
-1.0
 21
0.0
 31
0.0
  0
ENDBLK
  5
4A
330
46
100
AcDbEntity
  8
0
100
AcDbBlockEnd
  0
BLOCK
  5
85B1C
330
85B1B
100
AcDbEntity
  8
0
100
AcDbBlockBegin
  2
*D1
 70
     1
 10
0.0
 20
0.0
 30
0.0
  3
*D1
  1

  0
LINE
  5
86127
330
85B1B
100
AcDbEntity
  8
SIZE
440
 16777216
370
    -2
100
AcDbLine
 10
-142.4999999999636
 20
530.9999999998736
 30
0.0
 11
-142.4999999999635
 21
849.5159248287773
 31
0.0
  0
LINE
  5
86128
330
85B1B
100
AcDbEntity
  8
SIZE
440
 16777216
370
    -2
100
AcDbLine
 10
142.4999999999741
 20
530.9999999998736
 30
0.0
 11
142.4999999999741
 21
849.5159248287773
 31
0.0
  0
LINE
  5
86129
330
85B1B
100
AcDbEntity
  8
SIZE
440
 16777216
370
    -2
100
AcDbLine
 10
-132.4999999999635
 20
839.5159248287773
 30
0.0
 11
132.4999999999741
 21
839.5159248287773
 31
0.0
  0
INSERT
  5
8612A
330
85B1B
100
AcDbEntity
  8
SIZE
440
 16777216
370
    -2
100
AcDbBlockReference
  2
_ORIGIN
 10
-142.4999999999635
 20
839.5159248287773
 30
0.0
 41
10.0
 42
10.0
 43
10.0
 50
180.0
  0
INSERT
  5
8612B
330
85B1B
100
AcDbEntity
  8
SIZE
440
 16777216
370
    -2
100
AcDbBlockReference
  2
_ORIGIN
 10
142.4999999999741
 20
839.5159248287773
 30
0.0
 41
10.0
 42
10.0
 43
10.0
  0
MTEXT
  5
8612C
330
85B1B
100
AcDbEntity
  8
SIZE
 62
     0
440
 16777216
100
AcDbMText
 10
0.0000000000052884
 20
872.0159248287773
 30
0.0
 40
45.0
 41
0.0
 71
     5
 72
     1
  1
\A1;285
 73
     1
 44
1.0
  0
POINT
  5
8612D
330
85B1B
100
AcDbEntity
  8
DEFPOINTS
 62
     0
440
 16777216
100
AcDbPoint
 10
-142.4999999999636
 20
520.9999999998736
 30
0.0
  0
POINT
  5
8612E
330
85B1B
100
AcDbEntity
  8
DEFPOINTS
 62
     0
440
 16777216
100
AcDbPoint
 10
142.4999999999741
 20
520.9999999998736
 30
0.0
  0
POINT
  5
8612F
330
85B1B
100
AcDbEntity
  8
DEFPOINTS
 62
     0
440
 16777216
100
AcDbPoint
 10
142.4999999999741
 20
839.5159248287773
 30
0.0
  0
ENDBLK
  5
85B1D
330
85B1B
100
AcDbEntity
  8
0
100
AcDbBlockEnd
  0
BLOCK
  5
85B29
330
85B28
100
AcDbEntity
  8
0
100
AcDbBlockBegin
  2
*D2
 70
     1
 10
0.0
 20
0.0
 30
0.0
  3
*D2
  1

  0
LINE
  5
8611C
330
85B28
100
AcDbEntity
  8
SIZE
440
 16777216
370
    -2
100
AcDbLine
 10
142.4999999999636
 20
530.9999999998736
 30
0.0
 11
142.4999999999636
 21
735.0764427016646
 31
0.0
  0
LINE
  5
8611D
330
85B28
100
AcDbEntity
  8
SIZE
440
 16777216
370
    -2
100
AcDbLine
 10
165.6999799999557
 20
498.881573333283
 30
0.0
 11
165.6999799999557
 21
735.0764427016646
 31
0.0
  0
LINE
  5
8611E
330
85B28
100
AcDbEntity
  8
SIZE
440
 16777216
370
    -2
100
AcDbLine
 10
132.4999999999636
 20
725.0764427016646
 30
0.0
 11
122.4999999999636
 21
725.0764427016646
 31
0.0
  0
LINE
  5
8611F
330
85B28
100
AcDbEntity
  8
SIZE
440
 16777216
370
    -2
100
AcDbLine
 10
175.6999799999556
 20
725.0764427016646
 30
0.0
 11
315.4142657142414
 21
725.0764427016646
 31
0.0
  0
LINE
  5
86120
330
85B28
100
AcDbEntity
  8
SIZE
440
 16777216
370
    -2
100
AcDbLine
 10
142.4999999999636
 20
725.0764427016646
 30
0.0
 11
165.6999799999557
 21
725.0764427016646
 31
0.0
  0
INSERT
  5
86121
330
85B28
100
AcDbEntity
  8
SIZE
440
 16777216
370
    -2
100
AcDbBlockReference
  2
_ORIGIN
 10
142.4999999999636
 20
725.0764427016646
 30
0.0
 41
10.0
 42
10.0
 43
10.0
  0
INSERT
  5
86122
330
85B28
100
AcDbEntity
  8
SIZE
440
 16777216
370
    -2
100
AcDbBlockReference
  2
_ORIGIN
 10
165.6999799999557
 20
725.0764427016646
 30
0.0
 41
10.0
 42
10.0
 43
10.0
 50
180.0
  0
MTEXT
  5
86123
330
85B28
100
AcDbEntity
  8
SIZE
 62
     0
440
 16777216
100
AcDbMText
 10
250.5571228570986
 20
757.5764427016646
 30
0.0
 40
45.0
 41
0.0
 71
     5
 72
     1
  1
\A1;23.2
 73
     1
 44
1.0
  0
POINT
  5
86124
330
85B28
100
AcDbEntity
  8
DEFPOINTS
 62
     0
440
 16777216
100
AcDbPoint
 10
142.4999999999636
 20
520.9999999998736
 30
0.0
  0
POINT
  5
86125
330
85B28
100
AcDbEntity
  8
DEFPOINTS
 62
     0
440
 16777216
100
AcDbPoint
 10
165.6999799999557
 20
488.881573333283
 30
0.0
  0
POINT
  5
86126
330
85B28
100
AcDbEntity
  8
DEFPOINTS
 62
     0
440
 16777216
100
AcDbPoint
 10
165.6999799999557
 20
725.0764427016646
 30
0.0
  0
ENDBLK
  5
85B2A
330
85B28
100
AcDbEntity
  8
0
100
AcDbBlockEnd
  0
BLOCK
  5
85B80
330
85B7F
100
AcDbEntity
  8
0
100
AcDbBlockBegin
  2
*D3
 70
     1
 10
0.0
 20
0.0
 30
0.0
  3
*D3
  1

  0
LINE
  5
86112
330
85B7F
100
AcDbEntity
  8
SIZE
440
 16777216
370
    -2
100
AcDbLine
 10
-142.4999999999648
 20
20.19999999999709
 30
0.0
 11
-142.4999999999648
 21
-126.002444762149
 31
0.0
  0
LINE
  5
86113
330
85B7F
100
AcDbEntity
  8
SIZE
440
 16777216
370
    -2
100
AcDbLine
 10
-98.49999999996365
 20
-20.0
 30
0.0
 11
-98.49999999996365
 21
-126.002444762149
 31
0.0
  0
LINE
  5
86114
330
85B7F
100
AcDbEntity
  8
SIZE
440
 16777216
370
    -2
100
AcDbLine
 10
-132.4999999999648
 20
-116.002444762149
 30
0.0
 11
-108.4999999999636
 21
-116.002444762149
 31
0.0
  0
LINE
  5
86115
330
85B7F
100
AcDbEntity
  8
SIZE
440
 16777216
370
    -2
100
AcDbLine
 10
-98.49999999996365
 20
-116.002444762149
 30
0.0
 11
-8.499999999963662
 21
-116.002444762149
 31
0.0
  0
INSERT
  5
86116
330
85B7F
100
AcDbEntity
  8
SIZE
440
 16777216
370
    -2
100
AcDbBlockReference
  2
_ORIGIN
 10
-142.4999999999648
 20
-116.002444762149
 30
0.0
 41
10.0
 42
10.0
 43
10.0
 50
180.0
  0
INSERT
  5
86117
330
85B7F
100
AcDbEntity
  8
SIZE
440
 16777216
370
    -2
100
AcDbBlockReference
  2
_ORIGIN
 10
-98.49999999996365
 20
-116.002444762149
 30
0.0
 41
10.0
 42
10.0
 43
10.0
  0
MTEXT
  5
86118
330
85B7F
100
AcDbEntity
  8
SIZE
 62
     0
440
 16777216
100
AcDbMText
 10
-48.49999999996366
 20
-83.502444762149
 30
0.0
 40
45.0
 41
0.0
 71
     5
 72
     1
  1
\A1;44
 73
     1
 44
1.0
  0
POINT
  5
86119
330
85B7F
100
AcDbEntity
  8
DEFPOINTS
 62
     0
440
 16777216
100
AcDbPoint
 10
-142.4999999999648
 20
30.19999999999709
 30
0.0
  0
POINT
  5
8611A
330
85B7F
100
AcDbEntity
  8
DEFPOINTS
 62
     0
440
 16777216
100
AcDbPoint
 10
-98.49999999996365
 20
-10.0
 30
0.0
  0
POINT
  5
8611B
330
85B7F
100
AcDbEntity
  8
DEFPOINTS
 62
     0
440
 16777216
100
AcDbPoint
 10
-98.49999999996365
 20
-116.002444762149
 30
0.0
  0
ENDBLK
  5
85B81
330
85B7F
100
AcDbEntity
  8
0
100
AcDbBlockEnd
  0
BLOCK
  5
85B8E
330
85B8D
100
AcDbEntity
  8
0
100
AcDbBlockBegin
  2
*D4
 70
     1
 10
0.0
 20
0.0
 30
0.0
  3
*D4
  1

  0
LINE
  5
86109
330
85B8D
100
AcDbEntity
  8
SIZE
440
 16777216
370
    -2
100
AcDbLine
 10
-157.5000000000436
 20
-27.18702739697255
 30
0.0
 11
-157.5000000000436
 21
-215.8098298608475
 31
0.0
  0
LINE
  5
8610A
330
85B8D
100
AcDbEntity
  8
SIZE
440
 16777216
370
    -2
100
AcDbLine
 10
157.4999999999563
 20
-27.18702739697255
 30
0.0
 11
157.4999999999563
 21
-215.8098298608475
 31
0.0
  0
LINE
  5
8610B
330
85B8D
100
AcDbEntity
  8
SIZE
440
 16777216
370
    -2
100
AcDbLine
 10
-147.5000000000436
 20
-205.8098298608475
 30
0.0
 11
147.4999999999563
 21
-205.8098298608475
 31
0.0
  0
INSERT
  5
8610C
330
85B8D
100
AcDbEntity
  8
SIZE
440
 16777216
370
    -2
100
AcDbBlockReference
  2
_ORIGIN
 10
-157.5000000000436
 20
-205.8098298608475
 30
0.0
 41
10.0
 42
10.0
 43
10.0
 50
180.0
  0
INSERT
  5
8610D
330
85B8D
100
AcDbEntity
  8
SIZE
440
 16777216
370
    -2
100
AcDbBlockReference
  2
_ORIGIN
 10
157.4999999999563
 20
-205.8098298608475
 30
0.0
 41
10.0
 42
10.0
 43
10.0
  0
MTEXT
  5
8610E
330
85B8D
100
AcDbEntity
  8
SIZE
 62
     0
440
 16777216
100
AcDbMText
 10
-0.0000000000436395
 20
-173.3098298608475
 30
0.0
 40
45.0
 41
0.0
 71
     5
 72
     1
  1
\A1;304～325
 73
     1
 44
1.0
  0
POINT
  5
8610F
330
85B8D
100
AcDbEntity
  8
DEFPOINTS
 62
     0
440
 16777216
100
AcDbPoint
 10
-157.5000000000436
 20
-17.18702739697255
 30
0.0
  0
POINT
  5
86110
330
85B8D
100
AcDbEntity
  8
DEFPOINTS
 62
     0
440
 16777216
100
AcDbPoint
 10
157.4999999999563
 20
-17.18702739697255
 30
0.0
  0
POINT
  5
86111
330
85B8D
100
AcDbEntity
  8
DEFPOINTS
 62
     0
440
 16777216
100
AcDbPoint
 10
157.4999999999563
 20
-205.8098298608475
 30
0.0
  0
ENDBLK
  5
85B8F
330
85B8D
100
AcDbEntity
  8
0
100
AcDbBlockEnd
  0
BLOCK
  5
85B9B
330
85B9A
100
AcDbEntity
  8
0
100
AcDbBlockBegin
  2
*D5
 70
     1
 10
0.0
 20
0.0
 30
0.0
  3
*D5
  1

  0
LINE
  5
86100
330
85B9A
100
AcDbEntity
  8
SIZE
440
 16777216
370
    -2
100
AcDbLine
 10
-169.499999999929
 20
-10.0
 30
0.0
 11
-169.499999999929
 21
-314.7153698606653
 31
0.0
  0
LINE
  5
86101
330
85B9A
100
AcDbEntity
  8
SIZE
440
 16777216
370
    -2
100
AcDbLine
 10
174.9999999999563
 20
-10.0
 30
0.0
 11
174.9999999999563
 21
-314.7153698606653
 31
0.0
  0
LINE
  5
86102
330
85B9A
100
AcDbEntity
  8
SIZE
440
 16777216
370
    -2
100
AcDbLine
 10
-159.499999999929
 20
-304.7153698606653
 30
0.0
 11
164.9999999999563
 21
-304.7153698606653
 31
0.0
  0
INSERT
  5
86103
330
85B9A
100
AcDbEntity
  8
SIZE
440
 16777216
370
    -2
100
AcDbBlockReference
  2
_ORIGIN
 10
-169.499999999929
 20
-304.7153698606653
 30
0.0
 41
10.0
 42
10.0
 43
10.0
 50
180.0
  0
INSERT
  5
86104
330
85B9A
100
AcDbEntity
  8
SIZE
440
 16777216
370
    -2
100
AcDbBlockReference
  2
_ORIGIN
 10
174.9999999999563
 20
-304.7153698606653
 30
0.0
 41
10.0
 42
10.0
 43
10.0
  0
MTEXT
  5
86105
330
85B9A
100
AcDbEntity
  8
SIZE
 62
     0
440
 16777216
100
AcDbMText
 10
2.750000000013629
 20
-272.2153698606653
 30
0.0
 40
45.0
 41
0.0
 71
     5
 72
     1
  1
\A1;344.5
 73
     1
 44
1.0
  0
POINT
  5
86106
330
85B9A
100
AcDbEntity
  8
DEFPOINTS
 62
     0
440
 16777216
100
AcDbPoint
 10
-169.499999999929
 20
0.0
 30
0.0
  0
POINT
  5
86107
330
85B9A
100
AcDbEntity
  8
DEFPOINTS
 62
     0
440
 16777216
100
AcDbPoint
 10
174.9999999999563
 20
0.0
 30
0.0
  0
POINT
  5
86108
330
85B9A
100
AcDbEntity
  8
DEFPOINTS
 62
     0
440
 16777216
100
AcDbPoint
 10
174.9999999999563
 20
-304.7153698606653
 30
0.0
  0
ENDBLK
  5
85B9C
330
85B9A
100
AcDbEntity
  8
0
100
AcDbBlockEnd
  0
BLOCK
  5
85BFD
330
85BFC
100
AcDbEntity
  8
0
100
AcDbBlockBegin
  2
*D6
 70
     1
 10
0.0
 20
0.0
 30
0.0
  3
*D6
  1

  0
LINE
  5
860F7
330
85BFC
100
AcDbEntity
  8
SIZE
440
 16777216
370
    -2
100
AcDbLine
 10
184.9999999999564
 20
0.0000000000000016
 30
0.0
 11
599.7845590275119
 21
0.0000000000000683
 31
0.0
  0
LINE
  5
860F8
330
85BFC
100
AcDbEntity
  8
SIZE
440
 16777216
370
    -2
100
AcDbLine
 10
114.9999999999745
 20
549.9999999998654
 30
0.0
 11
599.7845590275119
 21
549.9999999998655
 31
0.0
  0
LINE
  5
860F9
330
85BFC
100
AcDbEntity
  8
SIZE
440
 16777216
370
    -2
100
AcDbLine
 10
589.7845590275119
 20
10.00000000000007
 30
0.0
 11
589.7845590275119
 21
539.9999999998653
 31
0.0
  0
INSERT
  5
860FA
330
85BFC
100
AcDbEntity
  8
SIZE
440
 16777216
370
    -2
100
AcDbBlockReference
  2
_ORIGIN
 10
589.7845590275119
 20
0.0000000000000667
 30
0.0
 41
10.0
 42
10.0
 43
10.0
 50
270.0
  0
INSERT
  5
860FB
330
85BFC
100
AcDbEntity
  8
SIZE
440
 16777216
370
    -2
100
AcDbBlockReference
  2
_ORIGIN
 10
589.7845590275119
 20
549.9999999998655
 30
0.0
 41
10.0
 42
10.0
 43
10.0
 50
90.0
  0
MTEXT
  5
860FC
330
85BFC
100
AcDbEntity
  8
SIZE
 62
     0
440
 16777216
100
AcDbMText
 10
557.2845590275119
 20
274.9999999999325
 30
0.0
 40
45.0
 41
0.0
 71
     5
 72
     1
  1
\A1;550
 11
0.0000000000000001
 21
1.0
 31
0.0
 73
     1
 44
1.0
  0
POINT
  5
860FD
330
85BFC
100
AcDbEntity
  8
DEFPOINTS
 62
     0
440
 16777216
100
AcDbPoint
 10
174.9999999999563
 20
0.0
 30
0.0
  0
POINT
  5
860FE
330
85BFC
100
AcDbEntity
  8
DEFPOINTS
 62
     0
440
 16777216
100
AcDbPoint
 10
104.9999999999745
 20
549.9999999998654
 30
0.0
  0
POINT
  5
860FF
330
85BFC
100
AcDbEntity
  8
DEFPOINTS
 62
     0
440
 16777216
100
AcDbPoint
 10
589.7845590275119
 20
549.9999999998655
 30
0.0
  0
ENDBLK
  5
85BFE
330
85BFC
100
AcDbEntity
  8
0
100
AcDbBlockEnd
  0
BLOCK
  5
85C87
330
85C86
100
AcDbEntity
  8
0
100
AcDbBlockBegin
  2
*D7
 70
     1
 10
0.0
 20
0.0
 30
0.0
  3
*D7
  1

  0
LINE
  5
860ED
330
85C86
100
AcDbEntity
  8
SIZE
440
 16777216
370
    -2
100
AcDbLine
 10
114.9999999999745
 20
549.9999999998654
 30
0.0
 11
599.7845590275127
 21
549.9999999998655
 31
0.0
  0
LINE
  5
860EE
330
85C86
100
AcDbEntity
  8
SIZE
440
 16777216
370
    -2
100
AcDbLine
 10
352.4999999999649
 20
649.9999999998627
 30
0.0
 11
599.7845590275127
 21
649.9999999998627
 31
0.0
  0
LINE
  5
860EF
330
85C86
100
AcDbEntity
  8
SIZE
440
 16777216
370
    -2
100
AcDbLine
 10
589.7845590275127
 20
559.9999999998654
 30
0.0
 11
589.7845590275127
 21
639.9999999998628
 31
0.0
  0
LINE
  5
860F0
330
85C86
100
AcDbEntity
  8
SIZE
440
 16777216
370
    -2
100
AcDbLine
 10
589.7845590275127
 20
649.9999999998627
 30
0.0
 11
589.7845590275125
 21
972.799999999863
 31
0.0
  0
INSERT
  5
860F1
330
85C86
100
AcDbEntity
  8
SIZE
440
 16777216
370
    -2
100
AcDbBlockReference
  2
_ORIGIN
 10
589.7845590275127
 20
549.9999999998655
 30
0.0
 41
10.0
 42
10.0
 43
10.0
 50
270.0
  0
INSERT
  5
860F2
330
85C86
100
AcDbEntity
  8
SIZE
440
 16777216
370
    -2
100
AcDbBlockReference
  2
_ORIGIN
 10
589.7845590275127
 20
649.9999999998627
 30
0.0
 41
10.0
 42
10.0
 43
10.0
 50
90.0
  0
MTEXT
  5
860F3
330
85C86
100
AcDbEntity
  8
SIZE
 62
     0
440
 16777216
100
AcDbMText
 10
557.2845590275126
 20
816.3999999998626
 30
0.0
 40
45.0
 41
0.0
 71
     5
 72
     1
  1
\A1;原則として開放
 11
0.0000000000000001
 21
1.0
 31
0.0
 73
     1
 44
1.0
  0
POINT
  5
860F4
330
85C86
100
AcDbEntity
  8
DEFPOINTS
 62
     0
440
 16777216
100
AcDbPoint
 10
104.9999999999745
 20
549.9999999998654
 30
0.0
  0
POINT
  5
860F5
330
85C86
100
AcDbEntity
  8
DEFPOINTS
 62
     0
440
 16777216
100
AcDbPoint
 10
342.4999999999649
 20
649.9999999998627
 30
0.0
  0
POINT
  5
860F6
330
85C86
100
AcDbEntity
  8
DEFPOINTS
 62
     0
440
 16777216
100
AcDbPoint
 10
589.7845590275127
 20
649.9999999998627
 30
0.0
  0
ENDBLK
  5
85C88
330
85C86
100
AcDbEntity
  8
0
100
AcDbBlockEnd
  0
BLOCK
  5
85CB4
330
85CB3
100
AcDbEntity
  8
0
100
AcDbBlockBegin
  2
*D8
 70
     1
 10
0.0
 20
0.0
 30
0.0
  3
*D8
  1

  0
LINE
  5
860E4
330
85CB3
100
AcDbEntity
  8
SIZE
440
 16777216
370
    -2
100
AcDbLine
 10
142.4999999999636
 20
530.9999999998736
 30
0.0
 11
142.4999999999636
 21
849.5159248287773
 31
0.0
  0
LINE
  5
860E5
330
85CB3
100
AcDbEntity
  8
SIZE
440
 16777216
370
    -2
100
AcDbLine
 10
342.4999999999648
 20
659.9999999998625
 30
0.0
 11
342.4999999999648
 21
849.5159248287773
 31
0.0
  0
LINE
  5
860E6
330
85CB3
100
AcDbEntity
  8
SIZE
440
 16777216
370
    -2
100
AcDbLine
 10
152.4999999999636
 20
839.5159248287773
 30
0.0
 11
332.4999999999648
 21
839.5159248287773
 31
0.0
  0
INSERT
  5
860E7
330
85CB3
100
AcDbEntity
  8
SIZE
440
 16777216
370
    -2
100
AcDbBlockReference
  2
_ORIGIN
 10
142.4999999999636
 20
839.5159248287773
 30
0.0
 41
10.0
 42
10.0
 43
10.0
 50
180.0
  0
INSERT
  5
860E8
330
85CB3
100
AcDbEntity
  8
SIZE
440
 16777216
370
    -2
100
AcDbBlockReference
  2
_ORIGIN
 10
342.4999999999648
 20
839.5159248287773
 30
0.0
 41
10.0
 42
10.0
 43
10.0
  0
MTEXT
  5
860E9
330
85CB3
100
AcDbEntity
  8
SIZE
 62
     0
440
 16777216
100
AcDbMText
 10
242.4999999999642
 20
872.0159248287773
 30
0.0
 40
45.0
 41
0.0
 71
     5
 72
     1
  1
\A1;200以上
 73
     1
 44
1.0
  0
POINT
  5
860EA
330
85CB3
100
AcDbEntity
  8
DEFPOINTS
 62
     0
440
 16777216
100
AcDbPoint
 10
142.4999999999636
 20
520.9999999998736
 30
0.0
  0
POINT
  5
860EB
330
85CB3
100
AcDbEntity
  8
DEFPOINTS
 62
     0
440
 16777216
100
AcDbPoint
 10
342.4999999999648
 20
649.9999999998625
 30
0.0
  0
POINT
  5
860EC
330
85CB3
100
AcDbEntity
  8
DEFPOINTS
 62
     0
440
 16777216
100
AcDbPoint
 10
342.4999999999648
 20
839.5159248287773
 30
0.0
  0
ENDBLK
  5
85CB5
330
85CB3
100
AcDbEntity
  8
0
100
AcDbBlockEnd
  0
BLOCK
  5
85CC1
330
85CC0
100
AcDbEntity
  8
0
100
AcDbBlockBegin
  2
*D9
 70
     1
 10
0.0
 20
0.0
 30
0.0
  3
*D9
  1

  0
LINE
  5
860DA
330
85CC0
100
AcDbEntity
  8
SIZE
440
 16777216
370
    -2
100
AcDbLine
 10
-142.4999999999636
 20
530.9999999998736
 30
0.0
 11
-142.4999999999635
 21
849.5159248287773
 31
0.0
  0
LINE
  5
860DB
330
85CC0
100
AcDbEntity
  8
SIZE
440
 16777216
370
    -2
100
AcDbLine
 10
-242.4999999999648
 20
659.9999999998625
 30
0.0
 11
-242.4999999999648
 21
849.5159248287773
 31
0.0
  0
LINE
  5
860DC
330
85CC0
100
AcDbEntity
  8
SIZE
440
 16777216
370
    -2
100
AcDbLine
 10
-152.4999999999636
 20
839.5159248287773
 30
0.0
 11
-232.4999999999648
 21
839.5159248287773
 31
0.0
  0
LINE
  5
860DD
330
85CC0
100
AcDbEntity
  8
SIZE
440
 16777216
370
    -2
100
AcDbLine
 10
-242.4999999999648
 20
839.5159248287773
 30
0.0
 11
-445.2999999999648
 21
839.5159248287773
 31
0.0
  0
INSERT
  5
860DE
330
85CC0
100
AcDbEntity
  8
SIZE
440
 16777216
370
    -2
100
AcDbBlockReference
  2
_ORIGIN
 10
-142.4999999999635
 20
839.5159248287773
 30
0.0
 41
10.0
 42
10.0
 43
10.0
  0
INSERT
  5
860DF
330
85CC0
100
AcDbEntity
  8
SIZE
440
 16777216
370
    -2
100
AcDbBlockReference
  2
_ORIGIN
 10
-242.4999999999648
 20
839.5159248287773
 30
0.0
 41
10.0
 42
10.0
 43
10.0
 50
180.0
  0
MTEXT
  5
860E0
330
85CC0
100
AcDbEntity
  8
SIZE
 62
     0
440
 16777216
100
AcDbMText
 10
-348.8999999999649
 20
872.0159248287773
 30
0.0
 40
45.0
 41
0.0
 71
     5
 72
     1
  1
\A1;100以上
 73
     1
 44
1.0
  0
POINT
  5
860E1
330
85CC0
100
AcDbEntity
  8
DEFPOINTS
 62
     0
440
 16777216
100
AcDbPoint
 10
-142.4999999999636
 20
520.9999999998736
 30
0.0
  0
POINT
  5
860E2
330
85CC0
100
AcDbEntity
  8
DEFPOINTS
 62
     0
440
 16777216
100
AcDbPoint
 10
-242.4999999999648
 20
649.9999999998625
 30
0.0
  0
POINT
  5
860E3
330
85CC0
100
AcDbEntity
  8
DEFPOINTS
 62
     0
440
 16777216
100
AcDbPoint
 10
-242.4999999999648
 20
839.5159248287773
 30
0.0
  0
ENDBLK
  5
85CC2
330
85CC0
100
AcDbEntity
  8
0
100
AcDbBlockEnd
  0
BLOCK
  5
85D55
330
85D54
100
AcDbEntity
  8
0
100
AcDbBlockBegin
  2
*D10
 70
     1
 10
0.0
 20
0.0
 30
0.0
  3
*D10
  1

  0
LINE
  5
860D1
330
85D54
100
AcDbEntity
  8
SIZE
440
 16777216
370
    -2
100
AcDbLine
 10
184.9999999999564
 20
0.0000000000000016
 30
0.0
 11
495.414451088224
 21
0.0000000000000515
 31
0.0
  0
LINE
  5
860D2
330
85D54
100
AcDbEntity
  8
SIZE
440
 16777216
370
    -2
100
AcDbLine
 10
205.3251517694772
 20
280.0000000000001
 30
0.0
 11
495.4144510882239
 21
280.0000000000002
 31
0.0
  0
LINE
  5
860D3
330
85D54
100
AcDbEntity
  8
SIZE
440
 16777216
370
    -2
100
AcDbLine
 10
485.414451088224
 20
10.00000000000005
 30
0.0
 11
485.414451088224
 21
270.0000000000002
 31
0.0
  0
INSERT
  5
860D4
330
85D54
100
AcDbEntity
  8
SIZE
440
 16777216
370
    -2
100
AcDbBlockReference
  2
_ORIGIN
 10
485.414451088224
 20
0.0000000000000499
 30
0.0
 41
10.0
 42
10.0
 43
10.0
 50
270.0
  0
INSERT
  5
860D5
330
85D54
100
AcDbEntity
  8
SIZE
440
 16777216
370
    -2
100
AcDbBlockReference
  2
_ORIGIN
 10
485.414451088224
 20
280.0000000000002
 30
0.0
 41
10.0
 42
10.0
 43
10.0
 50
90.0
  0
MTEXT
  5
860D6
330
85D54
100
AcDbEntity
  8
SIZE
 62
     0
440
 16777216
100
AcDbMText
 10
452.9144510882239
 20
139.9999999999999
 30
0.0
 40
45.0
 41
0.0
 71
     5
 72
     1
  1
\A1;280
 11
0.0000000000000001
 21
1.0
 31
0.0
 73
     1
 44
1.0
  0
POINT
  5
860D7
330
85D54
100
AcDbEntity
  8
DEFPOINTS
 62
     0
440
 16777216
100
AcDbPoint
 10
174.9999999999563
 20
0.0
 30
0.0
  0
POINT
  5
860D8
330
85D54
100
AcDbEntity
  8
DEFPOINTS
 62
     0
440
 16777216
100
AcDbPoint
 10
195.3251517694772
 20
280.0000000000001
 30
0.0
  0
POINT
  5
860D9
330
85D54
100
AcDbEntity
  8
DEFPOINTS
 62
     0
440
 16777216
100
AcDbPoint
 10
485.414451088224
 20
280.0000000000002
 30
0.0
  0
ENDBLK
  5
85D56
330
85D54
100
AcDbEntity
  8
0
100
AcDbBlockEnd
  0
ENDSEC
  0
SECTION
  2
ENTITIES
  0
MTEXT
  5
38341
330
1E
100
AcDbEntity
  8
0
100
AcDbMText
 10
383.9605305094082
 20
4023.282340837186
 30
0.0
 40
64.0
 41
187.9848
 71
     1
 72
     5
  1

 73
     1
 44
1.0
1001
ACAD
1000
MTEXTBEGIN
1070
    73
1070
     1
1070
    44
1040
1.0
1070
    74
1070
     0
1000
MTEXTEND
  0
LINE
  5
84968
330
1E
100
AcDbEntity
  8
NOTE
100
AcDbLine
 10
-665.3591520876752
 20
-205.8098298608475
 30
0.0
 11
-355.8097521358135
 21
-205.8098298608475
 31
0.0
  0
LINE
  5
8496B
330
1E
100
AcDbEntity
  8
DETAIL
100
AcDbLine
 10
163.1999799999557
 20
488.5878933332878
 30
0.0
 11
163.1999799999557
 21
71.41212000005727
 31
0.0
  0
LINE
  5
8496C
330
1E
100
AcDbEntity
  8
DETAIL
100
AcDbLine
 10
165.6999799999557
 20
488.881573333283
 30
0.0
 11
165.6999799999557
 21
71.11842666672419
 31
0.0
  0
LINE
  5
84978
330
1E
100
AcDbEntity
  8
BASIS
100
AcDbLine
 10
-0.0000000000436557
 20
-40.0
 30
0.0
 11
-0.0000000000436557
 21
600.0
 31
0.0
  0
LINE
  5
8497D
330
1E
100
AcDbEntity
  8
DETAIL
100
AcDbLine
 10
111.3649199999745
 20
27.69999999999801
 30
0.0
 11
111.3649199999745
 21
522.4999999998698
 31
0.0
  0
LINE
  5
8497E
330
1E
100
AcDbEntity
  8
DETAIL
100
AcDbLine
 10
107.4999999999727
 20
53.49999999998999
 30
0.0
 11
107.4999999999727
 21
521.4999999998716
 31
0.0
  0
LINE
  5
8497F
330
1E
100
AcDbEntity
  8
DETAIL
100
AcDbLine
 10
124.7564133332998
 20
27.69999999999801
 30
0.0
 11
124.7564133332998
 21
522.4999999998698
 31
0.0
  0
LINE
  5
84980
330
1E
100
AcDbEntity
  8
DETAIL
100
AcDbLine
 10
123.213546666635
 20
27.69999999999801
 30
0.0
 11
123.213546666635
 21
522.4999999998698
 31
0.0
  0
LINE
  5
84981
330
1E
100
AcDbEntity
  8
DETAIL
100
AcDbLine
 10
112.9814933333255
 20
27.69999999999801
 30
0.0
 11
112.9814933333255
 21
522.4999999998698
 31
0.0
  0
LINE
  5
84982
330
1E
100
AcDbEntity
  8
DETAIL
100
AcDbLine
 10
142.4999999999636
 20
520.9999999998736
 30
0.0
 11
142.4999999999636
 21
30.19999999999709
 31
0.0
  0
LINE
  5
84983
330
1E
100
AcDbEntity
  8
DETAIL
100
AcDbLine
 10
106.5000000000127
 20
53.49999999998999
 30
0.0
 11
106.5000000000127
 21
520.9999999998736
 31
0.0
  0
LINE
  5
84984
330
1E
100
AcDbEntity
  8
DETAIL
100
AcDbLine
 10
-142.4999999999636
 20
520.9999999998736
 30
0.0
 11
-142.4999999999636
 21
30.19999999999709
 31
0.0
  0
LINE
  5
84991
330
1E
100
AcDbEntity
  8
NOTE
100
AcDbLine
 10
359.7060816397092
 20
-205.8098298608475
 30
0.0
 11
735.6327870899048
 21
-205.8098298608475
 31
0.0
  0
TEXT
  5
84992
330
1E
100
AcDbEntity
  8
NOTE
100
AcDbText
 10
366.3369520432798
 20
-192.863954828805
 30
0.0
 40
45.0
  1
AH 2-%%C10×21
 41
0.8
100
AcDbText
  0
LINE
  5
84994
330
1E
100
AcDbEntity
  8
NOTE
100
AcDbLine
 10
-157.5000000000436
 20
0.0
 30
0.0
 11
-177.1048247517672
 21
-34.86618282836637
 31
0.0
  0
LINE
  5
84995
330
1E
100
AcDbEntity
  8
NOTE
100
AcDbLine
 10
-191.9113693263374
 20
-20.39258687035633
 30
0.0
 11
-157.5000000000436
 21
0.0
 31
0.0
  0
LINE
  5
84997
330
1E
100
AcDbEntity
  8
NOTE
100
AcDbLine
 10
-157.5000000000436
 20
0.0
 30
0.0
 11
-355.8097521358135
 21
-205.8098298608475
 31
0.0
  0
LINE
  5
84998
330
1E
100
AcDbEntity
  8
NOTE
100
AcDbLine
 10
-98.49999999996365
 20
10.0
 30
0.0
 11
-351.5017611174499
 21
-304.7153698606653
 31
0.0
  0
LINE
  5
8499B
330
1E
100
AcDbEntity
  8
NOTE
100
AcDbLine
 10
157.4999999999563
 20
-0.0620000000053551
 30
0.0
 11
359.7060816397092
 21
-205.8098298608475
 31
0.0
  0
LINE
  5
849A6
330
1E
100
AcDbEntity
  8
NOTE
100
AcDbLine
 10
157.4999999999563
 20
-0.0620000000053551
 30
0.0
 11
191.9660799999583
 21
-20.36198000000558
 31
0.0
  0
CIRCLE
  5
849BA
330
1E
100
AcDbEntity
  8
ARRANGE
100
AcDbCircle
 10
-0.0000000000436557
 20
0.0
 30
0.0
 40
40.0
  0
POINT
  5
849BB
330
1E
100
AcDbEntity
  8
ARRANGE
100
AcDbPoint
 10
-0.0000000000436557
 20
0.0
 30
0.0
  0
ARC
  5
849BF
330
1E
100
AcDbEntity
  8
DETAIL
100
AcDbCircle
 10
20.10050666668394
 20
27.49999999999363
 30
0.0
 40
7.999999999997997
100
AcDbArc
 50
270.0
 51
314.9999999999355
  0
LINE
  5
849C4
330
1E
100
AcDbEntity
  8
DETAIL
100
AcDbLine
 10
29.94862666668086
 20
26.03442666666524
 30
0.0
 11
25.75736000003053
 21
21.84314666666432
 31
0.0
  0
LINE
  5
849C5
330
1E
100
AcDbEntity
  8
DETAIL
100
AcDbLine
 10
142.4999999999636
 20
63.4614775005939
 30
0.0
 11
162.1879933332966
 21
66.93300000005547
 31
0.0
  0
LINE
  5
849C6
330
1E
100
AcDbEntity
  8
DETAIL
100
AcDbLine
 10
142.4999999999654
 20
66.00003742887564
 30
0.0
 11
161.7538733333058
 21
69.3950133333892
 31
0.0
  0
ARC
  5
849C7
330
1E
100
AcDbEntity
  8
DETAIL
100
AcDbCircle
 10
161.0999799999899
 20
71.41212000005727
 30
0.0
 40
2.099999999999475
100
AcDbArc
 50
280.0000000000551
 51
0.000000000000007
  0
ARC
  5
849C8
330
1E
100
AcDbEntity
  8
DETAIL
100
AcDbCircle
 10
161.4499799999757
 20
71.11842666672419
 30
0.0
 40
4.249999999998935
100
AcDbArc
 50
280.0000000000551
 51
0.000000000000007
  0
LINE
  5
849C9
330
1E
100
AcDbEntity
  8
NOTE
100
AcDbLine
 10
177.1985099999583
 20
-34.8753400000055
 30
0.0
 11
157.4999999999563
 21
-0.0620000000053551
 31
0.0
  0
ARC
  5
849CB
330
1E
100
AcDbEntity
  8
DETAIL
100
AcDbCircle
 10
130.4289333333308
 20
14.50000000000454
 30
0.0
 40
4.999999999998748
100
AcDbArc
 50
45.00000000006447
 51
90.0
  0
LINE
  5
849CC
330
1E
100
AcDbEntity
  8
DETAIL
100
AcDbLine
 10
133.9644666666716
 20
18.03553333333366
 30
0.0
 11
132.4999999999672
 21
19.50000000000272
 31
0.0
  0
CIRCLE
  5
849CD
330
1E
100
AcDbEntity
  8
FIX
100
AcDbCircle
 10
157.4999999999563
 20
0.0
 30
0.0
 40
5.0
  0
LINE
  5
849CF
330
1E
100
AcDbEntity
  8
DETAIL
100
AcDbLine
 10
174.9999999999563
 20
0.0
 30
0.0
 11
174.9999999999563
 21
4.999999999999086
 31
0.0
  0
ARC
  5
849D0
330
1E
100
AcDbEntity
  8
DETAIL
100
AcDbCircle
 10
171.9999999999763
 20
4.999999999999086
 30
0.0
 40
2.99999999999925
100
AcDbArc
 50
0.000000000000007
 51
90.0
  0
LINE
  5
849D1
330
1E
100
AcDbEntity
  8
DETAIL
100
AcDbLine
 10
142.5355333332972
 20
9.464466666672706
 30
0.0
 11
133.9644666666716
 21
18.03553333333366
 31
0.0
  0
LINE
  5
849D2
330
1E
100
AcDbEntity
  8
DETAIL
100
AcDbLine
 10
171.9999999999763
 20
8.000000000002726
 30
0.0
 11
146.07106666664
 21
8.000000000002726
 31
0.0
  0
ARC
  5
849D3
330
1E
100
AcDbEntity
  8
DETAIL
100
AcDbCircle
 10
146.07106666664
 20
13.00000000000181
 30
0.0
 40
4.999999999998748
100
AcDbArc
 50
225.0000000000644
 51
270.0
  0
LINE
  5
849D4
330
1E
100
AcDbEntity
  8
BASIS
100
AcDbLine
 10
157.4999999999563
 20
17.18702739697255
 30
0.0
 11
157.4999999999563
 21
-17.18702739697255
 31
0.0
  0
LINE
  5
849D5
330
1E
100
AcDbEntity
  8
DETAIL
100
AcDbLine
 10
139.9999999999654
 20
27.69999999999801
 30
0.0
 11
109.0000000000109
 21
27.69999999999801
 31
0.0
  0
LINE
  5
849D6
330
1E
100
AcDbEntity
  8
DETAIL
100
AcDbLine
 10
134.4538799999918
 20
26.3396666666622
 30
0.0
 11
129.9573599999876
 21
21.84314666666432
 31
0.0
  0
ARC
  5
849D7
330
1E
100
AcDbEntity
  8
DETAIL
100
AcDbCircle
 10
139.9999999999654
 20
30.19999999999709
 30
0.0
 40
2.499999999999374
100
AcDbArc
 50
270.0
 51
0.000000000000007
  0
ARC
  5
849D8
330
1E
100
AcDbEntity
  8
DETAIL
100
AcDbCircle
 10
139.4036266666698
 20
21.38991999999689
 30
0.0
 40
6.99999999999825
100
AcDbArc
 50
115.6520189999492
 51
134.9999999999355
  0
LINE
  5
849E3
330
1E
100
AcDbEntity
  8
DETAIL
100
AcDbLine
 10
109.0000000000109
 20
27.69999999999801
 30
0.0
 11
109.0000000000109
 21
53.49999999998999
 31
0.0
  0
LINE
  5
849E5
330
1E
100
AcDbEntity
  8
DETAIL
100
AcDbLine
 10
105.5000000000036
 20
28.29999999999836
 30
0.0
 11
109.0000000000109
 21
28.29999999999836
 31
0.0
  0
CIRCLE
  5
849E8
330
1E
100
AcDbEntity
  8
DETAIL
100
AcDbCircle
 10
132.4999999999672
 20
19.50000000000272
 30
0.0
 40
0.499999999999875
  0
ARC
  5
849EA
330
1E
100
AcDbEntity
  8
DETAIL
100
AcDbCircle
 10
109.050253333331
 20
54.49999999999363
 30
0.0
 40
2.99999999999925
100
AcDbArc
 50
225.0000000000644
 51
269.0402019999879
  0
LINE
  5
849EB
330
1E
100
AcDbEntity
  8
DETAIL
100
AcDbLine
 10
106.9289333333272
 20
52.37867999998889
 30
0.0
 11
105.8076133333306
 21
53.49999999998999
 31
0.0
  0
LINE
  5
849EC
330
1E
100
AcDbEntity
  8
DETAIL
100
AcDbLine
 10
108.913799999982
 20
28.29999999999836
 30
0.0
 11
108.913799999982
 21
51.49999999999
 31
0.0
  0
ARC
  5
849ED
330
1E
100
AcDbEntity
  8
DETAIL
100
AcDbCircle
 10
95.49949333331278
 20
27.49999999999363
 30
0.0
 40
7.999999999997997
100
AcDbArc
 50
225.0000000000644
 51
270.0
  0
ARC
  5
849EE
330
1E
100
AcDbEntity
  8
DETAIL
100
AcDbCircle
 10
80.43270666664467
 20
21.35358666666525
 30
0.0
 40
6.99999999999825
100
AcDbArc
 50
45.00000000006447
 51
65.04376399991753
  0
LINE
  5
849EF
330
1E
100
AcDbEntity
  8
DETAIL
100
AcDbLine
 10
85.3824533333227
 20
26.30333333333237
 30
0.0
 11
89.84264000001349
 21
21.84314666666432
 31
0.0
  0
ARC
  5
849F0
330
1E
100
AcDbEntity
  8
DETAIL
100
AcDbCircle
 10
124.300506666641
 20
27.49999999999363
 30
0.0
 40
7.999999999997997
100
AcDbArc
 50
270.0
 51
314.9999999999355
  0
LINE
  5
849F1
330
1E
100
AcDbEntity
  8
DETAIL
100
AcDbLine
 10
105.5000000000036
 20
53.49999999998999
 30
0.0
 11
109.0000000000109
 21
53.49999999998999
 31
0.0
  0
LINE
  5
849F2
330
1E
100
AcDbEntity
  8
DETAIL
100
AcDbLine
 10
105.5000000000036
 20
27.69999999999801
 30
0.0
 11
105.5000000000036
 21
53.49999999998999
 31
0.0
  0
ARC
  5
84A05
330
1E
100
AcDbEntity
  8
DETAIL
100
AcDbCircle
 10
-166.499999999949
 20
4.999999999999086
 30
0.0
 40
2.99999999999925
100
AcDbArc
 50
90.0
 51
180.0
  0
LINE
  5
84A07
330
1E
100
AcDbEntity
  8
BASIS
100
AcDbLine
 10
-157.5000000000436
 20
17.18702739697255
 30
0.0
 11
-157.5000000000436
 21
-17.18702739697255
 31
0.0
  0
CIRCLE
  5
84A08
330
1E
100
AcDbEntity
  8
FIX
100
AcDbCircle
 10
-157.5000000000436
 20
0.0
 30
0.0
 40
5.0
  0
LINE
  5
84A09
330
1E
100
AcDbEntity
  8
DETAIL
100
AcDbLine
 10
-169.499999999929
 20
0.0
 30
0.0
 11
-169.499999999929
 21
4.999999999999086
 31
0.0
  0
LINE
  5
84A0C
330
1E
100
AcDbEntity
  8
NOTE
100
AcDbLine
 10
-98.49999999996365
 20
9.999999999999994
 30
0.0
 11
-115.4015121296972
 21
-26.25381046296009
 31
0.0
  0
LINE
  5
84A0D
330
1E
100
AcDbEntity
  8
NOTE
100
AcDbLine
 10
-131.2640449756213
 20
-12.94595940188812
 30
0.0
 11
-98.49999999996365
 21
9.999999999999994
 31
0.0
  0
LINE
  5
84A0E
330
1E
100
AcDbEntity
  8
NOTE
100
AcDbLine
 10
-98.49999999996365
 20
30.0
 30
0.0
 11
-98.49999999996365
 21
-10.0
 31
0.0
  0
ARC
  5
84A10
330
1E
100
AcDbEntity
  8
DETAIL
100
AcDbCircle
 10
-130.4289333332817
 20
14.50000000000454
 30
0.0
 40
4.999999999998748
100
AcDbArc
 50
90.0
 51
134.9999999999355
  0
LINE
  5
84A11
330
1E
100
AcDbEntity
  8
DETAIL
100
AcDbLine
 10
-133.9644666666245
 20
18.03553333333366
 30
0.0
 11
-132.4999999999672
 21
19.50000000000272
 31
0.0
  0
ARC
  5
84A12
330
1E
100
AcDbEntity
  8
DETAIL
100
AcDbCircle
 10
-133.9999999999563
 20
23.49999999999818
 30
0.0
 40
3.999999999998998
100
AcDbArc
 50
180.0
 51
270.0
  0
ARC
  5
84A13
330
1E
100
AcDbEntity
  8
DETAIL
100
AcDbCircle
 10
-131.4999999999563
 20
23.49999999999818
 30
0.0
 40
3.999999999998998
100
AcDbArc
 50
180.0
 51
270.0
  0
LINE
  5
84A14
330
1E
100
AcDbEntity
  8
DETAIL
100
AcDbLine
 10
-142.5355333332972
 20
9.464466666672706
 30
0.0
 11
-133.9644666666245
 21
18.03553333333366
 31
0.0
  0
ARC
  5
84A15
330
1E
100
AcDbEntity
  8
DETAIL
100
AcDbCircle
 10
-146.0710666665909
 20
13.00000000000181
 30
0.0
 40
4.999999999998748
100
AcDbArc
 50
270.0
 51
314.9999999999355
  0
LINE
  5
84A17
330
1E
100
AcDbEntity
  8
DETAIL
100
AcDbLine
 10
-133.9999999999563
 20
19.50000000000272
 30
0.0
 11
132.4999999999672
 21
19.50000000000272
 31
0.0
  0
LINE
  5
84A18
330
1E
100
AcDbEntity
  8
DETAIL
100
AcDbLine
 10
-139.9999999999654
 20
27.69999999999801
 30
0.0
 11
105.5000000000036
 21
27.69999999999801
 31
0.0
  0
LINE
  5
84A40
330
1E
100
AcDbEntity
  8
DETAIL
100
AcDbLine
 10
-135.4999999999472
 20
25.97545333333346
 30
0.0
 11
-135.4999999999472
 21
23.49999999999818
 31
0.0
  0
ARC
  5
84A41
330
1E
100
AcDbEntity
  8
DETAIL
100
AcDbCircle
 10
-138.4999999999272
 20
25.97545333333346
 30
0.0
 40
2.99999999999925
100
AcDbArc
 50
0.000000000000007
 51
8.388014000018323
  0
ARC
  5
84A42
330
1E
100
AcDbEntity
  8
DETAIL
100
AcDbCircle
 10
-140.6336266665929
 20
21.61993333333248
 30
0.0
 40
6.99999999999825
100
AcDbArc
 50
45.00000000006447
 51
60.29426300004008
  0
ARC
  5
84A43
330
1E
100
AcDbEntity
  8
DETAIL
100
AcDbCircle
 10
-140.9999999999254
 20
25.97545333333346
 30
0.0
 40
2.99999999999925
100
AcDbArc
 50
0.000000000000007
 51
35.08925199995895
  0
LINE
  5
84A44
330
1E
100
AcDbEntity
  8
DETAIL
100
AcDbLine
 10
-135.6838799999622
 20
26.5696799999996
 30
0.0
 11
-130.9573599999475
 21
21.84314666666432
 31
0.0
  0
LINE
  5
84A45
330
1E
100
AcDbEntity
  8
DETAIL
100
AcDbLine
 10
-137.9999999999454
 20
25.97545333333346
 30
0.0
 11
-137.9999999999454
 21
23.49999999999818
 31
0.0
  0
ARC
  5
84A46
330
1E
100
AcDbEntity
  8
DETAIL
100
AcDbCircle
 10
-139.9999999999654
 20
30.19999999999709
 30
0.0
 40
2.499999999999374
100
AcDbArc
 50
180.0
 51
270.0
  0
ARC
  5
84A47
330
1E
100
AcDbEntity
  8
DETAIL
100
AcDbCircle
 10
-125.3005066666009
 20
27.49999999999363
 30
0.0
 40
7.999999999997997
100
AcDbArc
 50
225.0000000000644
 51
270.0
  0
LINE
  5
84A48
330
1E
100
AcDbEntity
  8
DETAIL
100
AcDbLine
 10
-169.499999999929
 20
0.0
 30
0.0
 11
174.9999999999563
 21
0.0
 31
0.0
  0
LINE
  5
84A4B
330
1E
100
AcDbEntity
  8
DETAIL
100
AcDbLine
 10
-146.0710666665909
 20
8.000000000002726
 30
0.0
 11
-166.499999999949
 21
8.000000000002726
 31
0.0
  0
LINE
  5
84A4C
330
1E
100
AcDbEntity
  8
NOTE
100
AcDbLine
 10
-517.5719575339301
 20
-304.7153698606653
 30
0.0
 11
-351.5017611174499
 21
-304.7153698606653
 31
0.0
  0
TEXT
  5
84A4D
330
1E
100
AcDbEntity
  8
NOTE
100
AcDbText
 10
-506.3641813910731
 20
-288.863209860665
 30
0.0
 40
45.0
  1
Dφ42
 41
0.8
100
AcDbText
  0
TEXT
  5
84A4E
330
1E
100
AcDbEntity
  8
NOTE
100
AcDbText
 10
-657.6700984273985
 20
-182.3920998608474
 30
0.0
 40
45.0
  1
AH 2-Ucut
 41
0.8
100
AcDbText
  0
LINE
  5
84ADE
330
1E
100
AcDbEntity
  8
DETAIL
100
AcDbLine
 10
146.3572199999598
 20
85.7500000000564
 30
0.0
 11
142.4999999999636
 21
85.7500000000564
 31
0.0
  0
LINE
  5
84ADF
330
1E
100
AcDbEntity
  8
DETAIL
100
AcDbLine
 10
146.3572199999598
 20
88.25000000005548
 30
0.0
 11
142.4999999999636
 21
88.25000000005548
 31
0.0
  0
LINE
  5
84AE0
330
1E
100
AcDbEntity
  8
DETAIL
100
AcDbLine
 10
157.0047666666414
 20
85.7500000000564
 30
0.0
 11
148.8572199999598
 21
85.7500000000564
 31
0.0
  0
LINE
  5
84AE1
330
1E
100
AcDbEntity
  8
DETAIL
100
AcDbLine
 10
157.0047666666414
 20
88.25000000005548
 30
0.0
 11
148.8572199999598
 21
88.25000000005548
 31
0.0
  0
LINE
  5
84AE2
330
1E
100
AcDbEntity
  8
DETAIL
100
AcDbLine
 10
148.8572199999598
 20
84.5000000000564
 30
0.0
 11
148.8572199999598
 21
484.2499999999545
 31
0.0
  0
LINE
  5
84AE3
330
1E
100
AcDbEntity
  8
DETAIL
100
AcDbLine
 10
146.3572199999598
 20
84.5000000000564
 30
0.0
 11
146.3572199999598
 21
484.2499999999545
 31
0.0
  0
LINE
  5
84AE4
330
1E
100
AcDbEntity
  8
DETAIL
100
AcDbLine
 10
148.8572199999598
 20
84.5000000000564
 30
0.0
 11
146.3572199999598
 21
84.5000000000564
 31
0.0
  0
ARC
  5
84AE5
330
1E
100
AcDbEntity
  8
DETAIL
100
AcDbCircle
 10
161.9499799999557
 20
87.0000000000564
 30
0.0
 40
1.249999999999687
100
AcDbArc
 50
270.0
 51
90.0
  0
LINE
  5
84AE6
330
1E
100
AcDbEntity
  8
DETAIL
100
AcDbLine
 10
161.9499799999557
 20
88.25000000005548
 30
0.0
 11
159.5047666666414
 21
88.25000000005548
 31
0.0
  0
LINE
  5
84AE7
330
1E
100
AcDbEntity
  8
DETAIL
100
AcDbLine
 10
161.9499799999557
 20
85.7500000000564
 30
0.0
 11
159.5047666666414
 21
85.7500000000564
 31
0.0
  0
LINE
  5
84AE8
330
1E
100
AcDbEntity
  8
DETAIL
100
AcDbLine
 10
159.5047666666414
 20
84.5000000000564
 30
0.0
 11
159.5047666666414
 21
484.2499999999545
 31
0.0
  0
LINE
  5
84AE9
330
1E
100
AcDbEntity
  8
DETAIL
100
AcDbLine
 10
157.0047666666414
 20
84.5000000000564
 30
0.0
 11
157.0047666666414
 21
484.2499999999545
 31
0.0
  0
LINE
  5
84AEA
330
1E
100
AcDbEntity
  8
DETAIL
100
AcDbLine
 10
159.5047666666414
 20
84.5000000000564
 30
0.0
 11
157.0047666666414
 21
84.5000000000564
 31
0.0
  0
LINE
  5
84AF1
330
1E
100
AcDbEntity
  8
DETAIL
100
AcDbLine
 10
146.3572199999598
 20
180.7500000000327
 30
0.0
 11
142.4999999999636
 21
180.7500000000327
 31
0.0
  0
LINE
  5
84AF2
330
1E
100
AcDbEntity
  8
DETAIL
100
AcDbLine
 10
146.3572199999598
 20
183.2500000000318
 30
0.0
 11
142.4999999999636
 21
183.2500000000318
 31
0.0
  0
LINE
  5
84AF3
330
1E
100
AcDbEntity
  8
DETAIL
100
AcDbLine
 10
157.0047666666414
 20
180.7500000000327
 30
0.0
 11
148.8572199999598
 21
180.7500000000327
 31
0.0
  0
LINE
  5
84AF4
330
1E
100
AcDbEntity
  8
DETAIL
100
AcDbLine
 10
157.0047666666414
 20
183.2500000000318
 30
0.0
 11
148.8572199999598
 21
183.2500000000318
 31
0.0
  0
ARC
  5
84AF5
330
1E
100
AcDbEntity
  8
DETAIL
100
AcDbCircle
 10
161.9499799999557
 20
182.0000000000318
 30
0.0
 40
1.249999999999687
100
AcDbArc
 50
270.0
 51
90.0
  0
LINE
  5
84AF6
330
1E
100
AcDbEntity
  8
DETAIL
100
AcDbLine
 10
161.9499799999557
 20
180.7500000000327
 30
0.0
 11
159.5047666666414
 21
180.7500000000327
 31
0.0
  0
LINE
  5
84AF7
330
1E
100
AcDbEntity
  8
DETAIL
100
AcDbLine
 10
161.9499799999557
 20
183.2500000000318
 30
0.0
 11
159.5047666666414
 21
183.2500000000318
 31
0.0
  0
LINE
  5
84B00
330
1E
100
AcDbEntity
  8
DETAIL
100
AcDbLine
 10
107.4999999999727
 20
148.9999999999654
 30
0.0
 11
106.5000000000127
 21
148.7320533332958
 31
0.0
  0
LINE
  5
84B01
330
1E
100
AcDbEntity
  8
DETAIL
100
AcDbLine
 10
106.5000000000127
 20
149.4999999999699
 30
0.0
 11
107.4999999999727
 21
149.4999999999699
 31
0.0
  0
LINE
  5
84B04
330
1E
100
AcDbEntity
  8
DETAIL
100
AcDbLine
 10
107.4999999999727
 20
128.9999999999699
 30
0.0
 11
106.5000000000127
 21
128.7320533333013
 31
0.0
  0
LINE
  5
84B05
330
1E
100
AcDbEntity
  8
DETAIL
100
AcDbLine
 10
106.5000000000127
 20
128.4999999999717
 30
0.0
 11
107.4999999999727
 21
128.4999999999717
 31
0.0
  0
LINE
  5
84BCA
330
1E
100
AcDbEntity
  8
DETAIL
100
AcDbLine
 10
146.3572199999598
 20
278.75
 30
0.0
 11
142.4999999999636
 21
278.75
 31
0.0
  0
LINE
  5
84BCB
330
1E
100
AcDbEntity
  8
DETAIL
100
AcDbLine
 10
146.3572199999598
 20
281.25
 30
0.0
 11
142.4999999999636
 21
281.25
 31
0.0
  0
LINE
  5
84BCC
330
1E
100
AcDbEntity
  8
DETAIL
100
AcDbLine
 10
146.3572199999598
 20
376.7499999999809
 30
0.0
 11
142.4999999999636
 21
376.7499999999809
 31
0.0
  0
LINE
  5
84BCD
330
1E
100
AcDbEntity
  8
DETAIL
100
AcDbLine
 10
146.3572199999598
 20
379.2499999999799
 30
0.0
 11
142.4999999999636
 21
379.2499999999799
 31
0.0
  0
LINE
  5
84BD0
330
1E
100
AcDbEntity
  8
DETAIL
100
AcDbLine
 10
157.0047666666414
 20
376.7499999999809
 30
0.0
 11
148.8572199999598
 21
376.7499999999809
 31
0.0
  0
LINE
  5
84BD1
330
1E
100
AcDbEntity
  8
DETAIL
100
AcDbLine
 10
157.0047666666414
 20
379.2499999999799
 30
0.0
 11
148.8572199999598
 21
379.2499999999799
 31
0.0
  0
ARC
  5
84BD2
330
1E
100
AcDbEntity
  8
DETAIL
100
AcDbCircle
 10
161.9499799999557
 20
377.99999999998
 30
0.0
 40
1.249999999999687
100
AcDbArc
 50
270.0
 51
90.0
  0
LINE
  5
84BD3
330
1E
100
AcDbEntity
  8
DETAIL
100
AcDbLine
 10
161.9499799999557
 20
376.7499999999809
 30
0.0
 11
159.5047666666414
 21
376.7499999999809
 31
0.0
  0
LINE
  5
84BD4
330
1E
100
AcDbEntity
  8
DETAIL
100
AcDbLine
 10
161.9499799999557
 20
379.2499999999799
 30
0.0
 11
159.5047666666414
 21
379.2499999999799
 31
0.0
  0
LINE
  5
84BD5
330
1E
100
AcDbEntity
  8
DETAIL
100
AcDbLine
 10
157.0047666666414
 20
278.75
 30
0.0
 11
148.8572199999598
 21
278.75
 31
0.0
  0
LINE
  5
84BD6
330
1E
100
AcDbEntity
  8
DETAIL
100
AcDbLine
 10
157.0047666666414
 20
281.25
 30
0.0
 11
148.8572199999598
 21
281.25
 31
0.0
  0
ARC
  5
84BD7
330
1E
100
AcDbEntity
  8
DETAIL
100
AcDbCircle
 10
161.9499799999557
 20
280.0
 30
0.0
 40
1.249999999999687
100
AcDbArc
 50
270.0
 51
90.0
  0
LINE
  5
84BD8
330
1E
100
AcDbEntity
  8
DETAIL
100
AcDbLine
 10
161.9499799999557
 20
281.25
 30
0.0
 11
159.5047666666414
 21
281.25
 31
0.0
  0
LINE
  5
84BD9
330
1E
100
AcDbEntity
  8
DETAIL
100
AcDbLine
 10
161.9499799999557
 20
278.75
 30
0.0
 11
159.5047666666414
 21
278.75
 31
0.0
  0
LINE
  5
84BF6
330
1E
100
AcDbEntity
  8
DETAIL
100
AcDbLine
 10
107.4999999999727
 20
358.9999999999126
 30
0.0
 11
106.5000000000127
 21
358.7320533332431
 31
0.0
  0
LINE
  5
84BF7
330
1E
100
AcDbEntity
  8
DETAIL
100
AcDbLine
 10
106.5000000000127
 20
359.4999999999172
 30
0.0
 11
107.4999999999727
 21
359.4999999999172
 31
0.0
  0
LINE
  5
84C64
330
1E
100
AcDbEntity
  8
DETAIL
100
AcDbLine
 10
107.4999999999727
 20
338.9999999999182
 30
0.0
 11
106.5000000000127
 21
338.7320533332486
 31
0.0
  0
LINE
  5
84C65
330
1E
100
AcDbEntity
  8
DETAIL
100
AcDbLine
 10
106.5000000000127
 20
338.499999999919
 30
0.0
 11
107.4999999999727
 21
338.499999999919
 31
0.0
  0
LINE
  5
84D1F
330
1E
100
AcDbEntity
  8
DETAIL
100
AcDbLine
 10
-140.9999999999254
 20
522.4999999998698
 30
0.0
 11
104.9999999999745
 21
522.4999999998698
 31
0.0
  0
ARC
  5
84D27
330
1E
100
AcDbEntity
  8
DETAIL
100
AcDbCircle
 10
31.00000000000183
 20
548.9999999998653
 30
0.0
 40
0.9999999999997497
100
AcDbArc
 50
0.000000000000007
 51
90.0
  0
LINE
  5
84D28
330
1E
100
AcDbEntity
  8
DETAIL
100
AcDbLine
 10
32.00000000001091
 20
548.9999999998653
 30
0.0
 11
32.00000000001091
 21
548.499999999866
 31
0.0
  0
LINE
  5
84D2A
330
1E
100
AcDbEntity
  8
DETAIL
100
AcDbLine
 10
146.3572199999598
 20
471.7499999999571
 30
0.0
 11
142.4999999999636
 21
471.7499999999571
 31
0.0
  0
LINE
  5
84D2B
330
1E
100
AcDbEntity
  8
DETAIL
100
AcDbLine
 10
146.3572199999598
 20
474.2499999999562
 30
0.0
 11
142.4999999999636
 21
474.2499999999562
 31
0.0
  0
LINE
  5
84D2C
330
1E
100
AcDbEntity
  8
DETAIL
100
AcDbLine
 10
142.4999999999654
 20
493.9999625711383
 30
0.0
 11
161.7538733333058
 21
490.6049866666179
 31
0.0
  0
LINE
  5
84D2D
330
1E
100
AcDbEntity
  8
DETAIL
100
AcDbLine
 10
142.4999999999636
 20
496.5385358327447
 30
0.0
 11
162.1879933332966
 21
493.0670133332823
 31
0.0
  0
ARC
  5
84D2E
330
1E
100
AcDbEntity
  8
DETAIL
100
AcDbCircle
 10
161.0999799999899
 20
488.5878933332878
 30
0.0
 40
2.099999999999475
100
AcDbArc
 50
0.000000000000007
 51
79.9999999999448
  0
LINE
  5
84D2F
330
1E
100
AcDbEntity
  8
DETAIL
100
AcDbLine
 10
157.0047666666414
 20
474.2499999999562
 30
0.0
 11
148.8572199999598
 21
474.2499999999562
 31
0.0
  0
LINE
  5
84D30
330
1E
100
AcDbEntity
  8
DETAIL
100
AcDbLine
 10
161.9499799999557
 20
474.2499999999562
 30
0.0
 11
159.5047666666414
 21
474.2499999999562
 31
0.0
  0
LINE
  5
84D31
330
1E
100
AcDbEntity
  8
DETAIL
100
AcDbLine
 10
149.3572199999889
 20
484.7499999999526
 30
0.0
 11
156.5047666666614
 21
484.7499999999526
 31
0.0
  0
LINE
  5
84D32
330
1E
100
AcDbEntity
  8
DETAIL
100
AcDbLine
 10
149.3572199999889
 20
487.2499999999516
 30
0.0
 11
156.5047666666614
 21
487.2499999999516
 31
0.0
  0
ARC
  5
84D33
330
1E
100
AcDbEntity
  8
DETAIL
100
AcDbCircle
 10
156.5047666666614
 20
484.2499999999545
 30
0.0
 40
0.499999999999875
100
AcDbArc
 50
0.000000000000007
 51
90.0
  0
ARC
  5
84D34
330
1E
100
AcDbEntity
  8
DETAIL
100
AcDbCircle
 10
149.3572199999889
 20
484.2499999999545
 30
0.0
 40
0.499999999999875
100
AcDbArc
 50
90.0
 51
180.0
  0
ARC
  5
84D35
330
1E
100
AcDbEntity
  8
DETAIL
100
AcDbCircle
 10
156.5047666666614
 20
484.2499999999545
 30
0.0
 40
2.99999999999925
100
AcDbArc
 50
0.000000000000007
 51
90.0
  0
ARC
  5
84D36
330
1E
100
AcDbEntity
  8
DETAIL
100
AcDbCircle
 10
149.3572199999889
 20
484.2499999999545
 30
0.0
 40
2.99999999999925
100
AcDbArc
 50
90.0
 51
180.0
  0
ARC
  5
84D37
330
1E
100
AcDbEntity
  8
DETAIL
100
AcDbCircle
 10
161.4499799999757
 20
488.881573333283
 30
0.0
 40
4.249999999998935
100
AcDbArc
 50
0.000000000000007
 51
79.9999999999448
  0
LINE
  5
84D38
330
1E
100
AcDbEntity
  8
DETAIL
100
AcDbLine
 10
157.0047666666414
 20
471.7499999999571
 30
0.0
 11
148.8572199999598
 21
471.7499999999571
 31
0.0
  0
ARC
  5
84D39
330
1E
100
AcDbEntity
  8
DETAIL
100
AcDbCircle
 10
161.9499799999557
 20
472.9999999999562
 30
0.0
 40
1.249999999999687
100
AcDbArc
 50
270.0
 51
90.0
  0
LINE
  5
84D3C
330
1E
100
AcDbEntity
  8
DETAIL
100
AcDbLine
 10
161.9499799999557
 20
471.7499999999571
 30
0.0
 11
159.5047666666414
 21
471.7499999999571
 31
0.0
  0
LINE
  5
84D3E
330
1E
100
AcDbEntity
  8
DETAIL
100
AcDbLine
 10
109.0000000000109
 20
522.4999999998698
 30
0.0
 11
140.9999999999745
 21
522.4999999998698
 31
0.0
  0
LINE
  5
84D3F
330
1E
100
AcDbEntity
  8
DETAIL
100
AcDbLine
 10
129.227133333301
 20
544.7963999998655
 30
0.0
 11
137.3481466666417
 21
542.5225199998731
 31
0.0
  0
ARC
  5
84D40
330
1E
100
AcDbEntity
  8
DETAIL
100
AcDbCircle
 10
140.199999999957
 20
524.999999999869
 30
0.0
 40
2.499999999999374
100
AcDbArc
 50
216.8698979999745
 51
270.0
  0
ARC
  5
84D41
330
1E
100
AcDbEntity
  8
DETAIL
100
AcDbCircle
 10
140.9999999999745
 20
520.9999999998736
 30
0.0
 40
1.499999999999625
100
AcDbArc
 50
0.000000000000007
 51
90.0
  0
ARC
  5
84D42
330
1E
100
AcDbEntity
  8
DETAIL
100
AcDbCircle
 10
135.9999999999763
 20
537.7077066665385
 30
0.0
 40
4.999999999998748
100
AcDbArc
 50
0.000000000000007
 51
74.35775400003127
  0
ARC
  5
84D43
330
1E
100
AcDbEntity
  8
DETAIL
100
AcDbCircle
 10
139.4999999999854
 20
524.999999999869
 30
0.0
 40
1.499999999999625
100
AcDbArc
 50
270.0
 51
0.000000000000007
  0
LINE
  5
84D44
330
1E
100
AcDbEntity
  8
DETAIL
100
AcDbLine
 10
140.9999999999745
 20
524.999999999869
 30
0.0
 11
140.9999999999745
 21
537.7077066665385
 31
0.0
  0
ARC
  5
84D45
330
1E
100
AcDbEntity
  8
DETAIL
100
AcDbCircle
 10
43.00000000001817
 20
548.9999999998653
 30
0.0
 40
0.9999999999997497
100
AcDbArc
 50
90.0
 51
180.0
  0
LINE
  5
84D46
330
1E
100
AcDbEntity
  8
DETAIL
100
AcDbLine
 10
42.00000000000909
 20
548.9999999998653
 30
0.0
 11
42.00000000000909
 21
548.499999999866
 31
0.0
  0
LINE
  5
84D47
330
1E
100
AcDbEntity
  8
DETAIL
100
AcDbLine
 10
109.0000000000109
 20
521.4999999998716
 30
0.0
 11
107.4999999999727
 21
521.4999999998716
 31
0.0
  0
LINE
  5
84D48
330
1E
100
AcDbEntity
  8
DETAIL
100
AcDbLine
 10
109.0000000000109
 20
521.4999999998716
 30
0.0
 11
109.0000000000109
 21
523.4999999998732
 31
0.0
  0
ARC
  5
84D49
330
1E
100
AcDbEntity
  8
DETAIL
100
AcDbCircle
 10
104.9999999999745
 20
548.9999999998653
 30
0.0
 40
0.9999999999997497
100
AcDbArc
 50
0.000000000000007
 51
90.0
  0
LINE
  5
84D4A
330
1E
100
AcDbEntity
  8
DETAIL
100
AcDbLine
 10
105.9999999999836
 20
548.9999999998653
 30
0.0
 11
105.9999999999836
 21
548.4301999998652
 31
0.0
  0
ARC
  5
84D4B
330
1E
100
AcDbEntity
  8
DETAIL
100
AcDbCircle
 10
102.2641466666373
 20
448.4999999998916
 30
0.0
 40
99.99999999997498
100
AcDbArc
 50
74.35775400003127
 51
90.0
  0
LINE
  5
84D4C
330
1E
100
AcDbEntity
  8
DETAIL
100
AcDbLine
 10
106.5000000000127
 20
522.4999999998698
 30
0.0
 11
106.5000000000127
 21
523.4999999998732
 31
0.0
  0
ARC
  5
84D4D
330
1E
100
AcDbEntity
  8
DETAIL
100
AcDbCircle
 10
107.4999999999727
 20
522.4999999998698
 30
0.0
 40
0.9999999999997497
100
AcDbArc
 50
180.0
 51
270.0
  0
ARC
  5
84D4E
330
1E
100
AcDbEntity
  8
DETAIL
100
AcDbCircle
 10
104.9999999999745
 20
520.9999999998736
 30
0.0
 40
1.499999999999625
100
AcDbArc
 50
0.000000000000007
 51
90.0
  0
LINE
  5
84D4F
330
1E
100
AcDbEntity
  8
DETAIL
100
AcDbLine
 10
104.9999999999745
 20
549.9999999998625
 30
0.0
 11
43.00000000001817
 21
549.9999999998625
 31
0.0
  0
ARC
  5
84D5B
330
1E
100
AcDbEntity
  8
DETAIL
100
AcDbCircle
 10
-102.2641466666373
 20
448.4999999998916
 30
0.0
 40
99.99999999997498
100
AcDbArc
 50
90.0
 51
105.6422459999687
  0
LINE
  5
84D5C
330
1E
100
AcDbEntity
  8
DETAIL
100
AcDbLine
 10
-142.9999999999454
 20
523.4999999998732
 30
0.0
 11
139.4999999999854
 21
523.4999999998732
 31
0.0
  0
LINE
  5
84D5D
330
1E
100
AcDbEntity
  8
DETAIL
100
AcDbLine
 10
-31.99999999996363
 20
548.9999999998653
 30
0.0
 11
-31.99999999996363
 21
548.499999999866
 31
0.0
  0
ARC
  5
84D5E
330
1E
100
AcDbEntity
  8
DETAIL
100
AcDbCircle
 10
-30.9999999999527
 20
548.9999999998653
 30
0.0
 40
0.9999999999997497
100
AcDbArc
 50
90.0
 51
180.0
  0
LINE
  5
84D5F
330
1E
100
AcDbEntity
  8
DETAIL
100
AcDbLine
 10
-104.9999999999745
 20
549.9999999998625
 30
0.0
 11
-42.99999999996908
 21
549.9999999998625
 31
0.0
  0
LINE
  5
84D60
330
1E
100
AcDbEntity
  8
DETAIL
100
AcDbLine
 10
-105.9999999999345
 20
548.9999999998653
 30
0.0
 11
-105.9999999999345
 21
548.4301999998652
 31
0.0
  0
ARC
  5
84D61
330
1E
100
AcDbEntity
  8
DETAIL
100
AcDbCircle
 10
-104.9999999999745
 20
548.9999999998653
 30
0.0
 40
0.9999999999997497
100
AcDbArc
 50
90.0
 51
180.0
  0
LINE
  5
84D62
330
1E
100
AcDbEntity
  8
DETAIL
100
AcDbLine
 10
-41.99999999995998
 20
548.9999999998653
 30
0.0
 11
-41.99999999995998
 21
548.499999999866
 31
0.0
  0
ARC
  5
84D63
330
1E
100
AcDbEntity
  8
DETAIL
100
AcDbCircle
 10
-42.99999999996908
 20
548.9999999998653
 30
0.0
 40
0.9999999999997497
100
AcDbArc
 50
0.000000000000007
 51
90.0
  0
LINE
  5
84D66
330
1E
100
AcDbEntity
  8
DETAIL
100
AcDbLine
 10
-30.9999999999527
 20
549.9999999998625
 30
0.0
 11
31.00000000000183
 21
549.9999999998625
 31
0.0
  0
LINE
  5
84D67
330
1E
100
AcDbEntity
  8
DETAIL
100
AcDbLine
 10
-102.2641466666373
 20
548.499999999866
 30
0.0
 11
102.2641466666373
 21
548.499999999866
 31
0.0
  0
ARC
  5
84D68
330
1E
100
AcDbEntity
  8
DETAIL
100
AcDbCircle
 10
-139.4999999999363
 20
536.7277066665328
 30
0.0
 40
4.999999999998748
100
AcDbArc
 50
105.6422459999687
 51
180.0
  0
ARC
  5
84D69
330
1E
100
AcDbEntity
  8
DETAIL
100
AcDbCircle
 10
-139.4999999999363
 20
524.999999999869
 30
0.0
 40
1.499999999999625
100
AcDbArc
 50
180.0
 51
270.0
  0
LINE
  5
84D6A
330
1E
100
AcDbEntity
  8
DETAIL
100
AcDbLine
 10
-144.4999999999344
 20
524.999999999869
 30
0.0
 11
-144.4999999999344
 21
536.7277066665328
 31
0.0
  0
ARC
  5
84D6B
330
1E
100
AcDbEntity
  8
DETAIL
100
AcDbCircle
 10
-135.9999999999272
 20
537.7077066665385
 30
0.0
 40
4.999999999998748
100
AcDbArc
 50
105.6422459999687
 51
180.0
  0
LINE
  5
84D6C
330
1E
100
AcDbEntity
  8
DETAIL
100
AcDbLine
 10
-129.227133333301
 20
544.7963999998655
 30
0.0
 11
-140.8481466666016
 21
541.542519999867
 31
0.0
  0
LINE
  5
84D6D
330
1E
100
AcDbEntity
  8
DETAIL
100
AcDbLine
 10
-140.9999999999254
 20
524.999999999869
 30
0.0
 11
-140.9999999999254
 21
537.7077066665385
 31
0.0
  0
ARC
  5
84D6E
330
1E
100
AcDbEntity
  8
DETAIL
100
AcDbCircle
 10
-142.9999999999454
 20
524.999999999869
 30
0.0
 40
1.499999999999625
100
AcDbArc
 50
180.0
 51
270.0
  0
ARC
  5
84D6F
330
1E
100
AcDbEntity
  8
DETAIL
100
AcDbCircle
 10
-140.9999999999254
 20
520.9999999998736
 30
0.0
 40
1.499999999999625
100
AcDbArc
 50
90.0
 51
180.0
  0
ARC
  5
84D70
330
1E
100
AcDbEntity
  8
DETAIL
100
AcDbCircle
 10
-140.199999999957
 20
524.999999999869
 30
0.0
 40
2.499999999999374
100
AcDbArc
 50
270.0
 51
323.1301020000358
  0
TEXT
  5
84D89
330
1E
100
AcDbEntity
  8
ETC
100
AcDbText
 10
760.0555647955705
 20
793.386569086333
 30
0.0
 40
64.0
  1
SMUZ5965
 41
0.8750000068359366
 72
     5
 11
1186.72223479557
 21
793.386569086333
 31
0.0
100
AcDbText
  0
TEXT
  5
84D8A
330
1E
100
AcDbEntity
  8
ETC
100
AcDbText
 10
776.5192772124089
 20
905.2000771319471
 30
0.0
 40
64.0
  1
室外機
100
AcDbText
  0
DIMENSION
  5
85B1A
330
1E
100
AcDbEntity
  8
SIZE
100
AcDbDimension
  2
*D1
 10
142.4999999999741
 20
839.5159248287773
 30
0.0
 11
0.0000000000052884
 21
872.0159248287773
 31
0.0
 70
    32
 71
     5
 42
284.9999999999377
  3
STANDARD
100
AcDbAlignedDimension
 13
-142.4999999999636
 23
520.9999999998736
 33
0.0
 14
142.4999999999741
 24
520.9999999998736
 34
0.0
100
AcDbRotatedDimension
1001
ACAD
1000
DSTYLE
1002
{
1070
    41
1040
10.0
1070
    42
1040
10.0
1070
    43
1040
200.0
1070
    44
1040
10.0
1070
    73
1070
     0
1070
    74
1070
     0
1070
    77
1070
     1
1070
    78
1070
     8
1070
   140
1040
45.0
1070
   141
1040
0.082
1070
   147
1040
10.0
1070
   172
1070
     1
1070
   176
1070
   256
1070
   177
1070
   256
1070
   271
1070
     6
1070
   272
1070
     6
1070
   341
1005
46
1070
   342
1005
46
1002
}
  0
DIMENSION
  5
85B27
330
1E
100
AcDbEntity
  8
SIZE
100
AcDbDimension
  2
*D2
 10
165.6999799999557
 20
725.0764427016646
 30
0.0
 11
250.5571228570986
 21
757.5764427016646
 31
0.0
 70
    32
 71
     5
 42
23.19997999999211
  3
STANDARD
100
AcDbAlignedDimension
 13
142.4999999999636
 23
520.9999999998736
 33
0.0
 14
165.6999799999557
 24
488.881573333283
 34
0.0
100
AcDbRotatedDimension
1001
ACAD
1000
DSTYLE
1002
{
1070
    41
1040
10.0
1070
    42
1040
10.0
1070
    43
1040
200.0
1070
    44
1040
10.0
1070
    73
1070
     0
1070
    74
1070
     0
1070
    77
1070
     1
1070
    78
1070
     8
1070
   140
1040
45.0
1070
   141
1040
0.082
1070
   147
1040
10.0
1070
   172
1070
     1
1070
   176
1070
   256
1070
   177
1070
   256
1070
   271
1070
     4
1070
   272
1070
     6
1070
   341
1005
46
1070
   342
1005
46
1002
}
  0
DIMENSION
  5
85B7E
330
1E
100
AcDbEntity
  8
SIZE
100
AcDbDimension
  2
*D3
 10
-98.49999999996365
 20
-116.002444762149
 30
0.0
 11
-48.49999999996366
 21
-83.502444762149
 31
0.0
 70
    32
 71
     5
 42
44.00000000000114
  3
STANDARD
100
AcDbAlignedDimension
 13
-142.4999999999648
 23
30.19999999999709
 33
0.0
 14
-98.49999999996365
 24
-10.0
 34
0.0
100
AcDbRotatedDimension
1001
ACAD
1000
DSTYLE
1002
{
1070
    41
1040
10.0
1070
    42
1040
10.0
1070
    43
1040
200.0
1070
    44
1040
10.0
1070
    73
1070
     0
1070
    74
1070
     0
1070
    77
1070
     1
1070
    78
1070
     8
1070
   140
1040
45.0
1070
   141
1040
0.082
1070
   147
1040
10.0
1070
   172
1070
     1
1070
   176
1070
   256
1070
   177
1070
   256
1070
   271
1070
     6
1070
   272
1070
     6
1070
   341
1005
46
1070
   342
1005
46
1002
}
  0
DIMENSION
  5
85B8C
330
1E
100
AcDbEntity
  8
SIZE
100
AcDbDimension
  2
*D4
 10
157.4999999999563
 20
-205.8098298608475
 30
0.0
 11
-0.0000000000436395
 21
-173.3098298608475
 31
0.0
 70
    32
  1
304～325
 71
     5
 42
314.9999999999999
  3
STANDARD
100
AcDbAlignedDimension
 13
-157.5000000000436
 23
-17.18702739697255
 33
0.0
 14
157.4999999999563
 24
-17.18702739697255
 34
0.0
100
AcDbRotatedDimension
1001
ACAD
1000
DSTYLE
1002
{
1070
    41
1040
10.0
1070
    42
1040
10.0
1070
    43
1040
200.0
1070
    44
1040
10.0
1070
    73
1070
     0
1070
    74
1070
     0
1070
    77
1070
     1
1070
    78
1070
     8
1070
   140
1040
45.0
1070
   141
1040
0.082
1070
   147
1040
10.0
1070
   172
1070
     1
1070
   176
1070
   256
1070
   177
1070
   256
1070
   271
1070
     6
1070
   272
1070
     6
1070
   341
1005
46
1070
   342
1005
46
1002
}
  0
DIMENSION
  5
85B99
330
1E
100
AcDbEntity
  8
SIZE
100
AcDbDimension
  2
*D5
 10
174.9999999999563
 20
-304.7153698606653
 30
0.0
 11
2.750000000013629
 21
-272.2153698606653
 31
0.0
 70
    32
 71
     5
 42
344.4999999998854
  3
STANDARD
100
AcDbAlignedDimension
 13
-169.499999999929
 23
0.0
 33
0.0
 14
174.9999999999563
 24
0.0
 34
0.0
100
AcDbRotatedDimension
1001
ACAD
1000
DSTYLE
1002
{
1070
    41
1040
10.0
1070
    42
1040
10.0
1070
    43
1040
200.0
1070
    44
1040
10.0
1070
    73
1070
     0
1070
    74
1070
     0
1070
    77
1070
     1
1070
    78
1070
     8
1070
   140
1040
45.0
1070
   141
1040
0.082
1070
   147
1040
10.0
1070
   172
1070
     1
1070
   176
1070
   256
1070
   177
1070
   256
1070
   271
1070
     6
1070
   272
1070
     6
1070
   341
1005
46
1070
   342
1005
46
1002
}
  0
DIMENSION
  5
85BFB
330
1E
100
AcDbEntity
  8
SIZE
100
AcDbDimension
  2
*D6
 10
589.7845590275119
 20
549.9999999998655
 30
0.0
 11
557.2845590275119
 21
274.9999999999325
 31
0.0
 70
    32
 71
     5
 42
549.9999999998651
  3
STANDARD
100
AcDbAlignedDimension
 13
174.9999999999563
 23
0.0
 33
0.0
 14
104.9999999999745
 24
549.9999999998651
 34
0.0
 50
90.0
100
AcDbRotatedDimension
1001
ACAD
1000
DSTYLE
1002
{
1070
    41
1040
10.0
1070
    42
1040
10.0
1070
    43
1040
200.0
1070
    44
1040
10.0
1070
    73
1070
     0
1070
    74
1070
     0
1070
    77
1070
     1
1070
    78
1070
     8
1070
   140
1040
45.0
1070
   141
1040
0.082
1070
   147
1040
10.0
1070
   172
1070
     1
1070
   176
1070
   256
1070
   177
1070
   256
1070
   271
1070
     6
1070
   272
1070
     6
1070
   341
1005
46
1070
   342
1005
46
1002
}
  0
LINE
  5
85C47
330
1E
100
AcDbEntity
  8
SERVICE_SPACE
100
AcDbLine
 10
-242.4999999999648
 20
0.0
 30
0.0
 11
-242.4999999999648
 21
649.9999999998625
 31
0.0
  0
LINE
  5
85C4A
330
1E
100
AcDbEntity
  8
SERVICE_SPACE
100
AcDbLine
 10
-242.4999999999648
 20
649.9999999998625
 30
0.0
 11
342.4999999999648
 21
649.9999999998625
 31
0.0
  0
LINE
  5
85C4B
330
1E
100
AcDbEntity
  8
SERVICE_SPACE
100
AcDbLine
 10
342.4999999999648
 20
-0.0000000000000036
 30
0.0
 11
342.4999999999648
 21
649.9999999998625
 31
0.0
  0
LINE
  5
85C4C
330
1E
100
AcDbEntity
  8
SERVICE_SPACE
100
AcDbLine
 10
-242.4999999999648
 20
0.0
 30
0.0
 11
342.4999999999646
 21
0.0
 31
0.0
  0
DIMENSION
  5
85C85
330
1E
100
AcDbEntity
  8
SIZE
100
AcDbDimension
  2
*D7
 10
589.7845590275127
 20
649.9999999998627
 30
0.0
 11
557.2845590275126
 21
816.3999999998626
 31
0.0
 70
    32
  1
原則として開放
 71
     5
 42
99.99999999999728
  3
STANDARD
100
AcDbAlignedDimension
 13
104.9999999999745
 23
549.9999999998651
 33
0.0
 14
342.4999999999648
 24
649.9999999998625
 34
0.0
 50
90.0
100
AcDbRotatedDimension
1001
ACAD
1000
DSTYLE
1002
{
1070
    41
1040
10.0
1070
    42
1040
10.0
1070
    43
1040
200.0
1070
    44
1040
10.0
1070
    73
1070
     0
1070
    74
1070
     0
1070
    77
1070
     1
1070
    78
1070
     8
1070
   140
1040
45.0
1070
   141
1040
0.082
1070
   147
1040
10.0
1070
   172
1070
     1
1070
   176
1070
   256
1070
   177
1070
   256
1070
   271
1070
     6
1070
   272
1070
     6
1070
   341
1005
46
1070
   342
1005
46
1002
}
  0
DIMENSION
  5
85CB2
330
1E
100
AcDbEntity
  8
SIZE
100
AcDbDimension
  2
*D8
 10
342.4999999999648
 20
839.5159248287773
 30
0.0
 11
242.4999999999642
 21
872.0159248287773
 31
0.0
 70
    32
  1
<>以上
 71
     5
 42
200.0000000000012
  3
STANDARD
100
AcDbAlignedDimension
 13
142.4999999999636
 23
520.9999999998736
 33
0.0
 14
342.4999999999648
 24
649.9999999998625
 34
0.0
100
AcDbRotatedDimension
1001
ACAD
1000
DSTYLE
1002
{
1070
    41
1040
10.0
1070
    42
1040
10.0
1070
    43
1040
200.0
1070
    44
1040
10.0
1070
    73
1070
     0
1070
    74
1070
     0
1070
    77
1070
     1
1070
    78
1070
     8
1070
   140
1040
45.0
1070
   141
1040
0.082
1070
   147
1040
10.0
1070
   172
1070
     1
1070
   176
1070
   256
1070
   177
1070
   256
1070
   271
1070
     6
1070
   272
1070
     6
1070
   341
1005
46
1070
   342
1005
46
1002
}
  0
DIMENSION
  5
85CBF
330
1E
100
AcDbEntity
  8
SIZE
100
AcDbDimension
  2
*D9
 10
-242.4999999999648
 20
839.5159248287773
 30
0.0
 11
-348.8999999999649
 21
872.0159248287773
 31
0.0
 70
    32
  1
<>以上
 71
     5
 42
100.0000000000012
  3
STANDARD
100
AcDbAlignedDimension
 13
-142.4999999999636
 23
520.9999999998736
 33
0.0
 14
-242.4999999999648
 24
649.9999999998625
 34
0.0
100
AcDbRotatedDimension
1001
ACAD
1000
DSTYLE
1002
{
1070
    41
1040
10.0
1070
    42
1040
10.0
1070
    43
1040
200.0
1070
    44
1040
10.0
1070
    73
1070
     0
1070
    74
1070
     0
1070
    77
1070
     1
1070
    78
1070
     8
1070
   140
1040
45.0
1070
   141
1040
0.082
1070
   147
1040
10.0
1070
   172
1070
     1
1070
   176
1070
   256
1070
   177
1070
   256
1070
   271
1070
     6
1070
   272
1070
     6
1070
   341
1005
46
1070
   342
1005
46
1002
}
  0
LINE
  5
85D3C
330
1E
100
AcDbEntity
  8
NOTE
100
AcDbLine
 10
329.6989400978428
 20
338.7996048171743
 30
0.0
 11
289.581153115244
 21
298.5982237011638
 31
0.0
  0
LINE
  5
85D3D
330
1E
100
AcDbEntity
  8
NOTE
100
AcDbLine
 10
248.8127002968076
 20
323.6488309886125
 30
0.0
 11
248.8127002968076
 21
353.9503786457321
 31
0.0
  0
LINE
  5
85D3E
330
1E
100
AcDbEntity
  8
NOTE
100
AcDbLine
 10
289.581153115244
 20
323.6488309886125
 30
0.0
 11
248.8127002968076
 21
323.6488309886125
 31
0.0
  0
LINE
  5
85D3F
330
1E
100
AcDbEntity
  8
NOTE
100
AcDbLine
 10
289.581153115244
 20
323.6488309886125
 30
0.0
 11
289.581153115244
 21
298.5982237011638
 31
0.0
  0
LINE
  5
85D40
330
1E
100
AcDbEntity
  8
NOTE
100
AcDbLine
 10
289.581153115244
 20
353.9503786457321
 30
0.0
 11
248.8127002968076
 21
353.9503786457321
 31
0.0
  0
LINE
  5
85D41
330
1E
100
AcDbEntity
  8
NOTE
100
AcDbLine
 10
289.581153115244
 20
379.0009859331811
 30
0.0
 11
329.6989400978428
 21
338.7996048171743
 31
0.0
  0
LINE
  5
85D42
330
1E
100
AcDbEntity
  8
NOTE
100
AcDbLine
 10
289.581153115244
 20
379.0009859331811
 30
0.0
 11
289.581153115244
 21
353.9503786457321
 31
0.0
  0
LINE
  5
85D43
330
1E
100
AcDbEntity
  8
NOTE
100
AcDbLine
 10
-192.036537719061
 20
379.0009859331813
 30
0.0
 11
-151.9187507364622
 21
338.7996048171745
 31
0.0
  0
LINE
  5
85D44
330
1E
100
AcDbEntity
  8
NOTE
100
AcDbLine
 10
-192.036537719061
 20
379.0009859331813
 30
0.0
 11
-192.036537719061
 21
353.9503786457327
 31
0.0
  0
LINE
  5
85D46
330
1E
100
AcDbEntity
  8
NOTE
100
AcDbLine
 10
-151.9187507364622
 20
338.7996048171745
 30
0.0
 11
-192.036537719061
 21
298.5982237011639
 31
0.0
  0
LINE
  5
85D47
330
1E
100
AcDbEntity
  8
NOTE
100
AcDbLine
 10
-192.036537719061
 20
323.6488309886125
 30
0.0
 11
-192.036537719061
 21
298.5982237011639
 31
0.0
  0
LINE
  5
85D48
330
1E
100
AcDbEntity
  8
NOTE
100
AcDbLine
 10
-232.8049905374974
 20
323.6488309886125
 30
0.0
 11
-232.8049905374974
 21
353.9503786457327
 31
0.0
  0
LINE
  5
85D49
330
1E
100
AcDbEntity
  8
NOTE
100
AcDbLine
 10
-192.036537719061
 20
323.6488309886125
 30
0.0
 11
-232.8049905374974
 21
323.6488309886125
 31
0.0
  0
LINE
  5
85D4A
330
1E
100
AcDbEntity
  8
NOTE
100
AcDbLine
 10
-192.036537719061
 20
353.9503786457327
 30
0.0
 11
-232.8049905374974
 21
353.9503786457327
 31
0.0
  0
LINE
  5
85D52
330
1E
100
AcDbEntity
  8
BASIS
100
AcDbLine
 10
85.65320449695539
 20
280.0
 30
0.0
 11
195.3251517694771
 21
280.0
 31
0.0
  0
DIMENSION
  5
85D53
330
1E
100
AcDbEntity
  8
SIZE
100
AcDbDimension
  2
*D10
 10
485.414451088224
 20
280.0000000000002
 30
0.0
 11
452.9144510882239
 21
139.9999999999999
 31
0.0
 70
    32
 71
     5
 42
280.0000000000001
  3
STANDARD
100
AcDbAlignedDimension
 13
174.9999999999563
 23
0.0
 33
0.0
 14
195.3251517694771
 24
280.0
 34
0.0
 50
90.0
100
AcDbRotatedDimension
1001
ACAD
1000
DSTYLE
1002
{
1070
    41
1040
10.0
1070
    42
1040
10.0
1070
    43
1040
200.0
1070
    44
1040
10.0
1070
    73
1070
     0
1070
    74
1070
     0
1070
    77
1070
     1
1070
    78
1070
     8
1070
   140
1040
45.0
1070
   141
1040
0.082
1070
   147
1040
10.0
1070
   172
1070
     1
1070
   176
1070
   256
1070
   177
1070
   256
1070
   271
1070
     6
1070
   272
1070
     6
1070
   341
1005
46
1070
   342
1005
46
1002
}
  0
LINE
  5
85DFA
330
1E
100
AcDbEntity
  8
NOTE
100
AcDbLine
 10
-242.4999999999648
 20
506.7362905970666
 30
0.0
 11
-480.983926269073
 21
649.9999999998625
 31
0.0
  0
TEXT
  5
85DFB
330
1E
100
AcDbEntity
  8
NOTE
100
AcDbText
 10
-831.6239576560199
 20
665.703372532692
 30
0.0
 40
45.0
  1
サービススペース
 41
0.8
100
AcDbText
  0
LINE
  5
85DFC
330
1E
100
AcDbEntity
  8
NOTE
100
AcDbLine
 10
-480.9839262690732
 20
649.9999999998625
 30
0.0
 11
-847.0839143293982
 21
649.9999999998625
 31
0.0
  0
LINE
  5
85DFD
330
1E
100
AcDbEntity
  8
NOTE
100
AcDbLine
 10
-242.4999999999648
 20
506.7362905970666
 30
0.0
 11
-281.2867781995187
 21
516.5130843181986
 31
0.0
  0
LINE
  5
85DFE
330
1E
100
AcDbEntity
  8
NOTE
100
AcDbLine
 10
-271.2019380336959
 20
534.5966332238839
 30
0.0
 11
-242.4999999999648
 21
506.7362905970666
 31
0.0
  0
LINE
  5
8600A
330
1E
100
AcDbEntity
  8
OUTLINE
100
AcDbLine
 10
142.4999999999636
 20
520.9999999998736
 30
0.0
 11
142.4999999999636
 21
30.19999999999709
 31
0.0
  0
LINE
  5
8600B
330
1E
100
AcDbEntity
  8
OUTLINE
100
AcDbLine
 10
-142.4999999999636
 20
520.9999999998736
 30
0.0
 11
-142.4999999999636
 21
30.19999999999709
 31
0.0
  0
LINE
  5
8600C
330
1E
100
AcDbEntity
  8
OUTLINE
100
AcDbLine
 10
174.9999999999563
 20
0.0
 30
0.0
 11
-169.499999999929
 21
0.0
 31
0.0
  0
LINE
  5
8600D
330
1E
100
AcDbEntity
  8
OUTLINE
100
AcDbLine
 10
139.9999999999654
 20
27.69999999999801
 30
0.0
 11
136.3732982366873
 21
27.69999999999801
 31
0.0
  0
ARC
  5
8600E
330
1E
100
AcDbEntity
  8
OUTLINE
100
AcDbCircle
 10
130.4289333333308
 20
14.50000000000454
 30
0.0
 40
4.999999999998748
100
AcDbArc
 50
45.00000000006409
 51
90.0
  0
LINE
  5
8600F
330
1E
100
AcDbEntity
  8
OUTLINE
100
AcDbLine
 10
133.9644666666718
 20
18.03553333333366
 30
0.0
 11
133.9644666666718
 21
18.03553333333366
 31
0.0
  0
LINE
  5
86010
330
1E
100
AcDbEntity
  8
OUTLINE
100
AcDbLine
 10
134.4538799999918
 20
26.3396666666622
 30
0.0
 11
129.9573599999876
 21
21.84314666666432
 31
0.0
  0
ARC
  5
86011
330
1E
100
AcDbEntity
  8
OUTLINE
100
AcDbCircle
 10
139.9999999999654
 20
30.19999999999709
 30
0.0
 40
2.499999999999374
100
AcDbArc
 50
270.0
 51
0.000000000000007
  0
LINE
  5
86012
330
1E
100
AcDbEntity
  8
OUTLINE
100
AcDbLine
 10
174.9999999999563
 20
0.0
 30
0.0
 11
174.9999999999563
 21
4.999999999999086
 31
0.0
  0
ARC
  5
86013
330
1E
100
AcDbEntity
  8
OUTLINE
100
AcDbCircle
 10
171.9999999999763
 20
4.999999999999086
 30
0.0
 40
2.99999999999925
100
AcDbArc
 50
0.000000000000007
 51
90.0
  0
LINE
  5
86014
330
1E
100
AcDbEntity
  8
OUTLINE
100
AcDbLine
 10
142.5355333332973
 20
9.464466666672706
 30
0.0
 11
133.9644666666718
 21
18.03553333333366
 31
0.0
  0
LINE
  5
86015
330
1E
100
AcDbEntity
  8
OUTLINE
100
AcDbLine
 10
171.9999999999763
 20
8.000000000002726
 30
0.0
 11
146.07106666664
 21
8.000000000002726
 31
0.0
  0
ARC
  5
86016
330
1E
100
AcDbEntity
  8
OUTLINE
100
AcDbCircle
 10
146.07106666664
 20
13.00000000000181
 30
0.0
 40
4.999999999998748
100
AcDbArc
 50
225.0000000000641
 51
270.0
  0
ARC
  5
86017
330
1E
100
AcDbEntity
  8
OUTLINE
100
AcDbCircle
 10
139.4036266666699
 20
21.38991999999689
 30
0.0
 40
6.99999999999825
100
AcDbArc
 50
115.6520008548979
 51
134.9999999999359
  0
LINE
  5
86018
330
1E
100
AcDbEntity
  8
OUTLINE
100
AcDbLine
 10
-133.9999999999563
 20
19.50000000000272
 30
0.0
 11
-130.4289333332817
 21
19.50000000000272
 31
0.0
  0
LINE
  5
86019
330
1E
100
AcDbEntity
  8
OUTLINE
100
AcDbLine
 10
124.300506666641
 20
19.50000000000272
 30
0.0
 11
130.4289333333308
 21
19.50000000000272
 31
0.0
  0
ARC
  5
8601A
330
1E
100
AcDbEntity
  8
OUTLINE
100
AcDbCircle
 10
124.300506666641
 20
27.49999999999363
 30
0.0
 40
7.999999999997997
100
AcDbArc
 50
270.0
 51
314.9999999999359
  0
LINE
  5
8601B
330
1E
100
AcDbEntity
  8
OUTLINE
100
AcDbLine
 10
-146.0710666665909
 20
8.000000000002726
 30
0.0
 11
-166.499999999949
 21
8.000000000002726
 31
0.0
  0
LINE
  5
8601C
330
1E
100
AcDbEntity
  8
OUTLINE
100
AcDbLine
 10
-139.9999999999654
 20
27.69999999999801
 30
0.0
 11
-138.5452212330115
 21
27.69999999999801
 31
0.0
  0
LINE
  5
8601D
330
1E
100
AcDbEntity
  8
OUTLINE
100
AcDbLine
 10
-142.4999999999636
 20
52.32539999998971
 30
0.0
 11
-142.6744933332884
 21
52.33149333332494
 31
0.0
  0
LINE
  5
8601E
330
1E
100
AcDbEntity
  8
OUTLINE
100
AcDbLine
 10
-142.4999999999636
 20
54.3266133333227
 30
0.0
 11
-142.6046933332818
 21
54.33027999999375
 31
0.0
  0
LINE
  5
8601F
330
1E
100
AcDbEntity
  8
OUTLINE
100
AcDbLine
 10
-142.5355333332973
 20
9.464466666672706
 30
0.0
 11
-133.9644666666245
 21
18.03553333333366
 31
0.0
  0
ARC
  5
86020
330
1E
100
AcDbEntity
  8
OUTLINE
100
AcDbCircle
 10
-130.4289333332817
 20
14.50000000000454
 30
0.0
 40
4.999999999998748
100
AcDbArc
 50
90.0
 51
134.9999999999359
  0
ARC
  5
86021
330
1E
100
AcDbEntity
  8
OUTLINE
100
AcDbCircle
 10
-146.0710666665909
 20
13.00000000000181
 30
0.0
 40
4.999999999998748
100
AcDbArc
 50
270.0
 51
314.9999999999359
  0
ARC
  5
86022
330
1E
100
AcDbEntity
  8
OUTLINE
100
AcDbCircle
 10
-133.9999999999563
 20
23.49999999999818
 30
0.0
 40
3.999999999998998
100
AcDbArc
 50
180.0
 51
270.0
  0
ARC
  5
86023
330
1E
100
AcDbEntity
  8
OUTLINE
100
AcDbCircle
 10
-140.9999999999254
 20
25.97545333333346
 30
0.0
 40
2.99999999999925
100
AcDbArc
 50
0.000000000000007
 51
35.08925199996163
  0
LINE
  5
86024
330
1E
100
AcDbEntity
  8
OUTLINE
100
AcDbLine
 10
-137.9999999999454
 20
25.97545333333346
 30
0.0
 11
-137.9999999999454
 21
23.49999999999818
 31
0.0
  0
ARC
  5
86025
330
1E
100
AcDbEntity
  8
OUTLINE
100
AcDbCircle
 10
-139.9999999999654
 20
30.19999999999709
 30
0.0
 40
2.499999999999374
100
AcDbArc
 50
180.0
 51
270.0
  0
LINE
  5
86026
330
1E
100
AcDbEntity
  8
OUTLINE
100
AcDbLine
 10
-169.499999999929
 20
0.0
 30
0.0
 11
-169.499999999929
 21
4.999999999999086
 31
0.0
  0
ARC
  5
86027
330
1E
100
AcDbEntity
  8
OUTLINE
100
AcDbCircle
 10
-166.499999999949
 20
4.999999999999086
 30
0.0
 40
2.99999999999925
100
AcDbArc
 50
90.0
 51
180.0
  0
LINE
  5
86028
330
1E
100
AcDbEntity
  8
OUTLINE
100
AcDbLine
 10
-144.4999999999344
 20
524.999999999869
 30
0.0
 11
-144.4999999999344
 21
536.7277066665328
 31
0.0
  0
LINE
  5
86029
330
1E
100
AcDbEntity
  8
OUTLINE
100
AcDbLine
 10
140.9999999999745
 20
524.999999999869
 30
0.0
 11
140.9999999999745
 21
537.7077066665385
 31
0.0
  0
LINE
  5
8602A
330
1E
100
AcDbEntity
  8
OUTLINE
100
AcDbLine
 10
139.4999999999854
 20
523.4999999998732
 30
0.0
 11
138.1999999999548
 21
523.4999999998732
 31
0.0
  0
LINE
  5
8602B
330
1E
100
AcDbEntity
  8
OUTLINE
100
AcDbLine
 10
-140.9999999999254
 20
522.4999999998698
 30
0.0
 11
-140.199999999957
 21
522.4999999998698
 31
0.0
  0
LINE
  5
8602C
330
1E
100
AcDbEntity
  8
OUTLINE
100
AcDbLine
 10
140.199999999957
 20
522.4999999998698
 30
0.0
 11
140.9999999999745
 21
522.4999999998698
 31
0.0
  0
ARC
  5
8602D
330
1E
100
AcDbEntity
  8
OUTLINE
100
AcDbCircle
 10
140.199999999957
 20
524.999999999869
 30
0.0
 40
2.499999999999374
100
AcDbArc
 50
216.8698979999887
 51
270.0
  0
ARC
  5
8602E
330
1E
100
AcDbEntity
  8
OUTLINE
100
AcDbCircle
 10
140.9999999999745
 20
520.9999999998736
 30
0.0
 40
1.499999999999625
100
AcDbArc
 50
0.000000000000007
 51
90.0
  0
ARC
  5
8602F
330
1E
100
AcDbEntity
  8
OUTLINE
100
AcDbCircle
 10
139.4999999999854
 20
524.999999999869
 30
0.0
 40
1.499999999999625
100
AcDbArc
 50
270.0
 51
0.000000000000007
  0
ARC
  5
86030
330
1E
100
AcDbEntity
  8
OUTLINE
100
AcDbCircle
 10
-142.9999999999454
 20
524.999999999869
 30
0.0
 40
1.499999999999625
100
AcDbArc
 50
180.0
 51
270.0
  0
ARC
  5
86031
330
1E
100
AcDbEntity
  8
OUTLINE
100
AcDbCircle
 10
-140.9999999999254
 20
520.9999999998736
 30
0.0
 40
1.499999999999625
100
AcDbArc
 50
90.0
 51
180.0
  0
ARC
  5
86032
330
1E
100
AcDbEntity
  8
OUTLINE
100
AcDbCircle
 10
-140.199999999957
 20
524.999999999869
 30
0.0
 40
2.499999999999374
100
AcDbArc
 50
270.0
 51
323.1301020000297
  0
LINE
  5
86033
330
1E
100
AcDbEntity
  8
OUTLINE
100
AcDbLine
 10
31.00000000000183
 20
549.9999999998625
 30
0.0
 11
-30.99999999995271
 21
549.9999999998625
 31
0.0
  0
LINE
  5
86034
330
1E
100
AcDbEntity
  8
OUTLINE
100
AcDbLine
 10
42.00000000000909
 20
548.499999999866
 30
0.0
 11
32.00000000001092
 21
548.499999999866
 31
0.0
  0
LINE
  5
86035
330
1E
100
AcDbEntity
  8
OUTLINE
100
AcDbLine
 10
-31.99999999996363
 20
548.499999999866
 30
0.0
 11
-41.99999999995998
 21
548.499999999866
 31
0.0
  0
LINE
  5
86036
330
1E
100
AcDbEntity
  8
OUTLINE
100
AcDbLine
 10
104.9999999999745
 20
549.9999999998625
 30
0.0
 11
43.00000000001817
 21
549.9999999998625
 31
0.0
  0
LINE
  5
86037
330
1E
100
AcDbEntity
  8
OUTLINE
100
AcDbLine
 10
129.227133333301
 20
544.7963999998655
 30
0.0
 11
137.3481466666417
 21
542.5225199998731
 31
0.0
  0
ARC
  5
86038
330
1E
100
AcDbEntity
  8
OUTLINE
100
AcDbCircle
 10
135.9999999999763
 20
537.7077066665385
 30
0.0
 40
4.999999999998748
100
AcDbArc
 50
0.000000000000007
 51
74.35775400003537
  0
ARC
  5
86039
330
1E
100
AcDbEntity
  8
OUTLINE
100
AcDbCircle
 10
104.9999999999745
 20
548.9999999998653
 30
0.0
 40
0.9999999999997497
100
AcDbArc
 50
0.000000000000007
 51
90.0
  0
LINE
  5
8603A
330
1E
100
AcDbEntity
  8
OUTLINE
100
AcDbLine
 10
105.9999999999836
 20
548.9999999998653
 30
0.0
 11
105.9999999999836
 21
548.4301926338835
 31
0.0
  0
ARC
  5
8603B
330
1E
100
AcDbEntity
  8
OUTLINE
100
AcDbCircle
 10
102.2641466666373
 20
448.4999999998916
 30
0.0
 40
99.99999999997498
100
AcDbArc
 50
74.35775400003537
 51
87.85901549969942
  0
ARC
  5
8603C
330
1E
100
AcDbEntity
  8
OUTLINE
100
AcDbCircle
 10
31.00000000000183
 20
548.9999999998653
 30
0.0
 40
0.9999999999997497
100
AcDbArc
 50
0.000000000000007
 51
90.0
  0
ARC
  5
8603D
330
1E
100
AcDbEntity
  8
OUTLINE
100
AcDbCircle
 10
43.00000000001817
 20
548.9999999998653
 30
0.0
 40
0.9999999999997497
100
AcDbArc
 50
90.0
 51
180.0
  0
LINE
  5
8603E
330
1E
100
AcDbEntity
  8
OUTLINE
100
AcDbLine
 10
42.00000000000909
 20
548.9999999998653
 30
0.0
 11
42.00000000000909
 21
548.499999999866
 31
0.0
  0
LINE
  5
8603F
330
1E
100
AcDbEntity
  8
OUTLINE
100
AcDbLine
 10
32.00000000001092
 20
548.9999999998653
 30
0.0
 11
32.00000000001092
 21
548.499999999866
 31
0.0
  0
LINE
  5
86040
330
1E
100
AcDbEntity
  8
OUTLINE
100
AcDbLine
 10
-104.9999999999745
 20
549.9999999998625
 30
0.0
 11
-42.99999999996908
 21
549.9999999998625
 31
0.0
  0
LINE
  5
86041
330
1E
100
AcDbEntity
  8
OUTLINE
100
AcDbLine
 10
-31.99999999996363
 20
548.9999999998653
 30
0.0
 11
-31.99999999996363
 21
548.499999999866
 31
0.0
  0
ARC
  5
86042
330
1E
100
AcDbEntity
  8
OUTLINE
100
AcDbCircle
 10
-30.99999999995271
 20
548.9999999998653
 30
0.0
 40
0.9999999999997497
100
AcDbArc
 50
90.0
 51
180.0
  0
LINE
  5
86043
330
1E
100
AcDbEntity
  8
OUTLINE
100
AcDbLine
 10
-41.99999999995998
 20
548.9999999998653
 30
0.0
 11
-41.99999999995998
 21
548.499999999866
 31
0.0
  0
ARC
  5
86044
330
1E
100
AcDbEntity
  8
OUTLINE
100
AcDbCircle
 10
-42.99999999996908
 20
548.9999999998653
 30
0.0
 40
0.9999999999997497
100
AcDbArc
 50
0.000000000000007
 51
90.0
  0
ARC
  5
86045
330
1E
100
AcDbEntity
  8
OUTLINE
100
AcDbCircle
 10
-102.2641466666373
 20
448.4999999998916
 30
0.0
 40
99.99999999997498
100
AcDbArc
 50
92.14098450024849
 51
105.6422459999646
  0
LINE
  5
86046
330
1E
100
AcDbEntity
  8
OUTLINE
100
AcDbLine
 10
-105.9999999999345
 20
548.9999999998653
 30
0.0
 11
-105.9999999999345
 21
548.4301926338853
 31
0.0
  0
ARC
  5
86047
330
1E
100
AcDbEntity
  8
OUTLINE
100
AcDbCircle
 10
-104.9999999999745
 20
548.9999999998653
 30
0.0
 40
0.9999999999997497
100
AcDbArc
 50
90.0
 51
180.0
  0
ARC
  5
86048
330
1E
100
AcDbEntity
  8
OUTLINE
100
AcDbCircle
 10
-139.4999999999363
 20
536.7277066665328
 30
0.0
 40
4.999999999998748
100
AcDbArc
 50
105.6422459999646
 51
180.0
  0
LINE
  5
86049
330
1E
100
AcDbEntity
  8
OUTLINE
100
AcDbLine
 10
-129.227133333301
 20
544.7963999998655
 30
0.0
 11
-140.8481466666017
 21
541.542519999867
 31
0.0
  0
LINE
  5
8604A
330
1E
100
AcDbEntity
  8
OUTLINE
100
AcDbLine
 10
-142.9999999999454
 20
523.4999999998692
 30
0.0
 11
-138.2000000092284
 21
523.4999999875083
 31
0.0
  0
TEXT
  5
86053
330
1E
100
AcDbEntity
  8
NOTE
100
AcDbText
 10
-411.3051608127062
 20
320.4714409140506
 30
0.0
 40
45.0
  1
吹出方向
 41
0.7
100
AcDbText
  0
TEXT
  5
86054
330
1E
100
AcDbEntity
  8
NOTE
100
AcDbText
 10
354.8034932795126
 20
323.4205147058092
 30
0.0
 40
45.0
  1
吸込方向
 41
0.7
100
AcDbText
  0
ENDSEC
  0
SECTION
  2
OBJECTS
  0
DICTIONARY
  5
C
330
0
100
AcDbDictionary
281
     1
  3
ACAD_CIP_PREVIOUS_PRODUCT_INFO
350
84F17
  3
ACAD_COLOR
350
84EF9
  3
ACAD_DETAILVIEWSTYLE
350
84F12
  3
ACAD_GROUP
350
D
  3
ACAD_LAYOUT
350
19
  3
ACAD_MATERIAL
350
84EC7
  3
ACAD_MLEADERSTYLE
350
84F0E
  3
ACAD_MLINESTYLE
350
16
  3
ACAD_PLOTSETTINGS
350
18
  3
ACAD_PLOTSTYLENAME
350
E
  3
ACAD_SCALELIST
350
84EFC
  3
ACAD_SECTIONVIEWSTYLE
350
84F10
  3
ACAD_TABLESTYLE
350
84EFA
  3
ACAD_VISUALSTYLE
350
84EE0
  3
ACDB_RECOMPOSE_DATA
350
86173
  3
AcDbVariableDictionary
350
84F3E
  0
DICTIONARY
  5
85006
330
2
100
AcDbDictionary
280
     1
281
     1
  3
ACAD_LAYERSTATES
360
85007
  0
DICTIONARY
  5
84F2A
330
10
100
AcDbDictionary
280
     1
281
     1
  3
ADSK_XREC_LAYER_RECONCILED
360
84F2B
  0
DICTIONARY
  5
84F2C
330
22
100
AcDbDictionary
280
     1
281
     1
  3
ADSK_XREC_LAYER_RECONCILED
360
84F2D
  0
DICTIONARY
  5
84F2E
330
31
100
AcDbDictionary
280
     1
281
     1
  3
ADSK_XREC_LAYER_RECONCILED
360
84F2F
  0
DICTIONARY
  5
84F30
330
32
100
AcDbDictionary
280
     1
281
     1
  3
ADSK_XREC_LAYER_RECONCILED
360
84F31
  0
DICTIONARY
  5
84F32
330
33
100
AcDbDictionary
280
     1
281
     1
  3
ADSK_XREC_LAYER_RECONCILED
360
84F33
  0
DICTIONARY
  5
84F34
330
34
100
AcDbDictionary
280
     1
281
     1
  3
ADSK_XREC_LAYER_RECONCILED
360
84F35
  0
DICTIONARY
  5
84F36
330
35
100
AcDbDictionary
280
     1
281
     1
  3
ADSK_XREC_LAYER_RECONCILED
360
84F37
  0
DICTIONARY
  5
84F38
330
37
100
AcDbDictionary
280
     1
281
     1
  3
ADSK_XREC_LAYER_RECONCILED
360
84F39
  0
DICTIONARY
  5
84F3A
330
6ACAB
100
AcDbDictionary
280
     1
281
     1
  3
ADSK_XREC_LAYER_RECONCILED
360
84F3B
  0
DICTIONARY
  5
84F3C
330
6ACAC
100
AcDbDictionary
280
     1
281
     1
  3
ADSK_XREC_LAYER_RECONCILED
360
84F3D
  0
DICTIONARY
  5
66E76
330
1E
100
AcDbDictionary
280
     1
281
     1
  3
ACAD_LAYOUTSELFREF
360
84EC2
  0
DICTIONARY
  5
66E74
330
1A
100
AcDbDictionary
280
     1
281
     1
  3
ACAD_LAYOUTSELFREF
360
84EC1
  0
XRECORD
  5
84F17
102
{ACAD_REACTORS
330
C
102
}
330
C
100
AcDbXrecord
280
     1
300
ACD
300
2021
300
87393ACD_2021_0F
  0
DICTIONARY
  5
84EF9
102
{ACAD_REACTORS
330
C
102
}
330
C
100
AcDbDictionary
281
     1
  0
DICTIONARY
  5
84F12
102
{ACAD_REACTORS
330
C
102
}
330
C
100
AcDbDictionary
281
     1
  3
Imperial24
350
84F13
  0
DICTIONARY
  5
D
102
{ACAD_REACTORS
330
C
102
}
330
C
100
AcDbDictionary
281
     1
  0
DICTIONARY
  5
19
102
{ACAD_REACTORS
330
C
102
}
330
C
100
AcDbDictionary
281
     1
  3
Model
350
84F14
  3
レイアウト1
350
84F15
  0
DICTIONARY
  5
84EC7
102
{ACAD_REACTORS
330
C
102
}
330
C
100
AcDbDictionary
281
     1
  3
ByBlock
350
84ED0
  3
ByLayer
350
84EC8
  3
Global
350
84ED8
  0
DICTIONARY
  5
84F0E
102
{ACAD_REACTORS
330
C
102
}
330
C
100
AcDbDictionary
281
     1
  3
Standard
350
84F0F
  0
DICTIONARY
  5
16
102
{ACAD_REACTORS
330
C
102
}
330
C
100
AcDbDictionary
281
     1
  3
STANDARD
350
17
  0
DICTIONARY
  5
18
102
{ACAD_REACTORS
330
C
102
}
330
C
100
AcDbDictionary
281
     1
  0
ACDBDICTIONARYWDFLT
  5
E
102
{ACAD_REACTORS
330
C
102
}
330
C
100
AcDbDictionary
281
     1
  3
Normal
350
F
100
AcDbDictionaryWithDefault
340
F
  0
DICTIONARY
  5
84EFC
102
{ACAD_REACTORS
330
C
102
}
330
C
100
AcDbDictionary
281
     1
  3
A0
350
84EFD
  3
A1
350
84EFE
  3
A2
350
84EFF
  3
A3
350
84F00
  3
A4
350
84F01
  3
A5
350
84F02
  3
A6
350
84F03
  3
A7
350
84F04
  3
A8
350
84F05
  3
A9
350
84F06
  3
B0
350
84F07
  3
B1
350
84F08
  3
B2
350
84F09
  3
B3
350
84F0A
  3
B4
350
84F0B
  3
B5
350
84F0C
  3
B6
350
84F0D
  0
DICTIONARY
  5
84F10
102
{ACAD_REACTORS
330
C
102
}
330
C
100
AcDbDictionary
281
     1
  3
Imperial24
350
84F11
  0
DICTIONARY
  5
84EFA
102
{ACAD_REACTORS
330
C
102
}
330
C
100
AcDbDictionary
281
     1
  3
Standard
350
84EFB
  0
DICTIONARY
  5
84EE0
102
{ACAD_REACTORS
330
C
102
}
330
C
100
AcDbDictionary
281
     1
  3
2dWireframe
350
84EE6
  3
Basic
350
84EE5
  3
Brighten
350
84EEC
  3
ColorChange
350
84EF0
  3
Conceptual
350
84EE9
  3
Dim
350
84EEB
  3
EdgeColorOff
350
84EF8
  3
Facepattern
350
84EEF
  3
Flat
350
84EE1
  3
FlatWithEdges
350
84EE2
  3
Gouraud
350
84EE3
  3
GouraudWithEdges
350
84EE4
  3
Hidden
350
84EE8
  3
JitterOff
350
84EF6
  3
Linepattern
350
84EEE
  3
OverhangOff
350
84EF7
  3
Realistic
350
84EEA
  3
Shaded
350
84EF5
  3
Shaded with edges
350
84EF4
  3
Shades of Gray
350
84EF1
  3
Sketchy
350
84EF2
  3
Thicken
350
84EED
  3
Wireframe
350
84EE7
  3
X-Ray
350
84EF3
  0
XRECORD
  5
86173
102
{ACAD_REACTORS
330
C
102
}
330
C
100
AcDbXrecord
280
     1
 90
        1
330
84EFB
  0
DICTIONARY
  5
84F3E
102
{ACAD_REACTORS
330
C
102
}
330
C
100
AcDbDictionary
281
     1
  3
CANNOSCALE
350
84F44
  3
CMLEADERSTYLE
350
84F40
  3
CTABLESTYLE
350
84F3F
  3
CVIEWDETAILSTYLE
350
84F41
  3
CVIEWSECTIONSTYLE
350
84F42
  3
DIMASSOC
350
85D9D
  3
INDEXCTL
350
85D9C
  3
LAYEREVAL
350
84F46
  3
LAYERNOTIFY
350
84F47
  3
LIGHTINGUNITS
350
84F45
  3
LOFTANG1
350
8616F
  3
LOFTANG2
350
86170
  3
MSLTSCALE
350
84F43
  3
SORTENTS
350
85D9B
  3
XCLIPFRAME
350
86171
  0
DICTIONARY
  5
85007
102
{ACAD_REACTORS
330
85006
102
}
330
85006
100
AcDbDictionary
281
     1
  0
XRECORD
  5
84F2B
102
{ACAD_REACTORS
330
84F2A
102
}
330
84F2A
100
AcDbXrecord
280
     1
290
     1
  0
XRECORD
  5
84F2D
102
{ACAD_REACTORS
330
84F2C
102
}
330
84F2C
100
AcDbXrecord
280
     1
290
     1
  0
XRECORD
  5
84F2F
102
{ACAD_REACTORS
330
84F2E
102
}
330
84F2E
100
AcDbXrecord
280
     1
290
     1
  0
XRECORD
  5
84F31
102
{ACAD_REACTORS
330
84F30
102
}
330
84F30
100
AcDbXrecord
280
     1
290
     1
  0
XRECORD
  5
84F33
102
{ACAD_REACTORS
330
84F32
102
}
330
84F32
100
AcDbXrecord
280
     1
290
     1
  0
XRECORD
  5
84F35
102
{ACAD_REACTORS
330
84F34
102
}
330
84F34
100
AcDbXrecord
280
     1
290
     1
  0
XRECORD
  5
84F37
102
{ACAD_REACTORS
330
84F36
102
}
330
84F36
100
AcDbXrecord
280
     1
290
     1
  0
XRECORD
  5
84F39
102
{ACAD_REACTORS
330
84F38
102
}
330
84F38
100
AcDbXrecord
280
     1
290
     1
  0
XRECORD
  5
84F3B
102
{ACAD_REACTORS
330
84F3A
102
}
330
84F3A
100
AcDbXrecord
280
     1
290
     1
  0
XRECORD
  5
84F3D
102
{ACAD_REACTORS
330
84F3C
102
}
330
84F3C
100
AcDbXrecord
280
     1
290
     1
  0
XRECORD
  5
84EC2
102
{ACAD_REACTORS
330
66E76
102
}
330
66E76
100
AcDbXrecord
280
     1
340
1E
  0
XRECORD
  5
84EC1
102
{ACAD_REACTORS
330
66E74
102
}
330
66E74
100
AcDbXrecord
280
     1
340
1A
  0
ACDBDETAILVIEWSTYLE
  5
84F13
102
{ACAD_XDICTIONARY
360
861A7
102
}
102
{ACAD_REACTORS
330
84F12
102
}
330
84F12
100
AcDbModelDocViewStyle
 70
     0
  3
Imperial24
290
     0
100
AcDbDetailViewStyle
 70
     0
 71
     0
 90
        3
 71
     1
340
11
 62
   256
 40
0.24
340
0
 62
   256
 40
0.24
300

 40
0.36
280
     3
 71
     2
340
15
 90
       25
 62
   256
 71
     3
340
11
 62
   256
 40
0.24
 90
        1
 40
0.75
 90
        1
300
%<\AcVar ViewType \f "%tc1">% %<\AcVar ViewDetailId>%\PSCALE %<\AcVar ViewScale \f "%sn">%
 71
     4
340
15
 90
       25
 62
   256
340
15
 90
       25
 62
   256
280
     0
  0
LAYOUT
  5
84F14
102
{ACAD_REACTORS
330
19
102
}
330
19
100
AcDbPlotSettings
  1

  2
Microsoft Print to PDF
  4
A4
  6

 40
0.0
 41
0.0
 42
0.0
 43
0.0
 44
210.0156707763672
 45
297.0106506347656
 46
0.0
 47
0.0
 48
0.0
 49
0.0
140
0.0
141
0.0
142
1.0
143
209.4894401272141
 70
 11952
 72
     0
 73
     1
 74
     0
  7

 75
     0
147
0.0047735102991002
 76
     0
 77
     2
 78
   300
148
25097.68893055415
149
8113.987438491141
100
AcDbLayout
  1
Model
 70
     1
 71
     0
 10
0.0
 20
0.0
 11
12.0
 21
9.0
 12
0.0
 22
0.0
 32
0.0
 14
0.0
 24
0.0
 34
0.0
 15
0.0
 25
0.0
 35
0.0
146
0.0
 13
0.0
 23
0.0
 33
0.0
 16
1.0
 26
0.0
 36
0.0
 17
0.0
 27
1.0
 37
0.0
 76
     0
330
1E
331
84E9F
1001
ACAD_PSEXT
1000
Microsoft Print to PDF
1000
Microsoft Print To PDF
1000
PORTPROMPT:
1000

1070
     0
  0
LAYOUT
  5
84F15
102
{ACAD_REACTORS
330
19
102
}
330
19
100
AcDbPlotSettings
  1

  2
Microsoft Print to PDF
  4

  6

 40
0.0
 41
0.0
 42
0.0
 43
0.0
 44
0.0
 45
0.0
 46
0.0
 47
0.0
 48
0.0
 49
0.0
140
0.0
141
0.0
142
1.0
143
1.0
 70
   688
 72
     0
 73
     0
 74
     5
  7

 75
    16
147
1.0
 76
     0
 77
     2
 78
   300
148
0.0
149
0.0
100
AcDbLayout
  1
レイアウト1
 70
     1
 71
     1
 10
0.0
 20
0.0
 11
12.0
 21
9.0
 12
0.0
 22
0.0
 32
0.0
 14
1.000000000000000E+20
 24
1.000000000000000E+20
 34
1.000000000000000E+20
 15
-1.000000000000000E+20
 25
-1.000000000000000E+20
 35
-1.000000000000000E+20
146
0.0
 13
0.0
 23
0.0
 33
0.0
 16
1.0
 26
0.0
 36
0.0
 17
0.0
 27
1.0
 37
0.0
 76
     0
330
1A
  0
MATERIAL
  5
84ED0
102
{ACAD_XDICTIONARY
360
84ED1
102
}
102
{ACAD_REACTORS
330
84EC7
102
}
330
84EC7
100
AcDbMaterial
  1
ByBlock
 72
     0
 43
0.0208333333333333
 43
0.0
 43
0.0
 43
0.0
 43
0.0
 43
0.0208333333333333
 43
0.0
 43
0.0
 43
0.0
 43
0.0
 43
1.0
 43
0.0
 43
0.0
 43
0.0
 43
0.0
 43
1.0
 77
     0
 47
0.0208333333333333
 47
0.0
 47
0.0
 47
0.0
 47
0.0
 47
0.0208333333333333
 47
0.0
 47
0.0
 47
0.0
 47
0.0
 47
1.0
 47
0.0
 47
0.0
 47
0.0
 47
0.0
 47
1.0
171
     0
 49
0.0208333333333333
 49
0.0
 49
0.0
 49
0.0
 49
0.0
 49
0.0208333333333333
 49
0.0
 49
0.0
 49
0.0
 49
0.0
 49
1.0
 49
0.0
 49
0.0
 49
0.0
 49
0.0
 49
1.0
175
     0
142
0.0208333333333333
142
0.0
142
0.0
142
0.0
142
0.0
142
0.0208333333333333
142
0.0
142
0.0
142
0.0
142
0.0
142
1.0
142
0.0
142
0.0
142
0.0
142
0.0
142
1.0
179
     0
144
0.0208333333333333
144
0.0
144
0.0
144
0.0
144
0.0
144
0.0208333333333333
144
0.0
144
0.0
144
0.0
144
0.0
144
1.0
144
0.0
144
0.0
144
0.0
144
0.0
144
1.0
147
0.0208333333333333
147
0.0
147
0.0
147
0.0
147
0.0
147
0.0208333333333333
147
0.0
147
0.0
147
0.0
147
0.0
147
1.0
147
0.0
147
0.0
147
0.0
147
0.0
147
1.0
  0
MATERIAL
  5
84EC8
102
{ACAD_XDICTIONARY
360
84EC9
102
}
102
{ACAD_REACTORS
330
84EC7
102
}
330
84EC7
100
AcDbMaterial
  1
ByLayer
 72
     0
 43
0.0208333333333333
 43
0.0
 43
0.0
 43
0.0
 43
0.0
 43
0.0208333333333333
 43
0.0
 43
0.0
 43
0.0
 43
0.0
 43
1.0
 43
0.0
 43
0.0
 43
0.0
 43
0.0
 43
1.0
 77
     0
 47
0.0208333333333333
 47
0.0
 47
0.0
 47
0.0
 47
0.0
 47
0.0208333333333333
 47
0.0
 47
0.0
 47
0.0
 47
0.0
 47
1.0
 47
0.0
 47
0.0
 47
0.0
 47
0.0
 47
1.0
171
     0
 49
0.0208333333333333
 49
0.0
 49
0.0
 49
0.0
 49
0.0
 49
0.0208333333333333
 49
0.0
 49
0.0
 49
0.0
 49
0.0
 49
1.0
 49
0.0
 49
0.0
 49
0.0
 49
0.0
 49
1.0
175
     0
142
0.0208333333333333
142
0.0
142
0.0
142
0.0
142
0.0
142
0.0208333333333333
142
0.0
142
0.0
142
0.0
142
0.0
142
1.0
142
0.0
142
0.0
142
0.0
142
0.0
142
1.0
179
     0
144
0.0208333333333333
144
0.0
144
0.0
144
0.0
144
0.0
144
0.0208333333333333
144
0.0
144
0.0
144
0.0
144
0.0
144
1.0
144
0.0
144
0.0
144
0.0
144
0.0
144
1.0
147
0.0208333333333333
147
0.0
147
0.0
147
0.0
147
0.0
147
0.0208333333333333
147
0.0
147
0.0
147
0.0
147
0.0
147
1.0
147
0.0
147
0.0
147
0.0
147
0.0
147
1.0
  0
MATERIAL
  5
84ED8
102
{ACAD_XDICTIONARY
360
84ED9
102
}
102
{ACAD_REACTORS
330
84EC7
102
}
330
84EC7
100
AcDbMaterial
  1
Global
 72
     0
 43
0.0208333333333333
 43
0.0
 43
0.0
 43
0.0
 43
0.0
 43
0.0208333333333333
 43
0.0
 43
0.0
 43
0.0
 43
0.0
 43
1.0
 43
0.0
 43
0.0
 43
0.0
 43
0.0
 43
1.0
 77
     0
 47
0.0208333333333333
 47
0.0
 47
0.0
 47
0.0
 47
0.0
 47
0.0208333333333333
 47
0.0
 47
0.0
 47
0.0
 47
0.0
 47
1.0
 47
0.0
 47
0.0
 47
0.0
 47
0.0
 47
1.0
171
     0
 49
0.0208333333333333
 49
0.0
 49
0.0
 49
0.0
 49
0.0
 49
0.0208333333333333
 49
0.0
 49
0.0
 49
0.0
 49
0.0
 49
1.0
 49
0.0
 49
0.0
 49
0.0
 49
0.0
 49
1.0
175
     0
142
0.0208333333333333
142
0.0
142
0.0
142
0.0
142
0.0
142
0.0208333333333333
142
0.0
142
0.0
142
0.0
142
0.0
142
1.0
142
0.0
142
0.0
142
0.0
142
0.0
142
1.0
179
     0
144
0.0208333333333333
144
0.0
144
0.0
144
0.0
144
0.0
144
0.0208333333333333
144
0.0
144
0.0
144
0.0
144
0.0
144
1.0
144
0.0
144
0.0
144
0.0
144
0.0
144
1.0
147
0.0208333333333333
147
0.0
147
0.0
147
0.0
147
0.0
147
0.0208333333333333
147
0.0
147
0.0
147
0.0
147
0.0
147
1.0
147
0.0
147
0.0
147
0.0
147
0.0
147
1.0
  0
MLEADERSTYLE
  5
84F0F
102
{ACAD_REACTORS
330
84F0E
102
}
330
84F0E
100
AcDbMLeaderStyle
170
     2
171
     1
172
     0
 90
        2
 40
0.0
 41
0.0
173
     1
 91
-1056964608
340
13
 92
       -2
290
     1
 42
0.09
291
     1
 43
0.36
  3
Standard
 44
0.18
300

342
11
174
     1
178
     6
175
     1
176
     0
 93
-1056964608
 45
0.18
292
     0
297
     0
 46
0.18
 94
-1056964608
 47
1.0
 49
1.0
140
1.0
293
     1
141
0.0
294
     1
177
     0
142
1.0
295
     0
296
     0
143
0.125
1001
ACAD_MLEADERVER
1070
     2
  0
MLINESTYLE
  5
17
102
{ACAD_REACTORS
330
16
102
}
330
16
100
AcDbMlineStyle
  2
STANDARD
 70
     0
  3

 62
   256
 51
90.0
 52
90.0
 71
     2
 49
0.5
 62
   256
  6
BYLAYER
 49
-0.5
 62
   256
  6
BYLAYER
  0
ACDBPLACEHOLDER
  5
F
102
{ACAD_REACTORS
330
E
102
}
330
E
  0
SCALE
  5
84EFD
102
{ACAD_REACTORS
330
84EFC
102
}
330
84EFC
100
AcDbScale
 70
     0
300
1:1
140
1.0
141
1.0
290
     1
  0
SCALE
  5
84EFE
102
{ACAD_REACTORS
330
84EFC
102
}
330
84EFC
100
AcDbScale
 70
     0
300
1/128" = 1'-0"
140
0.0078125
141
12.0
290
     0
  0
SCALE
  5
84EFF
102
{ACAD_REACTORS
330
84EFC
102
}
330
84EFC
100
AcDbScale
 70
     0
300
1/64" = 1'-0"
140
0.015625
141
12.0
290
     0
  0
SCALE
  5
84F00
102
{ACAD_REACTORS
330
84EFC
102
}
330
84EFC
100
AcDbScale
 70
     0
300
1/32" = 1'-0"
140
0.03125
141
12.0
290
     0
  0
SCALE
  5
84F01
102
{ACAD_REACTORS
330
84EFC
102
}
330
84EFC
100
AcDbScale
 70
     0
300
1/16" = 1'-0"
140
0.0625
141
12.0
290
     0
  0
SCALE
  5
84F02
102
{ACAD_REACTORS
330
84EFC
102
}
330
84EFC
100
AcDbScale
 70
     0
300
3/32" = 1'-0"
140
0.09375
141
12.0
290
     0
  0
SCALE
  5
84F03
102
{ACAD_REACTORS
330
84EFC
102
}
330
84EFC
100
AcDbScale
 70
     0
300
1/8" = 1'-0"
140
0.125
141
12.0
290
     0
  0
SCALE
  5
84F04
102
{ACAD_REACTORS
330
84EFC
102
}
330
84EFC
100
AcDbScale
 70
     0
300
3/16" = 1'-0"
140
0.1875
141
12.0
290
     0
  0
SCALE
  5
84F05
102
{ACAD_REACTORS
330
84EFC
102
}
330
84EFC
100
AcDbScale
 70
     0
300
1/4" = 1'-0"
140
0.25
141
12.0
290
     0
  0
SCALE
  5
84F06
102
{ACAD_REACTORS
330
84EFC
102
}
330
84EFC
100
AcDbScale
 70
     0
300
3/8" = 1'-0"
140
0.375
141
12.0
290
     0
  0
SCALE
  5
84F07
102
{ACAD_REACTORS
330
84EFC
102
}
330
84EFC
100
AcDbScale
 70
     0
300
1/2" = 1'-0"
140
0.5
141
12.0
290
     0
  0
SCALE
  5
84F08
102
{ACAD_REACTORS
330
84EFC
102
}
330
84EFC
100
AcDbScale
 70
     0
300
3/4" = 1'-0"
140
0.75
141
12.0
290
     0
  0
SCALE
  5
84F09
102
{ACAD_REACTORS
330
84EFC
102
}
330
84EFC
100
AcDbScale
 70
     0
300
1" = 1'-0"
140
1.0
141
12.0
290
     0
  0
SCALE
  5
84F0A
102
{ACAD_REACTORS
330
84EFC
102
}
330
84EFC
100
AcDbScale
 70
     0
300
1-1/2" = 1'-0"
140
1.5
141
12.0
290
     0
  0
SCALE
  5
84F0B
102
{ACAD_REACTORS
330
84EFC
102
}
330
84EFC
100
AcDbScale
 70
     0
300
3" = 1'-0"
140
3.0
141
12.0
290
     0
  0
SCALE
  5
84F0C
102
{ACAD_REACTORS
330
84EFC
102
}
330
84EFC
100
AcDbScale
 70
     0
300
6" = 1'-0"
140
6.0
141
12.0
290
     0
  0
SCALE
  5
84F0D
102
{ACAD_REACTORS
330
84EFC
102
}
330
84EFC
100
AcDbScale
 70
     0
300
1'-0" = 1'-0"
140
12.0
141
12.0
290
     0
  0
ACDBSECTIONVIEWSTYLE
  5
84F11
102
{ACAD_XDICTIONARY
360
861A5
102
}
102
{ACAD_REACTORS
330
84F10
102
}
330
84F10
100
AcDbModelDocViewStyle
 70
     0
  3
Imperial24
290
     0
100
AcDbSectionViewStyle
 70
     0
 71
     0
 90
       78
 71
     1
340
11
 62
   256
 40
0.24
340
0
340
0
 62
   256
 40
0.24
300
I, O, Q, S, X, Z
 40
0.48
 90
        3
 40
0.18
 90
        1
 71
     2
340
15
 90
       25
 62
   256
340
15
 90
       50
 62
   256
 40
0.24
 40
0.0
 40
0.24
 71
     3
340
11
 62
   256
 40
0.24
 90
        1
 40
0.75
 90
        1
300
%<\AcVar ViewType \f "%tc1">% %<\AcVar ViewSectionStartId>%-%<\AcVar ViewSectionEndId>%\PSCALE %<\AcVar ViewScale \f "%sn">%
 71
     4
 62
   256
 62
   257
300
ANSI31
 40
1.0
 90
        0
290
     0
290
     0
 90
        6
 40
0.0
 40
1.570796326794896
 40
0.2617993877991494
 40
1.308996938995747
 40
-0.2617993877991494
 40
1.832595714594044
  0
TABLESTYLE
  5
84EFB
102
{ACAD_XDICTIONARY
360
84F48
102
}
102
{ACAD_REACTORS
330
84EFA
102
}
330
84EFA
100
AcDbTableStyle
  3
Standard
 70
     0
 71
     0
 40
0.06
 41
0.06
280
     0
281
     0
  7
STANDARD
140
0.18
170
     2
 62
     0
 63
     7
283
     0
274
    -2
284
     1
 64
     0
275
    -2
285
     1
 65
     0
276
    -2
286
     1
 66
     0
277
    -2
287
     1
 67
     0
278
    -2
288
     1
 68
     0
279
    -2
289
     1
 69
     0
  7
STANDARD
140
0.25
170
     5
 62
     0
 63
     7
283
     0
274
    -2
284
     1
 64
     0
275
    -2
285
     1
 65
     0
276
    -2
286
     1
 66
     0
277
    -2
287
     1
 67
     0
278
    -2
288
     1
 68
     0
279
    -2
289
     1
 69
     0
  7
STANDARD
140
0.18
170
     5
 62
     0
 63
     7
283
     0
274
    -2
284
     1
 64
     0
275
    -2
285
     1
 65
     0
276
    -2
286
     1
 66
     0
277
    -2
287
     1
 67
     0
278
    -2
288
     1
 68
     0
279
    -2
289
     1
 69
     0
  0
VISUALSTYLE
  5
84EE6
102
{ACAD_XDICTIONARY
360
8617E
102
}
102
{ACAD_REACTORS
330
84EE0
102
}
330
84EE0
100
AcDbVisualStyle
  2

 70
     4
 71
     0
 72
     2
 73
     0
 90
        0
 40
-0.6
 41
-30.0
 62
     5
 63
     7
 74
     1
 91
        4
 64
     7
 65
   257
 75
     1
175
     1
 42
1.0
 92
        0
 66
   257
 43
1.0
 76
     1
 77
     6
 78
     2
 67
     7
 79
     5
170
     0
171
     0
290
     0
174
     0
 93
        1
 44
0.0
173
     0
291
     0
 45
0.0
1001
ACAD
1000
AcDbSavedByObjectVersion
1070
     0
  0
VISUALSTYLE
  5
84EE5
102
{ACAD_XDICTIONARY
360
8617C
102
}
102
{ACAD_REACTORS
330
84EE0
102
}
330
84EE0
100
AcDbVisualStyle
  2

 70
     7
 71
     1
 72
     0
 73
     1
 90
        0
 40
-0.6
 41
-30.0
 62
     5
 63
     7
 74
     0
 91
        4
 64
     7
 65
   257
 75
     1
175
     1
 42
1.0
 92
        8
 66
     7
 43
1.0
 76
     1
 77
     6
 78
     2
 67
     7
 79
     5
170
     0
171
     0
290
     0
174
     0
 93
        1
 44
0.0
173
     0
291
     1
 45
0.0
1001
ACAD
1000
AcDbSavedByObjectVersion
1070
     0
  0
VISUALSTYLE
  5
84EEC
102
{ACAD_XDICTIONARY
360
8618A
102
}
102
{ACAD_REACTORS
330
84EE0
102
}
330
84EE0
100
AcDbVisualStyle
  2

 70
    12
 71
     2
 72
     2
 73
     0
 90
        0
 40
-0.6
 41
-30.0
 62
     5
 63
     7
 74
     1
 91
        4
 64
     7
 65
   257
 75
     1
175
     1
 42
1.0
 92
        8
 66
     7
 43
1.0
 76
     1
 77
     6
 78
     2
 67
     7
 79
     5
170
     0
171
     0
290
     0
174
     0
 93
        1
 44
50.0
173
     0
291
     1
 45
0.0
1001
ACAD
1000
AcDbSavedByObjectVersion
1070
     0
  0
VISUALSTYLE
  5
84EF0
102
{ACAD_XDICTIONARY
360
86192
102
}
102
{ACAD_REACTORS
330
84EE0
102
}
330
84EE0
100
AcDbVisualStyle
  2

 70
    16
 71
     2
 72
     2
 73
     3
 90
        0
 40
-0.6
 41
-30.0
 62
     5
 63
     8
 74
     1
 91
        4
 64
     7
 65
   257
 75
     1
175
     1
 42
1.0
 92
        8
 66
     8
 43
1.0
 76
     1
 77
     6
 78
     2
 67
     7
 79
     5
170
     0
171
     0
290
     0
174
     0
 93
        1
 44
0.0
173
     0
291
     1
 45
0.0
1001
ACAD
1000
AcDbSavedByObjectVersion
1070
     0
  0
VISUALSTYLE
  5
84EE9
102
{ACAD_XDICTIONARY
360
86184
102
}
102
{ACAD_REACTORS
330
84EE0
102
}
330
84EE0
100
AcDbVisualStyle
  2

 70
     9
 71
     3
 72
     2
 73
     0
 90
        0
 40
-0.6
 41
-30.0
 62
     5
 63
     7
 74
     2
 91
        2
 64
     7
 65
   257
 75
     1
175
     1
 42
179.0
 92
        8
 66
     7
 43
1.0
 76
     1
 77
     6
 78
     2
 67
     7
 79
     3
170
     0
171
     0
290
     0
174
     0
 93
        1
 44
0.0
173
     0
291
     0
 45
0.0
1001
ACAD
1000
AcDbSavedByObjectVersion
1070
     0
  0
VISUALSTYLE
  5
84EEB
102
{ACAD_XDICTIONARY
360
86188
102
}
102
{ACAD_REACTORS
330
84EE0
102
}
330
84EE0
100
AcDbVisualStyle
  2

 70
    11
 71
     2
 72
     2
 73
     0
 90
        0
 40
-0.6
 41
-30.0
 62
     5
 63
     7
 74
     1
 91
        4
 64
     7
 65
   257
 75
     1
175
     1
 42
1.0
 92
        8
 66
     7
 43
1.0
 76
     1
 77
     6
 78
     2
 67
     7
 79
     5
170
     0
171
     0
290
     0
174
     0
 93
        1
 44
-50.0
173
     0
291
     1
 45
0.0
1001
ACAD
1000
AcDbSavedByObjectVersion
1070
     0
  0
VISUALSTYLE
  5
84EF8
102
{ACAD_XDICTIONARY
360
861A2
102
}
102
{ACAD_REACTORS
330
84EE0
102
}
330
84EE0
100
AcDbVisualStyle
  2

 70
    22
 71
     2
 72
     2
 73
     0
 90
        0
 40
-0.6
 41
-30.0
 62
     5
 63
     7
 74
     1
 91
        4
 64
     7
 65
   257
 75
     1
175
     1
 42
1.0
 92
        8
 66
     7
 43
1.0
 76
     1
 77
     6
 78
     2
 67
     7
 79
     5
170
     0
171
     0
290
     0
174
     0
 93
        1
 44
0.0
173
     0
291
     1
 45
0.0
1001
ACAD
1000
AcDbSavedByObjectVersion
1070
     0
  0
VISUALSTYLE
  5
84EEF
102
{ACAD_XDICTIONARY
360
86190
102
}
102
{ACAD_REACTORS
330
84EE0
102
}
330
84EE0
100
AcDbVisualStyle
  2

 70
    15
 71
     2
 72
     2
 73
     0
 90
        0
 40
-0.6
 41
-30.0
 62
     5
 63
     7
 74
     1
 91
        4
 64
     7
 65
   257
 75
     1
175
     1
 42
1.0
 92
        8
 66
     7
 43
1.0
 76
     1
 77
     6
 78
     2
 67
     7
 79
     5
170
     0
171
     0
290
     0
174
     0
 93
        1
 44
0.0
173
     0
291
     1
 45
0.0
1001
ACAD
1000
AcDbSavedByObjectVersion
1070
     0
  0
VISUALSTYLE
  5
84EE1
102
{ACAD_XDICTIONARY
360
86174
102
}
102
{ACAD_REACTORS
330
84EE0
102
}
330
84EE0
100
AcDbVisualStyle
  2

 70
     0
 71
     2
 72
     1
 73
     1
 90
        2
 40
-0.6
 41
30.0
 62
     5
 63
     7
 74
     0
 91
        0
 64
     7
 65
   257
 75
     1
175
     1
 42
1.0
 92
        8
 66
     7
 43
1.0
 76
     1
 77
     6
 78
     2
 67
     7
 79
     5
170
     0
171
     0
290
     0
174
     0
 93
       13
 44
0.0
173
     0
291
     1
 45
0.0
1001
ACAD
1000
AcDbSavedByObjectVersion
1070
     0
  0
VISUALSTYLE
  5
84EE2
102
{ACAD_XDICTIONARY
360
86176
102
}
102
{ACAD_REACTORS
330
84EE0
102
}
330
84EE0
100
AcDbVisualStyle
  2

 70
     1
 71
     2
 72
     1
 73
     1
 90
        2
 40
-0.6
 41
30.0
 62
     5
 63
     7
 74
     1
 91
        0
 64
     7
 65
   257
 75
     1
175
     1
 42
1.0
 92
        0
 66
   257
 43
1.0
 76
     1
 77
     6
 78
     2
 67
     7
 79
     5
170
     0
171
     0
290
     0
174
     0
 93
       13
 44
0.0
173
     0
291
     1
 45
0.0
1001
ACAD
1000
AcDbSavedByObjectVersion
1070
     0
  0
VISUALSTYLE
  5
84EE3
102
{ACAD_XDICTIONARY
360
86178
102
}
102
{ACAD_REACTORS
330
84EE0
102
}
330
84EE0
100
AcDbVisualStyle
  2

 70
     2
 71
     2
 72
     2
 73
     1
 90
        2
 40
-0.6
 41
30.0
 62
     5
 63
     7
 74
     0
 91
        0
 64
     7
 65
   257
 75
     1
175
     1
 42
1.0
 92
        0
 66
     7
 43
1.0
 76
     1
 77
     6
 78
     2
 67
     7
 79
     5
170
     0
171
     0
290
     0
174
     0
 93
       13
 44
0.0
173
     0
291
     1
 45
0.0
1001
ACAD
1000
AcDbSavedByObjectVersion
1070
     0
  0
VISUALSTYLE
  5
84EE4
102
{ACAD_XDICTIONARY
360
8617A
102
}
102
{ACAD_REACTORS
330
84EE0
102
}
330
84EE0
100
AcDbVisualStyle
  2

 70
     3
 71
     2
 72
     2
 73
     1
 90
        2
 40
-0.6
 41
30.0
 62
     5
 63
     7
 74
     1
 91
        0
 64
     7
 65
   257
 75
     1
175
     1
 42
1.0
 92
        0
 66
   257
 43
1.0
 76
     1
 77
     6
 78
     2
 67
     7
 79
     5
170
     0
171
     0
290
     0
174
     0
 93
       13
 44
0.0
173
     0
291
     1
 45
0.0
1001
ACAD
1000
AcDbSavedByObjectVersion
1070
     0
  0
VISUALSTYLE
  5
84EE8
102
{ACAD_XDICTIONARY
360
86182
102
}
102
{ACAD_REACTORS
330
84EE0
102
}
330
84EE0
100
AcDbVisualStyle
  2

 70
     6
 71
     1
 72
     2
 73
     2
 90
        0
 40
-0.6
 41
-30.0
 62
     5
 63
     7
 74
     2
 91
        2
 64
     7
 65
   257
 75
     2
175
     1
 42
40.0
 92
        0
 66
   257
 43
1.0
 76
     1
 77
     6
 78
     2
 67
     7
 79
     3
170
     0
171
     0
290
     0
174
     0
 93
        1
 44
0.0
173
     0
291
     0
 45
0.0
1001
ACAD
1000
AcDbSavedByObjectVersion
1070
     0
  0
VISUALSTYLE
  5
84EF6
102
{ACAD_XDICTIONARY
360
8619E
102
}
102
{ACAD_REACTORS
330
84EE0
102
}
330
84EE0
100
AcDbVisualStyle
  2

 70
    20
 71
     2
 72
     2
 73
     0
 90
        0
 40
-0.6
 41
-30.0
 62
     5
 63
     7
 74
     1
 91
        4
 64
     7
 65
   257
 75
     1
175
     1
 42
1.0
 92
       10
 66
     7
 43
1.0
 76
     1
 77
     6
 78
     2
 67
     7
 79
     5
170
     0
171
     0
290
     0
174
     0
 93
        1
 44
0.0
173
     0
291
     1
 45
0.0
1001
ACAD
1000
AcDbSavedByObjectVersion
1070
     0
  0
VISUALSTYLE
  5
84EEE
102
{ACAD_XDICTIONARY
360
8618E
102
}
102
{ACAD_REACTORS
330
84EE0
102
}
330
84EE0
100
AcDbVisualStyle
  2

 70
    14
 71
     2
 72
     2
 73
     0
 90
        0
 40
-0.6
 41
-30.0
 62
     5
 63
     7
 74
     1
 91
        4
 64
     7
 65
   257
 75
     7
175
     7
 42
1.0
 92
        8
 66
     7
 43
1.0
 76
     1
 77
     6
 78
     2
 67
     7
 79
     5
170
     0
171
     0
290
     0
174
     0
 93
        1
 44
0.0
173
     0
291
     1
 45
0.0
1001
ACAD
1000
AcDbSavedByObjectVersion
1070
     0
  0
VISUALSTYLE
  5
84EF7
102
{ACAD_XDICTIONARY
360
861A0
102
}
102
{ACAD_REACTORS
330
84EE0
102
}
330
84EE0
100
AcDbVisualStyle
  2

 70
    21
 71
     2
 72
     2
 73
     0
 90
        0
 40
-0.6
 41
-30.0
 62
     5
 63
     7
 74
     1
 91
        4
 64
     7
 65
   257
 75
     1
175
     1
 42
1.0
 92
        9
 66
     7
 43
1.0
 76
     1
 77
     6
 78
     2
 67
     7
 79
     5
170
     0
171
     0
290
     0
174
     0
 93
        1
 44
0.0
173
     0
291
     1
 45
0.0
1001
ACAD
1000
AcDbSavedByObjectVersion
1070
     0
  0
VISUALSTYLE
  5
84EEA
102
{ACAD_XDICTIONARY
360
86186
102
}
102
{ACAD_REACTORS
330
84EE0
102
}
330
84EE0
100
AcDbVisualStyle
  2

 70
     8
 71
     2
 72
     3
 73
     0
 90
        2
 40
-0.6
 41
30.0
 62
     5
 63
     7
 74
     0
 91
        0
 64
     7
 65
   257
 75
     1
175
     1
 42
1.0
 92
        8
 66
   257
 43
1.0
 76
     1
 77
     6
 78
     2
 67
     7
 79
     3
170
     0
171
     0
290
     0
174
     0
 93
       13
 44
0.0
173
     0
291
     0
 45
0.0
1001
ACAD
1000
AcDbSavedByObjectVersion
1070
     0
  0
VISUALSTYLE
  5
84EF5
102
{ACAD_XDICTIONARY
360
8619C
102
}
102
{ACAD_REACTORS
330
84EE0
102
}
330
84EE0
100
AcDbVisualStyle
  2

 70
    27
 71
     2
 72
     2
 73
     1
 90
        2
 40
-0.6
 41
30.0
 62
     5
 63
     7
 74
     0
 91
        4
 64
     7
 65
   257
 75
     1
175
     1
 42
1.0
 92
        8
 66
   257
 43
1.0
 76
     1
 77
     6
 78
     2
 67
     8
 79
     3
170
     0
171
     0
290
     0
174
     0
 93
        5
 44
0.0
173
     0
291
     0
 45
0.0
1001
ACAD
1000
AcDbSavedByObjectVersion
1070
     0
  0
VISUALSTYLE
  5
84EF4
102
{ACAD_XDICTIONARY
360
8619A
102
}
102
{ACAD_REACTORS
330
84EE0
102
}
330
84EE0
100
AcDbVisualStyle
  2

 70
    26
 71
     2
 72
     2
 73
     1
 90
        2
 40
-0.6
 41
30.0
 62
     5
 63
     7
 74
     1
 91
        2
 64
     7
 65
   257
 75
     2
175
     1
 42
1.0
 92
        8
 66
   257
 43
1.0
 76
     1
 77
     6
 78
     2
 67
     7
 79
     3
170
     0
171
     0
290
     0
174
     0
 93
        5
 44
0.0
173
     0
291
     0
 45
0.0
1001
ACAD
1000
AcDbSavedByObjectVersion
1070
     0
  0
VISUALSTYLE
  5
84EF1
102
{ACAD_XDICTIONARY
360
86194
102
}
102
{ACAD_REACTORS
330
84EE0
102
}
330
84EE0
100
AcDbVisualStyle
  2

 70
    23
 71
     2
 72
     2
 73
     3
 90
        0
 40
-0.6
 41
-30.0
 62
     5
 63
     7
 74
     2
 91
        2
 64
     7
 65
     7
 75
     1
175
     1
 42
40.0
 92
        8
 66
     7
 43
1.0
 76
     1
 77
     6
 78
     2
 67
     7
 79
     3
170
     0
171
     0
290
     0
174
     0
 93
        1
 44
0.0
173
     0
291
     0
 45
0.0
1001
ACAD
1000
AcDbSavedByObjectVersion
1070
     0
  0
VISUALSTYLE
  5
84EF2
102
{ACAD_XDICTIONARY
360
86196
102
}
102
{ACAD_REACTORS
330
84EE0
102
}
330
84EE0
100
AcDbVisualStyle
  2

 70
    24
 71
     1
 72
     2
 73
     2
 90
        0
 40
-0.6
 41
-30.0
 62
     5
 63
     7
 74
     2
 91
        2
 64
     7
 65
     7
 75
     1
175
     1
 42
40.0
 92
       11
 66
     7
 43
1.0
 76
     1
 77
     6
 78
     2
 67
     7
 79
     6
170
     0
171
     0
290
     0
174
     0
 93
        1
 44
0.0
173
     0
291
     0
 45
0.0
1001
ACAD
1000
AcDbSavedByObjectVersion
1070
     0
  0
VISUALSTYLE
  5
84EED
102
{ACAD_XDICTIONARY
360
8618C
102
}
102
{ACAD_REACTORS
330
84EE0
102
}
330
84EE0
100
AcDbVisualStyle
  2

 70
    13
 71
     2
 72
     2
 73
     0
 90
        0
 40
-0.6
 41
-30.0
 62
     5
 63
     7
 74
     1
 91
        4
 64
     7
 65
   257
 75
     1
175
     1
 42
1.0
 92
       12
 66
     7
 43
1.0
 76
     1
 77
     6
 78
     2
 67
     7
 79
     5
170
     0
171
     0
290
     0
174
     0
 93
        1
 44
0.0
173
     0
291
     1
 45
0.0
1001
ACAD
1000
AcDbSavedByObjectVersion
1070
     0
  0
VISUALSTYLE
  5
84EE7
102
{ACAD_XDICTIONARY
360
86180
102
}
102
{ACAD_REACTORS
330
84EE0
102
}
330
84EE0
100
AcDbVisualStyle
  2

 70
     5
 71
     0
 72
     2
 73
     0
 90
        0
 40
-0.6
 41
-30.0
 62
     5
 63
     7
 74
     1
 91
        4
 64
     7
 65
   257
 75
     1
175
     1
 42
1.0
 92
        0
 66
   257
 43
1.0
 76
     1
 77
     6
 78
     2
 67
     7
 79
     3
170
     0
171
     0
290
     0
174
     0
 93
        1
 44
0.0
173
     0
291
     0
 45
0.0
1001
ACAD
1000
AcDbSavedByObjectVersion
1070
     0
  0
VISUALSTYLE
  5
84EF3
102
{ACAD_XDICTIONARY
360
86198
102
}
102
{ACAD_REACTORS
330
84EE0
102
}
330
84EE0
100
AcDbVisualStyle
  2

 70
    25
 71
     2
 72
     2
 73
     1
 90
        1
 40
0.5
 41
-30.0
 62
     5
 63
     7
 74
     1
 91
        0
 64
     7
 65
   257
 75
     1
175
     1
 42
1.0
 92
        8
 66
     7
 43
1.0
 76
     1
 77
     6
 78
     2
 67
     7
 79
     3
170
     0
171
     0
290
     0
174
     0
 93
       13
 44
0.0
173
     0
291
     0
 45
0.0
1001
ACAD
1000
AcDbSavedByObjectVersion
1070
     0
  0
DICTIONARYVAR
  5
84F44
102
{ACAD_REACTORS
330
84F3E
102
}
330
84F3E
100
DictionaryVariables
280
     0
  1
1:1
  0
DICTIONARYVAR
  5
84F40
102
{ACAD_REACTORS
330
84F3E
102
}
330
84F3E
100
DictionaryVariables
280
     0
  1
STANDARD
  0
DICTIONARYVAR
  5
84F3F
102
{ACAD_REACTORS
330
84F3E
102
}
330
84F3E
100
DictionaryVariables
280
     0
  1
STANDARD
  0
DICTIONARYVAR
  5
84F41
102
{ACAD_REACTORS
330
84F3E
102
}
330
84F3E
100
DictionaryVariables
280
     0
  1
Imperial24
  0
DICTIONARYVAR
  5
84F42
102
{ACAD_REACTORS
330
84F3E
102
}
330
84F3E
100
DictionaryVariables
280
     0
  1
Imperial24
  0
DICTIONARYVAR
  5
85D9D
102
{ACAD_REACTORS
330
84F3E
102
}
330
84F3E
100
DictionaryVariables
280
     0
  1
1
  0
DICTIONARYVAR
  5
85D9C
102
{ACAD_REACTORS
330
84F3E
102
}
330
84F3E
100
DictionaryVariables
280
     0
  1
0
  0
DICTIONARYVAR
  5
84F46
102
{ACAD_REACTORS
330
84F3E
102
}
330
84F3E
100
DictionaryVariables
280
     0
  1
1
  0
DICTIONARYVAR
  5
84F47
102
{ACAD_REACTORS
330
84F3E
102
}
330
84F3E
100
DictionaryVariables
280
     0
  1
15
  0
DICTIONARYVAR
  5
84F45
102
{ACAD_REACTORS
330
84F3E
102
}
330
84F3E
100
DictionaryVariables
280
     0
  1
0
  0
DICTIONARYVAR
  5
8616F
102
{ACAD_REACTORS
330
84F3E
102
}
330
84F3E
100
DictionaryVariables
280
     0
  1
1.570796
  0
DICTIONARYVAR
  5
86170
102
{ACAD_REACTORS
330
84F3E
102
}
330
84F3E
100
DictionaryVariables
280
     0
  1
1.570796
  0
DICTIONARYVAR
  5
84F43
102
{ACAD_REACTORS
330
84F3E
102
}
330
84F3E
100
DictionaryVariables
280
     0
  1
0
  0
DICTIONARYVAR
  5
85D9B
102
{ACAD_REACTORS
330
84F3E
102
}
330
84F3E
100
DictionaryVariables
280
     0
  1
127
  0
DICTIONARYVAR
  5
86171
102
{ACAD_REACTORS
330
84F3E
102
}
330
84F3E
100
DictionaryVariables
280
     0
  1
2
  0
DICTIONARY
  5
861A7
330
84F13
100
AcDbDictionary
280
     1
281
     1
  3
ACAD_XREC_ROUNDTRIP
360
861A8
  0
DICTIONARY
  5
84ED1
330
84ED0
100
AcDbDictionary
280
     1
281
     1
  3
ACAD_XREC_ROUNDTRIP
360
85DAE
  3
BUMPTILE
360
84ED3
  3
DIFFUSETILE
360
84ED2
  3
OPACITYTILE
360
84ED6
  3
REFLECTIONTILE
360
84ED5
  3
REFRACTIONTILE
360
84ED7
  3
SPECULARTILE
360
84ED4
  0
DICTIONARY
  5
84EC9
330
84EC8
100
AcDbDictionary
280
     1
281
     1
  3
ACAD_XREC_ROUNDTRIP
360
85DAD
  3
BUMPTILE
360
84ECB
  3
DIFFUSETILE
360
84ECA
  3
OPACITYTILE
360
84ECE
  3
REFLECTIONTILE
360
84ECD
  3
REFRACTIONTILE
360
84ECF
  3
SPECULARTILE
360
84ECC
  0
DICTIONARY
  5
84ED9
330
84ED8
100
AcDbDictionary
280
     1
281
     1
  3
ACAD_XREC_ROUNDTRIP
360
85DAF
  3
BUMPTILE
360
84EDB
  3
DIFFUSETILE
360
84EDA
  3
FBXASSET
360
84F26
  3
OPACITYTILE
360
84EDE
  3
REFLECTIONTILE
360
84EDD
  3
REFRACTIONTILE
360
84EDF
  3
SPECULARTILE
360
84EDC
  0
DICTIONARY
  5
861A5
330
84F11
100
AcDbDictionary
280
     1
281
     1
  3
ACAD_XREC_ROUNDTRIP
360
861A6
  0
DICTIONARY
  5
84F48
330
84EFB
100
AcDbDictionary
280
     1
281
     1
  3
ACAD_ROUNDTRIP_2008_TABLESTYLE_CELLSTYLEMAP
360
86172
  3
ACAD_XREC_ROUNDTRIP
360
861A4
  0
DICTIONARY
  5
8617E
330
84EE6
100
AcDbDictionary
280
     1
281
     1
  3
ACAD_XREC_ROUNDTRIP
360
8617F
  0
DICTIONARY
  5
8617C
330
84EE5
100
AcDbDictionary
280
     1
281
     1
  3
ACAD_XREC_ROUNDTRIP
360
8617D
  0
DICTIONARY
  5
8618A
330
84EEC
100
AcDbDictionary
280
     1
281
     1
  3
ACAD_XREC_ROUNDTRIP
360
8618B
  0
DICTIONARY
  5
86192
330
84EF0
100
AcDbDictionary
280
     1
281
     1
  3
ACAD_XREC_ROUNDTRIP
360
86193
  0
DICTIONARY
  5
86184
330
84EE9
100
AcDbDictionary
280
     1
281
     1
  3
ACAD_XREC_ROUNDTRIP
360
86185
  0
DICTIONARY
  5
86188
330
84EEB
100
AcDbDictionary
280
     1
281
     1
  3
ACAD_XREC_ROUNDTRIP
360
86189
  0
DICTIONARY
  5
861A2
330
84EF8
100
AcDbDictionary
280
     1
281
     1
  3
ACAD_XREC_ROUNDTRIP
360
861A3
  0
DICTIONARY
  5
86190
330
84EEF
100
AcDbDictionary
280
     1
281
     1
  3
ACAD_XREC_ROUNDTRIP
360
86191
  0
DICTIONARY
  5
86174
330
84EE1
100
AcDbDictionary
280
     1
281
     1
  3
ACAD_XREC_ROUNDTRIP
360
86175
  0
DICTIONARY
  5
86176
330
84EE2
100
AcDbDictionary
280
     1
281
     1
  3
ACAD_XREC_ROUNDTRIP
360
86177
  0
DICTIONARY
  5
86178
330
84EE3
100
AcDbDictionary
280
     1
281
     1
  3
ACAD_XREC_ROUNDTRIP
360
86179
  0
DICTIONARY
  5
8617A
330
84EE4
100
AcDbDictionary
280
     1
281
     1
  3
ACAD_XREC_ROUNDTRIP
360
8617B
  0
DICTIONARY
  5
86182
330
84EE8
100
AcDbDictionary
280
     1
281
     1
  3
ACAD_XREC_ROUNDTRIP
360
86183
  0
DICTIONARY
  5
8619E
330
84EF6
100
AcDbDictionary
280
     1
281
     1
  3
ACAD_XREC_ROUNDTRIP
360
8619F
  0
DICTIONARY
  5
8618E
330
84EEE
100
AcDbDictionary
280
     1
281
     1
  3
ACAD_XREC_ROUNDTRIP
360
8618F
  0
DICTIONARY
  5
861A0
330
84EF7
100
AcDbDictionary
280
     1
281
     1
  3
ACAD_XREC_ROUNDTRIP
360
861A1
  0
DICTIONARY
  5
86186
330
84EEA
100
AcDbDictionary
280
     1
281
     1
  3
ACAD_XREC_ROUNDTRIP
360
86187
  0
DICTIONARY
  5
8619C
330
84EF5
100
AcDbDictionary
280
     1
281
     1
  3
ACAD_XREC_ROUNDTRIP
360
8619D
  0
DICTIONARY
  5
8619A
330
84EF4
100
AcDbDictionary
280
     1
281
     1
  3
ACAD_XREC_ROUNDTRIP
360
8619B
  0
DICTIONARY
  5
86194
330
84EF1
100
AcDbDictionary
280
     1
281
     1
  3
ACAD_XREC_ROUNDTRIP
360
86195
  0
DICTIONARY
  5
86196
330
84EF2
100
AcDbDictionary
280
     1
281
     1
  3
ACAD_XREC_ROUNDTRIP
360
86197
  0
DICTIONARY
  5
8618C
330
84EED
100
AcDbDictionary
280
     1
281
     1
  3
ACAD_XREC_ROUNDTRIP
360
8618D
  0
DICTIONARY
  5
86180
330
84EE7
100
AcDbDictionary
280
     1
281
     1
  3
ACAD_XREC_ROUNDTRIP
360
86181
  0
DICTIONARY
  5
86198
330
84EF3
100
AcDbDictionary
280
     1
281
     1
  3
ACAD_XREC_ROUNDTRIP
360
86199
  0
XRECORD
  5
861A8
102
{ACAD_REACTORS
330
861A7
102
}
330
861A7
100
AcDbXrecord
280
     1
102
DISPLAYNAME
  1
Imperial24
102
FLAGS
 90
        0
  0
XRECORD
  5
85DAE
102
{ACAD_REACTORS
330
84ED1
102
}
330
84ED1
100
AcDbXrecord
280
     1
102
MATERIAL
148
0.0
149
0.0
149
0.0
 93
        0
 94
      127
282
     0
 72
     0
 77
     0
171
     0
175
     0
179
     0
273
     0
  0
XRECORD
  5
84ED3
102
{ACAD_REACTORS
330
84ED1
102
}
330
84ED1
100
AcDbXrecord
280
     1
270
     1
271
     1
  0
XRECORD
  5
84ED2
102
{ACAD_REACTORS
330
84ED1
102
}
330
84ED1
100
AcDbXrecord
280
     1
270
     1
271
     1
  0
XRECORD
  5
84ED6
102
{ACAD_REACTORS
330
84ED1
102
}
330
84ED1
100
AcDbXrecord
280
     1
270
     1
271
     1
  0
XRECORD
  5
84ED5
102
{ACAD_REACTORS
330
84ED1
102
}
330
84ED1
100
AcDbXrecord
280
     1
270
     1
271
     1
  0
XRECORD
  5
84ED7
102
{ACAD_REACTORS
330
84ED1
102
}
330
84ED1
100
AcDbXrecord
280
     1
270
     1
271
     1
  0
XRECORD
  5
84ED4
102
{ACAD_REACTORS
330
84ED1
102
}
330
84ED1
100
AcDbXrecord
280
     1
270
     1
271
     1
  0
XRECORD
  5
85DAD
102
{ACAD_REACTORS
330
84EC9
102
}
330
84EC9
100
AcDbXrecord
280
     1
102
MATERIAL
148
0.0
149
0.0
149
0.0
 93
        0
 94
      127
282
     0
 72
     0
 77
     0
171
     0
175
     0
179
     0
273
     0
  0
XRECORD
  5
84ECB
102
{ACAD_REACTORS
330
84EC9
102
}
330
84EC9
100
AcDbXrecord
280
     1
270
     1
271
     1
  0
XRECORD
  5
84ECA
102
{ACAD_REACTORS
330
84EC9
102
}
330
84EC9
100
AcDbXrecord
280
     1
270
     1
271
     1
  0
XRECORD
  5
84ECE
102
{ACAD_REACTORS
330
84EC9
102
}
330
84EC9
100
AcDbXrecord
280
     1
270
     1
271
     1
  0
XRECORD
  5
84ECD
102
{ACAD_REACTORS
330
84EC9
102
}
330
84EC9
100
AcDbXrecord
280
     1
270
     1
271
     1
  0
XRECORD
  5
84ECF
102
{ACAD_REACTORS
330
84EC9
102
}
330
84EC9
100
AcDbXrecord
280
     1
270
     1
271
     1
  0
XRECORD
  5
84ECC
102
{ACAD_REACTORS
330
84EC9
102
}
330
84EC9
100
AcDbXrecord
280
     1
270
     1
271
     1
  0
XRECORD
  5
85DAF
102
{ACAD_REACTORS
330
84ED9
102
}
330
84ED9
100
AcDbXrecord
280
     1
102
MATERIAL
148
0.0
149
0.0
149
0.0
 93
        0
 94
      127
282
     0
 72
     0
 77
     0
171
     0
175
     0
179
     0
273
     0
  0
XRECORD
  5
84EDB
102
{ACAD_REACTORS
330
84ED9
102
}
330
84ED9
100
AcDbXrecord
280
     1
270
     1
271
     1
  0
XRECORD
  5
84EDA
102
{ACAD_REACTORS
330
84ED9
102
}
330
84ED9
100
AcDbXrecord
280
     1
270
     1
271
     1
  0
XRECORD
  5
84F26
102
{ACAD_REACTORS
330
84ED9
102
}
330
84ED9
100
AcDbXrecord
280
     1
 70
     1
 90
652598616
 71
     1
  1
0E61E192-3980-4F54-9F1B-1B78ADBD1D30
311
504B030414000608080054926350C288EC4340010000A80100004F00000037453237323830422D363141302D343536432D393735342D3338453245423644353134352F4173736574446174612F446566696E6974696F6E4974657261746F7250726F706572746965732E62696E3550BD4EC33010B65309C4C08040D9901818
311
6B12E73F4808C58DCB94051E00B9C1B495DCB4AA1321B62E9518D979091EA04FC153F000DDE1AE145B9FEF7CDFF9EE3BBF11427EF60B5C42012B388FC1DEE9462FA7F5433DD133450E3062E623652EC11BE63C1A4461C192C4172C8AC1CB6229982CE2340A445A88307120EF1050EA67D599164B56535B6B6354A3E79D3D81
311
C0BEC7C54CB5D04B992B7C7444089A1580FC13162B8DFF14A1C817807A5A5CDF2A6B757BE3A53248830CB424BCF041503260791A472CCC64204552C63C8ABD7B6DE7DDB2D6D6F365C225CF0316E619A40F21331F72C1B848B3A214252F43DF6B271D7ECD19CA18356A6A3CDFDB4B785C3463BAA515604B373BB83BDFA52EDC
311
5DFAE520837B0D1BB90DFD703670AEE93B3D059CC38C5B18056BF49DD71EE656F41B6C453F7B84F4F10F80AD80EDFF02504B03041400060808005492635022844DDF00010000300200004500000037453237323830422D363141302D343536432D393735342D3338453245423644353134352F4173736574446174612F496E
311
7374616E636550726F706572746965732E62696EEB606060F80F0540260323103700495E20ED9E9A975A94991C9C9C919A9BA80214307035337435B434D235B6B430D035713335D1B5743374D2357432B77074717231743136604768046931363471713532B5D435353131D635313332D475727372D13534373670367376B6
311
7474B5042A03DBCBA019D37FE8ABC6157B20CD04146B0062181F4C03F940F0C11EA29A8141C08141002C0426541C106CAC2CA046088033B02A030AC2157C6006F21A8018AAF50194E6010A610250382264E08660284CD9E98021862280A91564B406929A0FF62C401E28B6F88038B83CB1243943D7A928312F253505240352
311
0FA4E000C4E7807805AC4B172AC30D5781CAC0A51F00504B03041400060808005492635088E57597CD3F0000904100006B00000037453237323830422D363141302D343536432D393735342D3338453245423644353134352F5265736F75726365732F30453631453139322D333938302D344635342D394631422D31423738
311
41444244314433302F7468756D626E61696C2F302F67656E657269635F706E67355B773CD4FF1FBF73E71C0E67EF7576C9DEF3EC995D46C6A1EC5046649CBDF79E192942562825CE965D8A868C2842C8DE9FDFD1F7E7F138F7078FCF6B3F5FCFD7EBFDFEC41B196891913091804020321D6D7513FC77D8C5070EC3FFEE51B2
311
1F068154CC75D455CC028A3EA68992803810109FDDE5D5CEC5521B28A1B422BF80741695D5B529DA1C2D058AD2388BDA9F476F7C2CADC939304173DBF48A452BF8A700C0C70C3D121C1AA15A5270C22E2B9E28763651F7DA0D12CE11077B2ECD0D560B5E3DE2368B1E65C5E1C87384A4CC5F2D9FB8BE39E9B77C753783A379
311
98F5CEF1B4FEE553463245C9712270880DF339E0B882A6BA713D865F6F384C842D440934EF264F4A304F8DE4EEFA1E2BF5E2D91F5ADD9613D6E31DDB33ED31DB1D7916CAF091286EA3D31B9CFECB78BB0060245B943C4C040119FF780A74DD308BA9D028678674EB5504ECF284EE814DAED07440BAF649BE4B55DA2890F4D7
311
3E2D489A59EE54FDB0A85B59F2F52C4858A02705C4815A792B0C4A996A2023ECB195073E115E3E3647F64243A8338F2000BCB58DA5692C7E7C3D413F963FEDF3CF00FBB0F831A9D51360FECA43819F527B89FA260EB63C5DA676830AA3626A3693B23F1A17A0DFFCE3EE164E31B5365EDF0C89EF64D8E38AB0BA9A1117D7C3
311
A0EC44F44F4023095E80BA610DE336D0F99593A88BFC5306E72DF98F7FD132ED95878DF2964EA7E43071359FD83B2BDF9C6B5BDF768F0F3C0FC351199526F53D9460A34511F75D1B63E488178569472C91A94497807A3FD4A390C6558F26D416365C3656DE6E769DA9D8FC73774E1709812842DD8EF96AED1960F79D21B395
311
CDDFE6F92CB4EB962A4668C76990E2EF29798C8941D67DA50F4A5F947872460F1F6FDB794E8A29FD7AC0C0D6E0714339CE258FB17AE8535221E3464A10F29A0BE5EEECEFC5675926A89F49EB14E5711894F6586DB5754EB4D5DA9C6437EBA57DB97A24F8B8A8DB295FFD73266CF57E82694DF5166DDF93573AFE9C9C5EB05F
311
8FEF8E89E0A8917B0B3724DB7BEBB53252581EFC3E38166BA131A3A5B42FE2AD00A769BBFA4458D2DE7822F8C4F63D0B8E21B285AE13325F3410A435C648C9D91FDEB109E73CEDA7BC796961AF79175E1A3CE4C5E8B0D009B0C9E29EFD98BC8E97554E3D8D838424E270F7685226E5AC268E021EDE3522D583E8F20C0BDE29
311
59EF5BBFEEDAB32FE9A3ED0E39F211A86AA9DEBFC68182EDED132AB8BB794442D2D7EA9F4D8BFF52BC4D55BB165124EE90A42D101E67BBBB292FFB4F66DE5BF2300E44546757DA7CEF8932BFC9F92A0707953491A55C5A5ACEDABD9FA1AEA01BAC3DC5A24E22E7C47213493996EFBC369D086ED9397C9BA6C7F9855C7BD5E1
311
5BFC8C53DB3D2A4C5901A57ACD2FBDF4D1676E95338B2C2BCE65FDA4C64F5FEFDC7D9CA5AA1FCF11E193F2FDABF0F4916BF13FB916A224380E6462A9815F2300DC49CC4DF8D055CEF76462F4B7A7ACA7365C2707891370BC1D0AA6203C44CCAB47084FEC057F27FFCD57F89B8B9852459798A675C66BD7CE572CAF71FF7E6D
311
7ECF7BF62CAB7B3F1107DCD04DC55A3F9961700286141C94A4F771FEB2BCDA2DDEE0CB0BAE402FF1DB0100F8E475DFFFC074DDB4498AB7D186A7654DDB1CB680D703D47CEB4E72F8CB13D86A4AA68116E26387B93FD6738779B34FEDB8E517EDF2BAF28D9BE93A1D3A164320E07D42E514725C29515FF361754213EDE06B07
311
9A2E99EB1CA82A02019EADEEB87B9AF005BD04BBCECB14AACD6B24EFBE482194A97DD32400685FF1FEF1544D1B14EFB1E7F08E6D2CD2AF52DE757F35F5E62332EE88EA26417AD5C3E0E319D68F25414E6D672BD4522B278C57D18F0113921C71D96527E091F00CEB15AE23D24667369BD3CEFA10C7549D930890BA4366F4EB
311
C55F01F746109F98ABCDD5A3EE06619C6AD78AB33E48E4C9BD21BF7478B385EC05C4F8987E2C1BFA0A60EBEDAA0AE0B015C2720ECE180FB6F2DEFBEB822D96338C9B63822183BBF52FB664A7AE57003AABCE512BF77E7E31BDA2E739AC4C131657DDFE5225E900FB56CC01CDE808FA4A9C9DA16AC679656BB64796283D8981
311
2B8F91136AE18EE5EBBAF47A73BE3C153EB5D4CD491B4BFB4FE690A4CF9ABA08C0D8AA64220C438C96EA6CA80B58FE5761E697B3A292EB9FBDA502FA863E49FE694ADDFFF9D62C520BDD1A22014147A0903A05B9B729F54272EF83931FEEC057BFF8C8055C279EAC5C0011804828734024F6CFA319C9CC6867C727184465CD
311
9BB7ED386AFFD96B294A85E3802FAE47244602D8273615952B98C4F23F7EAE4463D9D638EEE374A20959E0FE519C4CFB0FBFE5DD80C2AA3F9DB961D1BDE57E67C9BB47B77FDD74EE3094F5DBBE3EBC1FBDB7393F5116263009E2EFE1AF9A221B2AE234C902BF70E9F280ED23E73908361565964333A3F01D0B006AF32FB21A
311
A1316744B489D5A198E85299241735BE559675130955C902A8ED761FC0DBE337A9F91919AF5CE32AF902ADF9AB2615E00E8A94586BA1A90839B61832FF1BFB76D2EFADE6DB1BA04CCAD3DA649E7E2A0219F592E22F2AD54847EEA8E42271011E9074F8F3DD9FBA6CDF88FFC9FC7E811AD1CA8F4557CE4AFC7BBEDCF0114A48
311
689F20A584520C74DA8127124B767E2FB91A6B186246727BE63C9445BAE02088D58B8EFDC0F1072407CD9B89A13F6303B4A928F593AD489B58E6869325790ADC406036C591729FE14021F94B7796BB11848D463536A092A26F077F94639F7CEEE2A724C66EC885F4A24F8B8A0AC321F8FD149BA529460FAA34E4663C02D41F
311
DF80BCA222D42F0ABFF8490F4FA74C673807C2051D8E467B47B616072860069A9A303ABA9B319D58404461401B0A0F9BE5E1E151C14BC33B32ABE03DDE91708DFAEB15E7C0D593C86BB7D7EC17BE56E57975F077BFD5525F3A1A361D584A75E08CF29FC7B44B2B3085014F3A5A14517377C3F6B8F37E59514C3B12F8AACDED
311
DA4DFC49BE5710101534CD6FB6DE15B50F11A09472AABA727F0C49D9CB906B158030065F48EB3625E010CEC1D511D0053474B11E6A4F01C0D6EF1BED3A944FDEC70E0DDCDC756C86545910E0DAE3BE3AA9A404574C2995CD5CAF9549226BC94B4F4F0F5F9086F418F6B32346464610D8BC7391D3C3A3CCF04CFC1FB2A3A317
311
0E369511868F14EEA4E5E438CC73DB1F3248AA94B6B2FF33B222FF3D1E7BF146CAD229770158063BCE4F5391964DF62F7E52A7BE0EEA829C9E13C4C147D6F93FE59E111DAB5E4594D6F3CD1AD375EE039930EFE5AF2BB2D41C83C7DABD8C659BAFBE8FAB392CA634F3D15C1D945DB4588D2B0824A4EC928AAC565557CA2F0D
311
AA588CA5BE30B3A8004F7BF005E96CBF891D7F18112A3619FDF530DC8AA64954258E1811789B5189B49B4EB53F5F89F7D37523894F3EB57B373763C91E502F52CC99EB7BDDF933FC324C4FFC2561DFFA7339FAFDD0A4BFBE6D3A8FF9ED1FC49898139864602458968913181918F719CCF5A68B2EE9C1FF050E34E63107003B
311
8120FA982C21B30A874E4F5E4B38D5A8290C4B8D9BE48A0BE31EA995BDC37AC6DE90BA17D259DEF53605D55922FEB1855D915B659FBEB350EE0DFB2F9F766E1C84CC8964B75D08667445EAB966015F63A18A9E0A325C1B3DC628C0D3CB60F767FA93CC65F25458BD23C3B312716E5F40E5858AC06EBA9AB14F95DB99147B83
311
2069201541D09A0D856E12C629CF32683760EE855537D1901988D5EBC156676C7DD51D7207CF3267AF1D76C2AD867315E44618015313A98B19941C696FED3461CAA9B5415F918556D7802EDACEFD6B2E45853A9735DFC9DBF7E440F9319F8B6805A973BCCDC76C069A9144E51F187EDCC12FC31B5DEAAF0A76137199B106EC
311
84ADA6B6EE697D4E6A96E007417F4E880E8B1E89B4BCE9D81EF611E2ED8F0C1A6C25F620FAFAAB656A7C42D464880E8AFAB0E0FC8EA38CA9A8AEEAEE3E4648BA4680270A89743CDD3E6C6CBF34B7B640EFA285ABC7EA0A1E28F3CC963D114A80123EE66D0AF7D5380EB41909B605AB4765B709B808590458157E69BA1378FE
311
C4B48CAF6A730E3BE3C5EF2DD1A5EAF94B1DDE50CEB55DDFD7EE9A16747FA4B223359FB1FCC69E1194892BABB93A1D5C4E807AC0EA2E30180811E77A2291F6E7F7FAA5E0F60215BC6024E48DE436C511F0628B8CA189982D4D83CCA17D305A7E923C37941CFDFDCD93ACAF735EF5F0E61BBD3E6C41A59B242790D3A3BAC706
311
4DCD89AA2E37214EC839820949D5CAA31E240D2948E48F690298974A96BA9A8432BC90F5071D6537C9666EA4564796B7AFFFA548077BEEA75F63083435074BA182F3699557397F71548383FDA8CA34D99B981E72835ECDA5DDDC151315173D05A21F651AAF8524E88209E2E7A737ED1045800CE3390050BCFB8BE588DF1116
311
17874C62575039CA588EEFDEFEFE319B739DE2EDC147092A262611E159650E787917885EF08F1F51B8F2D8A71D60B58B190FEF9541A1BE94BC19FEA50784DA1419FE4B0FB51B8D36B5FF8E1286FD8AF42B91E59A5F1CC4D60174E764045FD8C57B18209B217F89A62252BD20BE0E63E12B8E8F029FE19E0E8D0870F58721A5
311
57082250D5424F7909369376E41666C0EE77CD87CB283F661D5FB6D0DA023CB67320A20DC7BE661E9E1BFE5463085C557DA1FF9BE835733766C3D139F2CF9E2208873AD0EB4814DE9E6BF2CAF81614D4D43906ED1C05A3265CABBFE192770FC2F64F940CB6B17B5F166F133C9AEEAD2641807C3E69515171DD74C4A8531151
311
3D6EC9530B3B601B6BA3EBFF3B5C3D2F7D69765141E345F75433953D013ADDF8F6AA7DC3F4A7563FE5C7D367937E2900D7EAD0F9FC9A4A1A9B5BDF1FEF08532660C01C5D6DE22199AA774383E306DAB87E301ABB7D213887F9869D4942D0D71E94B27EDF216A318BD488D45DF84529EF575AF3C3938C0AAA0215B01994153E
311
2054A0B894DA5C784980633AAD48576957CF4AEAEAFADC7C587368551C73DBE1E57C58AC713303A8BFC258BD04B51724459FF9E24C03A81E0E0679CEB9B348C0DC998FEB9C6D6EFA77D247CC8F92D3848599ED89A23218D0636465AD1CEEB7DC140D7426F83491C4E8E8281C2FB35240918FFECE880CA2A42D70E8B20B34DF
311
5221C7DB0CF90ECCB9C745B37A47E9B716FF7A97B7A252C1F3814DC7B1E1A7F72B8751D524EF7CAE45B0C73B3BE7D08ED39781B380DDFC9AA4A4749C9493DB5BAD07A6EA6C092FBD0E85DB004DF06B8C9D3089C5320187E4CE1846158C7EA7DDAE8AD9AFFF21AA3A1026BB06A259845E8232DEE62811A4DA9CEAB3A4887320
311
B76E2AE5615EAB7BDF738CBDD01F1E64064BC13D9EC53576751CA8CACD58B3CEB0E6CA585BD089B2A59B9FC101403387AADBDBE70586B93D64BF3AD4453EF9C3B6A93817E8346991798601344F79A83C51F3D50F7BF2683A3605F51A72449489E0EE6169C749C60B1035651103AEE24D24E51A759C840DD3FC6504DA6FE107
311
510E447B43461C79D22970B75DE5E1BD3007D1AFC619A4A4A69B5626AF5E9B8374E20677F77E2F8E73DF868E8BEC7EBA7B6A75EEF7205E1AB9486CB642741D6E03FF13FCCEDB1C4AC129886268B01CDF4B124AF797CF784F3C6DEC97A17D4B558070A0F1C04DA4FF9BDBF34159AEFE958479824B3F58EBD1E19088A2AFDE50
311
1B6F2052368A3FD0E650A179EFAB1561E1D27527077136E652676C3670F42DCB3352F48F6BC86D2C3B0051727E41A0A4DC6CE2BE9D47F5CAA2935A3C0539AF080665997194ABECD723B08129CC5B6B21D2E7D54CD4D12610E7E9FB8306771A89576C7A982002775ED44F3F744CF21EEBB27A631671D921938AAEE3EB0D19CD
311
1E083727F607823E817BF599DCED5394E37EEBC2E88782E638920CA641EF74D4CDFCDEF06F4278ECB18E31E7E9876F2D783C8BF429C75395F57E98C2B495A3DA077EB3AC3C158608B6B57FE3EA48484D9A480096FCEE0DE880950E7E5A5714131C5C41AAA29FD19AE81AC145FA1B9E85C7169A5AB837B213493DF7E9AA4B5F
311
BF9CDEB36EBD21EF1181B7CF7366AB2A951D01E37AF4EB835D1BE8C117CFBE7625D2EBCDB0B20C5A4B45CED0BCDE3EE8DA9DA78C2E21DEAAFFD1197E463C33CC6A80FB785669B856EFF7A8CCCA2841B5A5369173320B1170C368B2748D81062EA0296E5E2D95D7667A4A46D98A6FF475C76AAB0A8C8D45E226FAFC9FE0133E
311
A9F60111F99CA81ACE03A1D14C89E8B0D69079C91464FA1D99E651D0EAF606F345C42A8A1AA9BA391031582B96D5B4176A77AADB01F12FD298A75DEEBB2C82F0B8650E880722F8DDD90C56A7A058E5FDEF1AC93545BA27367C76F5D8F9690CB6F8DAE141EDD7971F0FB548A2AE435F224D6E5954CA155512F7332029D5A123
311
0854B79F258EC5FFDB09F5F6343A8EB193229B7F7E79B3E48F8E183860B38C8269D1B53738FF1E0BACF6AADA6D4869E9DE708E79B5DADCC09B1BC76F649731CFAF59A83FD8BAE4C749D66FA87A3810D4D62FFE826FA400C0F325D2BC0F3CA35F5847B82A2ACC7961745C823E4D863D54460AF792CE6F79B5C7A33B25C3AEA6
311
CDE15A919B6367D781E9D44F61BF828672594A3E1D9EDD6DF179A81F27EAC05B936575D73E05C209DDD2115CFB705DF9BBF3C911589B3640735E9E618FC9C36A7326C82B2205E244C55D56FDB9D5DC93CE958D4BF8174D2B3DA54CB3C09F2C2A6DFF73D23B2197355761AD421EC581284A7EF8DE2CE3497C0C804D49B41DFD
311
6A7360844E5BEFFB495CFCDB97A4595911CDBA623274CE852B5E278AF0BEB1770E9D37CD977B2766A7DED0E94B840E1E95E8C77DE5CB6354AF7871427C28ADBEEF7BA0A28E19DE9ACD75F379FE373EAE6DDDAE3834692F9C2B03B4FCA8FCA9ABE8EEEBEBB725B88A7C90941E850682CA04061A7DF0CE82ED49BFAFFD42C309
311
818FAE14755CAAE78B0F73243ECCCAD7DF58FCB9CDFAE7A4D3E6671A613639130D056C8383C8F4FCF4808C331E544DD26E4755D09EA05253B3049A1E32587CC25D72E073E2CD96D04A71BBCB0038FEC3F53D254199C3CDC67CD66640269431860225392B2CB3ECD0B4498AAE78BA1994246AE1EE78F2EDFB79F6C6CB6B5E27
311
9C4D373FBC21CB2698C9ACBBEB6A4BB6B39E16AB0E421CCBFC7654D81ED86022F9BB522146F9F4772E2D0E4FA70120C95A85A417BF5078B232F4754363EB1750B2AC2148EB46B1EA72AD9B4D23ADCBC589D70106C3EC2ABEEED84DFE28E718C6C83502C28E9FDD3B09DA0A6F6F7B72B706A31C9E2A331EE70DA56A083D2177
311
BFD63C55B11D8D949FAFCF90B23A1E24B9B5018B9A17E99F2890EC302F330FE7936E2C23F0D237EC8916F5166AB84B62A21BB0B950146962D754F92CC2C8877BED8FC7B7B25726DD19545392570B3A2C66B58F027BEF412E552D12A588C4A3CC5C3193FCB3485EFFF700D0B9EEC077754A33DC1FB9E25AF814628F91DDFECB
311
667D3F7690803F38D13F8AE39353523BB08FC6760144AFA2CE28236F65EDBB3D5F59A57D612B99E3D7E5F8A851666BF9B5A6658EFC96EEB37A378ABB0EB3FDDF1303AF32C41BD1C8560745D7BD81066B0D6313359CF488563D3BA3F8E2185D1FAA3EBA1397C9D0E3DD232180A4DCADB6AF25DB3AC3CC26589C8239E66E8154
311
7BC7E2F328F9884764CA37EB5DBE390DFC03A5246B456A7C3684C4377D0EEF9A350680FA9A077E8B2957B489E09AB1AD41316944C2254B5984830F691C93CAA767EECF976FA5647538830B5E63236A6F0365C1E0F3E327F24FE35EDDBD7360B0F7374837409F7A6311BECC12B7026D4FA1AE204FA3F5FE904B1F420C7A9044
311
AE58E403E7C4848E7DA25DC9EDAC79DD756FAA26B9EA83ACE8A214A2612A22AFA19DAE7DBAC5F8CDE1292A485F98DAC731A29FE01A3966E96BCB9FB5A4C8830E1B9AF0C54B87FBE221A097036E5D28D1F869F810C06A9BB0AC0612F69AEBAF893C6E7AD59460208BAB3A6B09CA4F6BDDAB8CF0D1F84B72487498395A70DCD7
311
54796E271099A567A55CF242BBED64696378BB6CF25EF0FCDB589F3A82F1116D010A9AB9FA4358809EE0C973A2B4229BAA876A70B03AB49CBA7FBE71DB1832FFD32F9BF2C8E98075CACAFB36921235D0F552B6A67E94E094097A5D7DF681B40623DA535ADA7A9AD8E9A62407D7C9A5AE51D62A17A83A23728DE86BB5611580
311
4D3F2675F2C6B87541A0FC497BF0CA86420F558C9859EBE9FAD62747E323E3AADC03FDCDDFE7407B09DA90B44E3185723C5381EAEF589765E2F7A099BA46695BAD60CEF3491B8A171F5F56444F7CE9455312C3498C74173AEA0214EC029833B34B650CBB5A5508D5091665309642791708ECF27CF11DB3D797D6CFE474453B
311
D4BFADB768094B2147814D81C7CBAF8228DCAF5564B5891F5EF6A860EB2E323CB82AB868D8EA048880D63B0DE5341F1B3D53297B928A11E15F25E5148990F710747C3509ED14909C552EBE3973246FCE55D00564D8310BC3EBC5085D08D806799B77D6C57FDF5E55837F9E934F09C03C729271B64F12D0A9F9E938107CAF7B
311
F1EC8CF1BB9B42363D33070F4CACB425E605DDB0A34A12BB936DE286B9887A4E2E558F0886498BFF49C311D96C277CF6A9FC0D75AD0ECC5226D7E0E3572012E56D7FDE4410CEC7A6D0F997F225A2055B8B92E3956E875AE4993CB3D4C9063AF98FD45E1BAB165640A43439A2C9181A7C355B297C0A0CCFFAE19B6FA3C2BA23
311
8A885FBC98B8F6DAF4B94B97304878DF4D8BFF6A4AEDF79E90ED4E68F00CD7299F4E0D83E35601AF0CBEF18C1E870E74758FA91F5131075004DB3CFCF09AE1DABC11957FD9808C92E8A678CE9DBE40DDA0E0D1D505AAFBCBA208232BFB6FB3704E8985E61ADE53DE74152F5C7DE74B1DEDCD37DC3E8FB30D7EBA8B9EFFC360
311
6BF90B8D438279CB7709FC7C00D327F41817EEA71CD9E49FE9C8C9A81C70915D9F0F15958EC5AA4C3BBFAF46986B90F188BDB24B89DE3C6F29EC3E6F66D84856EE96A35E657CA41B41EFD8DBFA16AD6E91439EA92B40B21C053249F51AE50EB0B24C770FFAF40DF12C8436366819C48E36547D4E7B72FE2BBF108285830578
311
14A668BDF183F6B2E58DFB151103E56303E63D00F39C27C4661605DB644D19175D02E3F0241E8FC3458D17AAAADB117CE9EEA690D0DB01E634878C04C2C9310B69FCAB831151E3AD293BEF6E46B0ABCECB50F5939B39C613D41E81FAE8D34CAE3C4566B761D37185FE864AC32FCB71AEF39DAA5BAB88609BB980CD2F07A8F9
311
41653B529567726E2B2A58D079DD57E1E5E31426CF184A04D7B03B985F276D47406AF276FE32E3328BA866EB1FD39BEF57863A317634AA5FE467409B3873F5069EF0D71AF00AD189D17BA1974ECDB2D623E9E14086386A6AAB5807825C37B015BFE892AFD154920EC437EB945D958E18622E1E0FE2FA06557CE4BB9BBD05A2
311
D40E774DA2B65473791E314B7D6C886820B2FCFE4AA272B3B8B15E7344A145E8AF919B5454D89D36D413E87211186BF6F645E5EC94DCCE8E1C799022E4EC9BC86D7A0F2AFB1FC4B2CE48F84B3F49ECE65BAD24CADCC07EFF39AB06BE9E6B27A059938EA7208838455383DDBCFCD967DDE4650EF92A14FF933C975DB20BD7FE
311
EBC4487576485963D757D16340D9599FEB362F775F38CA4185A86F74B629C81B133644A3B18FD056E997E0734F9BE26D11C0AAFC669E2AC9FC41D281F8B2E1C35AE27BCE05F3DA295488096688719D974DF1B5D182DB7792288697F8763CFB43562C1CDEE11C4AABD5C22B6E33F6F389CFC3477C5919DC0D533F8A7A1846B7
311
ADB60ABDC26C43D0CFC8910B7C15EE22675BD02702ED39DB77A87A192CA7A543E6205B979B9F5A6B512A3CA799E198B2D5797C0AF8D1D872CA455D4D431A7879D4DD76110B5FF7F4176B54477A9EB5E4A5D11214FDA585F0382751D8E2582BA5D2075053298FEB8F1537304E32CB22C2E2B693DC0A760B1DFCA751BDC445AF
311
DCBB12820ED85F6D5298933C7EF1211E9E057684056CDA3FEF3BB6052355E162DF27C59E965A8DDB7F9437EB72CDDA3A090DE65A5B2F50326247B7EC67B73ACC7047FC9B353D6EE990F772207C6EC52B39DC2F3C0754821DAB559F7C1809C7D0DD5B0499D0442E0A6E391B3D5DB46D11E731E6794EC77523FBDAA242ED67F9
311
FA1FB684255671F63C9BCFE6E7E896D51001A6113EF2298BA494E0B0980D1FA5B9D60796554C02256B1E0345FB7C6186B6A19D2DCA270416262845FA4F42DB5D9B0A0B6F07FCA2E56C242522E001E0CEB734AF310FC8BFB57E38E03AACE93B3326A2197891E68452B26A6307FDABFEE0223D3C03C3C73D2D5BC054C8311F12
311
004CAE488E5C29287F8156A2CAA4AD0D7BE6B97264E4139F437CE73ADF52E5134C52B819777C18B323A5924E4F67AFD13B1CDC3A61793A79FAF5C0CEB718E441071E797C6DCCB9EFCF7E4A1E9F3DF3C2F9C9E8294E9586868788C972857FB0556D7A26941A7EEB9B580AD78EC40B85DC906B4120A563CA3B87797ED612D3B0
311
35962BB75F6515A393F4CB057F564CDF54F2E5A024514E6A1F901DB80C7E70B1FC05E356A7E72FABF4775B3E3FB8F70A2A8E7B6A94542BB304157978CCC999E707A29CC795E67A59CC546A5D47B368954CA7B6E75EC9E1F6FC73CE3B4F71F8CB1A6B15923D61EAAEB14626AAA9D04A26EB9C66CD1BE86CA31A5D8703DE04CD
311
1EBCE4F5CCB62F93909AD11E55799A781A956ED27D3E738F4538CB04ADABC7DAEF20BC35BA6A90BCC1DC61BA05F20D8832FFB9BC9B15E2DB838A0AFBB7E0C82A562127E0446894F427794C3037186F622BF24DE1B00AA10A23BFA47B2A180D6DA5AD6F7326FEB8C100C2D7142EB2A0B2A9D1008A09BA343D70E054AB69E2A7
311
EDB783CBD92537FAF4A44D1296AC2792729104B3276C276C951D0CF3CF3F1E6B017720A7B8505A5FF9589365979678C36F1BAF759EAF57C60F1FF5FE9DCF5F8E764FF25A2D06CF25117A8FED51884C13B2B750DB0E4F5E3D64124FCF11F0AD8F1CC3B3DA4B38ED22BF1CB2585EE6BFEBBA63FBFD44F9537B9B37BDD6B35872
311
0F98A8125AED4349CCFEB0E135F19E208A04CA7E2B10711185D72E381F448036EF57C9F874E54A971CA37A639E986AC0226DC5AA00D5B14FEA9192234B3DE617814FC221C92F33F1D392F297731B567FD98FD91D989379AF567A65B8ADF177591DB90FBEA99BF4ED11B16E50A0AB1DBF1156D034BBE04D69D08F939D8E92BF
311
525A1DDAFF80ECBC95D8F45D3FDD289FD23F7D8B452F8EBB34EC082DEEE68E18EDDF072060FAD2AB1504DD4879BF67099FC58F6E9DEFBF645D16334A3E9A127C6F1AF6132CF287E433B43A0EE93812B4AA0B194E03EE3FF91EF9C6ED0074A2F6EB18A96A7C9890B1FCDA1F2095E944DB911ED54C60DF16FB74C8CE9BDC7C54
311
C4F14078CF73C2FFF1F1BBCCD7CF64F71407EA1683DBC410D226627F66E509060D5C0AFD611DE681D509DB8DD12FB1265B03C6F5C55FF4C30BD94187FF692B4F152982502F193098A789526A038AB529A52BC0DC4FB6285CBAC10A8B8DB75DCD9BDABBB221E27D1F8DA9F5EE5926A1C8AA9BA9BC09239C6A7F12914EA3B59E
311
FF7AAEC3FFCCE56F1C5C2980AD072793527565E774F4631DB178CEEC691B1F367BEA0CF2907E1D6B854D527065979DDEF002D8B2ACEA7CE21AE297737EDE1D45B31233B73FEA35BCFDD0B09721FDBAF6432681F2FD10C3E9EFB246FD6E854B344ACC9D8A0EEF876A7314B49B6A499FC650B099D650DBFEC7638ADFD245E2B7
311
839DA5AC5F7D5623FC0ECEEC8653FC9B2BDD1AD4D00A566FBA7186DD3C9CD26512551637498CADB950FEC71ADB9A5524285DE328B8EC7EC75D2345AEC6A27C42AF6D9B92155315C80DBFCABBB7DA0FAE425C4FB896B15C9BFAC4FE67DF5A23D30C93DA4D8F36FB15D100050DA6062E22AEC5F4DAC4F6FEEF97AE05DE63C6D3
311
8F9E068A20BC5E3B6BCD75320C5090924E7F93640A7735B1A43451C2D91EE62C6238B797349E59890AF3A520DF4A87095F3ABEC2E61F0593416CE46CDCBE0E00E2523FCCD04408588B5B6C9DB6459C786CE378770B54F51DA3A5E1DF2A3349BEAAC234A6CF8993B598B3B25B4B113E353A4D750FA7534749430F3EBF2512E7
311
EA3FD43C6AB9A1F765A58463B306721A15D224FAFE8C6F5E3432D57EE697DA0DD5A9D4866A8BCCAAA9DFF1F06047851408FEC060471D0E3EB86BFAF46E4B5E60311DC3E3CEA147C75CF971BE74689507154FF2D2E92F15CDB2B9182B11459FD8ACAC5A85F174BC94A7F4EE4C4F5CAFA7C02E37BF0BC77B7DCD0C047BC316F5
311
62A01A441AFA7931CC84A28CB9F4AA367EB515778F29BFE61195FA671F4352E5E46E3A64773F1F76EE5EB36D7BCE9BCEAD837A4D77F8DB8C92AEEF6711920D7C7D0F76B0FD0EB7AB83724CD35BCA7D36DDDF5FBB7FF6F04A91F3E2BB3B8F1A43CD659639507FF6331C5F697BCC782AE57D757A27D97F1AB9E0AEDB43F92F1B
311
2AACDF5FEC8ADBAF9F814E2027003BA2F9E144B1938A7A04050AE5D953B82C45619165C813A10E76DD6906B3C16438064D14CDA713AEC420034613E1AC7241904A49FBF87409AFB1FCB9B72FE7933A87D8FBEDACECE4EDCF6A4FE9FB94D5DEB74FAB7CFEAE17EE965DF980DCCA2D04134994F9A2E94D2265DA4FE6AA7B7AC1
311
5FACAC2B5ABBCD7DFF542C5314FDAB2E1B9D8B65220B8E2B638BE008E8DCA22678C820C5053664D15E89F2D735B51A84955E81A443545E9FF787BE0FA700A76D136C27DA179A7C6E8939E01BE756E19CB292798063D8B97F44E8A27BCF3A614FEB8BE974A718E86F7EC99B53CA35FA24F61F2B07266684623A3D4CF073E511
311
F3A10A8FDAFAF0078C577F4DF9D339FE7862E5FA47CF4344209E5BF76D783B1B48E152AD281B15FCB934DCDA49CEC5706B1EE8B460F435324A5CAD154725E21AB8044B75A557A79F6C807B9340AA3D92503E866F4274412926C8C504E4D5EF8C0E68DD0B028781A6B4054F11CF18941F101C57CCC796773ABC8DED9CD91FE5
311
788806C05E548895354AEAC96546D55B0E94A59F148D061F42AA398D822CDECA4CDE79E13469BDCC44FDC990F366BA5978C15F97ED80CBFD73B0CD9B8B83A4F6845BDFBFAF034019473FB9A63BD55D3A4A7284757071574029A4D016DCCBE95DD679EF3C4880BF169422F8C89B68A988D2B13793CAED4F74DE7486C72DC94D
311
F46B8E93D8E02EFCB1FF9B3BA10C8AE7F653DF94F4AF466CDDCEF5776687F7C4C14B63E4EED1719DC2EC482D7DBCC7AE518CDE3D5FF86D39000EC3673C0044E1D308BF05F74D1B5F033A7D1BE7F74BC55BBE3E4A20F920946CA0271EB17BD2B80E5660ACB8A29A79F5E4BBA49D4D945B6EEF4A7EFEAA65E5555BBB57A7E15D
311
2F83C69F30BBB978D2B39F1F26FC097424D39BB33CA3D87ABF64E307938B685BAD44F71556A30B7E712CA4FE600613C3E554B69ADE949A7CFE214DF1FFF05CB82151EC6FC31950239F94CF7AD39DC473F6EA356E5EC2C4EFA04383CEFE985A127484366FBEE3C0EC4FEA363E4F6632AE781392FD45D67B63FB8DF70E82734F
311
431FD3443172A0E30A83D60982D55FA6A2CF86DBA8382502ACC6CDEF3B907982EED1160E14863FA242F9757347E1544275CCDCF71ECD5F8621CBEA326B8BA884AD7F825781923E66971F04010D574C541D8427A438A37EEF8AF88240EED7362C953F5A81DE2D56109CDE2524EA0F5D2F87308C0C47BD97AD605878AB8589E1
311
7CA83930CB5E0DCCD75853D68B1AB136594926DE426C367428E9334AFAFF90ECE221BB5DC9E5BB53D2CDEF954EAA9CD814F0E5725F1965DD458E5F8487683AD86B9D0076BE3EE91EB1CECC5331A67A3F79D8B27587C12EC2A6A70474749F27B4C0BBAFB94B34189E88DC18964BE4121B9137FD516C7755356E50D6714E31AC
311
D222621EBBCD1CFF81D87479056A9DA0E0B8EA19D24CF937DA89F78E8650CCBDC110AAB6C4E46DCBFD0446BA9E2060E81F314AC2031E88135E5476AC0160EF5C0DD2EEF1B8B5CB2D198BE9A554A9093B5F7D7E4B5407DDFCA1D9C152FD97F55BFFFDFE802954DFEC8995B983E28AC92F1971E28F531DC407A1280EB125F64A
311
72E617EFB27DFBCEDCDA2D6F2BDADA36873EE46B9BE1782998C63DA7182BC383FB6FD15DA472B175D7E8B4FC88F38D6E07FEAA3FA3CBB8F6B449ECF14D2175E5C5CCA3A42ABF24CA6C9395AF74535F4DDB38CB84F56614B0FD32D7E19CA5CF988DB4449C40E23DF2B16772594554579094450F56F253CD25EA7F77366FB1CF
311
E79696C428BB64D5A41E986189427E5E4D7E2DAE3D5BB4972B3DC44EAABDDDD63A2264ECFA5C786EB0EE1FDC5BE34FA0F08376869FD1E61EA06CAE15191135445EE8F0394161C3266A596AA035572BB0C8876180D8B9C77D307DF9DCDF7365ABDA6F3A2366436457A4DFC1F259666569A9E4A79C817BDD5610E5200FCE894A
311
358EC72858D50EF67545DA81C6FACE3D457BAF70367E1E6BDD9A952FB4F56247F58F523B97E640246051A72F79BE42FFA0B3187F63097F91C48B868586F714B0EBD5A00A8412C1236E1298F60C72BE6C96B82B404CADAA304AE9F303176B14BA53FBC2D5E86377E35542019E24D97B96A49B2C0E5006E7795954DEAF5DA589
311
58839043C6C70BD3B1B33B6DC5C31316D8A6923F142E26F6711A2258AF977DDF1F970ECC4F1F2B434B96D81BEB6E89BF3BBB3C7C8CC80505070723D6D7D7D3C8CA27CA164A26024FED94B12A86031867241DA53D929636DA600F050BC40CE48B8BA03D69224720DEE2ED2127390BDF5E6EA64527BBD4C4C63FA76BB801FEEC
311
0E61218EC98A8A86CD8313781617877E66692839B9468CF4DB8E50A73986E558E309C0D6F676F921BE02F1185454DC75B111572FF9D27D85EA14C05AD7271225B391C4275659CA4A43759D0BA44639BE4C30A84DB7F67A41399FB95CBF923B1B1672ABC807C1590557FB18D811983FA97F5E609516D62281D38B1281F68FC7
311
5528C35E4CD7DF0F7DBB5E5DD69C414EBEA2F4A5B241B996BA77AE6C772E367408C633EA3E438B68563EA8BE7667F3A4C4FDEEA52ABD78A2820F443B7914A15F180018D231E64519C56A12F6CA7C8DAE18F06F6B769DBF92329EF6A5D18FBCE600F36BD8E8198DE5CDAA96181F3A756EBA5501CEE58F497EA4F418A2B82565
311
B9BCC611713C0B708CCA1F398B78C5F7D03B3437CC18F13061F55C7BEDADD5ACB1DB0E36D3CE47FF6EA1A563A57E9649EA5D14D1A50EAA457463381C073777EF1600607BAF6428A7DDC079D47A204EF1E1F1F0589FB054D45E02CE623B3823C317C601E589E22B1E88B448524B86A82828E32345EC18AE17214B42F8C41C6D
311
428016D9BA31DDCB47572561E5A402E5BA4FCE55F78AF7268524AA04130F3A20BA5D1E9F9948EA48FC8F5314FDB35E21898198060034ACE5E3E2BBCA34092518F275190AF65F45867FF0900AA4B81F25427414C372BF51DC29AA855C5428EE1EEDD6B849AD60F6E73475C2D2523F8A2772C840A478DED18A8C5C91B085F255
311
DC4F54EA7AA8947354FD17ECF8FB3B4A0DE7B483CAF3A1165EE05BBA413E5C1FEF3DE1D6B8F2F3F3251C17D9FCAB48A9AAF63AC773A0E413BBC46A9ADF84A566FC920E4D8C52C9769EE3301CADEEEDD92B312E02E2A7E35B7F1E7D203FE5A7D75578B06E99D0E46FFADB8FDA17ED8880390DA29094202D6F645F76F6F96409
311
CDA05495A96E84B04A00D1A6C6C81D7F3DE9376E828CCF144EE50E364ACCE7237EA0BFB5607ED1AC3CFE73794E5B61739D14DF1743441B1AC98F00ECEDE9E7301FA29755FBEFA68C91EF2B314CF510537EF1ABFC9A762496280B546F5EDAAF8A5B387D469FC9A878A92828C88608453ACEC6094DCA54111E7AD5B2663DFE2D
311
D151B7F123B9F4FEF8EE36AB125FD7AD52A59B1B765B3E3F73E3F73DEA93875004D2AFFE3CDE9493B87A9904DD052028949041A91DC0E1BA47BA714343FD5B25E0A6A09503AFC17C790058A836A324FE31D7893512E28230332F153181C1E018E1124EBE1BA262AA428A518237D1EA7275E48C5C561BD19ED6912EDD8367DA
311
0F31E40EEAE9683DA9257525AEA7B632B97119E17145A90231768A4F3B9120FF32E8319B015E3CBE26F1A754177D8185345817C096B0CE443A955D13AC15E1FB5DEEA0239EC32A3C92241A237B0B02FFCB4F93CF2B02570C8D192E2F2A68CEEB42F12E6F8CEEFF46C251E22B4341C56FB08CCE550E7A9D6F4D6564B9EA52A8
311
3D5BF2C6E03FA19D2775E15A8A7ACF30A13C259EE7F5EF2AC3BA354F1500E1A07FC63FB4686E2F12EC69719F9ECF5FE3F35598DF2CE944008CE78F0911BA5BE5D0A34E0098FF038669C26030BA9B300303039852A8F6F496341737CA7E0D2E3AAA36DE0A70AA7D9CA0D54D9AD84B18A44C9E625475E1C97B93BEBB38DCE7D2
311
27E67A2D00F531436136355F243D1FC0D712C5765754FA22FCFFAE97919161F46D6E61ACB37D83777B385889770B50765B127768443A5C4D3A4E35A3151111F146B7CA116F918A049F1C272F2CD7976C69A0068773451659A97E0F4A08FE604C3FF6CE7385DB19F4D3ABC8A0D80DA8A42096AC377DB49382B36E270B6FA757
311
0188B4B7D1DDDDA82ACA487CCA5D38BD3BD039ADBAFA4ACFF27809239B722081E2EB9F145320553D183F28471C388BC8814E5045676767AB58A8E72D1CED2CA731379515D2E533E4CF0B39DFC625F97AC4836831A4DE330E87A8126FA17EBE583D614E71E22A8DBF2825599743E0640037303E8E1B1E8EA4E1ABFA4F62907B
311
5E4E0E5DCFDAB417C36C6848A2B8D15F1E505434C0707E16B1CFC2A1C36A42BBF55734F8F4301DDC2A5110CEE8C0747F69519265012A2174BF4E955ECD4FDE095A3ABC70536B7AD0B9D7892F81287D667C108703C9B66A221E9A0929D030008F77FF6F5D2108EF5706FC87A3069B976F7C9FC3239D13D283CDEA8359746107
311
9FEEE049B0F392889898B7D87D31F8D60ED7B56B91823A8E4EDDB36C6172ECEE42BD42B12CD67994FA0F0DFAE9389356F4CD4425A4B8AA55CBF7ECD585C6A2C2316791E43D5C06841ADBB226A87FD61515FFBB0167B74E56BD7F3E90A57A97FEDCBDF483A0D6699A8C0849CAEB4947FAA90D8E332D9DEBD9F4738C37DA0CAF
311
9CF3DAA68BCB67C420459C7A64498D6E848E5CADE92BB6901F607AA331104A67F7CD650EE169B1DAE94D2C31C2F993632259B6957E246EFE4C5481107B07118607700040E5812A2A2A38DA0076875258C753F60E0F2662C748EDD5F3F3686B8FC3BD6FE631ECCAA1E8B1C1E565AD117E54893E79F4672E32F9E46B2A183DFD
311
CF3EECB4D4D077DBEA0DA254D256045109670050129E9B9B1A9E4A11344D61497A992778095151510C4BB7EF2009B63AA4360635312E4CF668B7E0D3D85A8688E2BD83B569439892ADB63461930D428E0DE42E4AC57CE48DA5CC1449530D8BD3D6A0F08DF20C8E8F570F2CFFFCEA286E30969B4654D498A58D9DA782E19FE3
311
F002181838925592C4A1EF0B332D88B61A92C644547BED490D3A42CFFAB70E36D961F694F6307F72FF15A1C79D5B1B5CEFD353D9E2B52566DEC8F8F09CB3E8359C0F68EBBB7898243E34E12A015B2685AB303C04D3A9E00671FF3DFF0A184E4A2ABEB2B666AF5B3A209C73D8EF29DCDB069C9F391EEE9DD0F74C7BCDE16F8F
311
02E3B8816122BBEB50665775B600549D8BB33A54A6BF940C028118BC6878C79958D6784F9DEAA6E26748386FFAF8D0D0101E2847B6563F5D8DC1D78F787BE00E2C941AE12148D4A81599FE8F68D4DA5CDED75530ADE138240300EE13B0FC13A1687FED6774662C05A2B7DFB186732F0D7A93545D8B0A6390AE5054D9CB582D
311
A846D7A061B3358B45E2B52DDE63E114397EDB7E09233A579155D795BE76102CF277F4DF8B188C4F2879BEAE3C08347124BF9ED23B128259FE107D31E34A652F090B30B39E0D9AF917B76A2806135621A8A60681F16AF216514BBD02711585B5B1AE823F4B2D0369EA5B6BCB863072727FFC871CA6C9AB79A814D989057E94
311
70A3D238BC87CBB4A0EA49AFE2B86F22E499793CAA9047080450166BDC357524561E258C77CB697F1ABB32562CF87C3B7AA12F911EF19FB3E5C02222E887D08202A60A17151F5E053A86B437771088B4FEE14D652C43E8D939995D34545E12E2FF93D4E366EAD25F10CB7DED141563C3D0C447AF06078A91135FD4B9611583
311
CB4BF3BD167F2399CEAB0E0100F8FFC305F00F1711717173138B4B48C83022295DE657EFEDD97F238ECA80F528AFB4F8D67AD4E2594B9A3AA86D7487EFC313BA95745C186F0CDD84CC12DC9CB0424B42203D351FD9C0A3AF10CC7F388E0329279087386421F194F4A29464C1DEF7EF8BE515E4A199DCD5B909342598D8FE6A
311
231F71336248D5CEC5454455C7BE383B3BC7B260FED27F703FDC39A170F3827239102F59D4DEE7FEF82EAA1A5E4BA94DCC4CC44E7E2EDE20F24244E4454369D2E87C3F823F193FD4FD27E1C23984B01898D15ABC20711A8A558054951A6AE280096BA36CBA439603B7B0B4C45F248C14B2383B4B5CD8ECECE4FF859AD4A6CA
311
2326D020EF090F4041D28DB66E5256B56232CC52829DE8060BAE6BBF37D4B7469B822454FE93210A3E8D15E69FFCF01123222611C51C4FD0A041A0CFA2471CF6BE38D2B20FA4C3525B5B8B586759475CF80ADFE67A284AC24651E52B8E683D24C2622642F27E7C3C22783BCF63648BC398BD6CD0D9C97E7E7E3EACB6126DB7
311
A6C1FD9F1031302EE67ED96F22B77C7CA0239BB324207559B105E4693EB26EC46182A92C9C0DBD24F29B31C5C5AC1F84300E0E17CEEAC15F5736FA4A98971E2F1423BFCD68D4BBD5F86E74B40A369F39507C88FCDB35D2DD8DEBEA4AF999E23CF2816D204200DF6E611781B9884C1AC8888B4DE397320472959434323A5A36
311
B22A8E1F721A270DF3BD65E4A31C11FF048AFB0D8B7B6881423793963A23CFCE935FC189ED36FAE35C46DA3574C979E4394BE52084F3081837BE033396D2EBD80F1F691B273F660D2B32FA27A33B1DE4ADA5F0FA4651511102DFA410DDA86E065272CA314D5249DF91B06BB92807B28EFD54F08F7B525252782CD276DD02E6
311
B0319B13DF87B1F6361AD6B28FC0D711CF445429B9E5A433CD493051C49A9E03DDB1B147D880253514A5DED88009018620EE229101C041950E2D8AA8E1F5F5438E0C0C0C60EEDEE9E3E0C051948C69F84BB7B2A48A1F3C8EB9E6864687F4F4F6F6E2FA87608ADAF9C5E117B7C1A737E710769DA1D15ECE6A84502AA8553987
311
12D5FB51BE92E4EF824969CE18278798AC303C2C7980DD2500ADF8FB1E6D6C2FAAFF9987178923334A244758BAA01A9A1B70FA5097D01E1CC2A58DAD0EC94CE6430AA9B0C10D75E3C6BAC670EFBADEE1607739CE0FC18A2587E3EC3058562014C64219C69BC269082D5C2F4A659278D585755912176D78A1B641719C2A394C
311
ED495A1AC5D583FD2F5EDD93308EA7EAE8A6DD396598BDBD3D4CFED62D18A5BDFDE0DD5C80D1A89BA62697B131AE7CE9A6594138582F1B37D68F1749AC7CB67A70695D48A4A056AC1FBD4E82358CEAE38F54B95A9016F9000F9879C0D9D131768635CA798895F27D6F1614F11F2838A83611AA51C9A3DDB539D42979C29F10
311
465655C17BEC3E2760B80DCBF609198C7B171A531905F3EC218D696025975E986C6B4C666666787271F202805577DD5A3EF0CAFAF91B62DC4B2DB4217A7606282F31D8DDBC290593BAA93EA6353AFA9939B877978481E15CFC9F2755CDC00C538F63A4BA3E80AE009B73CA0185687D339A507D165B74290D6EE46D5C58148F
311
020C3668ABE9EF2F7549170DC80DB41FFC1D678FF19AEB10C7133832B104B80F691B3138F97A92D26E551F1F110400D45AC71A9B9AC41A1A1B1DAEED0B0810638EFFB511D46B121C6FEA0F38CD00E03CFFEB9713FE1F9C263E4DDEC160D0497FA9A132BA608584057FB15380825DE6C7FC3C667EE947D488A09898D8E939C4
311
953BF4EC9836344D2CC6B2971B2A21A572B06096F4982D2CC7232D46E8EA69DC83722E267754D777F97F96D5DA74E1E75178084D0E70F12AD33E5F71EF2AFA599B2BEBF60A5BE475F444F240CBFE8143C334E7ED9150FEEFEF7EB020C4DBED388DD1D6A167A76F3CBF119B578AE8CFA7736ACAFA4440A1C47185638A0D2F3E
311
B5BDDEFDA958FB13CE4AA4923D5BF840392D45544329525749734866684BF7F8D9D54D892E19BCA9F829A0F8BFCBEEA6CFDFC61D74EA1A645ED7A1FF241739F15694BD835B66FEC5677E40FE69BD3F91AE402F036537218A401CB0828604AD189E575015C6F3F6BBC8AC79CF6C70653847254B31551EFCBEB5978B9DB85D58
311
D0FA41A9DFE9C624834AA04949D24B5AE6D299E072D152D12097920F14AA92C31C3B97E28B6C2E6E9C23D63043ECBBC0A60FDF5BD0C33C127EA8A3308B8B6AFFEB28B4455BF6E7AF4FC6222728357EB8E46E85053E6A8843AB23295BF838ABDA94658FEF3F832F147046B4ACD6F7D48E8FCC9618582961C898D1C7A253C91B
311
FECBDA6BA18A1FCF70755DCCEE2222F41B76D23CA98D0CB3D95F0CF66D57FFF65E2A90F5DF40FC3187621E981BD0BC1D992787212688976B94A8F0C6EF646624B570B78E068826F87CE27041A95C9A4871FF65CC17FCB1639629AD6A9517000D63AC231F3D741CB8430777E7ECF80CE7A3F73C0F162F7E56AA71F4DA80A33C
311
D6ACEE78E2C11FAC03DAFCE929B106F8F6B3ED2DC71FF994BD9CEF4E9A94896EF1B6E2B7B4978168BCF0847A3D2A4F1B0500B926E634B174548E9FBAD27153FB5FC36799B1E6C7C38A94E1F9E996796D7B485E635D5287A2AE76FBD11A341DB3F8F810385BB7296391973DC6C37C452A9305AEBBE0CDB6C566DB59FE60C8E9
311
4B1FD090354BF51439FFD1B48D725228FFA88C84F686F547107A7A235665A4593B7C34D748C1AC8D56DD5DA861EEFBADDECBBD65117E65851F90351AEB65F0EFCFF4BCFEF24CB7A5879699FAC437A7AF9099186CF006BB923A59E37D7A36A29FD8D2CBB914A5E9D0A8FD212FBF796AE9A67958FF1D5D8B85F78F96219D4714
311
EB919929241B6C018AAE0C02069F8D919961EC5DDFBFB7573E3AC8E08BFB7C8534BE6DE045B3CD63DBD71F7638BA2309CAE398EA3A7D8F98BBBC7AEB367EFA5CFA27A9F8F2F52FE878058E6209C026453F8E7E8A237DFC389E9590F6059B397CFD65183BBF936E86896612A5B5FEE49DAC8455D026218AFEBEC12B3523A45B
311
57B82C9C97E02ACFA1184DB18E48CF615DBF39C3CC6F0B4AE6BBEEA2E39D944E290302FA3DE33FA7E40296E2EF7BF1CD855BBECFAD0FD622BEE9746FC4FDFDE545AE6E3BC234CADF83A0FB76DFB145BF3828AE3436368AC24989454F8FF70A177672C711CAA1A76107218CF948CA01F873520E7A2B118EBB161ABAD4329320
311
29628B6761590C98AB590C8C8C79798CE9F715BA696E839E9131A4BB68BE923F1747FBFF165331FFDD4D05997ACD168F12CA75348DAC04C7F509FE83898A8B421181AF492861CE81E4A2DD0A30850CFA95E05F097FF70F9E777310D584A75BA7018922E271DAB1D785671157685B7D383D3E074DDB4F1E44EF04B07BAAC75A
311
062077C54B9752C738C9D804D402E02851F3F89605AF189738C18C021D2139EAF72513824E10DDD3047BACC8521ED7E98B257D1166903B1B08FA6F918FD7E162913FEC7D0EF4787E29C35FBA8C6E2C9C20E9AB30AE42CA2A01A090E7D010C1B5BF9CEE2A304BF3A987FB40D836979B79E18D70F257DA61E808472DD85B8276
311
1825779D6B90CAEB0F23360C6F80A7D7D77545E95B3DFF0CF96A827F9B5BCECD2C9698718417EF80FEEDEE938AFF55859D0D540B7FE09435583A6F04874A0C7E8CF234DF4879722000167F5872CEC6BF3EF7E5A8CC8121E6A359227C8A29C95212F9F735BC72A887D56B8F309FC525BFB4FD767AAEC4AEFF249CFBBD2DE1AB
311
9969A6155C7D8DABC307E47324C1F916C7BCFF40ABA5644E9FFB9238D19ADADA49D9610F01ABBA57E4DFCBDCCBB2B93C8953206C91DE01B0E2651A6D6C31721915B31F7B7CBCE55466F6D70402788FA91D73BE4ADCBA99A35F17D6B83383704917D6833F0FA3CD45C926ADB8BC17999A4A0AFBCE2541F7B8CF4C2F5FBA611B
311
3E626D64407CB32C122DFF4EF8674D6EDBB86C8F7C6A16D50FA685E2CCA34F8F7D1D8265BB0042E9D7F1F666F7BE5FAA5184DF58E12122A42EF02F461B3F369AC746F96528AD208512AB56844CF75B97F352DF7995024FB02855385854F3798670D01CAC771AC3E1889EC25F61A20C1F8CAB46898817F9C47E2CDA1F286BF2
311
F358298709FE567C91133E2638C8B53975E753EA8BFD3578B5F7186B7BF084EBA3F77BAC3132A5779902EC22AF2D2E79F42D324E083386DAEE9810D1B44A5DAA54513C7A71E52A4AB9257D975B621308FE4D2141CC3DCFE946C154A3C1DFCCA7629EC69ACFA831634ADDA93C0388D2A9A2DDAFCF957C6995BCE7FBB6DC4EBA
311
E79E63EB08E9A25F52F67076F7093CA545CA3053B5BF576DEAD4E0017143C5F759F32B2D6F145B52B67B48909B7C7FCA6586EE385A2189C16932CB6DDFD9152AE317C430492A578ED27B72D85D40C7C93C097939E1B50F4D67F05334FE9DC362C30B7FF561B95259138ECFD9274C8D695C31B14D4EAA9F3D7FA8DDF652F8C5
311
DEFA23284C799B7D94416DEE81E05A866302DC70192A5368EA65E1CED8BF107A1E2D3119A71E85DC1A7B0C1E93274CE04DD0F2ABC8AC7C987FDB002B6F81757B43502EF7A0D92E416494FAEEA4C9C090CD9557AA4D532F4996A272B94355C5A0E4974EEA9627476F30809B94D8D8D860062E02204643BEC7D0438AF800FC7E
311
2B26955D595421E83C69E1A07E0E3122285835F014AD538188CF9737CE76D464A353FA55A001AB2526B84E985083693BC76FE211CA1D000679C889E3C009832C87E1AC2EDD05C302557422DF0800E316FCAC86978A371F025A6C7DAA9F333E7BD160403A1A06EA75AA9888FF01504B03041400060808005492635028BB58AF
311
800100009E0500003D00000037453237323830422D363141302D343536432D393735342D3338453245423644353134352F536368656D61732F436F6D6D6F6E536368656D612E786D6CBD544D4FC23018BEFB2B96DE15493C78601010A34B880709DEDFB52FD0D8B54BD70DF6EFED3AC0B12E6442E2716BFB3CEFF3D18E26FB
311
440405EA8C2B1992E1C323095052C5B8DC842437EBFB673219DF8DA659866649B798C078B48AE6410122242F2A4994AC7F93815DF85C049C8564CA0A901499DD886B2EB9B1E02448F358701A9235880C49A0119892A20C89D1B9FD768815CAD268CB5E0355B40B1E47F3E37A2020464BED06AA57CE8FCC20C3C3446D46761A
311
2632A8C1283D07031EFF2AE7CCB1BFEEE916E406DFAC8E36FFD99A9D60A6944090EEDC3B670C7DC13DE86B6B2C5C240D6E503BB85ACD579D513F1B9F9A69DC9CC22AFA80C426D40AF0B21EA168559156B6276F0F726A6BFF04DCD513A87A62CAD41FB24FCB2858B3952E3D852084DA25B9303C15687973CC8E8AAE11DF2836
311
C38C6A9E765E8C1BA1BFB1DC29CDFE518C8B5A7655A4ED7E77291ABEB80DBD82EC866ADE1B8D05AF9E35CF09D7A061F38A986D9EC412B8F0F65E5D81534D9B231D1E5A8FE577A241F3A5FD01504B030414000608080054926350E336299B9F040000341300003E00000037453237323830422D363141302D343536432D3937
311
35342D3338453245423644353134352F536368656D61732F47656E65726963536368656D612E786D6CD5585B6FE238147EDF5F61E5BD1498E9A895A02398AA5D1E2A5665BAAF96710C78D6B9C87168D95FBFE7F81242134A968E469A4855437C72AEDFB965F4F53551642B7421B3741C0D7AFD88889467B14CD7E3A834AB8B
311
EBE8EBED1FA3495108B3E01B91B0DBD1F3EC8E6C991A470F22155A72F73CBABC1D4D5921DCD1934863A11F990102A6F61466977B8AC49FB13C174CB3940BE4504A22E3713489B7F82406516225536940BD88E4E552493E8E564C1522225AB0384BD56E1C195DC26FAB13882C2EBD62E1FF9E5B0FCC453132C99548446A1872
311
B62267078F1EF14C3DB1DD1952DDBBB384AD456779F387C51992E0ADCE12FED2622BC5CB1952FC9BDF3295E9206E961AB116DA7ACE45F76F07A26EFC3FD762FD7362FC3C0BAA4DB34C09E682CA5167BADCD16CF94370E331E2F1A3D852008AAD5D64BA2373478338AEB1583B905396D158182655E1B938D07926CF007CC7E8
311
5E6709999B0D3827C0BF406BEF55C68CF5579DA32C8C85BE03EFE788787E8FEC95DC85C3E31A615658D81F9A34499612004CE69CAB12531B15A887ACA642C110F8C1A8C1974A85853F407794695C905C688E69B116550ACA946B9B4785FC179E0E229240B62665328E86D5BD2C800CF5D80289F35AC25E3DD51508F4BF9A74
311
A0F5A557BB3D284BC6FF59312E282F956A75C5D453906F48D11A876599E49425602400842995BDF02C4D012E226658F78A710416AC552831FDDEF0E6F0BABEBEA9DC36718CCEF4DAC5A0DF871AECBDD8F448F015F8DA113A473609D1751672B723874B2CAB21ECD6E284E51DCC7D1A47A00F60EC21DC4CC3CDC406DC03760A
311
4E6C772F2F4D561A9AE58C4B03F5B4838701472139EDCB36819A66C472B52AB1139C648956F43E0DAEC067B56B0818F5961D3D446B8F1E1E78C0EAD7EE02AF2895D813E88AC5014A7B436DBB20F778D40A1D9737EFE45B47D49CC8360F9966B15AABAC802C1005548A93EE469F5D55317CD8BF0AA86CABADB2A009D4D6F60C
311
FE53AE370AFE8C45415B15D362A5A038E766E34B00F8C2E3E7098E2093B1C96349FDAEA158903B4BDAEA665F473FECE72186E3BDDCACCADA31839CD6D4FA7D47DF5469006ED340EBE71DF960DDEE88A3E17557039B58C278A1795BA8079419DA8FC5BA1BAA1A66238BF69C7B2BE4E6274839122B7D00BE8B7D52CF61B2D632
311
16046008C8B330FC10F8907787DEF061F47965BBA02FD8F53BA12F9827614979F53563D0BB1AD67A03DC0E00E2FB2CF3EFB457E70E65A3D7C78E7D700DBB45132AE9BBA5E468CD861408961AD8B00A55C2FCC677F4456039FD9F1907A5B3E2D0EE845FDBA2DAFA88C64195671AD6D282DA2E45B1F50A0D632B0D0B6718757D
311
CC7C84A70A3656F222CDA6DBF07E204AB358961D1BE31E53A82C2C0D56DBF61A5608B5A252A932A1DC6E32462430853353EA30417C8199A662E946A4EF352268B8CDB9A9C6762515ACE8E09BBC031C608A02C4BA89C9DDC074E46E0E26A17BCBD4ED43270D03E3645ADB81F6D62CC07A3243EB81C07E01681DDF2DB4730631
311
E6DDA6CBBD048BE9F06AEB3CF06B31DD6C9575E37E9FF17161342C4C76D95519672A6509E0F5C4E71B4B1916440059F57D0921F496237E473A83E3E4E06353BD9D27593594D7B6707C08D22FEBDFBFFE03504B0304140006080800549263508DFFFC99640100009B0300004500000037453237323830422D363141302D3435
311
36432D393735342D3338453245423644353134352F536368656D61732F52656E6465724D6174657269616C536368656D612E786D6CA5535D6BC230147DDFAF08799F5FDB600FADA20EA430D968A7AF12D36B1B481349529DFF7EF9A85A718860DFDA73EFB987734EA3D16FC5D10E946652C4B8DFE9610482CA9C8922C6B5D9
311
3CBFE3D1F0291A6B0D26A3255464182D920FB4233CC629881CD49C18508CF000E3EE309A100D61622AAB4A8A33B2483F11CB639C545B0E1508438C3D3C0361192846DB7ACD198DF186700D182920B914FC1063A36AFBEE8FBA03FFD3CC1D1F4FC9E151A2AF59F628C5B7821D83FDFD3489305080F2EE04BF962195FB285E9D
311
2DD352320A9E827AE357594914E42B1F5FE35F83688F60C4C91A6C946ED0668E8F244BC2EB0BA6E3BCCFC0B6A4B507F9F9F8D51EB315D9BA9E08D308E89F96931666E577837E2B4172199C68C4FE306156D47DF51C698C7B9D97FE5BEFE2190C3C38BB054E6E8163FB039CB4B993C80BF18D969203116D6BBD26238B821F9B
311
B909AD6D9C71B85BCD8C33D66FEA3D31B4BC0AD45BEA46BBEDDFEC0F504B0304140006080800549263502D6BF9DD51000000570000004700000037453237323830422D363141302D343536432D393735342D3338453245423644353134352F4173736574446174612F41737365745461626C654F66436F6E74656E74732E62
311
696E53616060307035337435B434D235B6B430D035713335D1B5743374D2357432B770747172317431361002AACB4D2C492DCA4CCC492C28484D2C4ACC4B4E050A82012F90744FCD03CA26072767A4E6260200504B030414000608080054926350C55C663656000000680000004500000037453237323830422D363141302D
311
343536432D393735342D3338453245423644353134352F4173736574446174612F53747265616D56657273696F6E5461626C652E696E665D8CBD0A80300C06F73E4B29FE6CDD8A2E82A083B8B7F209014925C9FBA3AEAEC7DD2555D896CB85E51C2A1BD834F6A1F56EC4494C4695278364ABB24ABD2146F88CCEBB89D5321F
311
F8F3F43D672A3B44DF3CB6A1710F504B030414000608080054926350A634DB6E34010000A20400003600000037453237323830422D363141302D343536432D393735342D3338453245423644353134352F4173736574446174612F636E782E786D6CCD54B14EC33010FD95C81263EDA43054C8718560E904121503DBD5B914
311
AB8E2FB22F08FE1EBBCD00023175A874D3D3BBBBE727BFD3EB8FC157EF1893A3D08A46D6A2C260A97361DF8A89FBC54A546BA323117FA3892AC080AD28B0307A1F691A67A8C31E265F50EFC26106EF5242DEC2CEE3637F4F8131701295F590522B927DC301244C4C1DA683EC8041363262A2295ACC93D80D384FB21181B113
311
66592FEB457D9D6BDBAC6E73DD34AF5A15A6D13B223FF35D5E1669BC5AD6F6B457985AAB42307A8A6E6695D708F3974AB97341ABCC343A71CCAECC1DFC39E60E1847EF2C70364F9165E44526210C5A9DC846ABE2C20F2F1EB077C195964D96064CF1290BC4C80E2FD093FFD49EDF9B4D480CC1E2253BF25BE3F97D783EFEA2
311
97532C8FB9B9BCB4FCD6285DE8CF9015753C27393AE5BA982F504B030414000608080054926350E9932288E5000000600100006700000037453237323830422D363141302D343536432D393735342D3338453245423644353134352F5265736F75726365732F30453631453139322D333938302D344635342D394631422D31
311
42373841444244314433302F7468756D626E61696C2F302F636E782E786D6C4D90C16EC3200C865F2542DA3181643B5413A12FD1D32E15236E864A300233756F3FB371A864C9D6EF4F96FF5F9F1F4718BE21178F7115F3A4C400D1E1E6E3BE8A4AB7F12486B3D119919E3031447BC02A9A2C8CDE33D6D4A50D6EB686A6061F
311
EF5DDC2142F6EE9AE22E06176C29AB28EE0B0E3BD94AB841B94F9B253BCD538682353BE003E40FE8075C064BB009B3A8458DEA95EB329FDEB9DEE60F2D1B69F42762E8BC8F0419D3CBA21CF218F91FA565038CAED977AA9910E6E9392D796974A1CCFE3B443F89219B52F0CE12C724D111D0C810D843CB7FD868D9FC72FB0B
311
837BCBC6FC02504B030414000608080054926350A233C2345D000000800000006500000037453237323830422D363141302D343536432D393735342D3338453245423644353134352F5265736F75726365732F30453631453139322D333938302D344635342D394631422D3142373841444244314433302F7468756D626E61
311
696C2F636E782E786D6C4D8B490E80201004BF42E6EE76F3C0F216234B883063108CCF170C074F95AE5473F5C4C06E932E4F28601967600677D21E9D8092EDB002539227A2FCCB80E1168D80A6417297A89C5D6963B7129A0D1E8F2EE73AA7B62BBEB8B27DE50B504B030414000608080054926350BE897623630000008800
311
00005B00000037453237323830422D363141302D343536432D393735342D3338453245423644353134352F5265736F75726365732F30453631453139322D333938302D344635342D394631422D3142373841444244314433302F636E782E786D6C4DCC3B0E80201004D0AB90EDFD75167CCE820A4A845D83603CBE602CAC26
311
799919AEEEE0D965E2E908050C6D0FCCE04C8BC355404EB6198129C92351FAD580A10E464065907C8D948F8F166375F655BDC3FDC3B4E530A176BE7057BDC43B2A593FE403504B030414000608080054926350F48826F77E000000A30000003600000037453237323830422D363141302D343536432D393735342D33384532
311
45423644353134352F5265736F75726365732F636E782E786D6C4D8CD10AC22018465F45FE7B4BDB2A0575246EEF319A1B92D3B0193D7E1ABBE8EA83C3778EE83EAB476F9B5E2E0609F44000D9708F930B8B84BCCD9801EA9448316E7F3740615CAD848A418925C5FCDCD164E731FB4ABD0B8F1D92FE427BCA4FB8E18CE076
311
38B7980F5463AAAFEC66B4A1A621C53856A5CCAF57B6E6D517504B03041400060808005492635053D0327109010000550300003400000037453237323830422D363141302D343536432D393735342D3338453245423644353134352F536368656D61732F636E782E786D6CCD933F4F042110C5BFCA86C4F2805D2D2E86E50A
311
0B2B1BB5B24398BB2307CC863F46BFBDB052DC25765A5C3205BCFC32796F60C4EED3BBE10362B2186632524E06081A8D0D879994BCDF6CC9B0932222E6338C0C41799849938914878865E99281BD2AAEA9CE8653171FD07B0C2FFA085E91413B95D24CD27AA5AA6434904ED4A8ACE84823242C5143ED90AD87DE414750190C
311
91139FF886DFD67A1DB7F7B5EEC637C11A29C53BA2EBBC0D19222E3713D7588FA11AE28235408A126DA75A0A22CFDDD13A0FC12A2145CAB14EA193F96BA9A45A1667B5CA75586C057F1829580B7B11F9110244ABAF35F385BD7F0BFD0CC1407CAA2F15AD72D79AFD37977F1B015B37A07E83B610F21B504B03041400060808
311
0054926350E3603EBE7A000000C20000002C00000037453237323830422D363141302D343536432D393735342D3338453245423644353134352F636E782E786D6C6DCD410EC2201085E1AB90D9DBEACE05D09878023D01A1D34A8419C380F1F82DA68B9AB8FDFEC93C3D7C52546FCC12980C9CBA232824CF63A0D9402DD3E1
311
0C6AB03A3397DD192872090D3406ABE7CCF5B5D18893ABB1690CF4DCF02282E5EA8A5BB96FFE536F285CB347F95BEFFE81C9ED5AFF9D5B1FB575BB00504B03041400060808005492635099080AED7E000000A300000007000000636E782E786D6C4D8C4D0EC2201805AF42BE3D0AC89F09D058E5208DA50DB105535BE3F105
311
D385AB974CDE8C693EF384DE6179C59C2CD0030114D23DF7318D16B675C01A50E3CC92F3FA770394BA3958A8189C1997BC3D77D487A1DBA64AA7981E3B549E29A6498B25BD10CC85BCE2B3121C9FB467BE953741B928C6B12A657EBDB235EFBE504B030414000608080054926350CA1DF9C9A900000073010000130000005B
311
436F6E74656E745F54797065735D2E786D6CA590410EC2300C04BF12E5DEBA70400835E500FC800F84E0B411AD13252E2ABF27A55740421CEDDDD9B55CEFA7A117778CC979527255565220197F75D42A39B22DB652EC9BFAFC089844F65252B2630E3B80643A1C742A7D40CA8AF571D09CC7D842D0E6A65B8475556DC07862
311
242E78CE904D7D44ABC79EC569CAEBA537E3521C16DF5CA5A40EA17746733E0B6615DE7217475F386F18B9481C510F1F021CD9FF027EA0E1F5C4E609504B0304140006080800549263503DEE336E64000000790000001B0000006175746F6465736B2D64657369676E2D7061636B6167652E786D6C35CBC10E83200C00D05F
311
21DCA56CA76D41FC96062B120735B69A7DBE268BB7777961F8D5AF396893C2ADB70FE7ADA196782C2DF776D7A97B5933C430F15651E5469C55D70F80A4992A3ADC954792C525AE70A1E4D6AD9816CC044FEFDF01FE3FDE907802504B030414000608080054926350CE6C9FFEF7000000960100003700000037453237323830
311
422D363141302D343536432D393735342D3338453245423644353134352F4173736574446174612F636F72652E786D6C8550DB6EC3200CFD95C8EF249074199A08555BBA2FD8D3DE10D00CB58188CBB4CF1FB499B43D4DB264EBF8F8D83E6CFFB5DC9A4F13A2F56E02D262688C535E5B374F90D3055168F69C05EFD32F1A34
311
4E2E66820A036773F079DD20E55D32AEA2CE6BB381324693A051B7524C10D58759642B732A8C786D57A9AE72362D691F3CCE72B67A1BB5BAA8D98B3501F8F84CE9F93C8E48F444A0DD9310888EE4805EE971C0021F4FE484595787394B76F9D9AE8291C968E03DEE31C2438937425F4AECC83BEB2A93B39842F9795B5ABF03
311
7EA8570B9924EB1EDD3FAA79D5FFAB66EBD2D06FAA8F89089C9423EF0DCEBAEA5249770B4BAE8EF26F504B030414000608080054926350575B3E7EF20000008E0100006800000037453237323830422D363141302D343536432D393735342D3338453245423644353134352F5265736F75726365732F30453631453139322D
311
333938302D344635342D394631422D3142373841444244314433302F7468756D626E61696C2F302F636F72652E786D6C8550CB6EC32010FC156BEFD860A72EAA305112A75FD0536F0888831283C523EAE71762576A4F95565A34CCCCEE0EDB7FCDF7EAA17D30CE0E406A0C95B6D22963A70152BC200AD59E33EF5CFC4583CA
311
8A590F5060E06CF22E2D1B249D8DDA16D43AA5375084A02354F29E1F030479D5B3A8458A99116EF522E44D4CBA26F5CAE32C25A336A951D9CD5C8CF6C0FB574ACFE7BE47634B46B47B1947447B7240EFF4D8E1111F4FE4845953C49C4533FF4C975E8BA815F016B718E12ED707A16FB976E4933585C959883EDFBC0D2DD701
311
CF5E2BFAC72D2DEA7FB7646CECDACD6D5504E0242FF7FCE0AC29E9E4F68C2EF79224FF06504B030414000608080054926350AEA2AEFCF8000000960100006600000037453237323830422D363141302D343536432D393735342D3338453245423644353134352F5265736F75726365732F30453631453139322D333938302D
311
344635342D394631422D3142373841444244314433302F7468756D626E61696C2F636F72652E786D6C8550CB6EC32010FC156BEFD860A72EAA305112A75FD0536F1488836283C5A3EAE71712576A4F95565A343B33CB0EDB7F2D73F5A97D30CE0E406A0C95B6D22963A70152BC200AD59E33EF5CFC4583CA8A450F5060E06C
311
F22EAD1B249D8DDA16D43AA5375084A0235472CE8F0182BCEA45D422C5CC08B77A15F226265D93FAC1E32C25A336A951D9CD5C8CF6C0FB674ACFE7BE47634B46B47B1A47447B7240AFF4D8E1111F4FE4845953C49C45B3FC6C975E8BA815F016B718E12ED71BA12FB976E49D3585C959883EDFBC2D2DD7018FD7B47C586166
311
D63CA67F5CD3AAFE774DC6C6AEDD5C1F8A009CE44FDE079C3525A5DCEE11E65E12E5DF504B0304140006080800549263502D8298670D010000B10100005C00000037453237323830422D363141302D343536432D393735342D3338453245423644353134352F5265736F75726365732F30453631453139322D333938302D34
311
4635342D394631422D3142373841444244314433302F636F72652E786D6C8590416EC3201045AF62CD1E87B11D975498280ECE09BAEA0ED9244589213250F5F885C495DA55A591067DFEE731C3F75FF3ADF8D48B37CE7680258542DBD14DC65E3A88E14C18147BC117E7C22F1B1456CDBA832C83E097C5C5FB2A8DCE066DB3
311
6ADDA4575179AF0314E32D1D3AF0E3879E55A962480E7F2DEF6ABCAA8B2EB17CFA048FD14C6BD44CE93573367A01D1BE30360C6D4B648592345B29096BF1404EACAFA9A4FD118F946F7258F060E61FFAB86815F404A2A21525B44EF586EC355583EF7C939D82FBB0A49957689E0E041D5A1C7057917AC728694EDB86EC4ED8
311
13EC5FD841F612659D70CFE01F60BC4FFF03A3B1A1AE56E033E14160FAFFE342F04D5E606A8FEDA69E972DBE01504B0304140006080800549263505A30F8A3F9000000960100003700000037453237323830422D363141302D343536432D393735342D3338453245423644353134352F5265736F75726365732F636F72652E
311
786D6C8550CB6AC33010FC15B377D9929DBAA2C80A4D9C7E40E9A937216F5C9158327A947E7EA5C485F6545858313B33AB1DB1FF5AAED527FA609C1D80D5142AB4DA4DC6CE03A478261CAABD14DEB9F88B0695550B0E50609062F62EAD1BA49D8D680B6ADD841BA842C00895BEE6C700417FE0A26A956266844BBD2A7D5133
311
D6ACBEF3A448C94C9BD44CD9CD9C0D7A90FD23E7A753DF93B16523D93D8C23E13D7B262FFCD0D1911E8EEC484553C45244B3FC6CD71E55C409644B5B4A6897EB8DF1A75C3BF62E9AC29422449F6FDE9696EB40BE6270C96B0CA2B94FFFB8A675FADF35191BBB7673BD2B0248963F791B48D1949472BB45987B49547E03504B
311
0304140006080800549263504010B7F2F6000000940100003500000037453237323830422D363141302D343536432D393735342D3338453245423644353134352F536368656D61732F636F72652E786D6C8550CB6EC4200CFC95C8771248B629AA08ABEE66FB03EDA937046C8A7603118FAA9F5F4852A93D55B2646B3C1EDB
311
C38E5FF3BDFAD43E1867072035864A5BE994B1D300295E1185EAC899772EFEA24165C5AC07283070367997961D92CE466D0B6A9DD23B2842D0112A79CFC500417EE859D422C5CC08B77A11F226265D937AE371969251FBA85159CD5C8DF6C0FB474A2F97BE47634B4674781847447BF28C5EE8A9C3233E9DC919B3A60C7316
311
CDFCB35D7A2DA256C05BDC6284BB1C6F843EE5389077D614266721FAFCF3BEB47C07FC75BD33B066EBFDD14C8BFA5F33191BBB76D7DC260270924F5C1B9C35C5A39C5603732E7EF26F504B030414000608080054926350186607E800010000D80100002D00000037453237323830422D363141302D343536432D393735342D
311
3338453245423644353134352F636F72652E786D6C95515D4FC42010FC2B64DF694BBFAE5E28174FFB0F7CF20D61AF92BB4203D4F8F3A5B6467DD36413C830B3CBCCF2D3FB74236FE88371B607961540D02AA78D1D7B58E28576404E827BE7E20F1A102B27EC618541F0D1BB65DE21E56C44BBA2D669DC4119024620EA962E
311
3D04F58A93CCE41213235CB359AAAB1C3163D9C6133C9AE94BAA3CCA881A445994052DAA544FAC3BA6AAD933CF57A6E08BB1B12AF76138BDA0266E8EC91288A6E2F9F69C688BD13BC9E8F4497331E8411C86F25076C599B6ECBEA075D33ED0BB4353D3AA1BCAE1DC3E36AC6E529324163C449FA2D99BAC21FC55BE097F595B
311
66FD4F6B9B228060DFA6F23567C1F3CF25A473DD89F800504B0304140006080800549263503955472C06010000B201000008000000636F72652E786D6C8D50416EC32010FC0ADA3B36D8A96B5598A889D317F4D41B35C445B1C13210B5BFEF92B8527BABB4D2A2D9D99961C5FE739EC8D5ACC17AD7012F1810E306AFAD1B3B
311
48F14C5B207B2956EFE32F1A10A766D34186418A71F569D9A0C1BB685C469DD766035508260219267C7410860F33AB42A5888C702916355CD4680A5EDC7952443BFFAC0EAB51D1689015AB186535D62B6F9FB076FC4D949929454A566F5656A3BB3D5BB3826C1EDBF6746A1ADA57BCA7BB87BEA76DC39FE94B7BA859CF0E47
311
7E64A2CCCB5284B8E29F3711CC194950D7EC2BCAFB488A77EFA78D80A134F16EFA02890A79F027745AF43F425B17EB6A13BC6F04901C03DD06689C2F88ED765EECF9DAF21B504B0102140014000608080054926350C288EC4340010000A80100004F000000000000000000000000000000000037453237323830422D363141
311
302D343536432D393735342D3338453245423644353134352F4173736574446174612F446566696E6974696F6E4974657261746F7250726F706572746965732E62696E504B010214001400060808005492635022844DDF00010000300200004500000000000000000000000000AD01000037453237323830422D363141302D
311
343536432D393735342D3338453245423644353134352F4173736574446174612F496E7374616E636550726F706572746965732E62696E504B010214001400060808005492635088E57597CD3F0000904100006B000000000000000000000000001003000037453237323830422D363141302D343536432D393735342D3338
311
453245423644353134352F5265736F75726365732F30453631453139322D333938302D344635342D394631422D3142373841444244314433302F7468756D626E61696C2F302F67656E657269635F706E67504B010214001400060808005492635028BB58AF800100009E0500003D0000000000000000000000000066430000
311
37453237323830422D363141302D343536432D393735342D3338453245423644353134352F536368656D61732F436F6D6D6F6E536368656D612E786D6C504B0102140014000608080054926350E336299B9F040000341300003E000000000000000000000000004145000037453237323830422D363141302D343536432D39
311
3735342D3338453245423644353134352F536368656D61732F47656E65726963536368656D612E786D6C504B01021400140006080800549263508DFFFC99640100009B03000045000000000000000000000000003C4A000037453237323830422D363141302D343536432D393735342D3338453245423644353134352F5363
311
68656D61732F52656E6465724D6174657269616C536368656D612E786D6C504B01021400140006080800549263502D6BF9DD51000000570000004700000000000000000000000000034C000037453237323830422D363141302D343536432D393735342D3338453245423644353134352F4173736574446174612F41737365
311
745461626C654F66436F6E74656E74732E62696E504B0102140014000608080054926350C55C663656000000680000004500000000000000000000000000B94C000037453237323830422D363141302D343536432D393735342D3338453245423644353134352F4173736574446174612F53747265616D56657273696F6E54
311
61626C652E696E66504B0102140014000608080054926350A634DB6E34010000A20400003600000000000000000000000000724D000037453237323830422D363141302D343536432D393735342D3338453245423644353134352F4173736574446174612F636E782E786D6C504B0102140014000608080054926350E99322
311
88E5000000600100006700000000000000000000000000FA4E000037453237323830422D363141302D343536432D393735342D3338453245423644353134352F5265736F75726365732F30453631453139322D333938302D344635342D394631422D3142373841444244314433302F7468756D626E61696C2F302F636E782E
311
786D6C504B0102140014000608080054926350A233C2345D0000008000000065000000000000000000000000006450000037453237323830422D363141302D343536432D393735342D3338453245423644353134352F5265736F75726365732F30453631453139322D333938302D344635342D394631422D31423738414442
311
44314433302F7468756D626E61696C2F636E782E786D6C504B0102140014000608080054926350BE89762363000000880000005B000000000000000000000000004451000037453237323830422D363141302D343536432D393735342D3338453245423644353134352F5265736F75726365732F30453631453139322D3339
311
38302D344635342D394631422D3142373841444244314433302F636E782E786D6C504B0102140014000608080054926350F48826F77E000000A300000036000000000000000000000000002052000037453237323830422D363141302D343536432D393735342D3338453245423644353134352F5265736F75726365732F63
311
6E782E786D6C504B010214001400060808005492635053D0327109010000550300003400000000000000000000000000F252000037453237323830422D363141302D343536432D393735342D3338453245423644353134352F536368656D61732F636E782E786D6C504B0102140014000608080054926350E3603EBE7A0000
311
00C20000002C000000000000000000000000004D54000037453237323830422D363141302D343536432D393735342D3338453245423644353134352F636E782E786D6C504B010214001400060808005492635099080AED7E000000A3000000070000000000000000000000000011550000636E782E786D6C504B0102140014
311
000608080054926350CA1DF9C9A9000000730100001300000000000000000000000000B45500005B436F6E74656E745F54797065735D2E786D6C504B01021400140006080800549263503DEE336E64000000790000001B000000000000000000000000008E5600006175746F6465736B2D64657369676E2D7061636B616765
311
2E786D6C504B0102140014000608080054926350CE6C9FFEF70000009601000037000000000000000000000000002B57000037453237323830422D363141302D343536432D393735342D3338453245423644353134352F4173736574446174612F636F72652E786D6C504B0102140014000608080054926350575B3E7EF200
311
00008E01000068000000000000000000000000007758000037453237323830422D363141302D343536432D393735342D3338453245423644353134352F5265736F75726365732F30453631453139322D333938302D344635342D394631422D3142373841444244314433302F7468756D626E61696C2F302F636F72652E786D
311
6C504B0102140014000608080054926350AEA2AEFCF8000000960100006600000000000000000000000000EF59000037453237323830422D363141302D343536432D393735342D3338453245423644353134352F5265736F75726365732F30453631453139322D333938302D344635342D394631422D314237384144424431
311
4433302F7468756D626E61696C2F636F72652E786D6C504B01021400140006080800549263502D8298670D010000B10100005C000000000000000000000000006B5B000037453237323830422D363141302D343536432D393735342D3338453245423644353134352F5265736F75726365732F30453631453139322D333938
311
302D344635342D394631422D3142373841444244314433302F636F72652E786D6C504B01021400140006080800549263505A30F8A3F9000000960100003700000000000000000000000000F25C000037453237323830422D363141302D343536432D393735342D3338453245423644353134352F5265736F75726365732F63
311
6F72652E786D6C504B01021400140006080800549263504010B7F2F6000000940100003500000000000000000000000000405E000037453237323830422D363141302D343536432D393735342D3338453245423644353134352F536368656D61732F636F72652E786D6C504B0102140014000608080054926350186607E800
311
010000D80100002D00000000000000000000000000895F000037453237323830422D363141302D343536432D393735342D3338453245423644353134352F636F72652E786D6C504B01021400140006080800549263503955472C06010000B20100000800000000000000000000000000D4600000636F72652E786D6C504B05
311
06000000001A001A00210B0000006200000000
310
504B030414000608080054926350000000000000000000000000370000006662782F36433736454632422D393535342D344531342D414231352D4144384130413239464531392F617474726962757465732E62696E504B030414000608080054926350000000000000000000000000350000006662782F3643373645463242
310
2D393535342D344531342D414231352D4144384130413239464531392F76657274696365732E62696E504B030414000608080054926350F270F1330600000004000000360000006662782F36433736454632422D393535342D344531342D414231352D4144384130413239464531392F747269616E676C65732E62696E6366
310
60600000504B03041400060808005492635088E57597CD3F000090410000420000006662782F36433736454632422D393535342D344531342D414231352D4144384130413239464531392F7265736F75726365732F322F305F67656E657269632E706E67355B773CD4FF1FBF73E71C0E67EF7576C9DEF3EC995D46C6A1EC50
310
46649CBDF79E192942562825CE965D8A868C2842C8DE9FDFD1F7E7F138F7078FCF6B3F5FCFD7EBFDFEC41B196891913091804020321D6D7513FC77D8C5070EC3FFEE51B21F068154CC75D455CC028A3EA68992803810109FDDE5D5CEC5521B28A1B422BF80741695D5B529DA1C2D058AD2388BDA9F476F7C2CADC939304173
310
DBF48A452BF8A700C0C70C3D121C1AA15A5270C22E2B9E28763651F7DA0D12CE11077B2ECD0D560B5E3DE2368B1E65C5E1C87384A4CC5F2D9FB8BE39E9B77C753783A37998F5CEF1B4FEE553463245C9712270880DF339E0B882A6BA713D865F6F384C842D440934EF264F4A304F8DE4EEFA1E2BF5E2D91F5ADD9613D6E31D
310
DB33ED31DB1D7916CAF091286EA3D31B9CFECB78BB0060245B943C4C040119FF780A74DD308BA9D028678674EB5504ECF284EE814DAED07440BAF649BE4B55DA2890F4D73E2D489A59EE54FDB0A85B59F2F52C4858A02705C4815A792B0C4A996A2023ECB195073E115E3E3647F64243A8338F2000BCB58DA5692C7E7C3D41
310
3F963FEDF3CF00FBB0F831A9D51360FECA43819F527B89FA260EB63C5DA676830AA3626A3693B23F1A17A0DFFCE3EE164E31B5365EDF0C89EF64D8E38AB0BA9A1117D7C3A0EC44F44F4023095E80BA610DE336D0F99593A88BFC5306E72DF98F7FD132ED95878DF2964EA7E43071359FD83B2BDF9C6B5BDF768F0F3C0FC351
310
199526F53D9460A34511F75D1B63E488178569472C91A94497807A3FD4A390C6558F26D416365C3656DE6E769DA9D8FC73774E1709812842DD8EF96AED1960F79D21B395CDDFE6F92CB4EB962A4668C76990E2EF29798C8941D67DA50F4A5F947872460F1F6FDB794E8A29FD7AC0C0D6E0714339CE258FB17AE8535221E346
310
4A10F29A0BE5EEECEFC5675926A89F49EB14E5711894F6586DB5754EB4D5DA9C6437EBA57DB97A24F8B8A8DB295FFD73266CF57E82694DF5166DDF93573AFE9C9C5EB05F8FEF8E89E0A8917B0B3724DB7BEBB53252581EFC3E38166BA131A3A5B42FE2AD00A769BBFA4458D2DE7822F8C4F63D0B8E21B285AE13325F3410A4
310
35C648C9D91FDEB109E73CEDA7BC796961AF79175E1A3CE4C5E8B0D009B0C9E29EFD98BC8E97554E3D8D838424E270F7685226E5AC268E021EDE3522D583E8F20C0BDE2959EF5BBFEEDAB32FE9A3ED0E39F211A86AA9DEBFC68182EDED132AB8BB794442D2D7EA9F4D8BFF52BC4D55BB165124EE90A42D101E67BBBB292FFB
310
4F66DE5BF2300E44546757DA7CEF8932BFC9F92A0707953491A55C5A5ACEDABD9FA1AEA01BAC3DC5A24E22E7C47213493996EFBC369D086ED9397C9BA6C7F9855C7BD5E15BFC8C53DB3D2A4C5901A57ACD2FBDF4D1676E95338B2C2BCE65FDA4C64F5FEFDC7D9CA5AA1FCF11E193F2FDABF0F4916BF13FB916A224380E6462
310
A9815F2300DC49CC4DF8D055CEF76462F4B7A7ACA7365C2707891370BC1D0AA6203C44CCAB47084FEC057F27FFCD57F89B8B9852459798A675C66BD7CE572CAF71FF7E6D7ECF7BF62CAB7B3F1107DCD04DC55A3F9961700286141C94A4F771FEB2BCDA2DDEE0CB0BAE402FF1DB0100F8E475DFFFC074DDB4498AB7D186A765
310
4DDB1CB680D703D47CEB4E72F8CB13D86A4AA68116E26387B93FD6738779B34FEDB8E517EDF2BAF28D9BE93A1D3A164320E07D42E514725C29515FF361754213EDE06B079A2E99EB1CA82A02019EADEEB87B9AF005BD04BBCECB14AACD6B24EFBE482194A97DD32400685FF1FEF1544D1B14EFB1E7F08E6D2CD2AF52DE757F
310
35F5E62332EE88EA26417AD5C3E0E319D68F25414E6D672BD4522B278C57D18F0113921C71D96527E091F00CEB15AE23D24667369BD3CEFA10C7549D930890BA4366F4EBC55F01F746109F98ABCDD5A3EE06619C6AD78AB33E48E4C9BD21BF7478B385EC05C4F8987E2C1BFA0A60EBEDAA0AE0B015C2720ECE180FB6F2DEFB
310
EB822D96338C9B63822183BBF52FB664A7AE57003AABCE512BF77E7E31BDA2E739AC4C131657DDFE5225E900FB56CC01CDE808FA4A9C9DA16AC679656BB64796283D89812B8F91136AE18EE5EBBAF47A73BE3C153EB5D4CD491B4BFB4FE690A4CF9ABA08C0D8AA64220C438C96EA6CA80B58FE5761E697B3A292EB9FBDA502
310
FA863E49FE694ADDFFF9D62C520BDD1A22014147A0903A05B9B729F54272EF83931FEEC057BFF8C8055C279EAC5C0011804828734024F6CFA319C9CC6867C727184465CD9BB7ED386AFFD96B294A85E3802FAE47244602D8273615952B98C4F23F7EAE4463D9D638EEE374A20959E0FE519C4CFB0FBFE5DD80C2AA3F9DB961
310
D1BDE57E67C9BB47B77FDD74EE3094F5DBBE3EBC1FBDB7393F5116263009E2EFE1AF9A221B2AE234C902BF70E9F280ED23E73908361565964333A3F01D0B006AF32FB21AA1316744B489D5A198E85299241735BE559675130955C902A8ED761FC0DBE337A9F91919AF5CE32AF902ADF9AB2615E00E8A94586BA1A90839B618
310
32FF1BFB76D2EFADE6DB1BA04CCAD3DA649E7E2A0219F592E22F2AD54847EEA8E42271011E9074F8F3DD9FBA6CDF88FFC9FC7E811AD1CA8F4557CE4AFC7BBEDCF0114A48689F20A584520C74DA8127124B767E2FB91A6B186246727BE63C9445BAE02088D58B8EFDC0F1072407CD9B89A13F6303B4A928F593AD489B58E686
310
9325790ADC406036C591729FE14021F94B7796BB11848D463536A092A26F077F94639F7CEEE2A724C66EC885F4A24F8B8A0AC321F8FD149BA529460FAA34E4663C02D41FDF80BCA222D42F0ABFF8490F4FA74C673807C2051D8E467B47B616072860069A9A303ABA9B319D58404461401B0A0F9BE5E1E151C14BC33B32ABE0
310
3DDE91708DFAEB15E7C0D593C86BB7D7EC17BE56E57975F077BFD5525F3A1A361D584A75E08CF29FC7B44B2B3085014F3A5A14517377C3F6B8F37E59514C3B12F8AACDEDDA4DFC49BE5710101534CD6FB6DE15B50F11A09472AABA727F0C49D9CB906B158030065F48EB3625E010CEC1D511D0053474B11E6A4F01C0D6EF1B
310
ED3A944FDEC70E0DDCDC756C86545910E0DAE3BE3AA9A404574C2995CD5CAF9549226BC94B4F4F0F5F9086F418F6B32346464610D8BC7391D3C3A3CCF04CFC1FB2A3A3170E369511868F14EEA4E5E438CC73DB1F3248AA94B6B2FF33B222FF3D1E7BF146CAD229770158063BCE4F5391964DF62F7E52A7BE0EEA829C9E13C4
310
C147D6F93FE59E111DAB5E4594D6F3CD1AD375EE039930EFE5AF2BB2D41C83C7DABD8C659BAFBE8FAB392CA634F3D15C1D945DB4588D2B0824A4EC928AAC565557CA2F0DAA588CA5BE30B3A8004F7BF005E96CBF891D7F18112A3619FDF530DC8AA64954258E1811789B5189B49B4EB53F5F89F7D37523894F3EB57B373763
310
C91E502F52CC99EB7BDDF933FC324C4FFC2561DFFA7339FAFDD0A4BFBE6D3A8FF9ED1FC49898139864602458968913181918F719CCF5A68B2EE9C1FF050E34E63107003B8120FA982C21B30A874E4F5E4B38D5A8290C4B8D9BE48A0BE31EA995BDC37AC6DE90BA17D259DEF53605D55922FEB1855D915B659FBEB350EE0DFB
310
2F9F766E1C84CC8964B75D08667445EAB966015F63A18A9E0A325C1B3DC628C0D3CB60F767FA93CC65F25458BD23C3B312716E5F40E5858AC06EBA9AB14F95DB99147B832069201541D09A0D856E12C629CF32683760EE855537D1901988D5EBC156676C7DD51D7207CF3267AF1D76C2AD867315E44618015313A98B19941C
310
696FED3461CAA9B5415F918556D7802EDACEFD6B2E45853A9735DFC9DBF7E440F9319F8B6805A973BCCDC76C069A9144E51F187EDCC12FC31B5DEAAF0A76137199B106EC84ADA6B6EE697D4E6A96E007417F4E880E8B1E89B4BCE9D81EF611E2ED8F0C1A6C25F620FAFAAB656A7C42D464880E8AFAB0E0FC8EA38CA9A8AEEA
310
EE3E4648BA4680270A89743CDD3E6C6CBF34B7B640EFA285ABC7EA0A1E28F3CC963D114A80123EE66D0AF7D5380EB41909B605AB4765B709B808590458157E69BA1378FEC4B48CAF6A730E3BE3C5EF2DD1A5EAF94B1DDE50CEB55DDFD7EE9A16747FA4B223359FB1FCC69E1194892BABB93A1D5C4E807AC0EA2E30180811E7
310
7A2291F6E7F7FAA5E0F60215BC6024E48DE436C511F0628B8CA189982D4D83CCA17D305A7E923C37941CFDFDCD93ACAF735EF5F0E61BBD3E6C41A59B242790D3A3BAC7064DCD89AA2E37214EC839820949D5CAA31E240D2948E48F690298974A96BA9A8432BC90F5071D6537C9666EA4564796B7AFFFA548077BEEA75F6308
310
3435074BA182F3699557397F71548383FDA8CA34D99B981E72835ECDA5DDDC151315173D05A21F651AAF8524E88209E2E7A737ED1045800CE3390050BCFB8BE588DF111617874C62575039CA588EEFDEFEFE319B739DE2EDC147092A262611E159650E787917885EF08F1F51B8F2D8A71D60B58B190FEF9541A1BE94BC19FE
310
A50784DA1419FE4B0FB51B8D36B5FF8E1286FD8AF42B91E59A5F1CC4D60174E764045FD8C57B18209B217F89A62252BD20BE0E63E12B8E8F029FE19E0E8D0870F58721A557082250D5424F7909369376E41666C0EE77CD87CB283F661D5FB6D0DA023CB67320A20DC7BE661E9E1BFE5463085C557DA1FF9BE835733766C3D1
310
39F2CF9E2208873AD0EB4814DE9E6BF2CAF81614D4D43906ED1C05A3265CABBFE192770FC2F64F940CB6B17B5F166F133C9AEEAD2641807C3E69515171DD74C4A85311513D6EC9530B3B601B6BA3EBFF3B5C3D2F7D69765141E345F75433953D013ADDF8F6AA7DC3F4A7563FE5C7D367937E2900D7EAD0F9FC9A4A1A9B5BDF
310
1FEF08532660C01C5D6DE22199AA774383E306DAB87E301ABB7D213887F9869D4942D0D71E94B27EDF216A318BD488D45DF84529EF575AF3C3938C0AAA0215B01994153E2054A0B894DA5C784980633AAD48576957CF4AEAEAFADC7C587368551C73DBE1E57C58AC713303A8BFC258BD04B51724459FF9E24C03A81E0E0679
310
CEB9B348C0DC998FEB9C6D6EFA77D247CC8F92D3848599ED89A23218D0636465AD1CEEB7DC140D7426F83491C4E8E8281C2FB35240918FFECE880CA2A42D70E8B20B34DF5221C7DB0CF90ECCB9C745B37A47E9B716FF7A97B7A252C1F3814DC7B1E1A7F72B8751D524EF7CAE45B0C73B3BE7D08ED39781B380DDFC9AA4A474
310
9C9493DB5BAD07A6EA6C092FBD0E85DB004DF06B8C9D3089C5320187E4CE1846158C7EA7DDAE8AD9AFFF21AA3A1026BB06A259845E8232DEE62811A4DA9CEAB3A4887320B76E2AE5615EAB7BDF738CBDD01F1E64064BC13D9EC53576751CA8CACD58B3CEB0E6CA585BD089B2A59B9FC101403387AADBDBE70586B93D64BF3A
310
D4453EF9C3B6A93817E8346991798601344F79A83C51F3D50F7BF2683A3605F51A72449489E0EE6169C749C60B1035651103AEE24D24E51A759C840DD3FC6504DA6FE107510E447B43461C79D22970B75DE5E1BD3007D1AFC619A4A4A69B5626AF5E9B8374E20677F77E2F8E73DF868E8BEC7EBA7B6A75EEF7205E1AB9486C
310
B642741D6E03FF13FCCEDB1C4AC129886268B01CDF4B124AF797CF784F3C6DEC97A17D4B558070A0F1C04DA4FF9BDBF34159AEFE958479824B3F58EBD1E19088A2AFDE501B6F2052368A3FD0E650A179EFAB1561E1D27527077136E652676C3670F42DCB3352F48F6BC86D2C3B0051727E41A0A4DC6CE2BE9D47F5CAA2935A
310
3C0539AF080665997194ABECD723B08129CC5B6B21D2E7D54CD4D12610E7E9FB8306771A89576C7A982002775ED44F3F744CF21EEBB27A631671D921938AAEE3EB0D19CD1E083727F607823E817BF599DCED5394E37EEBC2E88782E638920CA641EF74D4CDFCDEF06F4278ECB18E31E7E9876F2D783C8BF429C75395F57E98
310
C2B495A3DA077EB3AC3C158608B6B57FE3EA48484D9A480096FCEE0DE880950E7E5A5714131C5C41AAA29FD19AE81AC145FA1B9E85C7169A5AB837B213493DF7E9AA4B5FBF9CDEB36EBD21EF1181B7CF7366AB2A951D01E37AF4EB835D1BE8C117CFBE7625D2EBCDB0B20C5A4B45CED0BCDE3EE8DA9DA78C2E21DEAAFFD119
310
7E463C33CC6A80FB785669B856EFF7A8CCCA2841B5A5369173320B1170C368B2748D81062EA0296E5E2D95D7667A4A46D98A6FF475C76AAB0A8C8D45E226FAFC9FE0133EA9F60111F99CA81ACE03A1D14C89E8B0D69079C91464FA1D99E651D0EAF606F345C42A8A1AA9BA391031582B96D5B4176A77AADB01F12FD298A75D
310
EEBB2C82F0B8650E880722F8DDD90C56A7A058E5FDEF1AC93545BA27367C76F5D8F9690CB6F8DAE141EDD7971F0FB548A2AE435F224D6E5954CA155512F7332029D5A1230854B79F258EC5FFDB09F5F6343A8EB193229B7F7E79B3E48F8E183860B38C8269D1B53738FF1E0BACF6AADA6D4869E9DE708E79B5DADCC09B1BC7
310
6F649731CFAF59A83FD8BAE4C749D66FA87A3810D4D62FFE826FA400C0F325D2BC0F3CA35F5847B82A2ACC7961745C823E4D863D54460AF792CE6F79B5C7A33B25C3AEA6CDE15A919B6367D781E9D44F61BF828672594A3E1D9EDD6DF179A81F27EAC05B936575D73E05C209DDD2115CFB705DF9BBF3C911589B3640735E9E
310
618FC9C36A7326C82B2205E244C55D56FDB9D5DC93CE958D4BF8174D2B3DA54CB3C09F2C2A6DFF73D23B2197355761AD421EC581284A7EF8DE2CE3497C0C804D49B41DFD6A7360844E5BEFFB495CFCDB97A4595911CDBA623274CE852B5E278AF0BEB1770E9D37CD977B2766A7DED0E94B840E1E95E8C77DE5CB6354AF7871
310
427C28ADBEEF7BA0A28E19DE9ACD75F379FE373EAE6DDDAE3834692F9C2B03B4FCA8FCA9ABE8EEEBEBB725B88A7C90941E850682CA04061A7DF0CE82ED49BFAFFD42C309818FAE14755CAAE78B0F73243ECCCAD7DF58FCB9CDFAE7A4D3E6671A613639130D056C8383C8F4FCF4808C331E544DD26E4755D09EA05253B3049A
310
1E32587CC25D72E073E2CD96D04A71BBCB0038FEC3F53D254199C3CDC67CD66640269431860225392B2CB3ECD0B4498AAE78BA1994246AE1EE78F2EDFB79F6C6CB6B5E279C4D373FBC21CB2698C9ACBBEB6A4BB6B39E16AB0E421CCBFC7654D81ED86022F9BB522146F9F4772E2D0E4FA70120C95A85A417BF5078B232F475
310
4363EB1750B2AC2148EB46B1EA72AD9B4D23ADCBC589D70106C3EC2ABEEED84DFE28E718C6C83502C28E9FDD3B09DA0A6F6F7B72B706A31C9E2A331EE70DA56A083D2177BFD63C55B11D8D949FAFCF90B23A1E24B9B5018B9A17E99F2890EC302F330FE7936E2C23F0D237EC8916F5166AB84B62A21BB0B950146962D754F9
310
2CC2C8877BED8FC7B7B25726DD19545392570B3A2C66B58F027BEF412E552D12A588C4A3CC5C3193FCB3485EFFF700D0B9EEC077754A33DC1FB9E25AF814628F91DDFECB667D3F7690803F38D13F8AE39353523BB08FC6760144AFA2CE28236F65EDBB3D5F59A57D612B99E3D7E5F8A851666BF9B5A6658EFC96EEB37A378A
310
BB0EB3FDDF1303AF32C41BD1C8560745D7BD81066B0D6313359CF488563D3BA3F8E2185D1FAA3EBA1397C9D0E3DD232180A4DCADB6AF25DB3AC3CC26589C8239E66E81547BC7E2F328F9884764CA37EB5DBE390DFC03A5246B456A7C3684C4377D0EEF9A350680FA9A077E8B2957B489E09AB1AD41316944C2254B5984830F
310
691C93CAA767EECF976FA5647538830B5E63236A6F0365C1E0F3E327F24FE35EDDBD7360B0F7374837409F7A6311BECC12B7026D4FA1AE204FA3F5FE904B1F420C7A9044AE58E403E7C4848E7DA25DC9EDAC79DD756FAA26B9EA83ACE8A214A2612A22AFA19DAE7DBAC5F8CDE1292A485F98DAC731A29FE01A3966E96BCB9F
310
B5A4C8830E1B9AF0C54B87FBE221A097036E5D28D1F869F810C06A9BB0AC0612F69AEBAF893C6E7AD59460208BAB3A6B09CA4F6BDDAB8CF0D1F84B72487498395A70DCD754796E271099A567A55CF242BBED64696378BB6CF25EF0FCDB589F3A82F1116D010A9AB9FA4358809EE0C973A2B4229BAA876A70B03AB49CBA7FBE
310
71DB1832FFD32F9BF2C8E98075CACAFB36921235D0F552B6A67E94E094097A5D7DF681B40623DA535ADA7A9AD8E9A62407D7C9A5AE51D62A17A83A23728DE86BB56115804D3F2675F2C6B87541A0FC497BF0CA86420F558C9859EBE9FAD62747E323E3AADC03FDCDDFE7407B09DA90B44E3185723C5381EAEF589765E2F7A0
310
99BA46695BAD60CEF3491B8A171F5F56444F7CE9455312C3498C74173AEA0214EC029833B34B650CBB5A5508D5091665309642791708ECF27CF11DB3D797D6CFE474453BD4BFADB768094B2147814D81C7CBAF8228DCAF5564B5891F5EF6A860EB2E323CB82AB868D8EA048880D63B0DE5341F1B3D53297B928A11E15F25E5
310
148990F710747C3509ED14909C552EBE3973246FCE55D00564D8310BC3EBC5085D08D806799B77D6C57FDF5E55837F9E934F09C03C729271B64F12D0A9F9E938107CAF7BF1EC8CF1BB9B42363D33070F4CACB425E605DDB0A34A12BB936DE286B9887A4E2E558F0886498BFF49C311D96C277CF6A9FC0D75AD0ECC5226D7E0
310
E3572012E56D7FDE4410CEC7A6D0F997F225A2055B8B92E3956E875AE4993CB3D4C9063AF98FD45E1BAB165640A43439A2C9181A7C355B297C0A0CCFFAE19B6FA3C2BA238A885FBC98B8F6DAF4B94B97304878DF4D8BFF6A4AEDF79E90ED4E68F00CD7299F4E0D83E35601AF0CBEF18C1E870E74758FA91F5131075004DB3C
310
FCF09AE1DABC11957FD9808C92E8A678CE9DBE40DDA0E0D1D505AAFBCBA208232BFB6FB3704E8985E61ADE53DE74152F5C7DE74B1DEDCD37DC3E8FB30D7EBA8B9EFFC3606BF90B8D438279CB7709FC7C00D327F41817EEA71CD9E49FE9C8C9A81C70915D9F0F15958EC5AA4C3BBFAF46986B90F188BDB24B89DE3C6F29EC3E
310
6F66D84856EE96A35E657CA41B41EFD8DBFA16AD6E91439EA92B40B21C053249F51AE50EB0B24C770FFAF40DF12C8436366819C48E36547D4E7B72FE2BBF10828583057814A668BDF183F6B2E58DFB151103E56303E63D00F39C27C4661605DB644D19175D02E3F0241E8FC3458D17AAAADB117CE9EEA690D0DB01E634878C
310
04C2C9310B69FCAB831151E3AD293BEF6E46B0ABCECB50F5939B39C613D41E81FAE8D34CAE3C4566B761D37185FE864AC32FCB71AEF39DAA5BAB88609BB980CD2F07A8F941653B529567726E2B2A58D079DD57E1E5E31426CF184A04D7B03B985F276D47406AF276FE32E3328BA866EB1FD39BEF57863A317634AA5FE46740
310
9B3873F5069EF0D71AF00AD189D17BA1974ECDB2D623E9E14086386A6AAB5807825C37B015BFE892AFD154920EC437EB945D958E18622E1E0FE2FA06557CE4BB9BBD05A2D40E774DA2B65473791E314B7D6C886820B2FCFE4AA272B3B8B15E7344A145E8AF919B5454D89D36D413E87211186BF6F645E5EC94DCCE8E1C7990
310
22E4EC9BC86D7A0F2AFB1FC4B2CE48F84B3F49ECE65BAD24CADCC07EFF39AB06BE9E6B27A059938EA7208838455383DDBCFCD967DDE4650EF92A14FF933C975DB20BD7FEEBC4487576485963D757D16340D9599FEB362F775F38CA4185A86F74B629C81B133644A3B18FD056E997E0734F9BE26D11C0AAFC669E2AC9FC41D2
310
81F8B2E1C35AE27BCE05F3DA295488096688719D974DF1B5D182DB7792288697F8763CFB43562C1CDEE11C4AABD5C22B6E33F6F389CFC3477C5919DC0D533F8A7A1846B7ADB60ABDC26C43D0CFC8910B7C15EE22675BD02702ED39DB77A87A192CA7A543E6205B979B9F5A6B512A3CA799E198B2D5797C0AF8D1D872CA455D
310
4D431A7879D4DD76110B5FF7F4176B54477A9EB5E4A5D11214FDA585F0382751D8E2582BA5D2075053298FEB8F1537304E32CB22C2E2B693DC0A760B1DFCA751BDC445AFDCBB12820ED85F6D5298933C7EF1211E9E057684056CDA3FEF3BB6052355E162DF27C59E965A8DDB7F9437EB72CDDA3A090DE65A5B2F50326247B7
310
EC67B73ACC7047FC9B353D6EE990F772207C6EC52B39DC2F3C0754821DAB559F7C1809C7D0DD5B0499D0442E0A6E391B3D5DB46D11E731E6794EC77523FBDAA242ED67F9FA1FB684255671F63C9BCFE6E7E896D51001A6113EF2298BA494E0B0980D1FA5B9D60796554C02256B1E0345FB7C6186B6A19D2DCA270416262845
310
FA4F42DB5D9B0A0B6F07FCA2E56C242522E001E0CEB734AF310FC8BFB57E38E03AACE93B3326A2197891E68452B26A6307FDABFEE0223D3C03C3C73D2D5BC054C8311F12004CAE488E5C29287F8156A2CAA4AD0D7BE6B97264E4139F437CE73ADF52E5134C52B819777C18B323A5924E4F67AFD13B1CDC3A61793A79FAF5C0
310
CEB718E441071E797C6DCCB9EFCF7E4A1E9F3DF3C2F9C9E8294E9586868788C972857FB0556D7A26941A7EEB9B580AD78EC40B85DC906B4120A563CA3B87797ED612D3B035962BB75F6515A393F4CB057F564CDF54F2E5A024514E6A1F901DB80C7E70B1FC05E356A7E72FABF4775B3E3FB8F70A2A8E7B6A94542BB3041579
310
78CCC999E707A29CC795E67A59CC546A5D47B368954CA7B6E75EC9E1F6FC73CE3B4F71F8CB1A6B15923D61EAAEB14626AAA9D04A26EB9C66CD1BE86CA31A5D8703DE04CD1EBCE4F5CCB62F93909AD11E55799A781A956ED27D3E738F4538CB04ADABC7DAEF20BC35BA6A90BCC1DC61BA05F20D8832FFB9BC9B15E2DB838A0A
310
FBB7E0C82A562127E0446894F427794C3037186F622BF24DE1B00AA10A23BFA47B2A180D6DA5AD6F7326FEB8C100C2D7142EB2A0B2A9D1008A09BA343D70E054AB69E2A7EDB783CBD92537FAF4A44D1296AC2792729104B3276C276C951D0CF3CF3F1E6B017720A7B8505A5FF9589365979678C36F1BAF759EAF57C60F1FF5
310
FE9DCF5F8E764FF25A2D06CF25117A8FED51884C13B2B750DB0E4F5E3D64124FCF11F0AD8F1CC3B3DA4B38ED22BF1CB2585EE6BFEBBA63FBFD44F9537B9B37BDD6B358720F98A8125AED4349CCFEB0E135F19E208A04CA7E2B10711185D72E381F448036EF57C9F874E54A971CA37A639E986AC0226DC5AA00D5B14FEA9192
310
234B3DE617814FC221C92F33F1D392F297731B567FD98FD91D989379AF567A65B8ADF177591DB90FBEA99BF4ED11B16E50A0AB1DBF1156D034BBE04D69D08F939D8E92BF525A1DDAFF80ECBC95D8F45D3FDD289FD23F7D8B452F8EBB34EC082DEEE68E18EDDF072060FAD2AB1504DD4879BF67099FC58F6E9DEFBF645D1633
310
4A3E9A127C6F1AF6132CF287E433B43A0EE93812B4AA0B194E03EE3FF91EF9C6ED0074A2F6EB18A96A7C9890B1FCDA1F2095E944DB911ED54C60DF16FB74C8CE9BDC7C54C4F14078CF73C2FFF1F1BBCCD7CF64F71407EA1683DBC410D226627F66E509060D5C0AFD611DE681D509DB8DD12FB1265B03C6F5C55FF4C30BD941
310
87FF692B4F152982502F193098A789526A038AB529A52BC0DC4FB6285CBAC10A8B8DB75DCD9BDABBB221E27D1F8DA9F5EE5926A1C8AA9BA9BC09239C6A7F12914EA3B59EFF7AAEC3FFCCE56F1C5C2980AD072793527565E774F4631DB178CEEC691B1F367BEA0CF2907E1D6B854D527065979DDEF002D8B2ACEA7CE21AE297
310
737EDE1D45B31233B73FEA35BCFDD0B09721FDBAF6432681F2FD10C3E9EFB246FD6E854B344ACC9D8A0EEF876A7314B49B6A499FC650B099D650DBFEC7638ADFD245E2B7839DA5AC5F7D5623FC0ECEEC8653FC9B2BDD1AD4D00A566FBA7186DD3C9CD26512551637498CADB950FEC71ADB9A5524285DE328B8EC7EC75D2345
310
AEC6A27C42AF6D9B92155315C80DBFCABBB7DA0FAE425C4FB896B15C9BFAC4FE67DF5A23D30C93DA4D8F36FB15D100050DA6062E22AEC5F4DAC4F6FEEF97AE05DE63C6D38F9E068A20BC5E3B6BCD75320C5090924E7F93640A7735B1A43451C2D91EE62C6238B797349E59890AF3A520DF4A87095F3ABEC2E61F0593416CE4
310
6CDCBE0E00E2523FCCD04408588B5B6C9DB6459C786CE378770B54F51DA3A5E1DF2A3349BEAAC234A6CF8993B598B3B25B4B113E353A4D750FA7534749430F3EBF2512E7EA3FD43C6AB9A1F765A58463B306721A15D224FAFE8C6F5E3432D57EE697DA0DD5A9D4866A8BCCAAA9DFF1F06047851408FEC060471D0E3EB86BFA
310
F46E4B5E60311DC3E3CEA147C75CF971BE74689507154FF2D2E92F15CDB2B9182B11459FD8ACAC5A85F174BC94A7F4EE4C4F5CAFA7C02E37BF0BC77B7DCD0C047BC316F562A01A441AFA7931CC84A28CB9F4AA367EB515778F29BFE61195FA671F4352E5E46E3A64773F1F76EE5EB36D7BCE9BCEAD837A4D77F8DB8C92AEEF
310
6711920D7C7D0F76B0FD0EB7AB83724CD35BCA7D36DDDF5FBB7FF6F04A91F3E2BB3B8F1A43CD659639507FF6331C5F697BCC782AE57D757A27D97F1AB9E0AEDB43F92F1B2AACDF5FEC8ADBAF9F814E2027003BA2F9E144B1938A7A04050AE5D953B82C45619165C813A10E76DD6906B3C16438064D14CDA713AEC420034613
310
E1AC7241904A49FBF87409AFB1FCB9B72FE7933A87D8FBEDACECE4EDCF6A4FE9FB94D5DEB74FAB7CFEAE17EE965DF980DCCA2D04134994F9A2E94D2265DA4FE6AA7B7AC15FACAC2B5ABBCD7DFF542C5314FDAB2E1B9D8B65220B8E2B638BE008E8DCA22678C820C5053664D15E89F2D735B51A84955E81A443545E9FF787BE
310
0FA700A76D136C27DA179A7C6E8939E01BE756E19CB292798063D8B97F44E8A27BCF3A614FEB8BE974A718E86F7EC99B53CA35FA24F61F2B07266684623A3D4CF073E511F3A10A8FDAFAF0078C577F4DF9D339FE7862E5FA47CF4344209E5BF76D783B1B48E152AD281B15FCB934DCDA49CEC5706B1EE8B460F435324A5CAD
310
154725E21AB8044B75A557A79F6C807B9340AA3D92503E866F4274412926C8C504E4D5EF8C0E68DD0B028781A6B4054F11CF18941F101C57CCC796773ABC8DED9CD91FE5788806C05E548895354AEAC96546D55B0E94A59F148D061F42AA398D822CDECA4CDE79E13469BDCC44FDC990F366BA5978C15F97ED80CBFD73B0CD
310
9B8B83A4F6845BDFBFAF034019473FB9A63BD55D3A4A7284757071574029A4D016DCCBE95DD679EF3C4880BF169422F8C89B68A988D2B13793CAED4F74DE7486C72DC94DF46B8E93D8E02EFCB1FF9B3BA10C8AE7F653DF94F4AF466CDDCEF5776687F7C4C14B63E4EED1719DC2EC482D7DBCC7AE518CDE3D5FF86D39000EC3
310
673C0044E1D308BF05F74D1B5F033A7D1BE7F74BC55BBE3E4A20F920946CA0271EB17BD2B80E5660ACB8A29A79F5E4BBA49D4D945B6EEF4A7EFEAA65E5555BBB57A7E15D2F83C69F30BBB978D2B39F1F26FC097424D39BB33CA3D87ABF64E307938B685BAD44F71556A30B7E712CA4FE600613C3E554B69ADE949A7CFE214D
310
F1FFF05CB82151EC6FC31950239F94CF7AD39DC473F6EA356E5EC2C4EFA04383CEFE985A127484366FBEE3C0EC4FEA363E4F6632AE781392FD45D67B63FB8DF70E82734F431FD3443172A0E30A83D60982D55FA6A2CF86DBA8382502ACC6CDEF3B907982EED1160E14863FA242F9757347E1544275CCDCF71ECD5F8621CBEA
310
326B8BA884AD7F825781923E66971F04010D574C541D8427A438A37EEF8AF88240EED7362C953F5A81DE2D56109CDE2524EA0F5D2F87308C0C47BD97AD605878AB8589E17CA83930CB5E0DCCD75853D68B1AB136594926DE426C367428E9334AFAFF90ECE221BB5DC9E5BB53D2CDEF954EAA9CD814F0E5725F1965DD458E5F
310
8487683AD86B9D0076BE3EE91EB1CECC5331A67A3F79D8B27587C12EC2A6A70474749F27B4C0BBAFB94B34189E88DC18964BE4121B9137FD516C7755356E50D6714E31ACD222621EBBCD1CFF81D87479056A9DA0E0B8EA19D24CF937DA89F78E8650CCBDC110AAB6C4E46DCBFD0446BA9E2060E81F314AC2031E88135E5476
310
AC0160EF5C0DD2EEF1B8B5CB2D198BE9A554A9093B5F7D7E4B5407DDFCA1D9C152FD97F55BFFFDFE802954DFEC8995B983E28AC92F1971E28F531DC407A1280EB125F64A72E617EFB27DFBCEDCDA2D6F2BDADA36873EE46B9BE1782998C63DA7182BC383FB6FD15DA472B175D7E8B4FC88F38D6E07FEAA3FA3CBB8F6B449EC
310
F14D2175E5C5CCA3A42ABF24CA6C9395AF74535F4DDB38CB84F56614B0FD32D7E19CA5CF988DB4449C40E23DF2B16772594554579094450F56F253CD25EA7F77366FB1CFE79696C428BB64D5A41E986189427E5E4D7E2DAE3D5BB4972B3DC44EAABDDDD63A2264ECFA5C786EB0EE1FDC5BE34FA0F08376869FD1E61EA06CAE
310
15191135445EE8F0394161C3266A596AA035572BB0C8876180D8B9C77D307DF9DCDF7365ABDA6F3A2366436457A4DFC1F259666569A9E4A79C817BDD5610E5200FCE894A358EC72858D50EF67545DA81C6FACE3D457BAF70367E1E6BDD9A952FB4F56247F58F523B97E640246051A72F79BE42FFA0B3187F63097F91C48B86
310
8586F714B0EBD5A00A8412C1236E1298F60C72BE6C96B82B404CADAA304AE9F303176B14BA53FBC2D5E86377E35542019E24D97B96A49B2C0E5006E7795954DEAF5DA58958839043C6C70BD3B1B33B6DC5C31316D8A6923F142E26F6711A2258AF977DDF1F970ECC4F1F2B434B96D81BEB6E89BF3BBB3C7C8CC80505070723
310
D6D7D7D3C8CA27CA164A26024FED94B12A86031867241DA53D929636DA600F050BC40CE48B8BA03D69224720DEE2ED2127390BDF5E6EA64527BBD4C4C63FA76BB801FEEC0E61218EC98A8A86CD8313781617877E66692839B9468CF4DB8E50A73986E558E309C0D6F676F921BE02F1185454DC75B111572FF9D27D85EA14C0
310
5AD7271225B391C4275659CA4A43759D0BA44639BE4C30A84DB7F67A41399FB95CBF923B1B1672ABC807C1590557FB18D811983FA97F5E609516D62281D38B1281F68FC75528C35E4CD7DF0F7DBB5E5DD69C414EBEA2F4A5B241B996BA77AE6C772E367408C633EA3E438B68563EA8BE7667F3A4C4FDEEA52ABD78A2820F44
310
3B7914A15F180018D231E64519C56A12F6CA7C8DAE18F06F6B769DBF92329EF6A5D18FBCE600F36BD8E8198DE5CDAA96181F3A756EBA5501CEE58F497EA4F418A2B82565B9BCC611713C0B708CCA1F398B78C5F7D03B3437CC18F13061F55C7BEDADD5ACB1DB0E36D3CE47FF6EA1A563A57E9649EA5D14D1A50EAA45746338
310
1C073777EF1600607BAF6428A7DDC079D47A204EF1E1F1F0589FB054D45E02CE623B3823C317C601E589E22B1E88B448524B86A82828E32345EC18AE17214B42F8C41C6D428016D9BA31DDCB47572561E5A402E5BA4FCE55F78AF7268524AA04130F3A20BA5D1E9F9948EA48FC8F5314FDB35E21898198060034ACE5E3E2BB
310
CA34092518F275190AF65F45867FF0900AA4B81F25427414C372BF51DC29AA855C5428EE1EEDD6B849AD60F6E73475C2D2523F8A2772C840A478DED18A8C5C91B085F255DC4F54EA7AA8947354FD17ECF8FB3B4A0DE7B483CAF3A1165EE05BBA413E5C1FEF3DE1D6B8F2F3F3251C17D9FCAB48A9AAF63AC773A0E413BBC46A
310
9ADF84A566FC920E4D8C52C9769EE3301CADEEEDD92B312E02E2A7E35B7F1E7D203FE5A7D75578B06E99D0E46FFADB8FDA17ED8880390DA29094202D6F645F76F6F96409CDA05495A96E84B04A00D1A6C6C81D7F3DE9376E828CCF144EE50E364ACCE7237EA0BFB5607ED1AC3CFE73794E5B61739D14DF1743441B1AC98F00
310
ECEDE9E7301FA29755FBEFA68C91EF2B314CF510537EF1ABFC9A762496280B546F5EDAAF8A5B387D469FC9A878A92828C88608453ACEC6094DCA54111E7AD5B2663DFE2DD151B7F123B9F4FEF8EE36AB125FD7AD52A59B1B765B3E3F73E3F73DEA93875004D2AFFE3CDE9493B87A9904DD052028949041A91DC0E1BA47BA71
310
4343FD5B25E0A6A09503AFC17C790058A836A324FE31D7893512E28230332F153181C1E018E1124EBE1BA262AA428A518237D1EA7275E48C5C561BD19ED6912EDD8367DA0F31E40EEAE9683DA9257525AEA7B632B97119E17145A90231768A4F3B9120FF32E8319B015E3CBE26F1A754177D8185345817C096B0CE443A955D
310
13AC15E1FB5DEEA0239EC32A3C92241A237B0B02FFCB4F93CF2B02570C8D192E2F2A68CEEB42F12E6F8CEEFF46C251E22B4341C56FB08CCE550E7A9D6F4D6564B9EA52A83D5BF2C6E03FA19D2775E15A8A7ACF30A13C259EE7F5EF2AC3BA354F1500E1A07FC63FB4686E2F12EC69719F9ECF5FE3F35598DF2CE944008CE78F
310
0911BA5BE5D0A34E0098FF038669C26030BA9B300303039852A8F6F496341737CA7E0D2E3AAA36DE0A70AA7D9CA0D54D9AD84B18A44C9E625475E1C97B93BEBB38DCE7D227E67A2D00F531436136355F243D1FC0D712C5765754FA22FCFFAE97919161F46D6E61ACB37D83777B385889770B50765B127768443A5C4D3A4E35
310
A3151111F146B7CA116F918A049F1C272F2CD7976C69A0068773451659A97E0F4A08FE604C3FF6CE7385DB19F4D3ABC8A0D80DA8A42096AC377DB49382B36E270B6FA7570188B4B7D1DDDDA82ACA487CCA5D38BD3BD039ADBAFA4ACFF27809239B722081E2EB9F145320553D183F28471C388BC8814E5045676767AB58A8E7
310
2D1CED2CA731379515D2E533E4CF0B39DFC625F97AC4836831A4DE330E87A8126FA17EBE583D614E71E22A8DBF2825599743E0640037303E8E1B1E8EA4E1ABFA4F62907B5E4E0E5DCFDAB417C36C6848A2B8D15F1E505434C0707E16B1CFC2A1C36A42BBF55734F8F4301DDC2A5110CEE8C0747F69519265012A2174BF4E95
310
5ECD4FDE095A3ABC70536B7AD0B9D7892F81287D667C108703C9B66A221E9A0929D030008F77FF6F5D2108EF5706FC87A3069B976F7C9FC3239D13D283CDEA83597461079FEEE049B0F392889898B7D87D31F8D60ED7B56B91823A8E4EDDB36C6172ECEE42BD42B12CD67994FA0F0DFAE9389356F4CD4425A4B8AA55CBF7EC
310
D585C6A2C2316791E43D5C06841ADBB226A87FD61515FFBB0167B74E56BD7F3E90A57A97FEDCBDF483A0D6699A8C0849CAEB4947FAA90D8E332D9DEBD9F4738C37DA0CAF9CF3DAA68BCB67C420459C7A64498D6E848E5CADE92BB6901F607AA331104A67F7CD650EE169B1DAE94D2C31C2F993632259B6957E246EFE4C5481
310
107B07118607700040E5812A2A2A38DA0076875258C753F60E0F2662C748EDD5F3F3686B8FC3BD6FE631ECCAA1E8B1C1E565AD117E54893E79F4672E32F9E46B2A183DFDCF3EECB4D4D077DBEA0DA254D256045109670050129E9B9B1A9E4A11344D61497A992778095151510C4BB7EF2009B63AA4360635312E4CF668B7E0
310
D3D85A8688E2BD83B569439892ADB63461930D428E0DE42E4AC57CE48DA5CC1449530D8BD3D6A0F08DF20C8E8F570F2CFFFCEA286E30969B4654D498A58D9DA782E19FE3F002181838925592C4A1EF0B332D88B61A92C644547BED490D3A42CFFAB70E36D961F694F6307F72FF15A1C79D5B1B5CEFD353D9E2B52566DEC8F8
310
F09CB3E8359C0F68EBBB7898243E34E12A015B2685AB303C04D3A9E00671FF3DFF0A184E4A2ABEB2B666AF5B3A209C73D8EF29DCDB069C9F391EEE9DD0F74C7BCDE16F8F02E3B8816122BBEB50665775B600549D8BB33A54A6BF940C028118BC6878C79958D6784F9DEAA6E26748386FFAF8D0D0101E2847B6563F5D8DC1D7
310
8F787BE00E2C941AE12148D4A81599FE8F68D4DA5CDED75530ADE138240300EE13B0FC13A1687FED6774662C05A2B7DFB186732F0D7A93545D8B0A6390AE5054D9CB582DA846D7A061B3358B45E2B52DDE63E114397EDB7E09233A579155D795BE76102CF277F4DF8B188C4F2879BEAE3C08347124BF9ED23B128259FE107D
310
31E34A652F090B30B39E0D9AF917B76A2806135621A8A60681F16AF216514BBD02711585B5B1AE823F4B2D0369EA5B6BCB863072727FFC871CA6C9AB79A814D989057E9470A3D238BC87CBB4A0EA49AFE2B86F22E499793CAA9047080450166BDC357524561E258C77CB697F1ABB32562CF87C3B7AA12F911EF19FB3E5C022
310
22E887D08202A60A17151F5E053A86B437771088B4FEE14D652C43E8D939995D34545E12E2FF93D4E366EAD25F10CB7DED141563C3D0C447AF06078A91135FD4B9611583CB4BF3BD167F2399CEAB0E0100F8FFC305F00F1711717173138B4B48C83022295DE657EFEDD97F238ECA80F528AFB4F8D67AD4E2594B9A3AA86D74
310
87EFC313BA95745C186F0CDD84CC12DC9CB0424B42203D351FD9C0A3AF10CC7F388E0329279087386421F194F4A29464C1DEF7EF8BE515E4A199DCD5B909342598D8FE6A231F71336248D5CEC5454455C7BE383B3BC7B260FED27F703FDC39A170F3827239102F59D4DEE7FEF82EAA1A5E4BA94DCC4CC44E7E2EDE20F24244
310
E4454369D2E87C3F823F193FD4FD27E1C23984B01898D15ABC20711A8A558054951A6AE280096BA36CBA439603B7B0B4C45F248C14B2383B4B5CD8ECECE4FF859AD4A6CA2326D020EF090F4041D28DB66E5256B56232CC52829DE8060BAE6BBF37D4B7469B822454FE93210A3E8D15E69FFCF01123222611C51C4FD0A041A0
310
CFA2471CF6BE38D2B20FA4C3525B5B8B586759475CF80ADFE67A284AC24651E52B8E683D24C2622642F27E7C3C22783BCF63648BC398BD6CD0D9C97E7E7E3EACB6126DB7A6C1FD9F1031302EE67ED96F22B77C7CA0239BB324207559B105E4693EB26EC46182A92C9C0DBD24F29B31C5C5AC1F84300E0E17CEEAC15F5736FA
310
4A98971E2F1423BFCD68D4BBD5F86E74B40A369F39507C88FCDB35D2DD8DEBEA4AF999E23CF2816D204200DF6E611781B9884C1AC8888B4DE397320472959434323A5A36B22A8E1F721A270DF3BD65E4A31C11FF048AFB0D8B7B6881423793963A23CFCE935FC189ED36FAE35C46DA3574C979E4394BE52084F3081837BE03
310
3396D2EBD80F1F691B273F660D2B32FA27A33B1DE4ADA5F0FA4651511102DFA410DDA86E065272CA314D5249DF91B06BB92807B28EFD54F08F7B525252782CD276DD02E6B0319B13DF87B1F6361AD6B28FC0D711CF445429B9E5A433CD493051C49A9E03DDB1B147D880253514A5DED88009018620EE229101C041950E2D8A
310
A8E1F5F5438E0C0C0C60EEDEE9E3E0C051948C69F84BB7B2A48A1F3C8EB9E6864687F4F4F6F6E2FA87608ADAF9C5E117B7C1A737E710769DA1D15ECE6A84502AA855398712D5FB51BE92E4EF824969CE18278798AC303C2C7980DD2500ADF8FB1E6D6C2FAAFF9987178923334A244758BAA01A9A1B70FA5097D01E1CC2A58D
310
AD0EC94CE6430AA9B0C10D75E3C6BAC670EFBADEE1607739CE0FC18A2587E3EC3058562014C64219C69BC269082D5C2F4A659278D585755912176D78A1B641719C2A394CED495A1AC5D583FD2F5EDD93308EA7EAE8A6DD396598BDBD3D4CFED62D18A5BDFDE0DD5C80D1A89BA62697B131AE7CE9A6594138582F1B37D68F17
310
49AC7CB67A70695D48A4A056AC1FBD4E82358CEAE38F54B95A9016F9000F9879C0D9D131768635CA798895F27D6F1614F11F2838A83611AA51C9A3DDB539D42979C29F10465655C17BEC3E2760B80DCBF609198C7B171A531905F3EC218D696025975E986C6B4C666666787271F202805577DD5A3EF0CAFAF91B62DC4B2DB4
310
217A7606282F31D8DDBC290593BAA93EA6353AFA9939B877978481E15CFC9F2755CDC00C538F63A4BA3E80AE009B73CA0185687D339A507D165B74290D6EE46D5C58148F020C3668ABE9EF2F7549170DC80DB41FFC1D678FF19AEB10C7133832B104B80F691B3138F97A92D26E551F1F110400D45AC71A9B9AC41A1A1B1DAE
310
ED0B0810638EFFB511D46B121C6FEA0F38CD00E03CFFEB9713FE1F9C263E4DDEC160D0497FA9A132BA608584057FB15380825DE6C7FC3C667EE947D488A09898D8E939C4953BF4EC9836344D2CC6B2971B2A21A572B06096F4982D2CC7232D46E8EA69DC83722E267754D777F97F96D5DA74E1E75178084D0E70F12AD33E5F
310
71EF2AFA599B2BEBF60A5BE475F444F240CBFE8143C334E7ED9150FEEFEF7EB020C4DBED388DD1D6A167A76F3CBF119B578AE8CFA7736ACAFA4440A1C47185638A0D2F3EB5BDDEFDA958FB13CE4AA4923D5BF840392D45544329525749734866684BF7F8D9D54D892E19BCA9F829A0F8BFCBEEA6CFDFC61D74EA1A645ED7A1
310
FF241739F15694BD835B66FEC5677E40FE69BD3F91AE402F036537218A401CB0828604AD189E575015C6F3F6BBC8AC79CF6C70653847254B31551EFCBEB5978B9DB85D58D0FA41A9DFE9C624834AA04949D24B5AE6D299E072D152D12097920F14AA92C31C3B97E28B6C2E6E9C23D63043ECBBC0A60FDF5BD0C33C127EA8A3
310
308B8B6AFFEB28B4455BF6E7AF4FC6222728357EB8E46E85053E6A8843AB23295BF838ABDA94658FEF3F832F147046B4ACD6F7D48E8FCC9618582961C898D1C7A253C91BFECBDA6BA18A1FCF70755DCCEE2222F41B76D23CA98D0CB3D95F0CF66D57FFF65E2A90F5DF40FC3187621E981BD0BC1D992787212688976B94A8F0
310
C6EF646624B570B78E068826F87CE27041A95C9A4871FF65CC17FCB1639629AD6A9517000D63AC231F3D741CB8430777E7ECF80CE7A3F73C0F162F7E56AA71F4DA80A33CD6ACEE78E2C11FAC03DAFCE929B106F8F6B3ED2DC71FF994BD9CEF4E9A94896EF1B6E2B7B4978168BCF0847A3D2A4F1B0500B926E634B174548E9F
310
BAD27153FB5FC36799B1E6C7C38A94E1F9E996796D7B485E635D5287A2AE76FBD11A341DB3F8F810385BB7296391973DC6C37C452A9305AEBBE0CDB6C566DB59FE60C8E94B1FD090354BF51439FFD1B48D725228FFA88C84F686F547107A7A235665A4593B7C34D748C1AC8D56DD5DA861EEFBADDECBBD65117E65851F9035
310
1AEB65F0EFCFF4BCFEF24CB7A5879699FAC437A7AF9099186CF006BB923A59E37D7A36A29FD8D2CBB914A5E9D0A8FD212FBF796AE9A67958FF1D5D8B85F78F96219D4714EB919929241B6C018AAE0C02069F8D919961EC5DDFBFB7573E3AC8E08BFB7C8534BE6DE045B3CD63DBD71F7638BA2309CAE398EA3A7D8F98BBBC7A
310
EB367EFA5CFA27A9F8F2F52FE878058E6209C026453F8E7E8A237DFC389E9590F6059B397CFD65183BBF936E86896612A5B5FEE49DAC8455D026218AFEBEC12B3523A45B57B82C9C97E02ACFA1184DB18E48CF615DBF39C3CC6F0B4AE6BBEEA2E39D944E290302FA3DE33FA7E40296E2EF7BF1CD855BBECFAD0FD622BEE974
310
6FC4FDFDE545AE6E3BC234CADF83A0FB76DFB145BF3828AE3436368AC24989454F8FF70A177672C711CAA1A76107218CF948CA01F873520E7A2B118EBB161ABAD432932029628B6761590C98AB590C8C8C79798CE9F715BA696E839E9131A4BB68BE923F1747FBFF165331FFDD4D05997ACD168F12CA75348DAC04C7F509FE
310
83898A8B421181AF492861CE81E4A2DD0A30850CFA95E05F097FF70F9E777310D584A75BA7018922E271DAB1D785671157685B7D383D3E074DDB4F1E44EF04B07BAAC75A062077C54B9752C738C9D804D402E02851F3F89605AF189738C18C021D2139EAF72513824E10DDD3047BACC8521ED7E98B257D1166903B1B08FA6F
310
918FD7E162913FEC7D0EF4787E29C35FBA8C6E2C9C20E9AB30AE42CA2A01A090E7D010C1B5BF9CEE2A304BF3A987FB40D836979B79E18D70F257DA61E808472DD85B82761825779D6B90CAEB0F23360C6F80A7D7D77545E95B3DFF0CF96A827F9B5BCECD2C9698718417EF80FEEDEE938AFF55859D0D540B7FE09435583A6F
310
04874A0C7E8CF234DF4879722000167F5872CEC6BF3EF7E5A8CC8121E6A359227C8A29C95212F9F735BC72A887D56B8F309FC525BFB4FD767AAEC4AEFF249CFBBD2DE1AB9969A6155C7D8DABC307E47324C1F916C7BCFF40ABA5644E9FFB9238D19ADADA49D9610F01ABBA57E4DFCBDCCBB2B93C8953206C91DE01B0E2651A
310
6D6C31721915B31F7B7CBCE55466F6D70402788FA91D73BE4ADCBA99A35F17D6B83383704917D6833F0FA3CD45C926ADB8BC17999A4A0AFBCE2541F7B8CF4C2F5FBA611B3E626D64407CB32C122DFF4EF8674D6EDBB86C8F7C6A16D50FA685E2CCA34F8F7D1D8265BB0042E9D7F1F666F7BE5FAA5184DF58E12122A42EF02F
310
461B3F369AC746F96528AD208512AB56844CF75B97F352DF7995024FB02855385854F3798670D01CAC771AC3E1889EC25F61A20C1F8CAB46898817F9C47E2CDA1F286BF2F358298709FE567C91133E2638C8B53975E753EA8BFD3578B5F7186B7BF084EBA3F77BAC3132A5779902EC22AF2D2E79F42D324E083386DAEE9810
310
D1B44A5DAA54513C7A71E52A4AB9257D975B621308FE4D2141CC3DCFE946C154A3C1DFCCA7629EC69ACFA831634ADDA93C0388D2A9A2DDAFCF957C6995BCE7FBB6DC4EBAE79E63EB08E9A25F52F67076F7093CA545CA3053B5BF576DEAD4E0017143C5F759F32B2D6F145B52B67B48909B7C7FCA6586EE385A2189C16932CB
310
6DDFD9152AE317C430492A578ED27B72D85D40C7C93C097939E1B50F4D67F05334FE9DC362C30B7FF561B95259138ECFD9274C8D695C31B14D4EAA9F3D7FA8DDF652F8C5DEFA23284C799B7D94416DEE81E05A866302DC70192A5368EA65E1CED8BF107A1E2D3119A71E85DC1A7B0C1E93274CE04DD0F2ABC8AC7C987FDB00
310
2B6F81757B43502EF7A0D92E416494FAEEA4C9C090CD9557AA4D532F4996A272B94355C5A0E4974EEA9627476F30809B94D8D8D860062E02204643BEC7D0438AF800FC7E2B26955D595421E83C69E1A07E0E3122285835F014AD538188CF9737CE76D464A353FA55A001AB2526B84E985083693BC76FE211CA1D000679C889
310
E3C009832C87E1AC2EDD05C302557422DF0800E316FCAC86978A371F025A6C7DAA9F333E7BD160403A1A06EA75AA9888FF01504B03041400060808005492635051464CB48900000043010000360000006662782F36433736454632422D393535342D344531342D414231352D4144384130413239464531392F646972656374
310
6F72792E786D6C9D8F310EC2300C45AF127987122606C71DD918B841D4B851A43646695A717C52A85029031293A5A76FBF6FACEF7DA7264E43906840EF0FA03836E242F406C6DCEE4EA06AC22492573150D1F66C60C640E8938CB705396EEDD86DE9B5042FE27813D640EA63BB001C722AF6E55CB61E4863F58284D5D3F53D
310
D715CE1C3985E63FD7F1B7EBDD617E9F1E504B030414000608080054926350E1C27E0842070000541C0000340000006662782F36433736454632422D393535342D344531342D414231352D4144384130413239464531392F6F626A656374732E786D6CDD59596FDB3810FE2B84F665F7C13A7CC52E1C173EE2C228D21635BA
310
D837819669871BEA002525CEFEFA1D52A42C2AB2ADF400169B00B14391C3996FEED1E4FD3164E889F094C6D1ADE5D9AE854814C43B1A1D6EAD3CDB7746167A3F45131EC759659F85221C925B4B2C5BD3C981C779A29676648F73565F5DCDFF4269402262A180E134BDB5D2E08184D8C67916EF48FA68EF7086EDC3FE687B76
310
B1D1247BE03879A85D95604EA20C5885F508A8280E3CF35F10C9994E1CB1C1D8D66BB7AD7B619B23053719A5519AE12878C555EDBAEE19AE6AD7F5BCFEF2AE3B187706FD7EAFD31F76BDCE7C355F76BC9B9EBB182E16E3D9DDD842D3C9368E59A98084443BD0E28B35F5268E78528AAF5068E23B88A388040ACDA60D3BA2E8
310
5292D6313180F5A468158514B256167A2D853FB3AD1528064B06DA5A38FD59B5DE78FB378090B6B1529E1261E569C641D70AFBC21FDC8953AC1A7AA1290A714638C50C31BAE5988382606BA120838CF016410A09CCA41635BD2AAF60D8D77DA989CB7DCE98F05F6B2A3DCD077F24592A39A3FF107EE2BE7A1BF004D2E634CA
310
464AD8EC250112E38923178B67BDAE7A580089F60C1FC05A404CB1A9D7ADE1B510B160BDB4A61F57DBE346C487E6CB131E278467C2F2A4332BBFD31AAC9816185F0B500A5C4DDD9D50F90AD07F02E44B5ED00434C7E9B17FEC6BD9398ED27DCC43D00E7251C7853F2E125F5F7D9B38E5E1294246AC3C8729B8ED4FC2D410C3
310
B8BB02E974F204461FF39E126E136006367D4F23E1E7602888C5B004F17EBF3D5AD33504535884539881F4F03B71C457041F051D8837350D3585DF168AD20E53F7B393AE3E80CD701A94AA32643C87EFE0A7E03B5B6E3E6E72BEC701B9578EBD247B1AD10C9269334306E886CB7F5B7F921EF981C55BCC4EA78D4D015C7388
310
45DC6850CB46A90549BD0027220D179A912BF714BC9D311C91384FD57A539C0A6216737FFBE2172EDC78D79FDA068ACB940134C63248EE01A789C0C49A2A6D9581D0AE080A1686B9B2C043A1557F9B87898FC3388F44A87D6D8A753E20CE084B04AA929A366CEDB59AEC8EEEF7790AC1AB91E4C20052F9B3265C58781FE258
310
13BF9CEC3986241A473E851C0CCED27883714109DE659E53C2F63E652C0FFD3D659047FC102767E8B794A09AB91EC9CB73CC778D044DCBD23EA96D4800AE80D520E96C55C47CA5534E9EA82833653ED3D9C0D8A1EA506BDA3F932E44A66800541BA33473F76EE8DD79E36EA7371EB99DFE6AD0EF8C57DEBCE3CD6F46B3E57C
310
E92D7B272B91089CA25535DF812A459963F85FF69087DB0853060F84D87897BC7B2FB3E7AD03A1D1192E6E8677ABEEBC331EC0B5FD3BAFDF99CDBD4167B61CCDDC5977BC02C61C4ED238E701499DAEE3FADA2493E85047EF7A0C85B2E67AB2D3FAAA0BF33F8EA1F59C6028F1BF1A444BAB6C2808DB065171B41E4271F02852
310
941F40D5D7E83EB5205AE7A329CEBD312EBB76CF953F1E38A63BEE8EC03F5A863D79D30F47BA261902E83CF3CC8F131CD0AC39A5D69069C9F29BB28BDDF3060536FA6FB78B00AFD6AB255397339362CAA7213E107F8F455FD1104AAF49DC98F50E2C4E531A9154F685AFEAC51A4DD786F2CBCCD20D664B533F2419FE1E8B95
310
8D46CD0B209A331F3AD84CCC10AED611A50BA89EE51C45D12F43AA97F2BFF8290E1356F4C6D730F0BA1A02DD153559A8605A5CF104F6E9E3CC7777448E3AAE512FD9D71545A3D6EAD4C7DF4DFE0C3CBA12FA85F0E82BDA175BF6C01B8B9F1184A1E1C0EB0D6F4A555C434B5F9689DE8FE5D0AD062FFE33A1878756C5693BAD
310
54CABCA210CF4808AD2FCE72DECA6387104DB46D69815464A8B944E5A6371694B2E7D35D1F5C269BBE732571E51AA85D6904B3B15682BC92A2D188A52EE41C508CBBDEE0D91A9BAB547F3862FEF22ABBEA7EA11C185DC7012AEC2204ABF863D4E18D95BA5143A5CF380B20946EE467670E1EB123BB533367906B2AEB756D7B
310
ADE25E8B901AC294178B487B2FBEB0AF18540D1D77EA7C280A3DA7585F8BD466C340FBC487C1B449EBF3874D8D0AACB43EFD4560449E6B14D4EA4274D017487D5B9FE604350A4AA26FEB0BC7FF135D88566065F40613E434661406F964870E2486FC0DA38A161D0A0F492AF33218AF0A52FA2D428BD34FC51C36C35BA64F07
310
0F1886D94CF56F79008354C899B7965A47BFC1E8544C2FE540CB7E84D64DC5300BE59CDE5A60B119850ECDDEC2084C0E1C25F5DA88131C1B470791F18B53E5FFA763021D884A27B9CA3D6D70519219CE04A57022DF2D40DD573C984EBE5F74CD0EC2197CDDE65929CC69E1248D0241BF4428848349E1A382F70825C565B93C
310
5BEE31206935CDBF680705D54E86F9418EE42B78CF965F1C314D5F7F4609CB0F429D973A6683524774EA2C2F265713300C2566824515B978E77CE131BC960AD18A8211A0DF8FA3E11FCE220EC3382A969C997AB985360FF0AA6AE7E83121B4FEAE3772E4E440BD0AF0B7382536DEA58FB000AAE554CC530B880D0328A369C5
310
00B446842EE098B17FBD44AA3AAA4C55AA6157C023DF03207024F1FE47B84D7543656809BE005CC987A72F7A61E270189C4FFF05504B0304140006080800549263506E5A6869DF000000550100003C0000006662782F36433736454632422D393535342D344531342D414231352D4144384130413239464531392F7265736F
310
75726365732F322F636E782E786D6C4D904D6A03310C85AF620C5DC6E39976118AC7B94456DD04D756A626B635F8A724B7AF9CBA501048BCF7219EA44EF718D837E4E231AD7C16923348169D4FDBCA5BBD1E8E9C9DB4CA88F51FC659321156DE65AED596B1ED437270352D7435F8741BA2BC6C90207B7BD9D3C6990DA69495
310
17FB05D108D32A3A2837E14C356216190AB66C8156541F61ACB0194C05C7F522177990AF54E7F9F84EF5367FA8A9935A7D2286C1FB5421E3FEB2488B34264A24D5D401AD5AF683EA6790F1174F503C3591AD55A9997E30B0FAD809F3D16C303D915F57ABA91F49EDF901EAFD21FA07504B030414000608080054926350FF15
310
A4A45D000000800000003A0000006662782F36433736454632422D393535342D344531342D414231352D4144384130413239464531392F7265736F75726365732F636E782E786D6C4D8B3B0E80201005AF42B6F75B59F0390B113044D83508C6E30BC6C26AF226F3B8BA6360974DA7271430F523308B2B198F9B80925DB700
310
539227A2FCCB80A18E5640D320F996A81C9F32D6E9129A0D1EF74FCE750E6D57BC7165FBCA07504B03041400060808005492635080E045114001000056050000300000006662782F36433736454632422D393535342D344531342D414231352D4144384130413239464531392F636E782E786D6CCD94C14A033110865F6509
310
78DCCD6EF550249B82079FC08378CB66A76B6C36599289D8B77752B7AD22450F85167208932FF0FF933F23561FA32DDE2144E35DCB9AAA660538ED7BE38696255C974B56ACA408DEE3378C154E8DD0B25C66520CC1A7692EF5B056C9E6AA356E33171562305D4288ACD056C5D8B2A85F6154954AE87B889BAA57A8AAA60A10
310
7D0A1AE83E9A11E6FB3A8042E8995CD48BBAAC6F693D35CB7B5A77CD8BE09994A2F3DECEBC7108C14F378B5A7BDA3A92530B9E0129523033953D3079D45675C6094EE75244D2EB8699C3ED94B969B2462BA44671AF11B02408D428F8172C05CF8E7FF87E7C783E6AA05D6F0268F4617BB13634A7DA7090565122FED7851DF8
310
9779DFBD91E5CBBDFB49C3B3B0B3D9DD273752747F2781F2A4DC60AFF1031CA49D3FFF3458D0E86B34BD577626CF7C3702E9E1F344949F504B0304140006080800549263507F48E9767F000000A30000000B0000006662782F636E782E786D6C4D8CD10E822018465F85FDF7943830D9108785EFE1121D0BA191B41E3F685E
310
74F56D67DF39A2FF6C0EBD4D7CD9E03B20A70A90F1F7305BBF7690F605B7807A296208FBDF0D909F36D341C120C51A437A1E6836CB945CA1CEFAC7019BEBA5D1633D60CE18C554138AD5401856B75655AAE6A3263C1BE7A2E4F9F5F296BCFC02504B030414000608080054926350A6D797065F000000820000000700000063
310
6E782E786D6C4DCB3B0E80201045D1AD90E9FD7516806B51190811670C8A61F982B1B0BAC9C97B72CA7B1037C6D3332918DA1E04D2CAC69353902EDB8C20262D23F3F59B81A079470595414B17391D1F19B4730A5583A7ED43BBE4025D9592775E5ADFFA01504B030414000608080054926350ECFD112DA800000026010000
310
130000005B436F6E74656E745F54797065735D2E786D6C7D4F4B0EC22010BD0A61DF525D18634ABB506FE00510A79458060253536F2FD89D5197F3FED3F68B9BD80362B21E25DFD40D6780DADF2C1AC9671AAA3D677DD75E9E0112CB5A4C928F44E12044D22338956A1F003333F8E814E5331A1194BE2B0362DB343BA13D12
310
2055543278D79E6050F344ECBC6478EDCD76CE8EABAE5449AE4298AC56946789C28AAFBEABC53F3EAF09A84A1441B91F0101CD4780756578C173A578FFDDBD00504B0304140006080800549263503DEE336E64000000790000001B0000006175746F6465736B2D64657369676E2D7061636B6167652E786D6C35CBC10E8320
310
0C00D05F21DCA56CA76D41FC96062B120735B69A7DBE268BB7777961F8D5AF396893C2ADB70FE7ADA196782C2DF776D7A97B5933C430F15651E5469C55D70F80A4992A3ADC954792C525AE70A1E4D6AD9816CC044FEFDF01FE3FDE907802504B0304140006080800549263508E6BB5E6F10000008E0100003D000000666278
310
2F36433736454632422D393535342D344531342D414231352D4144384130413239464531392F7265736F75726365732F322F636F72652E786D6C85505D6BC42010FC2B61DF35D1849014E3D172975FD0A7BE897A39B98B063F4A7F7EF59242FB54585819676677879DBED647F5A97D30CE4E40700395B6D22963970952BCA2
310
01AA1367DEB9F88B069515AB9EA0C0C0D9E25DDA0E483A1BB52DA8754A1FA0084147A8E4233F2608F2A65781458A9911EE7813F22E168D09DE799CA564D421352ABB99ABD11EF8E56DA0C3E5DCA3B9EF5BD48DB44323252D9ADBF99576FD7C1E096575117316CDFA335D7A2DA256C069431BD4B4B9DEC9F092AB231FAC2E4C
310
CE42F4F9E66368B92ED359BDA37FDCD2A6FE774BC6C6961E6EBB22002779B9E70767754927B76774B99724F937504B030414000608080054926350347213ACF6000000960100003B0000006662782F36433736454632422D393535342D344531342D414231352D4144384130413239464531392F7265736F75726365732F63
310
6F72652E786D6C8550CB6AC33010FC15B3773F241B631759A125F117F4D49B90368E482C193D4A3FBF52EC427B2A2CAC989D99D50E3B7DAD8FE2139DD7D64C40AA060A34D22A6D960962B896031427CE9CB5E1170D0A23569C20C3C0D9E26CDC0E485A13D064D458850728BCC700857CA4C7045EDE701595882131FCBDDA84
310
BC8B052B52ED3CCE62D4EA906A95DCF455A3037E791BE87039F7E5DCF76DD98DB42B474ADA726EE757DAF5F3792494D559CC59D0EBCF76E9500454C069439BB26953BD93E12555473E589D999CF9E0D2CDC7D27C1D7087DE4627D1B37A9FFE718D9BFADF356A135A7AB8EE0A0F9CA44F3E079CD539A5D49E11A69E13E5DF50
310
4B0304140006080800549263505526E85EF3000000B1010000310000006662782F36433736454632422D393535342D344531342D414231352D4144384130413239464531392F636F72652E786D6C8D50CB6E833010FC15B47703269042641C91947C414FBD59B643AD041BF951E5F36B072AB5B7482BAD359ED9995D727CCC
310
F7EC5B5AA78CEE01E72564527323949E7A08FE8A5AC88E945863FC1F1A649ACDB287040325933561D9206EB4973AA1DA08B981CC39E921E3F7F8E8C1F12F39B39C051F19EE962F8CDFD824739CAF3C4ABC9A7FA5DC4AE6A5005A955589CA5DAC0FDC1E62D5F89314894949084A6C564A44777555D202DD9FDFF6E3A53AA1AE
310
696A548FB846C3093768786F8772A8BACB883B52243125CEDBB8F336246DF7AA7C15FECB1C16F14266A5FDAEDA0C5785038A639EE70725453A606CCFEBC69E8E4D7F00504B0304140006080800549263506F72589250010000DD0200000C0000006662782F636F72652E786D6C8D52CB6E833010FC15E43B2F8310A98CA356
310
095FD0536F8E71A815B091B1513EBF6B1EA21CFA101658B3BB33B323C8F9D977C124CC28B5AA501A2528108AEB46AAB642CEDEC31205674A8CD6F65B1B0A14EB45853C8C28698D76C30A71ADAC501E55BA112BC8C6515814F00E2E151AF9A7E859C49C858EF1110D8C3F582BA2345AFA28714E36EBA86C804DDEA530885EDF
310
4A5C5E2F4558174516E6279C87279C66619DD5AF382FEACB29C524F6C39458D96FEADC08664583284E701226199CF7B47C8193A71F24F69D948CD6C0CEABA8DF0ED1FBED49E2053FF0B9A1F99BCF496533BCF22D1323A229D89B0B94C43E1FF8CCE11D330461C8CFB25BB7ADF0006812DC6A9343A5D16E2F4DAC7302A89360
310
7E48BC54817926F88907FFC2F33B0704C5540BD69885EBCD59AF7EF43408134EF619286D7AD6EDE6168BFB7B173AACB48D73DD69F39FE96DD52DCCD8FF98F40B504B030414000608080054926350DEA022C005010000B201000008000000636F72652E786D6C8D50D16E842010FC15B2EFA8A031DA209736777E419FFA4681
310
B3E4148CE0A5FDFBC24993F6ADC9264B6666778665A7CF654677BD79E3EC00A4A800692B9D32761A600F57DC013A71B639177EC90059B1E801120C9C4D9BDBD70C496783B609B54EE90C0AEF750024E7F818C0CB0FBD8842EC212AFCAD5885BC894917A438749C05B3FC8CCA4D8BA015705AD10A5775AC57D23DC56AC81B2B
310
9392B37D372A5B1915DDCDD5E80DF8E5A5A3DDE5DCE2B16D6BDCF4B4C13D25351EEBF19936ED78EE0965651AE6CC872DFE392F893903F2E29E7C5979509CBD3B3767410CA590B3F317F08A9589F8137A5FD53F421B1B6A9A171E131E3889811E44344E178CED71DED8D3B5F937504B01021400140006080800549263500000
310
000000000000000000003700000000000000000000000000000000006662782F36433736454632422D393535342D344531342D414231352D4144384130413239464531392F617474726962757465732E62696E504B010214001400060808005492635000000000000000000000000035000000000000000000000000005500
310
00006662782F36433736454632422D393535342D344531342D414231352D4144384130413239464531392F76657274696365732E62696E504B0102140014000608080054926350F270F13306000000040000003600000000000000000000000000A80000006662782F36433736454632422D393535342D344531342D414231
310
352D4144384130413239464531392F747269616E676C65732E62696E504B010214001400060808005492635088E57597CD3F0000904100004200000000000000000000000000020100006662782F36433736454632422D393535342D344531342D414231352D4144384130413239464531392F7265736F75726365732F322F
310
305F67656E657269632E706E67504B010214001400060808005492635051464CB4890000004301000036000000000000000000000000002F4100006662782F36433736454632422D393535342D344531342D414231352D4144384130413239464531392F6469726563746F72792E786D6C504B010214001400060808005492
310
6350E1C27E0842070000541C000034000000000000000000000000000C4200006662782F36433736454632422D393535342D344531342D414231352D4144384130413239464531392F6F626A656374732E786D6C504B01021400140006080800549263506E5A6869DF000000550100003C00000000000000000000000000A0
310
4900006662782F36433736454632422D393535342D344531342D414231352D4144384130413239464531392F7265736F75726365732F322F636E782E786D6C504B0102140014000608080054926350FF15A4A45D000000800000003A00000000000000000000000000D94A00006662782F36433736454632422D393535342D
310
344531342D414231352D4144384130413239464531392F7265736F75726365732F636E782E786D6C504B010214001400060808005492635080E04511400100005605000030000000000000000000000000008E4B00006662782F36433736454632422D393535342D344531342D414231352D4144384130413239464531392F
310
636E782E786D6C504B01021400140006080800549263507F48E9767F000000A30000000B000000000000000000000000001C4D00006662782F636E782E786D6C504B0102140014000608080054926350A6D797065F000000820000000700000000000000000000000000C44D0000636E782E786D6C504B0102140014000608
310
080054926350ECFD112DA8000000260100001300000000000000000000000000484E00005B436F6E74656E745F54797065735D2E786D6C504B01021400140006080800549263503DEE336E64000000790000001B00000000000000000000000000214F00006175746F6465736B2D64657369676E2D7061636B6167652E786D
310
6C504B01021400140006080800549263508E6BB5E6F10000008E0100003D00000000000000000000000000BE4F00006662782F36433736454632422D393535342D344531342D414231352D4144384130413239464531392F7265736F75726365732F322F636F72652E786D6C504B0102140014000608080054926350347213
310
ACF6000000960100003B000000000000000000000000000A5100006662782F36433736454632422D393535342D344531342D414231352D4144384130413239464531392F7265736F75726365732F636F72652E786D6C504B01021400140006080800549263505526E85EF3000000B101000031000000000000000000000000
310
00595200006662782F36433736454632422D393535342D344531342D414231352D4144384130413239464531392F636F72652E786D6C504B01021400140006080800549263506F72589250010000DD0200000C000000000000000000000000009B5300006662782F636F72652E786D6C504B01021400140006080800549263
310
50DEA022C005010000B2010000080000000000000000000000000015550000636F72652E786D6C504B050600000000120012002D060000405600000000
  0
XRECORD
  5
84EDE
102
{ACAD_REACTORS
330
84ED9
102
}
330
84ED9
100
AcDbXrecord
280
     1
270
     1
271
     1
  0
XRECORD
  5
84EDD
102
{ACAD_REACTORS
330
84ED9
102
}
330
84ED9
100
AcDbXrecord
280
     1
270
     1
271
     1
  0
XRECORD
  5
84EDF
102
{ACAD_REACTORS
330
84ED9
102
}
330
84ED9
100
AcDbXrecord
280
     1
270
     1
271
     1
  0
XRECORD
  5
84EDC
102
{ACAD_REACTORS
330
84ED9
102
}
330
84ED9
100
AcDbXrecord
280
     1
270
     1
271
     1
  0
XRECORD
  5
861A6
102
{ACAD_REACTORS
330
861A5
102
}
330
861A5
100
AcDbXrecord
280
     1
102
DISPLAYNAME
  1
Imperial24
102
FLAGS
 90
        0
  0
CELLSTYLEMAP
  5
86172
102
{ACAD_REACTORS
330
84F48
102
}
330
84F48
100
AcDbCellStyleMap
 90
        3
300
CELLSTYLE
  1
TABLEFORMAT_BEGIN
 90
        5
170
     1
 91
        0
 92
    32768
 62
   257
 93
        1
300
CONTENTFORMAT
  1
CONTENTFORMAT_BEGIN
 90
        0
 91
        0
 92
      512
 93
        0
300

 40
0.0
140
1.0
 94
        5
 62
     0
340
11
144
0.25
309
CONTENTFORMAT_END
171
     1
301
MARGIN
  1
CELLMARGIN_BEGIN
 40
0.06
 40
0.06
 40
0.06
 40
0.06
 40
0.18
 40
0.18
309
CELLMARGIN_END
 94
        6
 95
        1
302
GRIDFORMAT
  1
GRIDFORMAT_BEGIN
 90
        0
 91
        1
 62
     0
 92
       -2
340
0
 93
        0
 40
0.045
309
GRIDFORMAT_END
 95
        2
302
GRIDFORMAT
  1
GRIDFORMAT_BEGIN
 90
        0
 91
        1
 62
     0
 92
       -2
340
0
 93
        0
 40
0.045
309
GRIDFORMAT_END
 95
        4
302
GRIDFORMAT
  1
GRIDFORMAT_BEGIN
 90
        0
 91
        1
 62
     0
 92
       -2
340
0
 93
        0
 40
0.045
309
GRIDFORMAT_END
 95
        8
302
GRIDFORMAT
  1
GRIDFORMAT_BEGIN
 90
        0
 91
        1
 62
     0
 92
       -2
340
0
 93
        0
 40
0.045
309
GRIDFORMAT_END
 95
       16
302
GRIDFORMAT
  1
GRIDFORMAT_BEGIN
 90
        0
 91
        1
 62
     0
 92
       -2
340
0
 93
        0
 40
0.045
309
GRIDFORMAT_END
 95
       32
302
GRIDFORMAT
  1
GRIDFORMAT_BEGIN
 90
        0
 91
        1
 62
     0
 92
       -2
340
0
 93
        0
 40
0.045
309
GRIDFORMAT_END
309
TABLEFORMAT_END
  1
CELLSTYLE_BEGIN
 90
        1
 91
        1
300
_TITLE
309
CELLSTYLE_END
300
CELLSTYLE
  1
TABLEFORMAT_BEGIN
 90
        5
170
     1
 91
        0
 92
        0
 62
   257
 93
        1
300
CONTENTFORMAT
  1
CONTENTFORMAT_BEGIN
 90
        0
 91
        0
 92
      512
 93
        0
300

 40
0.0
140
1.0
 94
        5
 62
     0
340
11
144
0.18
309
CONTENTFORMAT_END
171
     1
301
MARGIN
  1
CELLMARGIN_BEGIN
 40
0.06
 40
0.06
 40
0.06
 40
0.06
 40
0.18
 40
0.18
309
CELLMARGIN_END
 94
        6
 95
        1
302
GRIDFORMAT
  1
GRIDFORMAT_BEGIN
 90
        0
 91
        1
 62
     0
 92
       -2
340
0
 93
        0
 40
0.045
309
GRIDFORMAT_END
 95
        2
302
GRIDFORMAT
  1
GRIDFORMAT_BEGIN
 90
        0
 91
        1
 62
     0
 92
       -2
340
0
 93
        0
 40
0.045
309
GRIDFORMAT_END
 95
        4
302
GRIDFORMAT
  1
GRIDFORMAT_BEGIN
 90
        0
 91
        1
 62
     0
 92
       -2
340
0
 93
        0
 40
0.045
309
GRIDFORMAT_END
 95
        8
302
GRIDFORMAT
  1
GRIDFORMAT_BEGIN
 90
        0
 91
        1
 62
     0
 92
       -2
340
0
 93
        0
 40
0.045
309
GRIDFORMAT_END
 95
       16
302
GRIDFORMAT
  1
GRIDFORMAT_BEGIN
 90
        0
 91
        1
 62
     0
 92
       -2
340
0
 93
        0
 40
0.045
309
GRIDFORMAT_END
 95
       32
302
GRIDFORMAT
  1
GRIDFORMAT_BEGIN
 90
        0
 91
        1
 62
     0
 92
       -2
340
0
 93
        0
 40
0.045
309
GRIDFORMAT_END
309
TABLEFORMAT_END
  1
CELLSTYLE_BEGIN
 90
        2
 91
        1
300
_HEADER
309
CELLSTYLE_END
300
CELLSTYLE
  1
TABLEFORMAT_BEGIN
 90
        5
170
     1
 91
        0
 92
        0
 62
   257
 93
        1
300
CONTENTFORMAT
  1
CONTENTFORMAT_BEGIN
 90
        0
 91
        0
 92
      512
 93
        0
300

 40
0.0
140
1.0
 94
        2
 62
     0
340
11
144
0.18
309
CONTENTFORMAT_END
171
     1
301
MARGIN
  1
CELLMARGIN_BEGIN
 40
0.06
 40
0.06
 40
0.06
 40
0.06
 40
0.18
 40
0.18
309
CELLMARGIN_END
 94
        6
 95
        1
302
GRIDFORMAT
  1
GRIDFORMAT_BEGIN
 90
        0
 91
        1
 62
     0
 92
       -2
340
0
 93
        0
 40
0.045
309
GRIDFORMAT_END
 95
        2
302
GRIDFORMAT
  1
GRIDFORMAT_BEGIN
 90
        0
 91
        1
 62
     0
 92
       -2
340
0
 93
        0
 40
0.045
309
GRIDFORMAT_END
 95
        4
302
GRIDFORMAT
  1
GRIDFORMAT_BEGIN
 90
        0
 91
        1
 62
     0
 92
       -2
340
0
 93
        0
 40
0.045
309
GRIDFORMAT_END
 95
        8
302
GRIDFORMAT
  1
GRIDFORMAT_BEGIN
 90
        0
 91
        1
 62
     0
 92
       -2
340
0
 93
        0
 40
0.045
309
GRIDFORMAT_END
 95
       16
302
GRIDFORMAT
  1
GRIDFORMAT_BEGIN
 90
        0
 91
        1
 62
     0
 92
       -2
340
0
 93
        0
 40
0.045
309
GRIDFORMAT_END
 95
       32
302
GRIDFORMAT
  1
GRIDFORMAT_BEGIN
 90
        0
 91
        1
 62
     0
 92
       -2
340
0
 93
        0
 40
0.045
309
GRIDFORMAT_END
309
TABLEFORMAT_END
  1
CELLSTYLE_BEGIN
 90
        3
 91
        2
300
_DATA
309
CELLSTYLE_END
  0
XRECORD
  5
861A4
102
{ACAD_REACTORS
330
84F48
102
}
330
84F48
100
AcDbXrecord
280
     1
102
ACAD_ROUNDTRIP_PRE2007_TABLESTYLE
 90
      512
 91
        0
  1

 92
      512
 93
        0
  2

 94
      512
 95
        0
  3

  0
XRECORD
  5
8617F
102
{ACAD_REACTORS
330
8617E
102
}
330
8617E
100
AcDbXrecord
280
     1
102
RTVSPost2010Prop28
280
     1
102
RTVSPost2010PropOp28
 70
     1
102
RTVSPost2010Prop29
280
     1
102
RTVSPost2010PropOp29
 70
     1
102
RTVSPost2010Prop30
280
     0
102
RTVSPost2010PropOp30
 70
     1
102
RTVSPost2010Prop31
280
     0
102
RTVSPost2010PropOp31
 70
     1
102
RTVSPost2010Prop32
280
     0
102
RTVSPost2010PropOp32
 70
     1
102
RTVSPost2010Prop33
280
     0
102
RTVSPost2010PropOp33
 70
     1
102
RTVSPost2010Prop34
280
     0
102
RTVSPost2010PropOp34
 70
     1
102
RTVSPost2010Prop35
280
     0
102
RTVSPost2010PropOp35
 70
     1
102
RTVSPost2010Prop36
280
     0
102
RTVSPost2010PropOp36
 70
     1
102
RTVSPost2010Prop37
 90
       50
102
RTVSPost2010PropOp37
 70
     1
102
RTVSPost2010Prop38
140
0.0
102
RTVSPost2010PropOp38
 70
     1
102
RTVSPost2010Prop39
140
1.0
102
RTVSPost2010PropOp39
 70
     1
102
RTVSPost2010Prop40
 90
        0
102
RTVSPost2010PropOp40
 70
     1
102
RTVSPost2010Prop41ColorIndex
 90
       18
102
RTVSPost2010Prop41ColorRGB
 90
-16777216
102
RTVSPost2010PropOp41
 70
     1
102
RTVSPost2010Prop42
 90
       50
102
RTVSPost2010PropOp42
 70
     1
102
RTVSPost2010Prop43
 90
        3
102
RTVSPost2010PropOp43
 70
     1
102
RTVSPost2010Prop44ColorIndex
 90
        5
102
RTVSPost2010Prop44ColorRGB
 90
      255
102
RTVSPost2010PropOp44
 70
     1
102
RTVSPost2010Prop45
280
     0
102
RTVSPost2010PropOp45
 70
     1
102
RTVSPost2010Prop46
 90
       50
102
RTVSPost2010PropOp46
 70
     1
102
RTVSPost2010Prop47
 90
       50
102
RTVSPost2010PropOp47
 70
     1
102
RTVSPost2010Prop48
 90
       50
102
RTVSPost2010PropOp48
 70
     1
102
RTVSPost2010Prop49
280
     0
102
RTVSPost2010PropOp49
 70
     1
102
RTVSPost2010Prop50
 90
       50
102
RTVSPost2010PropOp50
 70
     1
102
RTVSPost2010Prop51ColorIndex
 90
      256
102
RTVSPost2010Prop51ColorRGB
 90
-16777216
102
RTVSPost2010PropOp51
 70
     0
102
RTVSPost2010Prop52
140
1.0
102
RTVSPost2010PropOp52
 70
     0
102
RTVSPost2010Prop53
 90
        2
102
RTVSPost2010PropOp53
 70
     1
102
RTVSPost2010Prop54
  1
strokes_ogs.tif
102
RTVSPost2010PropOp54
 70
     1
102
RTVSPost2010Prop55
280
     0
102
RTVSPost2010PropOp55
 70
     1
102
RTVSPost2010Prop56
140
1.0
102
RTVSPost2010PropOp56
 70
     1
102
RTVSPost2010Prop57
140
1.0
102
RTVSPost2010PropOp57
 70
     1
102
RTVSPropertyOp0
 70
     1
102
RTVSPropertyOp1
 70
     1
102
RTVSPropertyOp2
 70
     1
102
RTVSPropertyOp3
 70
     1
102
RTVSPropertyOp4
 70
     1
102
RTVSPropertyOp5
 70
     1
102
RTVSPropertyOp6
 70
     1
102
RTVSPropertyOp7
 70
     1
102
RTVSPropertyOp8
 70
     1
102
RTVSPropertyOp9
 70
     1
102
RTVSPropertyOp10
 70
     1
102
RTVSPropertyOp11
 70
     1
102
RTVSPropertyOp12
 70
     1
102
RTVSPropertyOp13
 70
     1
102
RTVSPropertyOp14
 70
     1
102
RTVSPropertyOp15
 70
     1
102
RTVSPropertyOp16
 70
     1
102
RTVSPropertyOp17
 70
     1
102
RTVSPropertyOp18
 70
     1
102
RTVSPropertyOp19
 70
     1
102
RTVSPropertyOp20
 70
     1
102
RTVSPropertyOp21
 70
     1
102
RTVSPropertyOp22
 70
     1
102
RTVSPropertyOp23
 70
     1
102
RTVSPropertyOp24
 70
     1
102
RTVSPropertyOp25
 70
     1
102
RTVSPropertyOp26
 70
     1
102
RTVSPropertyOp27
 70
     1
102
RTVSPropertyOp28
 70
     1
102
RTVSPropertyOp29
 70
     1
102
RTVSPropertyOp30
 70
     1
102
RTVSPropertyOp31
 70
     1
102
RTVSPropertyOp32
 70
     1
102
RTVSPropertyOp33
 70
     1
102
RTVSPropertyOp34
 70
     1
102
RTVSPropertyOp35
 70
     1
102
RTVSPropertyOp36
 70
     1
102
RTVSPropertyOp37
 70
     1
102
RTVSPropertyOp38
 70
     1
102
RTVSPropertyOp39
 70
     1
102
RTVSPropertyOp40
 70
     1
102
RTVSPropertyOp41
 70
     1
102
RTVSPropertyOp42
 70
     1
102
RTVSPropertyOp43
 70
     1
102
RTVSPropertyOp44
 70
     1
102
RTVSPropertyOp45
 70
     1
102
RTVSPropertyOp46
 70
     1
102
RTVSPropertyOp47
 70
     1
102
RTVSPropertyOp48
 70
     1
102
RTVSPropertyOp49
 70
     1
102
RTVSPropertyOp50
 70
     1
102
RTVSPropertyOp51
 70
     0
102
RTVSPropertyOp52
 70
     0
102
RTVSPropertyOp53
 70
     1
102
RTVSPropertyOp54
 70
     1
102
RTVSPropertyOp55
 70
     1
102
RTVSPropertyOp56
 70
     1
102
RTVSPropertyOp57
 70
     1
102
RTVSPropertyOp58
 70
     1
102
RTVSPropertyOp59
 70
     1
102
RTVSPropertyOp60
 70
     1
102
RTVSPropertyOp61
 70
     1
102
RTVSPropertyOp62
 70
     1
  0
XRECORD
  5
8617D
102
{ACAD_REACTORS
330
8617C
102
}
330
8617C
100
AcDbXrecord
280
     1
102
RTVSPost2010Prop28
280
     0
102
RTVSPost2010PropOp28
 70
     1
102
RTVSPost2010Prop29
280
     1
102
RTVSPost2010PropOp29
 70
     1
102
RTVSPost2010Prop30
280
     1
102
RTVSPost2010PropOp30
 70
     1
102
RTVSPost2010Prop31
280
     0
102
RTVSPost2010PropOp31
 70
     1
102
RTVSPost2010Prop32
280
     0
102
RTVSPost2010PropOp32
 70
     1
102
RTVSPost2010Prop33
280
     0
102
RTVSPost2010PropOp33
 70
     1
102
RTVSPost2010Prop34
280
     0
102
RTVSPost2010PropOp34
 70
     1
102
RTVSPost2010Prop35
280
     0
102
RTVSPost2010PropOp35
 70
     1
102
RTVSPost2010Prop36
280
     0
102
RTVSPost2010PropOp36
 70
     1
102
RTVSPost2010Prop37
 90
       50
102
RTVSPost2010PropOp37
 70
     1
102
RTVSPost2010Prop38
140
0.0
102
RTVSPost2010PropOp38
 70
     1
102
RTVSPost2010Prop39
140
1.0
102
RTVSPost2010PropOp39
 70
     1
102
RTVSPost2010Prop40
 90
        0
102
RTVSPost2010PropOp40
 70
     1
102
RTVSPost2010Prop41ColorIndex
 90
       18
102
RTVSPost2010Prop41ColorRGB
 90
-16777216
102
RTVSPost2010PropOp41
 70
     1
102
RTVSPost2010Prop42
 90
       50
102
RTVSPost2010PropOp42
 70
     1
102
RTVSPost2010Prop43
 90
        3
102
RTVSPost2010PropOp43
 70
     1
102
RTVSPost2010Prop44ColorIndex
 90
        5
102
RTVSPost2010Prop44ColorRGB
 90
      255
102
RTVSPost2010PropOp44
 70
     1
102
RTVSPost2010Prop45
280
     0
102
RTVSPost2010PropOp45
 70
     1
102
RTVSPost2010Prop46
 90
       50
102
RTVSPost2010PropOp46
 70
     1
102
RTVSPost2010Prop47
 90
       50
102
RTVSPost2010PropOp47
 70
     1
102
RTVSPost2010Prop48
 90
       50
102
RTVSPost2010PropOp48
 70
     1
102
RTVSPost2010Prop49
280
     0
102
RTVSPost2010PropOp49
 70
     1
102
RTVSPost2010Prop50
 90
       50
102
RTVSPost2010PropOp50
 70
     1
102
RTVSPost2010Prop51ColorIndex
 90
      256
102
RTVSPost2010Prop51ColorRGB
 90
-16777216
102
RTVSPost2010PropOp51
 70
     0
102
RTVSPost2010Prop52
140
1.0
102
RTVSPost2010PropOp52
 70
     0
102
RTVSPost2010Prop53
 90
        2
102
RTVSPost2010PropOp53
 70
     1
102
RTVSPost2010Prop54
  1
strokes_ogs.tif
102
RTVSPost2010PropOp54
 70
     1
102
RTVSPost2010Prop55
280
     0
102
RTVSPost2010PropOp55
 70
     1
102
RTVSPost2010Prop56
140
1.0
102
RTVSPost2010PropOp56
 70
     1
102
RTVSPost2010Prop57
140
1.0
102
RTVSPost2010PropOp57
 70
     1
102
RTVSPropertyOp0
 70
     1
102
RTVSPropertyOp1
 70
     1
102
RTVSPropertyOp2
 70
     1
102
RTVSPropertyOp3
 70
     1
102
RTVSPropertyOp4
 70
     1
102
RTVSPropertyOp5
 70
     1
102
RTVSPropertyOp6
 70
     1
102
RTVSPropertyOp7
 70
     1
102
RTVSPropertyOp8
 70
     1
102
RTVSPropertyOp9
 70
     1
102
RTVSPropertyOp10
 70
     1
102
RTVSPropertyOp11
 70
     1
102
RTVSPropertyOp12
 70
     1
102
RTVSPropertyOp13
 70
     1
102
RTVSPropertyOp14
 70
     1
102
RTVSPropertyOp15
 70
     1
102
RTVSPropertyOp16
 70
     1
102
RTVSPropertyOp17
 70
     1
102
RTVSPropertyOp18
 70
     1
102
RTVSPropertyOp19
 70
     1
102
RTVSPropertyOp20
 70
     1
102
RTVSPropertyOp21
 70
     1
102
RTVSPropertyOp22
 70
     1
102
RTVSPropertyOp23
 70
     1
102
RTVSPropertyOp24
 70
     1
102
RTVSPropertyOp25
 70
     1
102
RTVSPropertyOp26
 70
     1
102
RTVSPropertyOp27
 70
     1
102
RTVSPropertyOp28
 70
     1
102
RTVSPropertyOp29
 70
     1
102
RTVSPropertyOp30
 70
     1
102
RTVSPropertyOp31
 70
     1
102
RTVSPropertyOp32
 70
     1
102
RTVSPropertyOp33
 70
     1
102
RTVSPropertyOp34
 70
     1
102
RTVSPropertyOp35
 70
     1
102
RTVSPropertyOp36
 70
     1
102
RTVSPropertyOp37
 70
     1
102
RTVSPropertyOp38
 70
     1
102
RTVSPropertyOp39
 70
     1
102
RTVSPropertyOp40
 70
     1
102
RTVSPropertyOp41
 70
     1
102
RTVSPropertyOp42
 70
     1
102
RTVSPropertyOp43
 70
     1
102
RTVSPropertyOp44
 70
     1
102
RTVSPropertyOp45
 70
     1
102
RTVSPropertyOp46
 70
     1
102
RTVSPropertyOp47
 70
     1
102
RTVSPropertyOp48
 70
     1
102
RTVSPropertyOp49
 70
     1
102
RTVSPropertyOp50
 70
     1
102
RTVSPropertyOp51
 70
     0
102
RTVSPropertyOp52
 70
     0
102
RTVSPropertyOp53
 70
     1
102
RTVSPropertyOp54
 70
     1
102
RTVSPropertyOp55
 70
     1
102
RTVSPropertyOp56
 70
     1
102
RTVSPropertyOp57
 70
     1
102
RTVSPropertyOp58
 70
     1
102
RTVSPropertyOp59
 70
     1
102
RTVSPropertyOp60
 70
     1
102
RTVSPropertyOp61
 70
     1
102
RTVSPropertyOp62
 70
     1
  0
XRECORD
  5
8618B
102
{ACAD_REACTORS
330
8618A
102
}
330
8618A
100
AcDbXrecord
280
     1
102
RTVSPost2010Prop28
280
     0
102
RTVSPost2010PropOp28
 70
     1
102
RTVSPost2010Prop29
280
     1
102
RTVSPost2010PropOp29
 70
     1
102
RTVSPost2010Prop30
280
     1
102
RTVSPost2010PropOp30
 70
     1
102
RTVSPost2010Prop31
280
     0
102
RTVSPost2010PropOp31
 70
     1
102
RTVSPost2010Prop32
280
     0
102
RTVSPost2010PropOp32
 70
     1
102
RTVSPost2010Prop33
280
     0
102
RTVSPost2010PropOp33
 70
     1
102
RTVSPost2010Prop34
280
     0
102
RTVSPost2010PropOp34
 70
     1
102
RTVSPost2010Prop35
280
     0
102
RTVSPost2010PropOp35
 70
     1
102
RTVSPost2010Prop36
280
     0
102
RTVSPost2010PropOp36
 70
     1
102
RTVSPost2010Prop37
 90
       50
102
RTVSPost2010PropOp37
 70
     1
102
RTVSPost2010Prop38
140
0.0
102
RTVSPost2010PropOp38
 70
     1
102
RTVSPost2010Prop39
140
1.0
102
RTVSPost2010PropOp39
 70
     1
102
RTVSPost2010Prop40
 90
        0
102
RTVSPost2010PropOp40
 70
     1
102
RTVSPost2010Prop41ColorIndex
 90
       18
102
RTVSPost2010Prop41ColorRGB
 90
-16777216
102
RTVSPost2010PropOp41
 70
     1
102
RTVSPost2010Prop42
 90
       50
102
RTVSPost2010PropOp42
 70
     1
102
RTVSPost2010Prop43
 90
        3
102
RTVSPost2010PropOp43
 70
     1
102
RTVSPost2010Prop44ColorIndex
 90
        5
102
RTVSPost2010Prop44ColorRGB
 90
      255
102
RTVSPost2010PropOp44
 70
     1
102
RTVSPost2010Prop45
280
     0
102
RTVSPost2010PropOp45
 70
     1
102
RTVSPost2010Prop46
 90
       50
102
RTVSPost2010PropOp46
 70
     1
102
RTVSPost2010Prop47
 90
       50
102
RTVSPost2010PropOp47
 70
     1
102
RTVSPost2010Prop48
 90
       50
102
RTVSPost2010PropOp48
 70
     1
102
RTVSPost2010Prop49
280
     0
102
RTVSPost2010PropOp49
 70
     1
102
RTVSPost2010Prop50
 90
       50
102
RTVSPost2010PropOp50
 70
     1
102
RTVSPost2010Prop51ColorIndex
 90
      256
102
RTVSPost2010Prop51ColorRGB
 90
-16777216
102
RTVSPost2010PropOp51
 70
     0
102
RTVSPost2010Prop52
140
1.0
102
RTVSPost2010PropOp52
 70
     0
102
RTVSPost2010Prop53
 90
        2
102
RTVSPost2010PropOp53
 70
     1
102
RTVSPost2010Prop54
  1
strokes_ogs.tif
102
RTVSPost2010PropOp54
 70
     1
102
RTVSPost2010Prop55
280
     0
102
RTVSPost2010PropOp55
 70
     1
102
RTVSPost2010Prop56
140
1.0
102
RTVSPost2010PropOp56
 70
     1
102
RTVSPost2010Prop57
140
1.0
102
RTVSPost2010PropOp57
 70
     1
102
RTVSPropertyOp0
 70
     1
102
RTVSPropertyOp1
 70
     1
102
RTVSPropertyOp2
 70
     1
102
RTVSPropertyOp3
 70
     1
102
RTVSPropertyOp4
 70
     1
102
RTVSPropertyOp5
 70
     1
102
RTVSPropertyOp6
 70
     1
102
RTVSPropertyOp7
 70
     1
102
RTVSPropertyOp8
 70
     1
102
RTVSPropertyOp9
 70
     1
102
RTVSPropertyOp10
 70
     1
102
RTVSPropertyOp11
 70
     1
102
RTVSPropertyOp12
 70
     1
102
RTVSPropertyOp13
 70
     1
102
RTVSPropertyOp14
 70
     1
102
RTVSPropertyOp15
 70
     1
102
RTVSPropertyOp16
 70
     1
102
RTVSPropertyOp17
 70
     1
102
RTVSPropertyOp18
 70
     1
102
RTVSPropertyOp19
 70
     1
102
RTVSPropertyOp20
 70
     1
102
RTVSPropertyOp21
 70
     1
102
RTVSPropertyOp22
 70
     1
102
RTVSPropertyOp23
 70
     1
102
RTVSPropertyOp24
 70
     1
102
RTVSPropertyOp25
 70
     1
102
RTVSPropertyOp26
 70
     1
102
RTVSPropertyOp27
 70
     1
102
RTVSPropertyOp28
 70
     1
102
RTVSPropertyOp29
 70
     1
102
RTVSPropertyOp30
 70
     1
102
RTVSPropertyOp31
 70
     1
102
RTVSPropertyOp32
 70
     1
102
RTVSPropertyOp33
 70
     1
102
RTVSPropertyOp34
 70
     1
102
RTVSPropertyOp35
 70
     1
102
RTVSPropertyOp36
 70
     1
102
RTVSPropertyOp37
 70
     1
102
RTVSPropertyOp38
 70
     1
102
RTVSPropertyOp39
 70
     1
102
RTVSPropertyOp40
 70
     1
102
RTVSPropertyOp41
 70
     1
102
RTVSPropertyOp42
 70
     1
102
RTVSPropertyOp43
 70
     1
102
RTVSPropertyOp44
 70
     1
102
RTVSPropertyOp45
 70
     1
102
RTVSPropertyOp46
 70
     1
102
RTVSPropertyOp47
 70
     1
102
RTVSPropertyOp48
 70
     1
102
RTVSPropertyOp49
 70
     1
102
RTVSPropertyOp50
 70
     1
102
RTVSPropertyOp51
 70
     0
102
RTVSPropertyOp52
 70
     0
102
RTVSPropertyOp53
 70
     1
102
RTVSPropertyOp54
 70
     1
102
RTVSPropertyOp55
 70
     1
102
RTVSPropertyOp56
 70
     1
102
RTVSPropertyOp57
 70
     1
102
RTVSPropertyOp58
 70
     1
102
RTVSPropertyOp59
 70
     1
102
RTVSPropertyOp60
 70
     1
102
RTVSPropertyOp61
 70
     1
102
RTVSPropertyOp62
 70
     1
  0
XRECORD
  5
86193
102
{ACAD_REACTORS
330
86192
102
}
330
86192
100
AcDbXrecord
280
     1
102
RTVSPost2010Prop28
280
     0
102
RTVSPost2010PropOp28
 70
     1
102
RTVSPost2010Prop29
280
     1
102
RTVSPost2010PropOp29
 70
     1
102
RTVSPost2010Prop30
280
     1
102
RTVSPost2010PropOp30
 70
     1
102
RTVSPost2010Prop31
280
     0
102
RTVSPost2010PropOp31
 70
     1
102
RTVSPost2010Prop32
280
     0
102
RTVSPost2010PropOp32
 70
     1
102
RTVSPost2010Prop33
280
     0
102
RTVSPost2010PropOp33
 70
     1
102
RTVSPost2010Prop34
280
     0
102
RTVSPost2010PropOp34
 70
     1
102
RTVSPost2010Prop35
280
     0
102
RTVSPost2010PropOp35
 70
     1
102
RTVSPost2010Prop36
280
     0
102
RTVSPost2010PropOp36
 70
     1
102
RTVSPost2010Prop37
 90
       50
102
RTVSPost2010PropOp37
 70
     1
102
RTVSPost2010Prop38
140
0.0
102
RTVSPost2010PropOp38
 70
     1
102
RTVSPost2010Prop39
140
1.0
102
RTVSPost2010PropOp39
 70
     1
102
RTVSPost2010Prop40
 90
        0
102
RTVSPost2010PropOp40
 70
     1
102
RTVSPost2010Prop41ColorIndex
 90
       18
102
RTVSPost2010Prop41ColorRGB
 90
-16777216
102
RTVSPost2010PropOp41
 70
     1
102
RTVSPost2010Prop42
 90
       50
102
RTVSPost2010PropOp42
 70
     1
102
RTVSPost2010Prop43
 90
        3
102
RTVSPost2010PropOp43
 70
     1
102
RTVSPost2010Prop44ColorIndex
 90
        5
102
RTVSPost2010Prop44ColorRGB
 90
      255
102
RTVSPost2010PropOp44
 70
     1
102
RTVSPost2010Prop45
280
     0
102
RTVSPost2010PropOp45
 70
     1
102
RTVSPost2010Prop46
 90
       50
102
RTVSPost2010PropOp46
 70
     1
102
RTVSPost2010Prop47
 90
       50
102
RTVSPost2010PropOp47
 70
     1
102
RTVSPost2010Prop48
 90
       50
102
RTVSPost2010PropOp48
 70
     1
102
RTVSPost2010Prop49
280
     0
102
RTVSPost2010PropOp49
 70
     1
102
RTVSPost2010Prop50
 90
       50
102
RTVSPost2010PropOp50
 70
     1
102
RTVSPost2010Prop51ColorIndex
 90
      256
102
RTVSPost2010Prop51ColorRGB
 90
-16777216
102
RTVSPost2010PropOp51
 70
     0
102
RTVSPost2010Prop52
140
1.0
102
RTVSPost2010PropOp52
 70
     0
102
RTVSPost2010Prop53
 90
        2
102
RTVSPost2010PropOp53
 70
     1
102
RTVSPost2010Prop54
  1
strokes_ogs.tif
102
RTVSPost2010PropOp54
 70
     1
102
RTVSPost2010Prop55
280
     0
102
RTVSPost2010PropOp55
 70
     1
102
RTVSPost2010Prop56
140
1.0
102
RTVSPost2010PropOp56
 70
     1
102
RTVSPost2010Prop57
140
1.0
102
RTVSPost2010PropOp57
 70
     1
102
RTVSPropertyOp0
 70
     1
102
RTVSPropertyOp1
 70
     1
102
RTVSPropertyOp2
 70
     1
102
RTVSPropertyOp3
 70
     1
102
RTVSPropertyOp4
 70
     1
102
RTVSPropertyOp5
 70
     1
102
RTVSPropertyOp6
 70
     1
102
RTVSPropertyOp7
 70
     1
102
RTVSPropertyOp8
 70
     1
102
RTVSPropertyOp9
 70
     1
102
RTVSPropertyOp10
 70
     1
102
RTVSPropertyOp11
 70
     1
102
RTVSPropertyOp12
 70
     1
102
RTVSPropertyOp13
 70
     1
102
RTVSPropertyOp14
 70
     1
102
RTVSPropertyOp15
 70
     1
102
RTVSPropertyOp16
 70
     1
102
RTVSPropertyOp17
 70
     1
102
RTVSPropertyOp18
 70
     1
102
RTVSPropertyOp19
 70
     1
102
RTVSPropertyOp20
 70
     1
102
RTVSPropertyOp21
 70
     1
102
RTVSPropertyOp22
 70
     1
102
RTVSPropertyOp23
 70
     1
102
RTVSPropertyOp24
 70
     1
102
RTVSPropertyOp25
 70
     1
102
RTVSPropertyOp26
 70
     1
102
RTVSPropertyOp27
 70
     1
102
RTVSPropertyOp28
 70
     1
102
RTVSPropertyOp29
 70
     1
102
RTVSPropertyOp30
 70
     1
102
RTVSPropertyOp31
 70
     1
102
RTVSPropertyOp32
 70
     1
102
RTVSPropertyOp33
 70
     1
102
RTVSPropertyOp34
 70
     1
102
RTVSPropertyOp35
 70
     1
102
RTVSPropertyOp36
 70
     1
102
RTVSPropertyOp37
 70
     1
102
RTVSPropertyOp38
 70
     1
102
RTVSPropertyOp39
 70
     1
102
RTVSPropertyOp40
 70
     1
102
RTVSPropertyOp41
 70
     1
102
RTVSPropertyOp42
 70
     1
102
RTVSPropertyOp43
 70
     1
102
RTVSPropertyOp44
 70
     1
102
RTVSPropertyOp45
 70
     1
102
RTVSPropertyOp46
 70
     1
102
RTVSPropertyOp47
 70
     1
102
RTVSPropertyOp48
 70
     1
102
RTVSPropertyOp49
 70
     1
102
RTVSPropertyOp50
 70
     1
102
RTVSPropertyOp51
 70
     0
102
RTVSPropertyOp52
 70
     0
102
RTVSPropertyOp53
 70
     1
102
RTVSPropertyOp54
 70
     1
102
RTVSPropertyOp55
 70
     1
102
RTVSPropertyOp56
 70
     1
102
RTVSPropertyOp57
 70
     1
102
RTVSPropertyOp58
 70
     1
102
RTVSPropertyOp59
 70
     1
102
RTVSPropertyOp60
 70
     1
102
RTVSPropertyOp61
 70
     1
102
RTVSPropertyOp62
 70
     1
  0
XRECORD
  5
86185
102
{ACAD_REACTORS
330
86184
102
}
330
86184
100
AcDbXrecord
280
     1
102
RTVSPost2010Prop28
280
     0
102
RTVSPost2010PropOp28
 70
     1
102
RTVSPost2010Prop29
280
     1
102
RTVSPost2010PropOp29
 70
     1
102
RTVSPost2010Prop30
280
     1
102
RTVSPost2010PropOp30
 70
     1
102
RTVSPost2010Prop31
280
     0
102
RTVSPost2010PropOp31
 70
     1
102
RTVSPost2010Prop32
280
     0
102
RTVSPost2010PropOp32
 70
     1
102
RTVSPost2010Prop33
280
     0
102
RTVSPost2010PropOp33
 70
     1
102
RTVSPost2010Prop34
280
     0
102
RTVSPost2010PropOp34
 70
     1
102
RTVSPost2010Prop35
280
     0
102
RTVSPost2010PropOp35
 70
     1
102
RTVSPost2010Prop36
280
     0
102
RTVSPost2010PropOp36
 70
     1
102
RTVSPost2010Prop37
 90
       50
102
RTVSPost2010PropOp37
 70
     1
102
RTVSPost2010Prop38
140
0.0
102
RTVSPost2010PropOp38
 70
     1
102
RTVSPost2010Prop39
140
1.0
102
RTVSPost2010PropOp39
 70
     1
102
RTVSPost2010Prop40
 90
        0
102
RTVSPost2010PropOp40
 70
     1
102
RTVSPost2010Prop41ColorIndex
 90
       18
102
RTVSPost2010Prop41ColorRGB
 90
-16777216
102
RTVSPost2010PropOp41
 70
     1
102
RTVSPost2010Prop42
 90
       50
102
RTVSPost2010PropOp42
 70
     1
102
RTVSPost2010Prop43
 90
        3
102
RTVSPost2010PropOp43
 70
     1
102
RTVSPost2010Prop44ColorIndex
 90
        5
102
RTVSPost2010Prop44ColorRGB
 90
      255
102
RTVSPost2010PropOp44
 70
     1
102
RTVSPost2010Prop45
280
     0
102
RTVSPost2010PropOp45
 70
     1
102
RTVSPost2010Prop46
 90
       50
102
RTVSPost2010PropOp46
 70
     1
102
RTVSPost2010Prop47
 90
       50
102
RTVSPost2010PropOp47
 70
     1
102
RTVSPost2010Prop48
 90
       50
102
RTVSPost2010PropOp48
 70
     1
102
RTVSPost2010Prop49
280
     0
102
RTVSPost2010PropOp49
 70
     1
102
RTVSPost2010Prop50
 90
       50
102
RTVSPost2010PropOp50
 70
     1
102
RTVSPost2010Prop51ColorIndex
 90
      256
102
RTVSPost2010Prop51ColorRGB
 90
-16777216
102
RTVSPost2010PropOp51
 70
     0
102
RTVSPost2010Prop52
140
1.0
102
RTVSPost2010PropOp52
 70
     0
102
RTVSPost2010Prop53
 90
        2
102
RTVSPost2010PropOp53
 70
     1
102
RTVSPost2010Prop54
  1
strokes_ogs.tif
102
RTVSPost2010PropOp54
 70
     1
102
RTVSPost2010Prop55
280
     0
102
RTVSPost2010PropOp55
 70
     1
102
RTVSPost2010Prop56
140
1.0
102
RTVSPost2010PropOp56
 70
     1
102
RTVSPost2010Prop57
140
1.0
102
RTVSPost2010PropOp57
 70
     1
102
RTVSPropertyOp0
 70
     1
102
RTVSPropertyOp1
 70
     1
102
RTVSPropertyOp2
 70
     1
102
RTVSPropertyOp3
 70
     1
102
RTVSPropertyOp4
 70
     1
102
RTVSPropertyOp5
 70
     1
102
RTVSPropertyOp6
 70
     1
102
RTVSPropertyOp7
 70
     1
102
RTVSPropertyOp8
 70
     1
102
RTVSPropertyOp9
 70
     1
102
RTVSPropertyOp10
 70
     1
102
RTVSPropertyOp11
 70
     1
102
RTVSPropertyOp12
 70
     1
102
RTVSPropertyOp13
 70
     1
102
RTVSPropertyOp14
 70
     1
102
RTVSPropertyOp15
 70
     1
102
RTVSPropertyOp16
 70
     1
102
RTVSPropertyOp17
 70
     1
102
RTVSPropertyOp18
 70
     1
102
RTVSPropertyOp19
 70
     1
102
RTVSPropertyOp20
 70
     1
102
RTVSPropertyOp21
 70
     1
102
RTVSPropertyOp22
 70
     1
102
RTVSPropertyOp23
 70
     1
102
RTVSPropertyOp24
 70
     1
102
RTVSPropertyOp25
 70
     1
102
RTVSPropertyOp26
 70
     1
102
RTVSPropertyOp27
 70
     1
102
RTVSPropertyOp28
 70
     1
102
RTVSPropertyOp29
 70
     1
102
RTVSPropertyOp30
 70
     1
102
RTVSPropertyOp31
 70
     1
102
RTVSPropertyOp32
 70
     1
102
RTVSPropertyOp33
 70
     1
102
RTVSPropertyOp34
 70
     1
102
RTVSPropertyOp35
 70
     1
102
RTVSPropertyOp36
 70
     1
102
RTVSPropertyOp37
 70
     1
102
RTVSPropertyOp38
 70
     1
102
RTVSPropertyOp39
 70
     1
102
RTVSPropertyOp40
 70
     1
102
RTVSPropertyOp41
 70
     1
102
RTVSPropertyOp42
 70
     1
102
RTVSPropertyOp43
 70
     1
102
RTVSPropertyOp44
 70
     1
102
RTVSPropertyOp45
 70
     1
102
RTVSPropertyOp46
 70
     1
102
RTVSPropertyOp47
 70
     1
102
RTVSPropertyOp48
 70
     1
102
RTVSPropertyOp49
 70
     1
102
RTVSPropertyOp50
 70
     1
102
RTVSPropertyOp51
 70
     0
102
RTVSPropertyOp52
 70
     0
102
RTVSPropertyOp53
 70
     1
102
RTVSPropertyOp54
 70
     1
102
RTVSPropertyOp55
 70
     1
102
RTVSPropertyOp56
 70
     1
102
RTVSPropertyOp57
 70
     1
102
RTVSPropertyOp58
 70
     1
102
RTVSPropertyOp59
 70
     1
102
RTVSPropertyOp60
 70
     1
102
RTVSPropertyOp61
 70
     1
102
RTVSPropertyOp62
 70
     1
  0
XRECORD
  5
86189
102
{ACAD_REACTORS
330
86188
102
}
330
86188
100
AcDbXrecord
280
     1
102
RTVSPost2010Prop28
280
     0
102
RTVSPost2010PropOp28
 70
     1
102
RTVSPost2010Prop29
280
     1
102
RTVSPost2010PropOp29
 70
     1
102
RTVSPost2010Prop30
280
     1
102
RTVSPost2010PropOp30
 70
     1
102
RTVSPost2010Prop31
280
     0
102
RTVSPost2010PropOp31
 70
     1
102
RTVSPost2010Prop32
280
     0
102
RTVSPost2010PropOp32
 70
     1
102
RTVSPost2010Prop33
280
     0
102
RTVSPost2010PropOp33
 70
     1
102
RTVSPost2010Prop34
280
     0
102
RTVSPost2010PropOp34
 70
     1
102
RTVSPost2010Prop35
280
     0
102
RTVSPost2010PropOp35
 70
     1
102
RTVSPost2010Prop36
280
     0
102
RTVSPost2010PropOp36
 70
     1
102
RTVSPost2010Prop37
 90
       50
102
RTVSPost2010PropOp37
 70
     1
102
RTVSPost2010Prop38
140
0.0
102
RTVSPost2010PropOp38
 70
     1
102
RTVSPost2010Prop39
140
1.0
102
RTVSPost2010PropOp39
 70
     1
102
RTVSPost2010Prop40
 90
        0
102
RTVSPost2010PropOp40
 70
     1
102
RTVSPost2010Prop41ColorIndex
 90
       18
102
RTVSPost2010Prop41ColorRGB
 90
-16777216
102
RTVSPost2010PropOp41
 70
     1
102
RTVSPost2010Prop42
 90
       50
102
RTVSPost2010PropOp42
 70
     1
102
RTVSPost2010Prop43
 90
        3
102
RTVSPost2010PropOp43
 70
     1
102
RTVSPost2010Prop44ColorIndex
 90
        5
102
RTVSPost2010Prop44ColorRGB
 90
      255
102
RTVSPost2010PropOp44
 70
     1
102
RTVSPost2010Prop45
280
     0
102
RTVSPost2010PropOp45
 70
     1
102
RTVSPost2010Prop46
 90
       50
102
RTVSPost2010PropOp46
 70
     1
102
RTVSPost2010Prop47
 90
       50
102
RTVSPost2010PropOp47
 70
     1
102
RTVSPost2010Prop48
 90
       50
102
RTVSPost2010PropOp48
 70
     1
102
RTVSPost2010Prop49
280
     0
102
RTVSPost2010PropOp49
 70
     1
102
RTVSPost2010Prop50
 90
       50
102
RTVSPost2010PropOp50
 70
     1
102
RTVSPost2010Prop51ColorIndex
 90
      256
102
RTVSPost2010Prop51ColorRGB
 90
-16777216
102
RTVSPost2010PropOp51
 70
     0
102
RTVSPost2010Prop52
140
1.0
102
RTVSPost2010PropOp52
 70
     0
102
RTVSPost2010Prop53
 90
        2
102
RTVSPost2010PropOp53
 70
     1
102
RTVSPost2010Prop54
  1
strokes_ogs.tif
102
RTVSPost2010PropOp54
 70
     1
102
RTVSPost2010Prop55
280
     0
102
RTVSPost2010PropOp55
 70
     1
102
RTVSPost2010Prop56
140
1.0
102
RTVSPost2010PropOp56
 70
     1
102
RTVSPost2010Prop57
140
1.0
102
RTVSPost2010PropOp57
 70
     1
102
RTVSPropertyOp0
 70
     1
102
RTVSPropertyOp1
 70
     1
102
RTVSPropertyOp2
 70
     1
102
RTVSPropertyOp3
 70
     1
102
RTVSPropertyOp4
 70
     1
102
RTVSPropertyOp5
 70
     1
102
RTVSPropertyOp6
 70
     1
102
RTVSPropertyOp7
 70
     1
102
RTVSPropertyOp8
 70
     1
102
RTVSPropertyOp9
 70
     1
102
RTVSPropertyOp10
 70
     1
102
RTVSPropertyOp11
 70
     1
102
RTVSPropertyOp12
 70
     1
102
RTVSPropertyOp13
 70
     1
102
RTVSPropertyOp14
 70
     1
102
RTVSPropertyOp15
 70
     1
102
RTVSPropertyOp16
 70
     1
102
RTVSPropertyOp17
 70
     1
102
RTVSPropertyOp18
 70
     1
102
RTVSPropertyOp19
 70
     1
102
RTVSPropertyOp20
 70
     1
102
RTVSPropertyOp21
 70
     1
102
RTVSPropertyOp22
 70
     1
102
RTVSPropertyOp23
 70
     1
102
RTVSPropertyOp24
 70
     1
102
RTVSPropertyOp25
 70
     1
102
RTVSPropertyOp26
 70
     1
102
RTVSPropertyOp27
 70
     1
102
RTVSPropertyOp28
 70
     1
102
RTVSPropertyOp29
 70
     1
102
RTVSPropertyOp30
 70
     1
102
RTVSPropertyOp31
 70
     1
102
RTVSPropertyOp32
 70
     1
102
RTVSPropertyOp33
 70
     1
102
RTVSPropertyOp34
 70
     1
102
RTVSPropertyOp35
 70
     1
102
RTVSPropertyOp36
 70
     1
102
RTVSPropertyOp37
 70
     1
102
RTVSPropertyOp38
 70
     1
102
RTVSPropertyOp39
 70
     1
102
RTVSPropertyOp40
 70
     1
102
RTVSPropertyOp41
 70
     1
102
RTVSPropertyOp42
 70
     1
102
RTVSPropertyOp43
 70
     1
102
RTVSPropertyOp44
 70
     1
102
RTVSPropertyOp45
 70
     1
102
RTVSPropertyOp46
 70
     1
102
RTVSPropertyOp47
 70
     1
102
RTVSPropertyOp48
 70
     1
102
RTVSPropertyOp49
 70
     1
102
RTVSPropertyOp50
 70
     1
102
RTVSPropertyOp51
 70
     0
102
RTVSPropertyOp52
 70
     0
102
RTVSPropertyOp53
 70
     1
102
RTVSPropertyOp54
 70
     1
102
RTVSPropertyOp55
 70
     1
102
RTVSPropertyOp56
 70
     1
102
RTVSPropertyOp57
 70
     1
102
RTVSPropertyOp58
 70
     1
102
RTVSPropertyOp59
 70
     1
102
RTVSPropertyOp60
 70
     1
102
RTVSPropertyOp61
 70
     1
102
RTVSPropertyOp62
 70
     1
  0
XRECORD
  5
861A3
102
{ACAD_REACTORS
330
861A2
102
}
330
861A2
100
AcDbXrecord
280
     1
102
RTVSPost2010Prop28
280
     0
102
RTVSPost2010PropOp28
 70
     1
102
RTVSPost2010Prop29
280
     1
102
RTVSPost2010PropOp29
 70
     1
102
RTVSPost2010Prop30
280
     1
102
RTVSPost2010PropOp30
 70
     1
102
RTVSPost2010Prop31
280
     0
102
RTVSPost2010PropOp31
 70
     1
102
RTVSPost2010Prop32
280
     0
102
RTVSPost2010PropOp32
 70
     1
102
RTVSPost2010Prop33
280
     0
102
RTVSPost2010PropOp33
 70
     1
102
RTVSPost2010Prop34
280
     0
102
RTVSPost2010PropOp34
 70
     1
102
RTVSPost2010Prop35
280
     0
102
RTVSPost2010PropOp35
 70
     1
102
RTVSPost2010Prop36
280
     0
102
RTVSPost2010PropOp36
 70
     1
102
RTVSPost2010Prop37
 90
       50
102
RTVSPost2010PropOp37
 70
     0
102
RTVSPost2010Prop38
140
0.0
102
RTVSPost2010PropOp38
 70
     0
102
RTVSPost2010Prop39
140
1.0
102
RTVSPost2010PropOp39
 70
     0
102
RTVSPost2010Prop40
 90
        0
102
RTVSPost2010PropOp40
 70
     0
102
RTVSPost2010Prop41ColorIndex
 90
       18
102
RTVSPost2010Prop41ColorRGB
 90
-16777216
102
RTVSPost2010PropOp41
 70
     0
102
RTVSPost2010Prop42
 90
       50
102
RTVSPost2010PropOp42
 70
     0
102
RTVSPost2010Prop43
 90
        3
102
RTVSPost2010PropOp43
 70
     0
102
RTVSPost2010Prop44ColorIndex
 90
        5
102
RTVSPost2010Prop44ColorRGB
 90
      255
102
RTVSPost2010PropOp44
 70
     0
102
RTVSPost2010Prop45
280
     0
102
RTVSPost2010PropOp45
 70
     1
102
RTVSPost2010Prop46
 90
       50
102
RTVSPost2010PropOp46
 70
     0
102
RTVSPost2010Prop47
 90
       50
102
RTVSPost2010PropOp47
 70
     0
102
RTVSPost2010Prop48
 90
       50
102
RTVSPost2010PropOp48
 70
     0
102
RTVSPost2010Prop49
280
     0
102
RTVSPost2010PropOp49
 70
     1
102
RTVSPost2010Prop50
 90
       50
102
RTVSPost2010PropOp50
 70
     0
102
RTVSPost2010Prop51ColorIndex
 90
      256
102
RTVSPost2010Prop51ColorRGB
 90
-16777216
102
RTVSPost2010PropOp51
 70
     0
102
RTVSPost2010Prop52
140
1.0
102
RTVSPost2010PropOp52
 70
     0
102
RTVSPost2010Prop53
 90
        2
102
RTVSPost2010PropOp53
 70
     0
102
RTVSPost2010Prop54
  1
strokes_ogs.tif
102
RTVSPost2010PropOp54
 70
     0
102
RTVSPost2010Prop55
280
     0
102
RTVSPost2010PropOp55
 70
     1
102
RTVSPost2010Prop56
140
1.0
102
RTVSPost2010PropOp56
 70
     0
102
RTVSPost2010Prop57
140
1.0
102
RTVSPost2010PropOp57
 70
     0
102
RTVSPropertyOp0
 70
     0
102
RTVSPropertyOp1
 70
     0
102
RTVSPropertyOp2
 70
     0
102
RTVSPropertyOp3
 70
     0
102
RTVSPropertyOp4
 70
     0
102
RTVSPropertyOp5
 70
     0
102
RTVSPropertyOp6
 70
     0
102
RTVSPropertyOp7
 70
     0
102
RTVSPropertyOp8
 70
     0
102
RTVSPropertyOp9
 70
     0
102
RTVSPropertyOp10
 70
     0
102
RTVSPropertyOp11
 70
     0
102
RTVSPropertyOp12
 70
     0
102
RTVSPropertyOp13
 70
     0
102
RTVSPropertyOp14
 70
     2
102
RTVSPropertyOp15
 70
     0
102
RTVSPropertyOp16
 70
     0
102
RTVSPropertyOp17
 70
     0
102
RTVSPropertyOp18
 70
     0
102
RTVSPropertyOp19
 70
     0
102
RTVSPropertyOp20
 70
     0
102
RTVSPropertyOp21
 70
     0
102
RTVSPropertyOp22
 70
     0
102
RTVSPropertyOp23
 70
     0
102
RTVSPropertyOp24
 70
     0
102
RTVSPropertyOp25
 70
     0
102
RTVSPropertyOp26
 70
     0
102
RTVSPropertyOp27
 70
     0
102
RTVSPropertyOp28
 70
     1
102
RTVSPropertyOp29
 70
     1
102
RTVSPropertyOp30
 70
     1
102
RTVSPropertyOp31
 70
     1
102
RTVSPropertyOp32
 70
     1
102
RTVSPropertyOp33
 70
     1
102
RTVSPropertyOp34
 70
     1
102
RTVSPropertyOp35
 70
     1
102
RTVSPropertyOp36
 70
     1
102
RTVSPropertyOp37
 70
     0
102
RTVSPropertyOp38
 70
     0
102
RTVSPropertyOp39
 70
     0
102
RTVSPropertyOp40
 70
     0
102
RTVSPropertyOp41
 70
     0
102
RTVSPropertyOp42
 70
     0
102
RTVSPropertyOp43
 70
     0
102
RTVSPropertyOp44
 70
     0
102
RTVSPropertyOp45
 70
     1
102
RTVSPropertyOp46
 70
     0
102
RTVSPropertyOp47
 70
     0
102
RTVSPropertyOp48
 70
     0
102
RTVSPropertyOp49
 70
     1
102
RTVSPropertyOp50
 70
     0
102
RTVSPropertyOp51
 70
     0
102
RTVSPropertyOp52
 70
     0
102
RTVSPropertyOp53
 70
     0
102
RTVSPropertyOp54
 70
     0
102
RTVSPropertyOp55
 70
     1
102
RTVSPropertyOp56
 70
     0
102
RTVSPropertyOp57
 70
     0
102
RTVSPropertyOp58
 70
     1
102
RTVSPropertyOp59
 70
     1
102
RTVSPropertyOp60
 70
     1
102
RTVSPropertyOp61
 70
     1
102
RTVSPropertyOp62
 70
     1
  0
XRECORD
  5
86191
102
{ACAD_REACTORS
330
86190
102
}
330
86190
100
AcDbXrecord
280
     1
102
RTVSPost2010Prop28
280
     0
102
RTVSPost2010PropOp28
 70
     1
102
RTVSPost2010Prop29
280
     1
102
RTVSPost2010PropOp29
 70
     1
102
RTVSPost2010Prop30
280
     1
102
RTVSPost2010PropOp30
 70
     1
102
RTVSPost2010Prop31
280
     0
102
RTVSPost2010PropOp31
 70
     1
102
RTVSPost2010Prop32
280
     0
102
RTVSPost2010PropOp32
 70
     1
102
RTVSPost2010Prop33
280
     0
102
RTVSPost2010PropOp33
 70
     1
102
RTVSPost2010Prop34
280
     0
102
RTVSPost2010PropOp34
 70
     1
102
RTVSPost2010Prop35
280
     0
102
RTVSPost2010PropOp35
 70
     1
102
RTVSPost2010Prop36
280
     0
102
RTVSPost2010PropOp36
 70
     1
102
RTVSPost2010Prop37
 90
       50
102
RTVSPost2010PropOp37
 70
     1
102
RTVSPost2010Prop38
140
0.0
102
RTVSPost2010PropOp38
 70
     1
102
RTVSPost2010Prop39
140
1.0
102
RTVSPost2010PropOp39
 70
     1
102
RTVSPost2010Prop40
 90
        0
102
RTVSPost2010PropOp40
 70
     1
102
RTVSPost2010Prop41ColorIndex
 90
       18
102
RTVSPost2010Prop41ColorRGB
 90
-16777216
102
RTVSPost2010PropOp41
 70
     1
102
RTVSPost2010Prop42
 90
       50
102
RTVSPost2010PropOp42
 70
     1
102
RTVSPost2010Prop43
 90
        3
102
RTVSPost2010PropOp43
 70
     1
102
RTVSPost2010Prop44ColorIndex
 90
        5
102
RTVSPost2010Prop44ColorRGB
 90
      255
102
RTVSPost2010PropOp44
 70
     1
102
RTVSPost2010Prop45
280
     0
102
RTVSPost2010PropOp45
 70
     1
102
RTVSPost2010Prop46
 90
       50
102
RTVSPost2010PropOp46
 70
     1
102
RTVSPost2010Prop47
 90
       50
102
RTVSPost2010PropOp47
 70
     1
102
RTVSPost2010Prop48
 90
       50
102
RTVSPost2010PropOp48
 70
     1
102
RTVSPost2010Prop49
280
     0
102
RTVSPost2010PropOp49
 70
     1
102
RTVSPost2010Prop50
 90
       50
102
RTVSPost2010PropOp50
 70
     1
102
RTVSPost2010Prop51ColorIndex
 90
      256
102
RTVSPost2010Prop51ColorRGB
 90
-16777216
102
RTVSPost2010PropOp51
 70
     0
102
RTVSPost2010Prop52
140
1.0
102
RTVSPost2010PropOp52
 70
     0
102
RTVSPost2010Prop53
 90
        2
102
RTVSPost2010PropOp53
 70
     1
102
RTVSPost2010Prop54
  1
strokes_ogs.tif
102
RTVSPost2010PropOp54
 70
     1
102
RTVSPost2010Prop55
280
     0
102
RTVSPost2010PropOp55
 70
     1
102
RTVSPost2010Prop56
140
1.0
102
RTVSPost2010PropOp56
 70
     1
102
RTVSPost2010Prop57
140
1.0
102
RTVSPost2010PropOp57
 70
     1
102
RTVSPropertyOp0
 70
     1
102
RTVSPropertyOp1
 70
     1
102
RTVSPropertyOp2
 70
     1
102
RTVSPropertyOp3
 70
     1
102
RTVSPropertyOp4
 70
     1
102
RTVSPropertyOp5
 70
     1
102
RTVSPropertyOp6
 70
     1
102
RTVSPropertyOp7
 70
     1
102
RTVSPropertyOp8
 70
     1
102
RTVSPropertyOp9
 70
     1
102
RTVSPropertyOp10
 70
     1
102
RTVSPropertyOp11
 70
     1
102
RTVSPropertyOp12
 70
     1
102
RTVSPropertyOp13
 70
     1
102
RTVSPropertyOp14
 70
     1
102
RTVSPropertyOp15
 70
     1
102
RTVSPropertyOp16
 70
     1
102
RTVSPropertyOp17
 70
     1
102
RTVSPropertyOp18
 70
     1
102
RTVSPropertyOp19
 70
     1
102
RTVSPropertyOp20
 70
     1
102
RTVSPropertyOp21
 70
     1
102
RTVSPropertyOp22
 70
     1
102
RTVSPropertyOp23
 70
     1
102
RTVSPropertyOp24
 70
     1
102
RTVSPropertyOp25
 70
     1
102
RTVSPropertyOp26
 70
     1
102
RTVSPropertyOp27
 70
     1
102
RTVSPropertyOp28
 70
     1
102
RTVSPropertyOp29
 70
     1
102
RTVSPropertyOp30
 70
     1
102
RTVSPropertyOp31
 70
     1
102
RTVSPropertyOp32
 70
     1
102
RTVSPropertyOp33
 70
     1
102
RTVSPropertyOp34
 70
     1
102
RTVSPropertyOp35
 70
     1
102
RTVSPropertyOp36
 70
     1
102
RTVSPropertyOp37
 70
     1
102
RTVSPropertyOp38
 70
     1
102
RTVSPropertyOp39
 70
     1
102
RTVSPropertyOp40
 70
     1
102
RTVSPropertyOp41
 70
     1
102
RTVSPropertyOp42
 70
     1
102
RTVSPropertyOp43
 70
     1
102
RTVSPropertyOp44
 70
     1
102
RTVSPropertyOp45
 70
     1
102
RTVSPropertyOp46
 70
     1
102
RTVSPropertyOp47
 70
     1
102
RTVSPropertyOp48
 70
     1
102
RTVSPropertyOp49
 70
     1
102
RTVSPropertyOp50
 70
     1
102
RTVSPropertyOp51
 70
     0
102
RTVSPropertyOp52
 70
     0
102
RTVSPropertyOp53
 70
     1
102
RTVSPropertyOp54
 70
     1
102
RTVSPropertyOp55
 70
     1
102
RTVSPropertyOp56
 70
     1
102
RTVSPropertyOp57
 70
     1
102
RTVSPropertyOp58
 70
     1
102
RTVSPropertyOp59
 70
     1
102
RTVSPropertyOp60
 70
     1
102
RTVSPropertyOp61
 70
     1
102
RTVSPropertyOp62
 70
     1
  0
XRECORD
  5
86175
102
{ACAD_REACTORS
330
86174
102
}
330
86174
100
AcDbXrecord
280
     1
102
RTVSPost2010Prop28
280
     0
102
RTVSPost2010PropOp28
 70
     1
102
RTVSPost2010Prop29
280
     1
102
RTVSPost2010PropOp29
 70
     1
102
RTVSPost2010Prop30
280
     1
102
RTVSPost2010PropOp30
 70
     1
102
RTVSPost2010Prop31
280
     0
102
RTVSPost2010PropOp31
 70
     1
102
RTVSPost2010Prop32
280
     0
102
RTVSPost2010PropOp32
 70
     1
102
RTVSPost2010Prop33
280
     0
102
RTVSPost2010PropOp33
 70
     1
102
RTVSPost2010Prop34
280
     0
102
RTVSPost2010PropOp34
 70
     1
102
RTVSPost2010Prop35
280
     0
102
RTVSPost2010PropOp35
 70
     1
102
RTVSPost2010Prop36
280
     0
102
RTVSPost2010PropOp36
 70
     1
102
RTVSPost2010Prop37
 90
       50
102
RTVSPost2010PropOp37
 70
     1
102
RTVSPost2010Prop38
140
0.0
102
RTVSPost2010PropOp38
 70
     1
102
RTVSPost2010Prop39
140
1.0
102
RTVSPost2010PropOp39
 70
     1
102
RTVSPost2010Prop40
 90
        0
102
RTVSPost2010PropOp40
 70
     1
102
RTVSPost2010Prop41ColorIndex
 90
       18
102
RTVSPost2010Prop41ColorRGB
 90
-16777216
102
RTVSPost2010PropOp41
 70
     1
102
RTVSPost2010Prop42
 90
       50
102
RTVSPost2010PropOp42
 70
     1
102
RTVSPost2010Prop43
 90
        3
102
RTVSPost2010PropOp43
 70
     1
102
RTVSPost2010Prop44ColorIndex
 90
        5
102
RTVSPost2010Prop44ColorRGB
 90
      255
102
RTVSPost2010PropOp44
 70
     1
102
RTVSPost2010Prop45
280
     0
102
RTVSPost2010PropOp45
 70
     1
102
RTVSPost2010Prop46
 90
       50
102
RTVSPost2010PropOp46
 70
     1
102
RTVSPost2010Prop47
 90
       50
102
RTVSPost2010PropOp47
 70
     1
102
RTVSPost2010Prop48
 90
       50
102
RTVSPost2010PropOp48
 70
     1
102
RTVSPost2010Prop49
280
     0
102
RTVSPost2010PropOp49
 70
     1
102
RTVSPost2010Prop50
 90
       50
102
RTVSPost2010PropOp50
 70
     1
102
RTVSPost2010Prop51ColorIndex
 90
      256
102
RTVSPost2010Prop51ColorRGB
 90
-16777216
102
RTVSPost2010PropOp51
 70
     0
102
RTVSPost2010Prop52
140
1.0
102
RTVSPost2010PropOp52
 70
     0
102
RTVSPost2010Prop53
 90
        2
102
RTVSPost2010PropOp53
 70
     1
102
RTVSPost2010Prop54
  1
strokes_ogs.tif
102
RTVSPost2010PropOp54
 70
     1
102
RTVSPost2010Prop55
280
     0
102
RTVSPost2010PropOp55
 70
     1
102
RTVSPost2010Prop56
140
1.0
102
RTVSPost2010PropOp56
 70
     1
102
RTVSPost2010Prop57
140
1.0
102
RTVSPost2010PropOp57
 70
     1
102
RTVSPropertyOp0
 70
     1
102
RTVSPropertyOp1
 70
     1
102
RTVSPropertyOp2
 70
     1
102
RTVSPropertyOp3
 70
     1
102
RTVSPropertyOp4
 70
     1
102
RTVSPropertyOp5
 70
     1
102
RTVSPropertyOp6
 70
     1
102
RTVSPropertyOp7
 70
     1
102
RTVSPropertyOp8
 70
     1
102
RTVSPropertyOp9
 70
     1
102
RTVSPropertyOp10
 70
     1
102
RTVSPropertyOp11
 70
     1
102
RTVSPropertyOp12
 70
     1
102
RTVSPropertyOp13
 70
     1
102
RTVSPropertyOp14
 70
     1
102
RTVSPropertyOp15
 70
     1
102
RTVSPropertyOp16
 70
     1
102
RTVSPropertyOp17
 70
     1
102
RTVSPropertyOp18
 70
     1
102
RTVSPropertyOp19
 70
     1
102
RTVSPropertyOp20
 70
     1
102
RTVSPropertyOp21
 70
     1
102
RTVSPropertyOp22
 70
     1
102
RTVSPropertyOp23
 70
     1
102
RTVSPropertyOp24
 70
     1
102
RTVSPropertyOp25
 70
     1
102
RTVSPropertyOp26
 70
     1
102
RTVSPropertyOp27
 70
     1
102
RTVSPropertyOp28
 70
     1
102
RTVSPropertyOp29
 70
     1
102
RTVSPropertyOp30
 70
     1
102
RTVSPropertyOp31
 70
     1
102
RTVSPropertyOp32
 70
     1
102
RTVSPropertyOp33
 70
     1
102
RTVSPropertyOp34
 70
     1
102
RTVSPropertyOp35
 70
     1
102
RTVSPropertyOp36
 70
     1
102
RTVSPropertyOp37
 70
     1
102
RTVSPropertyOp38
 70
     1
102
RTVSPropertyOp39
 70
     1
102
RTVSPropertyOp40
 70
     1
102
RTVSPropertyOp41
 70
     1
102
RTVSPropertyOp42
 70
     1
102
RTVSPropertyOp43
 70
     1
102
RTVSPropertyOp44
 70
     1
102
RTVSPropertyOp45
 70
     1
102
RTVSPropertyOp46
 70
     1
102
RTVSPropertyOp47
 70
     1
102
RTVSPropertyOp48
 70
     1
102
RTVSPropertyOp49
 70
     1
102
RTVSPropertyOp50
 70
     1
102
RTVSPropertyOp51
 70
     0
102
RTVSPropertyOp52
 70
     0
102
RTVSPropertyOp53
 70
     1
102
RTVSPropertyOp54
 70
     1
102
RTVSPropertyOp55
 70
     1
102
RTVSPropertyOp56
 70
     1
102
RTVSPropertyOp57
 70
     1
102
RTVSPropertyOp58
 70
     1
102
RTVSPropertyOp59
 70
     1
102
RTVSPropertyOp60
 70
     1
102
RTVSPropertyOp61
 70
     1
102
RTVSPropertyOp62
 70
     1
  0
XRECORD
  5
86177
102
{ACAD_REACTORS
330
86176
102
}
330
86176
100
AcDbXrecord
280
     1
102
RTVSPost2010Prop28
280
     0
102
RTVSPost2010PropOp28
 70
     1
102
RTVSPost2010Prop29
280
     1
102
RTVSPost2010PropOp29
 70
     1
102
RTVSPost2010Prop30
280
     1
102
RTVSPost2010PropOp30
 70
     1
102
RTVSPost2010Prop31
280
     0
102
RTVSPost2010PropOp31
 70
     1
102
RTVSPost2010Prop32
280
     0
102
RTVSPost2010PropOp32
 70
     1
102
RTVSPost2010Prop33
280
     0
102
RTVSPost2010PropOp33
 70
     1
102
RTVSPost2010Prop34
280
     0
102
RTVSPost2010PropOp34
 70
     1
102
RTVSPost2010Prop35
280
     0
102
RTVSPost2010PropOp35
 70
     1
102
RTVSPost2010Prop36
280
     0
102
RTVSPost2010PropOp36
 70
     1
102
RTVSPost2010Prop37
 90
       50
102
RTVSPost2010PropOp37
 70
     1
102
RTVSPost2010Prop38
140
0.0
102
RTVSPost2010PropOp38
 70
     1
102
RTVSPost2010Prop39
140
1.0
102
RTVSPost2010PropOp39
 70
     1
102
RTVSPost2010Prop40
 90
        0
102
RTVSPost2010PropOp40
 70
     1
102
RTVSPost2010Prop41ColorIndex
 90
       18
102
RTVSPost2010Prop41ColorRGB
 90
-16777216
102
RTVSPost2010PropOp41
 70
     1
102
RTVSPost2010Prop42
 90
       50
102
RTVSPost2010PropOp42
 70
     1
102
RTVSPost2010Prop43
 90
        3
102
RTVSPost2010PropOp43
 70
     1
102
RTVSPost2010Prop44ColorIndex
 90
        5
102
RTVSPost2010Prop44ColorRGB
 90
      255
102
RTVSPost2010PropOp44
 70
     1
102
RTVSPost2010Prop45
280
     0
102
RTVSPost2010PropOp45
 70
     1
102
RTVSPost2010Prop46
 90
       50
102
RTVSPost2010PropOp46
 70
     1
102
RTVSPost2010Prop47
 90
       50
102
RTVSPost2010PropOp47
 70
     1
102
RTVSPost2010Prop48
 90
       50
102
RTVSPost2010PropOp48
 70
     1
102
RTVSPost2010Prop49
280
     0
102
RTVSPost2010PropOp49
 70
     1
102
RTVSPost2010Prop50
 90
       50
102
RTVSPost2010PropOp50
 70
     1
102
RTVSPost2010Prop51ColorIndex
 90
      256
102
RTVSPost2010Prop51ColorRGB
 90
-16777216
102
RTVSPost2010PropOp51
 70
     0
102
RTVSPost2010Prop52
140
1.0
102
RTVSPost2010PropOp52
 70
     0
102
RTVSPost2010Prop53
 90
        2
102
RTVSPost2010PropOp53
 70
     1
102
RTVSPost2010Prop54
  1
strokes_ogs.tif
102
RTVSPost2010PropOp54
 70
     1
102
RTVSPost2010Prop55
280
     0
102
RTVSPost2010PropOp55
 70
     1
102
RTVSPost2010Prop56
140
1.0
102
RTVSPost2010PropOp56
 70
     1
102
RTVSPost2010Prop57
140
1.0
102
RTVSPost2010PropOp57
 70
     1
102
RTVSPropertyOp0
 70
     1
102
RTVSPropertyOp1
 70
     1
102
RTVSPropertyOp2
 70
     1
102
RTVSPropertyOp3
 70
     1
102
RTVSPropertyOp4
 70
     1
102
RTVSPropertyOp5
 70
     1
102
RTVSPropertyOp6
 70
     1
102
RTVSPropertyOp7
 70
     1
102
RTVSPropertyOp8
 70
     1
102
RTVSPropertyOp9
 70
     1
102
RTVSPropertyOp10
 70
     1
102
RTVSPropertyOp11
 70
     1
102
RTVSPropertyOp12
 70
     1
102
RTVSPropertyOp13
 70
     1
102
RTVSPropertyOp14
 70
     1
102
RTVSPropertyOp15
 70
     1
102
RTVSPropertyOp16
 70
     1
102
RTVSPropertyOp17
 70
     1
102
RTVSPropertyOp18
 70
     1
102
RTVSPropertyOp19
 70
     1
102
RTVSPropertyOp20
 70
     1
102
RTVSPropertyOp21
 70
     1
102
RTVSPropertyOp22
 70
     1
102
RTVSPropertyOp23
 70
     1
102
RTVSPropertyOp24
 70
     1
102
RTVSPropertyOp25
 70
     1
102
RTVSPropertyOp26
 70
     1
102
RTVSPropertyOp27
 70
     1
102
RTVSPropertyOp28
 70
     1
102
RTVSPropertyOp29
 70
     1
102
RTVSPropertyOp30
 70
     1
102
RTVSPropertyOp31
 70
     1
102
RTVSPropertyOp32
 70
     1
102
RTVSPropertyOp33
 70
     1
102
RTVSPropertyOp34
 70
     1
102
RTVSPropertyOp35
 70
     1
102
RTVSPropertyOp36
 70
     1
102
RTVSPropertyOp37
 70
     1
102
RTVSPropertyOp38
 70
     1
102
RTVSPropertyOp39
 70
     1
102
RTVSPropertyOp40
 70
     1
102
RTVSPropertyOp41
 70
     1
102
RTVSPropertyOp42
 70
     1
102
RTVSPropertyOp43
 70
     1
102
RTVSPropertyOp44
 70
     1
102
RTVSPropertyOp45
 70
     1
102
RTVSPropertyOp46
 70
     1
102
RTVSPropertyOp47
 70
     1
102
RTVSPropertyOp48
 70
     1
102
RTVSPropertyOp49
 70
     1
102
RTVSPropertyOp50
 70
     1
102
RTVSPropertyOp51
 70
     0
102
RTVSPropertyOp52
 70
     0
102
RTVSPropertyOp53
 70
     1
102
RTVSPropertyOp54
 70
     1
102
RTVSPropertyOp55
 70
     1
102
RTVSPropertyOp56
 70
     1
102
RTVSPropertyOp57
 70
     1
102
RTVSPropertyOp58
 70
     1
102
RTVSPropertyOp59
 70
     1
102
RTVSPropertyOp60
 70
     1
102
RTVSPropertyOp61
 70
     1
102
RTVSPropertyOp62
 70
     1
  0
XRECORD
  5
86179
102
{ACAD_REACTORS
330
86178
102
}
330
86178
100
AcDbXrecord
280
     1
102
RTVSPost2010Prop28
280
     0
102
RTVSPost2010PropOp28
 70
     1
102
RTVSPost2010Prop29
280
     1
102
RTVSPost2010PropOp29
 70
     1
102
RTVSPost2010Prop30
280
     1
102
RTVSPost2010PropOp30
 70
     1
102
RTVSPost2010Prop31
280
     0
102
RTVSPost2010PropOp31
 70
     1
102
RTVSPost2010Prop32
280
     0
102
RTVSPost2010PropOp32
 70
     1
102
RTVSPost2010Prop33
280
     0
102
RTVSPost2010PropOp33
 70
     1
102
RTVSPost2010Prop34
280
     0
102
RTVSPost2010PropOp34
 70
     1
102
RTVSPost2010Prop35
280
     0
102
RTVSPost2010PropOp35
 70
     1
102
RTVSPost2010Prop36
280
     0
102
RTVSPost2010PropOp36
 70
     1
102
RTVSPost2010Prop37
 90
       50
102
RTVSPost2010PropOp37
 70
     1
102
RTVSPost2010Prop38
140
0.0
102
RTVSPost2010PropOp38
 70
     1
102
RTVSPost2010Prop39
140
1.0
102
RTVSPost2010PropOp39
 70
     1
102
RTVSPost2010Prop40
 90
        0
102
RTVSPost2010PropOp40
 70
     1
102
RTVSPost2010Prop41ColorIndex
 90
       18
102
RTVSPost2010Prop41ColorRGB
 90
-16777216
102
RTVSPost2010PropOp41
 70
     1
102
RTVSPost2010Prop42
 90
       50
102
RTVSPost2010PropOp42
 70
     1
102
RTVSPost2010Prop43
 90
        3
102
RTVSPost2010PropOp43
 70
     1
102
RTVSPost2010Prop44ColorIndex
 90
        5
102
RTVSPost2010Prop44ColorRGB
 90
      255
102
RTVSPost2010PropOp44
 70
     1
102
RTVSPost2010Prop45
280
     0
102
RTVSPost2010PropOp45
 70
     1
102
RTVSPost2010Prop46
 90
       50
102
RTVSPost2010PropOp46
 70
     1
102
RTVSPost2010Prop47
 90
       50
102
RTVSPost2010PropOp47
 70
     1
102
RTVSPost2010Prop48
 90
       50
102
RTVSPost2010PropOp48
 70
     1
102
RTVSPost2010Prop49
280
     0
102
RTVSPost2010PropOp49
 70
     1
102
RTVSPost2010Prop50
 90
       50
102
RTVSPost2010PropOp50
 70
     1
102
RTVSPost2010Prop51ColorIndex
 90
      256
102
RTVSPost2010Prop51ColorRGB
 90
-16777216
102
RTVSPost2010PropOp51
 70
     0
102
RTVSPost2010Prop52
140
1.0
102
RTVSPost2010PropOp52
 70
     0
102
RTVSPost2010Prop53
 90
        2
102
RTVSPost2010PropOp53
 70
     1
102
RTVSPost2010Prop54
  1
strokes_ogs.tif
102
RTVSPost2010PropOp54
 70
     1
102
RTVSPost2010Prop55
280
     0
102
RTVSPost2010PropOp55
 70
     1
102
RTVSPost2010Prop56
140
1.0
102
RTVSPost2010PropOp56
 70
     1
102
RTVSPost2010Prop57
140
1.0
102
RTVSPost2010PropOp57
 70
     1
102
RTVSPropertyOp0
 70
     1
102
RTVSPropertyOp1
 70
     1
102
RTVSPropertyOp2
 70
     1
102
RTVSPropertyOp3
 70
     1
102
RTVSPropertyOp4
 70
     1
102
RTVSPropertyOp5
 70
     1
102
RTVSPropertyOp6
 70
     1
102
RTVSPropertyOp7
 70
     1
102
RTVSPropertyOp8
 70
     1
102
RTVSPropertyOp9
 70
     1
102
RTVSPropertyOp10
 70
     1
102
RTVSPropertyOp11
 70
     1
102
RTVSPropertyOp12
 70
     1
102
RTVSPropertyOp13
 70
     1
102
RTVSPropertyOp14
 70
     1
102
RTVSPropertyOp15
 70
     1
102
RTVSPropertyOp16
 70
     1
102
RTVSPropertyOp17
 70
     1
102
RTVSPropertyOp18
 70
     1
102
RTVSPropertyOp19
 70
     1
102
RTVSPropertyOp20
 70
     1
102
RTVSPropertyOp21
 70
     1
102
RTVSPropertyOp22
 70
     1
102
RTVSPropertyOp23
 70
     1
102
RTVSPropertyOp24
 70
     1
102
RTVSPropertyOp25
 70
     1
102
RTVSPropertyOp26
 70
     1
102
RTVSPropertyOp27
 70
     1
102
RTVSPropertyOp28
 70
     1
102
RTVSPropertyOp29
 70
     1
102
RTVSPropertyOp30
 70
     1
102
RTVSPropertyOp31
 70
     1
102
RTVSPropertyOp32
 70
     1
102
RTVSPropertyOp33
 70
     1
102
RTVSPropertyOp34
 70
     1
102
RTVSPropertyOp35
 70
     1
102
RTVSPropertyOp36
 70
     1
102
RTVSPropertyOp37
 70
     1
102
RTVSPropertyOp38
 70
     1
102
RTVSPropertyOp39
 70
     1
102
RTVSPropertyOp40
 70
     1
102
RTVSPropertyOp41
 70
     1
102
RTVSPropertyOp42
 70
     1
102
RTVSPropertyOp43
 70
     1
102
RTVSPropertyOp44
 70
     1
102
RTVSPropertyOp45
 70
     1
102
RTVSPropertyOp46
 70
     1
102
RTVSPropertyOp47
 70
     1
102
RTVSPropertyOp48
 70
     1
102
RTVSPropertyOp49
 70
     1
102
RTVSPropertyOp50
 70
     1
102
RTVSPropertyOp51
 70
     0
102
RTVSPropertyOp52
 70
     0
102
RTVSPropertyOp53
 70
     1
102
RTVSPropertyOp54
 70
     1
102
RTVSPropertyOp55
 70
     1
102
RTVSPropertyOp56
 70
     1
102
RTVSPropertyOp57
 70
     1
102
RTVSPropertyOp58
 70
     1
102
RTVSPropertyOp59
 70
     1
102
RTVSPropertyOp60
 70
     1
102
RTVSPropertyOp61
 70
     1
102
RTVSPropertyOp62
 70
     1
  0
XRECORD
  5
8617B
102
{ACAD_REACTORS
330
8617A
102
}
330
8617A
100
AcDbXrecord
280
     1
102
RTVSPost2010Prop28
280
     0
102
RTVSPost2010PropOp28
 70
     1
102
RTVSPost2010Prop29
280
     1
102
RTVSPost2010PropOp29
 70
     1
102
RTVSPost2010Prop30
280
     1
102
RTVSPost2010PropOp30
 70
     1
102
RTVSPost2010Prop31
280
     0
102
RTVSPost2010PropOp31
 70
     1
102
RTVSPost2010Prop32
280
     0
102
RTVSPost2010PropOp32
 70
     1
102
RTVSPost2010Prop33
280
     0
102
RTVSPost2010PropOp33
 70
     1
102
RTVSPost2010Prop34
280
     0
102
RTVSPost2010PropOp34
 70
     1
102
RTVSPost2010Prop35
280
     0
102
RTVSPost2010PropOp35
 70
     1
102
RTVSPost2010Prop36
280
     0
102
RTVSPost2010PropOp36
 70
     1
102
RTVSPost2010Prop37
 90
       50
102
RTVSPost2010PropOp37
 70
     1
102
RTVSPost2010Prop38
140
0.0
102
RTVSPost2010PropOp38
 70
     1
102
RTVSPost2010Prop39
140
1.0
102
RTVSPost2010PropOp39
 70
     1
102
RTVSPost2010Prop40
 90
        0
102
RTVSPost2010PropOp40
 70
     1
102
RTVSPost2010Prop41ColorIndex
 90
       18
102
RTVSPost2010Prop41ColorRGB
 90
-16777216
102
RTVSPost2010PropOp41
 70
     1
102
RTVSPost2010Prop42
 90
       50
102
RTVSPost2010PropOp42
 70
     1
102
RTVSPost2010Prop43
 90
        3
102
RTVSPost2010PropOp43
 70
     1
102
RTVSPost2010Prop44ColorIndex
 90
        5
102
RTVSPost2010Prop44ColorRGB
 90
      255
102
RTVSPost2010PropOp44
 70
     1
102
RTVSPost2010Prop45
280
     0
102
RTVSPost2010PropOp45
 70
     1
102
RTVSPost2010Prop46
 90
       50
102
RTVSPost2010PropOp46
 70
     1
102
RTVSPost2010Prop47
 90
       50
102
RTVSPost2010PropOp47
 70
     1
102
RTVSPost2010Prop48
 90
       50
102
RTVSPost2010PropOp48
 70
     1
102
RTVSPost2010Prop49
280
     0
102
RTVSPost2010PropOp49
 70
     1
102
RTVSPost2010Prop50
 90
       50
102
RTVSPost2010PropOp50
 70
     1
102
RTVSPost2010Prop51ColorIndex
 90
      256
102
RTVSPost2010Prop51ColorRGB
 90
-16777216
102
RTVSPost2010PropOp51
 70
     0
102
RTVSPost2010Prop52
140
1.0
102
RTVSPost2010PropOp52
 70
     0
102
RTVSPost2010Prop53
 90
        2
102
RTVSPost2010PropOp53
 70
     1
102
RTVSPost2010Prop54
  1
strokes_ogs.tif
102
RTVSPost2010PropOp54
 70
     1
102
RTVSPost2010Prop55
280
     0
102
RTVSPost2010PropOp55
 70
     1
102
RTVSPost2010Prop56
140
1.0
102
RTVSPost2010PropOp56
 70
     1
102
RTVSPost2010Prop57
140
1.0
102
RTVSPost2010PropOp57
 70
     1
102
RTVSPropertyOp0
 70
     1
102
RTVSPropertyOp1
 70
     1
102
RTVSPropertyOp2
 70
     1
102
RTVSPropertyOp3
 70
     1
102
RTVSPropertyOp4
 70
     1
102
RTVSPropertyOp5
 70
     1
102
RTVSPropertyOp6
 70
     1
102
RTVSPropertyOp7
 70
     1
102
RTVSPropertyOp8
 70
     1
102
RTVSPropertyOp9
 70
     1
102
RTVSPropertyOp10
 70
     1
102
RTVSPropertyOp11
 70
     1
102
RTVSPropertyOp12
 70
     1
102
RTVSPropertyOp13
 70
     1
102
RTVSPropertyOp14
 70
     1
102
RTVSPropertyOp15
 70
     1
102
RTVSPropertyOp16
 70
     1
102
RTVSPropertyOp17
 70
     1
102
RTVSPropertyOp18
 70
     1
102
RTVSPropertyOp19
 70
     1
102
RTVSPropertyOp20
 70
     1
102
RTVSPropertyOp21
 70
     1
102
RTVSPropertyOp22
 70
     1
102
RTVSPropertyOp23
 70
     1
102
RTVSPropertyOp24
 70
     1
102
RTVSPropertyOp25
 70
     1
102
RTVSPropertyOp26
 70
     1
102
RTVSPropertyOp27
 70
     1
102
RTVSPropertyOp28
 70
     1
102
RTVSPropertyOp29
 70
     1
102
RTVSPropertyOp30
 70
     1
102
RTVSPropertyOp31
 70
     1
102
RTVSPropertyOp32
 70
     1
102
RTVSPropertyOp33
 70
     1
102
RTVSPropertyOp34
 70
     1
102
RTVSPropertyOp35
 70
     1
102
RTVSPropertyOp36
 70
     1
102
RTVSPropertyOp37
 70
     1
102
RTVSPropertyOp38
 70
     1
102
RTVSPropertyOp39
 70
     1
102
RTVSPropertyOp40
 70
     1
102
RTVSPropertyOp41
 70
     1
102
RTVSPropertyOp42
 70
     1
102
RTVSPropertyOp43
 70
     1
102
RTVSPropertyOp44
 70
     1
102
RTVSPropertyOp45
 70
     1
102
RTVSPropertyOp46
 70
     1
102
RTVSPropertyOp47
 70
     1
102
RTVSPropertyOp48
 70
     1
102
RTVSPropertyOp49
 70
     1
102
RTVSPropertyOp50
 70
     1
102
RTVSPropertyOp51
 70
     0
102
RTVSPropertyOp52
 70
     0
102
RTVSPropertyOp53
 70
     1
102
RTVSPropertyOp54
 70
     1
102
RTVSPropertyOp55
 70
     1
102
RTVSPropertyOp56
 70
     1
102
RTVSPropertyOp57
 70
     1
102
RTVSPropertyOp58
 70
     1
102
RTVSPropertyOp59
 70
     1
102
RTVSPropertyOp60
 70
     1
102
RTVSPropertyOp61
 70
     1
102
RTVSPropertyOp62
 70
     1
  0
XRECORD
  5
86183
102
{ACAD_REACTORS
330
86182
102
}
330
86182
100
AcDbXrecord
280
     1
102
RTVSPost2010Prop28
280
     0
102
RTVSPost2010PropOp28
 70
     1
102
RTVSPost2010Prop29
280
     1
102
RTVSPost2010PropOp29
 70
     1
102
RTVSPost2010Prop30
280
     1
102
RTVSPost2010PropOp30
 70
     1
102
RTVSPost2010Prop31
280
     0
102
RTVSPost2010PropOp31
 70
     1
102
RTVSPost2010Prop32
280
     0
102
RTVSPost2010PropOp32
 70
     1
102
RTVSPost2010Prop33
280
     0
102
RTVSPost2010PropOp33
 70
     1
102
RTVSPost2010Prop34
280
     0
102
RTVSPost2010PropOp34
 70
     1
102
RTVSPost2010Prop35
280
     0
102
RTVSPost2010PropOp35
 70
     1
102
RTVSPost2010Prop36
280
     0
102
RTVSPost2010PropOp36
 70
     1
102
RTVSPost2010Prop37
 90
       50
102
RTVSPost2010PropOp37
 70
     1
102
RTVSPost2010Prop38
140
0.0
102
RTVSPost2010PropOp38
 70
     1
102
RTVSPost2010Prop39
140
1.0
102
RTVSPost2010PropOp39
 70
     1
102
RTVSPost2010Prop40
 90
        0
102
RTVSPost2010PropOp40
 70
     1
102
RTVSPost2010Prop41ColorIndex
 90
       18
102
RTVSPost2010Prop41ColorRGB
 90
-16777216
102
RTVSPost2010PropOp41
 70
     1
102
RTVSPost2010Prop42
 90
       50
102
RTVSPost2010PropOp42
 70
     1
102
RTVSPost2010Prop43
 90
        3
102
RTVSPost2010PropOp43
 70
     1
102
RTVSPost2010Prop44ColorIndex
 90
        5
102
RTVSPost2010Prop44ColorRGB
 90
      255
102
RTVSPost2010PropOp44
 70
     1
102
RTVSPost2010Prop45
280
     0
102
RTVSPost2010PropOp45
 70
     1
102
RTVSPost2010Prop46
 90
       50
102
RTVSPost2010PropOp46
 70
     1
102
RTVSPost2010Prop47
 90
       50
102
RTVSPost2010PropOp47
 70
     1
102
RTVSPost2010Prop48
 90
       50
102
RTVSPost2010PropOp48
 70
     1
102
RTVSPost2010Prop49
280
     0
102
RTVSPost2010PropOp49
 70
     1
102
RTVSPost2010Prop50
 90
       50
102
RTVSPost2010PropOp50
 70
     1
102
RTVSPost2010Prop51ColorIndex
 90
      256
102
RTVSPost2010Prop51ColorRGB
 90
-16777216
102
RTVSPost2010PropOp51
 70
     0
102
RTVSPost2010Prop52
140
1.0
102
RTVSPost2010PropOp52
 70
     0
102
RTVSPost2010Prop53
 90
        2
102
RTVSPost2010PropOp53
 70
     1
102
RTVSPost2010Prop54
  1
strokes_ogs.tif
102
RTVSPost2010PropOp54
 70
     1
102
RTVSPost2010Prop55
280
     0
102
RTVSPost2010PropOp55
 70
     1
102
RTVSPost2010Prop56
140
1.0
102
RTVSPost2010PropOp56
 70
     1
102
RTVSPost2010Prop57
140
1.0
102
RTVSPost2010PropOp57
 70
     1
102
RTVSPropertyOp0
 70
     1
102
RTVSPropertyOp1
 70
     1
102
RTVSPropertyOp2
 70
     1
102
RTVSPropertyOp3
 70
     1
102
RTVSPropertyOp4
 70
     1
102
RTVSPropertyOp5
 70
     1
102
RTVSPropertyOp6
 70
     1
102
RTVSPropertyOp7
 70
     1
102
RTVSPropertyOp8
 70
     1
102
RTVSPropertyOp9
 70
     1
102
RTVSPropertyOp10
 70
     1
102
RTVSPropertyOp11
 70
     1
102
RTVSPropertyOp12
 70
     1
102
RTVSPropertyOp13
 70
     1
102
RTVSPropertyOp14
 70
     1
102
RTVSPropertyOp15
 70
     1
102
RTVSPropertyOp16
 70
     1
102
RTVSPropertyOp17
 70
     1
102
RTVSPropertyOp18
 70
     1
102
RTVSPropertyOp19
 70
     1
102
RTVSPropertyOp20
 70
     1
102
RTVSPropertyOp21
 70
     1
102
RTVSPropertyOp22
 70
     1
102
RTVSPropertyOp23
 70
     1
102
RTVSPropertyOp24
 70
     1
102
RTVSPropertyOp25
 70
     1
102
RTVSPropertyOp26
 70
     1
102
RTVSPropertyOp27
 70
     1
102
RTVSPropertyOp28
 70
     1
102
RTVSPropertyOp29
 70
     1
102
RTVSPropertyOp30
 70
     1
102
RTVSPropertyOp31
 70
     1
102
RTVSPropertyOp32
 70
     1
102
RTVSPropertyOp33
 70
     1
102
RTVSPropertyOp34
 70
     1
102
RTVSPropertyOp35
 70
     1
102
RTVSPropertyOp36
 70
     1
102
RTVSPropertyOp37
 70
     1
102
RTVSPropertyOp38
 70
     1
102
RTVSPropertyOp39
 70
     1
102
RTVSPropertyOp40
 70
     1
102
RTVSPropertyOp41
 70
     1
102
RTVSPropertyOp42
 70
     1
102
RTVSPropertyOp43
 70
     1
102
RTVSPropertyOp44
 70
     1
102
RTVSPropertyOp45
 70
     1
102
RTVSPropertyOp46
 70
     1
102
RTVSPropertyOp47
 70
     1
102
RTVSPropertyOp48
 70
     1
102
RTVSPropertyOp49
 70
     1
102
RTVSPropertyOp50
 70
     1
102
RTVSPropertyOp51
 70
     0
102
RTVSPropertyOp52
 70
     0
102
RTVSPropertyOp53
 70
     1
102
RTVSPropertyOp54
 70
     1
102
RTVSPropertyOp55
 70
     1
102
RTVSPropertyOp56
 70
     1
102
RTVSPropertyOp57
 70
     1
102
RTVSPropertyOp58
 70
     1
102
RTVSPropertyOp59
 70
     1
102
RTVSPropertyOp60
 70
     1
102
RTVSPropertyOp61
 70
     1
102
RTVSPropertyOp62
 70
     1
  0
XRECORD
  5
8619F
102
{ACAD_REACTORS
330
8619E
102
}
330
8619E
100
AcDbXrecord
280
     1
102
RTVSPost2010Prop28
280
     0
102
RTVSPost2010PropOp28
 70
     1
102
RTVSPost2010Prop29
280
     1
102
RTVSPost2010PropOp29
 70
     1
102
RTVSPost2010Prop30
280
     1
102
RTVSPost2010PropOp30
 70
     1
102
RTVSPost2010Prop31
280
     0
102
RTVSPost2010PropOp31
 70
     1
102
RTVSPost2010Prop32
280
     0
102
RTVSPost2010PropOp32
 70
     1
102
RTVSPost2010Prop33
280
     0
102
RTVSPost2010PropOp33
 70
     1
102
RTVSPost2010Prop34
280
     0
102
RTVSPost2010PropOp34
 70
     1
102
RTVSPost2010Prop35
280
     0
102
RTVSPost2010PropOp35
 70
     1
102
RTVSPost2010Prop36
280
     0
102
RTVSPost2010PropOp36
 70
     1
102
RTVSPost2010Prop37
 90
       50
102
RTVSPost2010PropOp37
 70
     0
102
RTVSPost2010Prop38
140
0.0
102
RTVSPost2010PropOp38
 70
     0
102
RTVSPost2010Prop39
140
1.0
102
RTVSPost2010PropOp39
 70
     0
102
RTVSPost2010Prop40
 90
        0
102
RTVSPost2010PropOp40
 70
     0
102
RTVSPost2010Prop41ColorIndex
 90
       18
102
RTVSPost2010Prop41ColorRGB
 90
-16777216
102
RTVSPost2010PropOp41
 70
     0
102
RTVSPost2010Prop42
 90
       50
102
RTVSPost2010PropOp42
 70
     0
102
RTVSPost2010Prop43
 90
        3
102
RTVSPost2010PropOp43
 70
     0
102
RTVSPost2010Prop44ColorIndex
 90
        5
102
RTVSPost2010Prop44ColorRGB
 90
      255
102
RTVSPost2010PropOp44
 70
     0
102
RTVSPost2010Prop45
280
     0
102
RTVSPost2010PropOp45
 70
     1
102
RTVSPost2010Prop46
 90
       50
102
RTVSPost2010PropOp46
 70
     0
102
RTVSPost2010Prop47
 90
       50
102
RTVSPost2010PropOp47
 70
     0
102
RTVSPost2010Prop48
 90
       50
102
RTVSPost2010PropOp48
 70
     0
102
RTVSPost2010Prop49
280
     0
102
RTVSPost2010PropOp49
 70
     1
102
RTVSPost2010Prop50
 90
       50
102
RTVSPost2010PropOp50
 70
     0
102
RTVSPost2010Prop51ColorIndex
 90
      256
102
RTVSPost2010Prop51ColorRGB
 90
-16777216
102
RTVSPost2010PropOp51
 70
     0
102
RTVSPost2010Prop52
140
1.0
102
RTVSPost2010PropOp52
 70
     0
102
RTVSPost2010Prop53
 90
        2
102
RTVSPost2010PropOp53
 70
     0
102
RTVSPost2010Prop54
  1
strokes_ogs.tif
102
RTVSPost2010PropOp54
 70
     0
102
RTVSPost2010Prop55
280
     0
102
RTVSPost2010PropOp55
 70
     1
102
RTVSPost2010Prop56
140
1.0
102
RTVSPost2010PropOp56
 70
     0
102
RTVSPost2010Prop57
140
1.0
102
RTVSPost2010PropOp57
 70
     0
102
RTVSPropertyOp0
 70
     0
102
RTVSPropertyOp1
 70
     0
102
RTVSPropertyOp2
 70
     0
102
RTVSPropertyOp3
 70
     0
102
RTVSPropertyOp4
 70
     0
102
RTVSPropertyOp5
 70
     0
102
RTVSPropertyOp6
 70
     0
102
RTVSPropertyOp7
 70
     0
102
RTVSPropertyOp8
 70
     0
102
RTVSPropertyOp9
 70
     0
102
RTVSPropertyOp10
 70
     0
102
RTVSPropertyOp11
 70
     0
102
RTVSPropertyOp12
 70
     0
102
RTVSPropertyOp13
 70
     0
102
RTVSPropertyOp14
 70
     2
102
RTVSPropertyOp15
 70
     0
102
RTVSPropertyOp16
 70
     0
102
RTVSPropertyOp17
 70
     0
102
RTVSPropertyOp18
 70
     0
102
RTVSPropertyOp19
 70
     0
102
RTVSPropertyOp20
 70
     0
102
RTVSPropertyOp21
 70
     0
102
RTVSPropertyOp22
 70
     0
102
RTVSPropertyOp23
 70
     0
102
RTVSPropertyOp24
 70
     0
102
RTVSPropertyOp25
 70
     0
102
RTVSPropertyOp26
 70
     0
102
RTVSPropertyOp27
 70
     0
102
RTVSPropertyOp28
 70
     1
102
RTVSPropertyOp29
 70
     1
102
RTVSPropertyOp30
 70
     1
102
RTVSPropertyOp31
 70
     1
102
RTVSPropertyOp32
 70
     1
102
RTVSPropertyOp33
 70
     1
102
RTVSPropertyOp34
 70
     1
102
RTVSPropertyOp35
 70
     1
102
RTVSPropertyOp36
 70
     1
102
RTVSPropertyOp37
 70
     0
102
RTVSPropertyOp38
 70
     0
102
RTVSPropertyOp39
 70
     0
102
RTVSPropertyOp40
 70
     0
102
RTVSPropertyOp41
 70
     0
102
RTVSPropertyOp42
 70
     0
102
RTVSPropertyOp43
 70
     0
102
RTVSPropertyOp44
 70
     0
102
RTVSPropertyOp45
 70
     1
102
RTVSPropertyOp46
 70
     0
102
RTVSPropertyOp47
 70
     0
102
RTVSPropertyOp48
 70
     0
102
RTVSPropertyOp49
 70
     1
102
RTVSPropertyOp50
 70
     0
102
RTVSPropertyOp51
 70
     0
102
RTVSPropertyOp52
 70
     0
102
RTVSPropertyOp53
 70
     0
102
RTVSPropertyOp54
 70
     0
102
RTVSPropertyOp55
 70
     1
102
RTVSPropertyOp56
 70
     0
102
RTVSPropertyOp57
 70
     0
102
RTVSPropertyOp58
 70
     1
102
RTVSPropertyOp59
 70
     1
102
RTVSPropertyOp60
 70
     1
102
RTVSPropertyOp61
 70
     1
102
RTVSPropertyOp62
 70
     1
  0
XRECORD
  5
8618F
102
{ACAD_REACTORS
330
8618E
102
}
330
8618E
100
AcDbXrecord
280
     1
102
RTVSPost2010Prop28
280
     0
102
RTVSPost2010PropOp28
 70
     1
102
RTVSPost2010Prop29
280
     1
102
RTVSPost2010PropOp29
 70
     1
102
RTVSPost2010Prop30
280
     1
102
RTVSPost2010PropOp30
 70
     1
102
RTVSPost2010Prop31
280
     0
102
RTVSPost2010PropOp31
 70
     1
102
RTVSPost2010Prop32
280
     0
102
RTVSPost2010PropOp32
 70
     1
102
RTVSPost2010Prop33
280
     0
102
RTVSPost2010PropOp33
 70
     1
102
RTVSPost2010Prop34
280
     0
102
RTVSPost2010PropOp34
 70
     1
102
RTVSPost2010Prop35
280
     0
102
RTVSPost2010PropOp35
 70
     1
102
RTVSPost2010Prop36
280
     0
102
RTVSPost2010PropOp36
 70
     1
102
RTVSPost2010Prop37
 90
       50
102
RTVSPost2010PropOp37
 70
     1
102
RTVSPost2010Prop38
140
0.0
102
RTVSPost2010PropOp38
 70
     1
102
RTVSPost2010Prop39
140
1.0
102
RTVSPost2010PropOp39
 70
     1
102
RTVSPost2010Prop40
 90
        0
102
RTVSPost2010PropOp40
 70
     1
102
RTVSPost2010Prop41ColorIndex
 90
       18
102
RTVSPost2010Prop41ColorRGB
 90
-16777216
102
RTVSPost2010PropOp41
 70
     1
102
RTVSPost2010Prop42
 90
       50
102
RTVSPost2010PropOp42
 70
     1
102
RTVSPost2010Prop43
 90
        3
102
RTVSPost2010PropOp43
 70
     1
102
RTVSPost2010Prop44ColorIndex
 90
        5
102
RTVSPost2010Prop44ColorRGB
 90
      255
102
RTVSPost2010PropOp44
 70
     1
102
RTVSPost2010Prop45
280
     0
102
RTVSPost2010PropOp45
 70
     1
102
RTVSPost2010Prop46
 90
       50
102
RTVSPost2010PropOp46
 70
     1
102
RTVSPost2010Prop47
 90
       50
102
RTVSPost2010PropOp47
 70
     1
102
RTVSPost2010Prop48
 90
       50
102
RTVSPost2010PropOp48
 70
     1
102
RTVSPost2010Prop49
280
     0
102
RTVSPost2010PropOp49
 70
     1
102
RTVSPost2010Prop50
 90
       50
102
RTVSPost2010PropOp50
 70
     1
102
RTVSPost2010Prop51ColorIndex
 90
      256
102
RTVSPost2010Prop51ColorRGB
 90
-16777216
102
RTVSPost2010PropOp51
 70
     0
102
RTVSPost2010Prop52
140
1.0
102
RTVSPost2010PropOp52
 70
     0
102
RTVSPost2010Prop53
 90
        2
102
RTVSPost2010PropOp53
 70
     1
102
RTVSPost2010Prop54
  1
strokes_ogs.tif
102
RTVSPost2010PropOp54
 70
     1
102
RTVSPost2010Prop55
280
     0
102
RTVSPost2010PropOp55
 70
     1
102
RTVSPost2010Prop56
140
1.0
102
RTVSPost2010PropOp56
 70
     1
102
RTVSPost2010Prop57
140
1.0
102
RTVSPost2010PropOp57
 70
     1
102
RTVSPropertyOp0
 70
     1
102
RTVSPropertyOp1
 70
     1
102
RTVSPropertyOp2
 70
     1
102
RTVSPropertyOp3
 70
     1
102
RTVSPropertyOp4
 70
     1
102
RTVSPropertyOp5
 70
     1
102
RTVSPropertyOp6
 70
     1
102
RTVSPropertyOp7
 70
     1
102
RTVSPropertyOp8
 70
     1
102
RTVSPropertyOp9
 70
     1
102
RTVSPropertyOp10
 70
     1
102
RTVSPropertyOp11
 70
     1
102
RTVSPropertyOp12
 70
     1
102
RTVSPropertyOp13
 70
     1
102
RTVSPropertyOp14
 70
     1
102
RTVSPropertyOp15
 70
     1
102
RTVSPropertyOp16
 70
     1
102
RTVSPropertyOp17
 70
     1
102
RTVSPropertyOp18
 70
     1
102
RTVSPropertyOp19
 70
     1
102
RTVSPropertyOp20
 70
     1
102
RTVSPropertyOp21
 70
     1
102
RTVSPropertyOp22
 70
     1
102
RTVSPropertyOp23
 70
     1
102
RTVSPropertyOp24
 70
     1
102
RTVSPropertyOp25
 70
     1
102
RTVSPropertyOp26
 70
     1
102
RTVSPropertyOp27
 70
     1
102
RTVSPropertyOp28
 70
     1
102
RTVSPropertyOp29
 70
     1
102
RTVSPropertyOp30
 70
     1
102
RTVSPropertyOp31
 70
     1
102
RTVSPropertyOp32
 70
     1
102
RTVSPropertyOp33
 70
     1
102
RTVSPropertyOp34
 70
     1
102
RTVSPropertyOp35
 70
     1
102
RTVSPropertyOp36
 70
     1
102
RTVSPropertyOp37
 70
     1
102
RTVSPropertyOp38
 70
     1
102
RTVSPropertyOp39
 70
     1
102
RTVSPropertyOp40
 70
     1
102
RTVSPropertyOp41
 70
     1
102
RTVSPropertyOp42
 70
     1
102
RTVSPropertyOp43
 70
     1
102
RTVSPropertyOp44
 70
     1
102
RTVSPropertyOp45
 70
     1
102
RTVSPropertyOp46
 70
     1
102
RTVSPropertyOp47
 70
     1
102
RTVSPropertyOp48
 70
     1
102
RTVSPropertyOp49
 70
     1
102
RTVSPropertyOp50
 70
     1
102
RTVSPropertyOp51
 70
     0
102
RTVSPropertyOp52
 70
     0
102
RTVSPropertyOp53
 70
     1
102
RTVSPropertyOp54
 70
     1
102
RTVSPropertyOp55
 70
     1
102
RTVSPropertyOp56
 70
     1
102
RTVSPropertyOp57
 70
     1
102
RTVSPropertyOp58
 70
     1
102
RTVSPropertyOp59
 70
     1
102
RTVSPropertyOp60
 70
     1
102
RTVSPropertyOp61
 70
     1
102
RTVSPropertyOp62
 70
     1
  0
XRECORD
  5
861A1
102
{ACAD_REACTORS
330
861A0
102
}
330
861A0
100
AcDbXrecord
280
     1
102
RTVSPost2010Prop28
280
     0
102
RTVSPost2010PropOp28
 70
     1
102
RTVSPost2010Prop29
280
     1
102
RTVSPost2010PropOp29
 70
     1
102
RTVSPost2010Prop30
280
     1
102
RTVSPost2010PropOp30
 70
     1
102
RTVSPost2010Prop31
280
     0
102
RTVSPost2010PropOp31
 70
     1
102
RTVSPost2010Prop32
280
     0
102
RTVSPost2010PropOp32
 70
     1
102
RTVSPost2010Prop33
280
     0
102
RTVSPost2010PropOp33
 70
     1
102
RTVSPost2010Prop34
280
     0
102
RTVSPost2010PropOp34
 70
     1
102
RTVSPost2010Prop35
280
     0
102
RTVSPost2010PropOp35
 70
     1
102
RTVSPost2010Prop36
280
     0
102
RTVSPost2010PropOp36
 70
     1
102
RTVSPost2010Prop37
 90
       50
102
RTVSPost2010PropOp37
 70
     0
102
RTVSPost2010Prop38
140
0.0
102
RTVSPost2010PropOp38
 70
     0
102
RTVSPost2010Prop39
140
1.0
102
RTVSPost2010PropOp39
 70
     0
102
RTVSPost2010Prop40
 90
        0
102
RTVSPost2010PropOp40
 70
     0
102
RTVSPost2010Prop41ColorIndex
 90
       18
102
RTVSPost2010Prop41ColorRGB
 90
-16777216
102
RTVSPost2010PropOp41
 70
     0
102
RTVSPost2010Prop42
 90
       50
102
RTVSPost2010PropOp42
 70
     0
102
RTVSPost2010Prop43
 90
        3
102
RTVSPost2010PropOp43
 70
     0
102
RTVSPost2010Prop44ColorIndex
 90
        5
102
RTVSPost2010Prop44ColorRGB
 90
      255
102
RTVSPost2010PropOp44
 70
     0
102
RTVSPost2010Prop45
280
     0
102
RTVSPost2010PropOp45
 70
     1
102
RTVSPost2010Prop46
 90
       50
102
RTVSPost2010PropOp46
 70
     0
102
RTVSPost2010Prop47
 90
       50
102
RTVSPost2010PropOp47
 70
     0
102
RTVSPost2010Prop48
 90
       50
102
RTVSPost2010PropOp48
 70
     0
102
RTVSPost2010Prop49
280
     0
102
RTVSPost2010PropOp49
 70
     1
102
RTVSPost2010Prop50
 90
       50
102
RTVSPost2010PropOp50
 70
     0
102
RTVSPost2010Prop51ColorIndex
 90
      256
102
RTVSPost2010Prop51ColorRGB
 90
-16777216
102
RTVSPost2010PropOp51
 70
     0
102
RTVSPost2010Prop52
140
1.0
102
RTVSPost2010PropOp52
 70
     0
102
RTVSPost2010Prop53
 90
        2
102
RTVSPost2010PropOp53
 70
     0
102
RTVSPost2010Prop54
  1
strokes_ogs.tif
102
RTVSPost2010PropOp54
 70
     0
102
RTVSPost2010Prop55
280
     0
102
RTVSPost2010PropOp55
 70
     1
102
RTVSPost2010Prop56
140
1.0
102
RTVSPost2010PropOp56
 70
     0
102
RTVSPost2010Prop57
140
1.0
102
RTVSPost2010PropOp57
 70
     0
102
RTVSPropertyOp0
 70
     0
102
RTVSPropertyOp1
 70
     0
102
RTVSPropertyOp2
 70
     0
102
RTVSPropertyOp3
 70
     0
102
RTVSPropertyOp4
 70
     0
102
RTVSPropertyOp5
 70
     0
102
RTVSPropertyOp6
 70
     0
102
RTVSPropertyOp7
 70
     0
102
RTVSPropertyOp8
 70
     0
102
RTVSPropertyOp9
 70
     0
102
RTVSPropertyOp10
 70
     0
102
RTVSPropertyOp11
 70
     0
102
RTVSPropertyOp12
 70
     0
102
RTVSPropertyOp13
 70
     0
102
RTVSPropertyOp14
 70
     2
102
RTVSPropertyOp15
 70
     0
102
RTVSPropertyOp16
 70
     0
102
RTVSPropertyOp17
 70
     0
102
RTVSPropertyOp18
 70
     0
102
RTVSPropertyOp19
 70
     0
102
RTVSPropertyOp20
 70
     0
102
RTVSPropertyOp21
 70
     0
102
RTVSPropertyOp22
 70
     0
102
RTVSPropertyOp23
 70
     0
102
RTVSPropertyOp24
 70
     0
102
RTVSPropertyOp25
 70
     0
102
RTVSPropertyOp26
 70
     0
102
RTVSPropertyOp27
 70
     0
102
RTVSPropertyOp28
 70
     1
102
RTVSPropertyOp29
 70
     1
102
RTVSPropertyOp30
 70
     1
102
RTVSPropertyOp31
 70
     1
102
RTVSPropertyOp32
 70
     1
102
RTVSPropertyOp33
 70
     1
102
RTVSPropertyOp34
 70
     1
102
RTVSPropertyOp35
 70
     1
102
RTVSPropertyOp36
 70
     1
102
RTVSPropertyOp37
 70
     0
102
RTVSPropertyOp38
 70
     0
102
RTVSPropertyOp39
 70
     0
102
RTVSPropertyOp40
 70
     0
102
RTVSPropertyOp41
 70
     0
102
RTVSPropertyOp42
 70
     0
102
RTVSPropertyOp43
 70
     0
102
RTVSPropertyOp44
 70
     0
102
RTVSPropertyOp45
 70
     1
102
RTVSPropertyOp46
 70
     0
102
RTVSPropertyOp47
 70
     0
102
RTVSPropertyOp48
 70
     0
102
RTVSPropertyOp49
 70
     1
102
RTVSPropertyOp50
 70
     0
102
RTVSPropertyOp51
 70
     0
102
RTVSPropertyOp52
 70
     0
102
RTVSPropertyOp53
 70
     0
102
RTVSPropertyOp54
 70
     0
102
RTVSPropertyOp55
 70
     1
102
RTVSPropertyOp56
 70
     0
102
RTVSPropertyOp57
 70
     0
102
RTVSPropertyOp58
 70
     1
102
RTVSPropertyOp59
 70
     1
102
RTVSPropertyOp60
 70
     1
102
RTVSPropertyOp61
 70
     1
102
RTVSPropertyOp62
 70
     1
  0
XRECORD
  5
86187
102
{ACAD_REACTORS
330
86186
102
}
330
86186
100
AcDbXrecord
280
     1
102
RTVSPost2010Prop28
280
     0
102
RTVSPost2010PropOp28
 70
     1
102
RTVSPost2010Prop29
280
     1
102
RTVSPost2010PropOp29
 70
     1
102
RTVSPost2010Prop30
280
     1
102
RTVSPost2010PropOp30
 70
     1
102
RTVSPost2010Prop31
280
     0
102
RTVSPost2010PropOp31
 70
     1
102
RTVSPost2010Prop32
280
     0
102
RTVSPost2010PropOp32
 70
     1
102
RTVSPost2010Prop33
280
     0
102
RTVSPost2010PropOp33
 70
     1
102
RTVSPost2010Prop34
280
     0
102
RTVSPost2010PropOp34
 70
     1
102
RTVSPost2010Prop35
280
     0
102
RTVSPost2010PropOp35
 70
     1
102
RTVSPost2010Prop36
280
     0
102
RTVSPost2010PropOp36
 70
     1
102
RTVSPost2010Prop37
 90
       50
102
RTVSPost2010PropOp37
 70
     1
102
RTVSPost2010Prop38
140
0.0
102
RTVSPost2010PropOp38
 70
     1
102
RTVSPost2010Prop39
140
1.0
102
RTVSPost2010PropOp39
 70
     1
102
RTVSPost2010Prop40
 90
        0
102
RTVSPost2010PropOp40
 70
     1
102
RTVSPost2010Prop41ColorIndex
 90
       18
102
RTVSPost2010Prop41ColorRGB
 90
-16777216
102
RTVSPost2010PropOp41
 70
     1
102
RTVSPost2010Prop42
 90
       50
102
RTVSPost2010PropOp42
 70
     1
102
RTVSPost2010Prop43
 90
        3
102
RTVSPost2010PropOp43
 70
     1
102
RTVSPost2010Prop44ColorIndex
 90
        5
102
RTVSPost2010Prop44ColorRGB
 90
      255
102
RTVSPost2010PropOp44
 70
     1
102
RTVSPost2010Prop45
280
     0
102
RTVSPost2010PropOp45
 70
     1
102
RTVSPost2010Prop46
 90
       50
102
RTVSPost2010PropOp46
 70
     1
102
RTVSPost2010Prop47
 90
       50
102
RTVSPost2010PropOp47
 70
     1
102
RTVSPost2010Prop48
 90
       50
102
RTVSPost2010PropOp48
 70
     1
102
RTVSPost2010Prop49
280
     0
102
RTVSPost2010PropOp49
 70
     1
102
RTVSPost2010Prop50
 90
       50
102
RTVSPost2010PropOp50
 70
     1
102
RTVSPost2010Prop51ColorIndex
 90
      256
102
RTVSPost2010Prop51ColorRGB
 90
-16777216
102
RTVSPost2010PropOp51
 70
     0
102
RTVSPost2010Prop52
140
1.0
102
RTVSPost2010PropOp52
 70
     0
102
RTVSPost2010Prop53
 90
        2
102
RTVSPost2010PropOp53
 70
     1
102
RTVSPost2010Prop54
  1
strokes_ogs.tif
102
RTVSPost2010PropOp54
 70
     1
102
RTVSPost2010Prop55
280
     0
102
RTVSPost2010PropOp55
 70
     1
102
RTVSPost2010Prop56
140
1.0
102
RTVSPost2010PropOp56
 70
     1
102
RTVSPost2010Prop57
140
1.0
102
RTVSPost2010PropOp57
 70
     1
102
RTVSPropertyOp0
 70
     1
102
RTVSPropertyOp1
 70
     1
102
RTVSPropertyOp2
 70
     1
102
RTVSPropertyOp3
 70
     1
102
RTVSPropertyOp4
 70
     1
102
RTVSPropertyOp5
 70
     1
102
RTVSPropertyOp6
 70
     1
102
RTVSPropertyOp7
 70
     1
102
RTVSPropertyOp8
 70
     1
102
RTVSPropertyOp9
 70
     1
102
RTVSPropertyOp10
 70
     1
102
RTVSPropertyOp11
 70
     1
102
RTVSPropertyOp12
 70
     1
102
RTVSPropertyOp13
 70
     1
102
RTVSPropertyOp14
 70
     1
102
RTVSPropertyOp15
 70
     1
102
RTVSPropertyOp16
 70
     1
102
RTVSPropertyOp17
 70
     1
102
RTVSPropertyOp18
 70
     1
102
RTVSPropertyOp19
 70
     1
102
RTVSPropertyOp20
 70
     1
102
RTVSPropertyOp21
 70
     1
102
RTVSPropertyOp22
 70
     1
102
RTVSPropertyOp23
 70
     1
102
RTVSPropertyOp24
 70
     1
102
RTVSPropertyOp25
 70
     1
102
RTVSPropertyOp26
 70
     1
102
RTVSPropertyOp27
 70
     1
102
RTVSPropertyOp28
 70
     1
102
RTVSPropertyOp29
 70
     1
102
RTVSPropertyOp30
 70
     1
102
RTVSPropertyOp31
 70
     1
102
RTVSPropertyOp32
 70
     1
102
RTVSPropertyOp33
 70
     1
102
RTVSPropertyOp34
 70
     1
102
RTVSPropertyOp35
 70
     1
102
RTVSPropertyOp36
 70
     1
102
RTVSPropertyOp37
 70
     1
102
RTVSPropertyOp38
 70
     1
102
RTVSPropertyOp39
 70
     1
102
RTVSPropertyOp40
 70
     1
102
RTVSPropertyOp41
 70
     1
102
RTVSPropertyOp42
 70
     1
102
RTVSPropertyOp43
 70
     1
102
RTVSPropertyOp44
 70
     1
102
RTVSPropertyOp45
 70
     1
102
RTVSPropertyOp46
 70
     1
102
RTVSPropertyOp47
 70
     1
102
RTVSPropertyOp48
 70
     1
102
RTVSPropertyOp49
 70
     1
102
RTVSPropertyOp50
 70
     1
102
RTVSPropertyOp51
 70
     0
102
RTVSPropertyOp52
 70
     0
102
RTVSPropertyOp53
 70
     1
102
RTVSPropertyOp54
 70
     1
102
RTVSPropertyOp55
 70
     1
102
RTVSPropertyOp56
 70
     1
102
RTVSPropertyOp57
 70
     1
102
RTVSPropertyOp58
 70
     1
102
RTVSPropertyOp59
 70
     1
102
RTVSPropertyOp60
 70
     1
102
RTVSPropertyOp61
 70
     1
102
RTVSPropertyOp62
 70
     1
  0
XRECORD
  5
8619D
102
{ACAD_REACTORS
330
8619C
102
}
330
8619C
100
AcDbXrecord
280
     1
102
RTVSPost2010Prop28
280
     0
102
RTVSPost2010PropOp28
 70
     1
102
RTVSPost2010Prop29
280
     1
102
RTVSPost2010PropOp29
 70
     1
102
RTVSPost2010Prop30
280
     1
102
RTVSPost2010PropOp30
 70
     1
102
RTVSPost2010Prop31
280
     0
102
RTVSPost2010PropOp31
 70
     1
102
RTVSPost2010Prop32
280
     0
102
RTVSPost2010PropOp32
 70
     1
102
RTVSPost2010Prop33
280
     0
102
RTVSPost2010PropOp33
 70
     1
102
RTVSPost2010Prop34
280
     0
102
RTVSPost2010PropOp34
 70
     1
102
RTVSPost2010Prop35
280
     0
102
RTVSPost2010PropOp35
 70
     1
102
RTVSPost2010Prop36
280
     0
102
RTVSPost2010PropOp36
 70
     1
102
RTVSPost2010Prop37
 90
       50
102
RTVSPost2010PropOp37
 70
     1
102
RTVSPost2010Prop38
140
0.0
102
RTVSPost2010PropOp38
 70
     1
102
RTVSPost2010Prop39
140
1.0
102
RTVSPost2010PropOp39
 70
     1
102
RTVSPost2010Prop40
 90
        0
102
RTVSPost2010PropOp40
 70
     1
102
RTVSPost2010Prop41ColorIndex
 90
       18
102
RTVSPost2010Prop41ColorRGB
 90
-16777216
102
RTVSPost2010PropOp41
 70
     1
102
RTVSPost2010Prop42
 90
       50
102
RTVSPost2010PropOp42
 70
     1
102
RTVSPost2010Prop43
 90
        3
102
RTVSPost2010PropOp43
 70
     1
102
RTVSPost2010Prop44ColorIndex
 90
        5
102
RTVSPost2010Prop44ColorRGB
 90
      255
102
RTVSPost2010PropOp44
 70
     1
102
RTVSPost2010Prop45
280
     0
102
RTVSPost2010PropOp45
 70
     1
102
RTVSPost2010Prop46
 90
       50
102
RTVSPost2010PropOp46
 70
     1
102
RTVSPost2010Prop47
 90
       50
102
RTVSPost2010PropOp47
 70
     1
102
RTVSPost2010Prop48
 90
       50
102
RTVSPost2010PropOp48
 70
     1
102
RTVSPost2010Prop49
280
     0
102
RTVSPost2010PropOp49
 70
     1
102
RTVSPost2010Prop50
 90
       50
102
RTVSPost2010PropOp50
 70
     1
102
RTVSPost2010Prop51ColorIndex
 90
      256
102
RTVSPost2010Prop51ColorRGB
 90
-16777216
102
RTVSPost2010PropOp51
 70
     0
102
RTVSPost2010Prop52
140
1.0
102
RTVSPost2010PropOp52
 70
     0
102
RTVSPost2010Prop53
 90
        2
102
RTVSPost2010PropOp53
 70
     1
102
RTVSPost2010Prop54
  1
strokes_ogs.tif
102
RTVSPost2010PropOp54
 70
     1
102
RTVSPost2010Prop55
280
     0
102
RTVSPost2010PropOp55
 70
     1
102
RTVSPost2010Prop56
140
1.0
102
RTVSPost2010PropOp56
 70
     1
102
RTVSPost2010Prop57
140
1.0
102
RTVSPost2010PropOp57
 70
     1
102
RTVSPropertyOp0
 70
     1
102
RTVSPropertyOp1
 70
     1
102
RTVSPropertyOp2
 70
     1
102
RTVSPropertyOp3
 70
     1
102
RTVSPropertyOp4
 70
     1
102
RTVSPropertyOp5
 70
     1
102
RTVSPropertyOp6
 70
     1
102
RTVSPropertyOp7
 70
     1
102
RTVSPropertyOp8
 70
     1
102
RTVSPropertyOp9
 70
     1
102
RTVSPropertyOp10
 70
     1
102
RTVSPropertyOp11
 70
     1
102
RTVSPropertyOp12
 70
     1
102
RTVSPropertyOp13
 70
     1
102
RTVSPropertyOp14
 70
     1
102
RTVSPropertyOp15
 70
     1
102
RTVSPropertyOp16
 70
     1
102
RTVSPropertyOp17
 70
     1
102
RTVSPropertyOp18
 70
     1
102
RTVSPropertyOp19
 70
     1
102
RTVSPropertyOp20
 70
     1
102
RTVSPropertyOp21
 70
     1
102
RTVSPropertyOp22
 70
     1
102
RTVSPropertyOp23
 70
     1
102
RTVSPropertyOp24
 70
     1
102
RTVSPropertyOp25
 70
     1
102
RTVSPropertyOp26
 70
     1
102
RTVSPropertyOp27
 70
     1
102
RTVSPropertyOp28
 70
     1
102
RTVSPropertyOp29
 70
     1
102
RTVSPropertyOp30
 70
     1
102
RTVSPropertyOp31
 70
     1
102
RTVSPropertyOp32
 70
     1
102
RTVSPropertyOp33
 70
     1
102
RTVSPropertyOp34
 70
     1
102
RTVSPropertyOp35
 70
     1
102
RTVSPropertyOp36
 70
     1
102
RTVSPropertyOp37
 70
     1
102
RTVSPropertyOp38
 70
     1
102
RTVSPropertyOp39
 70
     1
102
RTVSPropertyOp40
 70
     1
102
RTVSPropertyOp41
 70
     1
102
RTVSPropertyOp42
 70
     1
102
RTVSPropertyOp43
 70
     1
102
RTVSPropertyOp44
 70
     1
102
RTVSPropertyOp45
 70
     1
102
RTVSPropertyOp46
 70
     1
102
RTVSPropertyOp47
 70
     1
102
RTVSPropertyOp48
 70
     1
102
RTVSPropertyOp49
 70
     1
102
RTVSPropertyOp50
 70
     1
102
RTVSPropertyOp51
 70
     0
102
RTVSPropertyOp52
 70
     0
102
RTVSPropertyOp53
 70
     1
102
RTVSPropertyOp54
 70
     1
102
RTVSPropertyOp55
 70
     1
102
RTVSPropertyOp56
 70
     1
102
RTVSPropertyOp57
 70
     1
102
RTVSPropertyOp58
 70
     1
102
RTVSPropertyOp59
 70
     1
102
RTVSPropertyOp60
 70
     1
102
RTVSPropertyOp61
 70
     1
102
RTVSPropertyOp62
 70
     1
  0
XRECORD
  5
8619B
102
{ACAD_REACTORS
330
8619A
102
}
330
8619A
100
AcDbXrecord
280
     1
102
RTVSPost2010Prop28
280
     0
102
RTVSPost2010PropOp28
 70
     1
102
RTVSPost2010Prop29
280
     1
102
RTVSPost2010PropOp29
 70
     1
102
RTVSPost2010Prop30
280
     1
102
RTVSPost2010PropOp30
 70
     1
102
RTVSPost2010Prop31
280
     0
102
RTVSPost2010PropOp31
 70
     1
102
RTVSPost2010Prop32
280
     0
102
RTVSPost2010PropOp32
 70
     1
102
RTVSPost2010Prop33
280
     0
102
RTVSPost2010PropOp33
 70
     1
102
RTVSPost2010Prop34
280
     0
102
RTVSPost2010PropOp34
 70
     1
102
RTVSPost2010Prop35
280
     0
102
RTVSPost2010PropOp35
 70
     1
102
RTVSPost2010Prop36
280
     0
102
RTVSPost2010PropOp36
 70
     1
102
RTVSPost2010Prop37
 90
       50
102
RTVSPost2010PropOp37
 70
     1
102
RTVSPost2010Prop38
140
0.0
102
RTVSPost2010PropOp38
 70
     1
102
RTVSPost2010Prop39
140
1.0
102
RTVSPost2010PropOp39
 70
     1
102
RTVSPost2010Prop40
 90
        0
102
RTVSPost2010PropOp40
 70
     1
102
RTVSPost2010Prop41ColorIndex
 90
       18
102
RTVSPost2010Prop41ColorRGB
 90
-16777216
102
RTVSPost2010PropOp41
 70
     1
102
RTVSPost2010Prop42
 90
       50
102
RTVSPost2010PropOp42
 70
     1
102
RTVSPost2010Prop43
 90
        3
102
RTVSPost2010PropOp43
 70
     1
102
RTVSPost2010Prop44ColorIndex
 90
        5
102
RTVSPost2010Prop44ColorRGB
 90
      255
102
RTVSPost2010PropOp44
 70
     1
102
RTVSPost2010Prop45
280
     0
102
RTVSPost2010PropOp45
 70
     1
102
RTVSPost2010Prop46
 90
       50
102
RTVSPost2010PropOp46
 70
     1
102
RTVSPost2010Prop47
 90
       50
102
RTVSPost2010PropOp47
 70
     1
102
RTVSPost2010Prop48
 90
       50
102
RTVSPost2010PropOp48
 70
     1
102
RTVSPost2010Prop49
280
     0
102
RTVSPost2010PropOp49
 70
     1
102
RTVSPost2010Prop50
 90
       50
102
RTVSPost2010PropOp50
 70
     1
102
RTVSPost2010Prop51ColorIndex
 90
      256
102
RTVSPost2010Prop51ColorRGB
 90
-16777216
102
RTVSPost2010PropOp51
 70
     0
102
RTVSPost2010Prop52
140
1.0
102
RTVSPost2010PropOp52
 70
     0
102
RTVSPost2010Prop53
 90
        2
102
RTVSPost2010PropOp53
 70
     1
102
RTVSPost2010Prop54
  1
strokes_ogs.tif
102
RTVSPost2010PropOp54
 70
     1
102
RTVSPost2010Prop55
280
     0
102
RTVSPost2010PropOp55
 70
     1
102
RTVSPost2010Prop56
140
1.0
102
RTVSPost2010PropOp56
 70
     1
102
RTVSPost2010Prop57
140
1.0
102
RTVSPost2010PropOp57
 70
     1
102
RTVSPropertyOp0
 70
     1
102
RTVSPropertyOp1
 70
     1
102
RTVSPropertyOp2
 70
     1
102
RTVSPropertyOp3
 70
     1
102
RTVSPropertyOp4
 70
     1
102
RTVSPropertyOp5
 70
     1
102
RTVSPropertyOp6
 70
     1
102
RTVSPropertyOp7
 70
     1
102
RTVSPropertyOp8
 70
     1
102
RTVSPropertyOp9
 70
     1
102
RTVSPropertyOp10
 70
     1
102
RTVSPropertyOp11
 70
     1
102
RTVSPropertyOp12
 70
     1
102
RTVSPropertyOp13
 70
     1
102
RTVSPropertyOp14
 70
     1
102
RTVSPropertyOp15
 70
     1
102
RTVSPropertyOp16
 70
     1
102
RTVSPropertyOp17
 70
     1
102
RTVSPropertyOp18
 70
     1
102
RTVSPropertyOp19
 70
     1
102
RTVSPropertyOp20
 70
     1
102
RTVSPropertyOp21
 70
     1
102
RTVSPropertyOp22
 70
     1
102
RTVSPropertyOp23
 70
     1
102
RTVSPropertyOp24
 70
     1
102
RTVSPropertyOp25
 70
     1
102
RTVSPropertyOp26
 70
     1
102
RTVSPropertyOp27
 70
     1
102
RTVSPropertyOp28
 70
     1
102
RTVSPropertyOp29
 70
     1
102
RTVSPropertyOp30
 70
     1
102
RTVSPropertyOp31
 70
     1
102
RTVSPropertyOp32
 70
     1
102
RTVSPropertyOp33
 70
     1
102
RTVSPropertyOp34
 70
     1
102
RTVSPropertyOp35
 70
     1
102
RTVSPropertyOp36
 70
     1
102
RTVSPropertyOp37
 70
     1
102
RTVSPropertyOp38
 70
     1
102
RTVSPropertyOp39
 70
     1
102
RTVSPropertyOp40
 70
     1
102
RTVSPropertyOp41
 70
     1
102
RTVSPropertyOp42
 70
     1
102
RTVSPropertyOp43
 70
     1
102
RTVSPropertyOp44
 70
     1
102
RTVSPropertyOp45
 70
     1
102
RTVSPropertyOp46
 70
     1
102
RTVSPropertyOp47
 70
     1
102
RTVSPropertyOp48
 70
     1
102
RTVSPropertyOp49
 70
     1
102
RTVSPropertyOp50
 70
     1
102
RTVSPropertyOp51
 70
     0
102
RTVSPropertyOp52
 70
     0
102
RTVSPropertyOp53
 70
     1
102
RTVSPropertyOp54
 70
     1
102
RTVSPropertyOp55
 70
     1
102
RTVSPropertyOp56
 70
     1
102
RTVSPropertyOp57
 70
     1
102
RTVSPropertyOp58
 70
     1
102
RTVSPropertyOp59
 70
     1
102
RTVSPropertyOp60
 70
     1
102
RTVSPropertyOp61
 70
     1
102
RTVSPropertyOp62
 70
     1
  0
XRECORD
  5
86195
102
{ACAD_REACTORS
330
86194
102
}
330
86194
100
AcDbXrecord
280
     1
102
RTVSPost2010Prop28
280
     0
102
RTVSPost2010PropOp28
 70
     1
102
RTVSPost2010Prop29
280
     1
102
RTVSPost2010PropOp29
 70
     1
102
RTVSPost2010Prop30
280
     1
102
RTVSPost2010PropOp30
 70
     1
102
RTVSPost2010Prop31
280
     0
102
RTVSPost2010PropOp31
 70
     1
102
RTVSPost2010Prop32
280
     0
102
RTVSPost2010PropOp32
 70
     1
102
RTVSPost2010Prop33
280
     0
102
RTVSPost2010PropOp33
 70
     1
102
RTVSPost2010Prop34
280
     0
102
RTVSPost2010PropOp34
 70
     1
102
RTVSPost2010Prop35
280
     0
102
RTVSPost2010PropOp35
 70
     1
102
RTVSPost2010Prop36
280
     0
102
RTVSPost2010PropOp36
 70
     1
102
RTVSPost2010Prop37
 90
       50
102
RTVSPost2010PropOp37
 70
     1
102
RTVSPost2010Prop38
140
0.0
102
RTVSPost2010PropOp38
 70
     1
102
RTVSPost2010Prop39
140
1.0
102
RTVSPost2010PropOp39
 70
     1
102
RTVSPost2010Prop40
 90
        0
102
RTVSPost2010PropOp40
 70
     1
102
RTVSPost2010Prop41ColorIndex
 90
       18
102
RTVSPost2010Prop41ColorRGB
 90
-16777216
102
RTVSPost2010PropOp41
 70
     1
102
RTVSPost2010Prop42
 90
       50
102
RTVSPost2010PropOp42
 70
     1
102
RTVSPost2010Prop43
 90
        3
102
RTVSPost2010PropOp43
 70
     1
102
RTVSPost2010Prop44ColorIndex
 90
        5
102
RTVSPost2010Prop44ColorRGB
 90
      255
102
RTVSPost2010PropOp44
 70
     1
102
RTVSPost2010Prop45
280
     0
102
RTVSPost2010PropOp45
 70
     1
102
RTVSPost2010Prop46
 90
       50
102
RTVSPost2010PropOp46
 70
     1
102
RTVSPost2010Prop47
 90
       50
102
RTVSPost2010PropOp47
 70
     1
102
RTVSPost2010Prop48
 90
       50
102
RTVSPost2010PropOp48
 70
     1
102
RTVSPost2010Prop49
280
     0
102
RTVSPost2010PropOp49
 70
     1
102
RTVSPost2010Prop50
 90
       50
102
RTVSPost2010PropOp50
 70
     1
102
RTVSPost2010Prop51ColorIndex
 90
      256
102
RTVSPost2010Prop51ColorRGB
 90
-16777216
102
RTVSPost2010PropOp51
 70
     0
102
RTVSPost2010Prop52
140
1.0
102
RTVSPost2010PropOp52
 70
     0
102
RTVSPost2010Prop53
 90
        2
102
RTVSPost2010PropOp53
 70
     1
102
RTVSPost2010Prop54
  1
strokes_ogs.tif
102
RTVSPost2010PropOp54
 70
     1
102
RTVSPost2010Prop55
280
     0
102
RTVSPost2010PropOp55
 70
     1
102
RTVSPost2010Prop56
140
1.0
102
RTVSPost2010PropOp56
 70
     1
102
RTVSPost2010Prop57
140
1.0
102
RTVSPost2010PropOp57
 70
     1
102
RTVSPropertyOp0
 70
     1
102
RTVSPropertyOp1
 70
     1
102
RTVSPropertyOp2
 70
     1
102
RTVSPropertyOp3
 70
     1
102
RTVSPropertyOp4
 70
     1
102
RTVSPropertyOp5
 70
     1
102
RTVSPropertyOp6
 70
     1
102
RTVSPropertyOp7
 70
     1
102
RTVSPropertyOp8
 70
     1
102
RTVSPropertyOp9
 70
     1
102
RTVSPropertyOp10
 70
     1
102
RTVSPropertyOp11
 70
     1
102
RTVSPropertyOp12
 70
     1
102
RTVSPropertyOp13
 70
     1
102
RTVSPropertyOp14
 70
     1
102
RTVSPropertyOp15
 70
     1
102
RTVSPropertyOp16
 70
     1
102
RTVSPropertyOp17
 70
     1
102
RTVSPropertyOp18
 70
     1
102
RTVSPropertyOp19
 70
     1
102
RTVSPropertyOp20
 70
     1
102
RTVSPropertyOp21
 70
     1
102
RTVSPropertyOp22
 70
     1
102
RTVSPropertyOp23
 70
     1
102
RTVSPropertyOp24
 70
     1
102
RTVSPropertyOp25
 70
     1
102
RTVSPropertyOp26
 70
     1
102
RTVSPropertyOp27
 70
     1
102
RTVSPropertyOp28
 70
     1
102
RTVSPropertyOp29
 70
     1
102
RTVSPropertyOp30
 70
     1
102
RTVSPropertyOp31
 70
     1
102
RTVSPropertyOp32
 70
     1
102
RTVSPropertyOp33
 70
     1
102
RTVSPropertyOp34
 70
     1
102
RTVSPropertyOp35
 70
     1
102
RTVSPropertyOp36
 70
     1
102
RTVSPropertyOp37
 70
     1
102
RTVSPropertyOp38
 70
     1
102
RTVSPropertyOp39
 70
     1
102
RTVSPropertyOp40
 70
     1
102
RTVSPropertyOp41
 70
     1
102
RTVSPropertyOp42
 70
     1
102
RTVSPropertyOp43
 70
     1
102
RTVSPropertyOp44
 70
     1
102
RTVSPropertyOp45
 70
     1
102
RTVSPropertyOp46
 70
     1
102
RTVSPropertyOp47
 70
     1
102
RTVSPropertyOp48
 70
     1
102
RTVSPropertyOp49
 70
     1
102
RTVSPropertyOp50
 70
     1
102
RTVSPropertyOp51
 70
     0
102
RTVSPropertyOp52
 70
     0
102
RTVSPropertyOp53
 70
     1
102
RTVSPropertyOp54
 70
     1
102
RTVSPropertyOp55
 70
     1
102
RTVSPropertyOp56
 70
     1
102
RTVSPropertyOp57
 70
     1
102
RTVSPropertyOp58
 70
     1
102
RTVSPropertyOp59
 70
     1
102
RTVSPropertyOp60
 70
     1
102
RTVSPropertyOp61
 70
     1
102
RTVSPropertyOp62
 70
     1
  0
XRECORD
  5
86197
102
{ACAD_REACTORS
330
86196
102
}
330
86196
100
AcDbXrecord
280
     1
102
RTVSPost2010Prop28
280
     0
102
RTVSPost2010PropOp28
 70
     1
102
RTVSPost2010Prop29
280
     1
102
RTVSPost2010PropOp29
 70
     1
102
RTVSPost2010Prop30
280
     1
102
RTVSPost2010PropOp30
 70
     1
102
RTVSPost2010Prop31
280
     0
102
RTVSPost2010PropOp31
 70
     1
102
RTVSPost2010Prop32
280
     0
102
RTVSPost2010PropOp32
 70
     1
102
RTVSPost2010Prop33
280
     0
102
RTVSPost2010PropOp33
 70
     1
102
RTVSPost2010Prop34
280
     0
102
RTVSPost2010PropOp34
 70
     1
102
RTVSPost2010Prop35
280
     0
102
RTVSPost2010PropOp35
 70
     1
102
RTVSPost2010Prop36
280
     0
102
RTVSPost2010PropOp36
 70
     1
102
RTVSPost2010Prop37
 90
       50
102
RTVSPost2010PropOp37
 70
     1
102
RTVSPost2010Prop38
140
0.0
102
RTVSPost2010PropOp38
 70
     1
102
RTVSPost2010Prop39
140
1.0
102
RTVSPost2010PropOp39
 70
     1
102
RTVSPost2010Prop40
 90
        0
102
RTVSPost2010PropOp40
 70
     1
102
RTVSPost2010Prop41ColorIndex
 90
       18
102
RTVSPost2010Prop41ColorRGB
 90
-16777216
102
RTVSPost2010PropOp41
 70
     1
102
RTVSPost2010Prop42
 90
       50
102
RTVSPost2010PropOp42
 70
     1
102
RTVSPost2010Prop43
 90
        3
102
RTVSPost2010PropOp43
 70
     1
102
RTVSPost2010Prop44ColorIndex
 90
        5
102
RTVSPost2010Prop44ColorRGB
 90
      255
102
RTVSPost2010PropOp44
 70
     1
102
RTVSPost2010Prop45
280
     0
102
RTVSPost2010PropOp45
 70
     1
102
RTVSPost2010Prop46
 90
       50
102
RTVSPost2010PropOp46
 70
     1
102
RTVSPost2010Prop47
 90
       50
102
RTVSPost2010PropOp47
 70
     1
102
RTVSPost2010Prop48
 90
       50
102
RTVSPost2010PropOp48
 70
     1
102
RTVSPost2010Prop49
280
     0
102
RTVSPost2010PropOp49
 70
     1
102
RTVSPost2010Prop50
 90
       50
102
RTVSPost2010PropOp50
 70
     1
102
RTVSPost2010Prop51ColorIndex
 90
      256
102
RTVSPost2010Prop51ColorRGB
 90
-16777216
102
RTVSPost2010PropOp51
 70
     0
102
RTVSPost2010Prop52
140
1.0
102
RTVSPost2010PropOp52
 70
     0
102
RTVSPost2010Prop53
 90
        2
102
RTVSPost2010PropOp53
 70
     1
102
RTVSPost2010Prop54
  1
strokes_ogs.tif
102
RTVSPost2010PropOp54
 70
     1
102
RTVSPost2010Prop55
280
     0
102
RTVSPost2010PropOp55
 70
     1
102
RTVSPost2010Prop56
140
1.0
102
RTVSPost2010PropOp56
 70
     1
102
RTVSPost2010Prop57
140
1.0
102
RTVSPost2010PropOp57
 70
     1
102
RTVSPropertyOp0
 70
     1
102
RTVSPropertyOp1
 70
     1
102
RTVSPropertyOp2
 70
     1
102
RTVSPropertyOp3
 70
     1
102
RTVSPropertyOp4
 70
     1
102
RTVSPropertyOp5
 70
     1
102
RTVSPropertyOp6
 70
     1
102
RTVSPropertyOp7
 70
     1
102
RTVSPropertyOp8
 70
     1
102
RTVSPropertyOp9
 70
     1
102
RTVSPropertyOp10
 70
     1
102
RTVSPropertyOp11
 70
     1
102
RTVSPropertyOp12
 70
     1
102
RTVSPropertyOp13
 70
     1
102
RTVSPropertyOp14
 70
     1
102
RTVSPropertyOp15
 70
     1
102
RTVSPropertyOp16
 70
     1
102
RTVSPropertyOp17
 70
     1
102
RTVSPropertyOp18
 70
     1
102
RTVSPropertyOp19
 70
     1
102
RTVSPropertyOp20
 70
     1
102
RTVSPropertyOp21
 70
     1
102
RTVSPropertyOp22
 70
     1
102
RTVSPropertyOp23
 70
     1
102
RTVSPropertyOp24
 70
     1
102
RTVSPropertyOp25
 70
     1
102
RTVSPropertyOp26
 70
     1
102
RTVSPropertyOp27
 70
     1
102
RTVSPropertyOp28
 70
     1
102
RTVSPropertyOp29
 70
     1
102
RTVSPropertyOp30
 70
     1
102
RTVSPropertyOp31
 70
     1
102
RTVSPropertyOp32
 70
     1
102
RTVSPropertyOp33
 70
     1
102
RTVSPropertyOp34
 70
     1
102
RTVSPropertyOp35
 70
     1
102
RTVSPropertyOp36
 70
     1
102
RTVSPropertyOp37
 70
     1
102
RTVSPropertyOp38
 70
     1
102
RTVSPropertyOp39
 70
     1
102
RTVSPropertyOp40
 70
     1
102
RTVSPropertyOp41
 70
     1
102
RTVSPropertyOp42
 70
     1
102
RTVSPropertyOp43
 70
     1
102
RTVSPropertyOp44
 70
     1
102
RTVSPropertyOp45
 70
     1
102
RTVSPropertyOp46
 70
     1
102
RTVSPropertyOp47
 70
     1
102
RTVSPropertyOp48
 70
     1
102
RTVSPropertyOp49
 70
     1
102
RTVSPropertyOp50
 70
     1
102
RTVSPropertyOp51
 70
     0
102
RTVSPropertyOp52
 70
     0
102
RTVSPropertyOp53
 70
     1
102
RTVSPropertyOp54
 70
     1
102
RTVSPropertyOp55
 70
     1
102
RTVSPropertyOp56
 70
     1
102
RTVSPropertyOp57
 70
     1
102
RTVSPropertyOp58
 70
     1
102
RTVSPropertyOp59
 70
     1
102
RTVSPropertyOp60
 70
     1
102
RTVSPropertyOp61
 70
     1
102
RTVSPropertyOp62
 70
     1
  0
XRECORD
  5
8618D
102
{ACAD_REACTORS
330
8618C
102
}
330
8618C
100
AcDbXrecord
280
     1
102
RTVSPost2010Prop28
280
     0
102
RTVSPost2010PropOp28
 70
     1
102
RTVSPost2010Prop29
280
     1
102
RTVSPost2010PropOp29
 70
     1
102
RTVSPost2010Prop30
280
     1
102
RTVSPost2010PropOp30
 70
     1
102
RTVSPost2010Prop31
280
     0
102
RTVSPost2010PropOp31
 70
     1
102
RTVSPost2010Prop32
280
     0
102
RTVSPost2010PropOp32
 70
     1
102
RTVSPost2010Prop33
280
     0
102
RTVSPost2010PropOp33
 70
     1
102
RTVSPost2010Prop34
280
     0
102
RTVSPost2010PropOp34
 70
     1
102
RTVSPost2010Prop35
280
     0
102
RTVSPost2010PropOp35
 70
     1
102
RTVSPost2010Prop36
280
     0
102
RTVSPost2010PropOp36
 70
     1
102
RTVSPost2010Prop37
 90
       50
102
RTVSPost2010PropOp37
 70
     1
102
RTVSPost2010Prop38
140
0.0
102
RTVSPost2010PropOp38
 70
     1
102
RTVSPost2010Prop39
140
1.0
102
RTVSPost2010PropOp39
 70
     1
102
RTVSPost2010Prop40
 90
        0
102
RTVSPost2010PropOp40
 70
     1
102
RTVSPost2010Prop41ColorIndex
 90
       18
102
RTVSPost2010Prop41ColorRGB
 90
-16777216
102
RTVSPost2010PropOp41
 70
     1
102
RTVSPost2010Prop42
 90
       50
102
RTVSPost2010PropOp42
 70
     1
102
RTVSPost2010Prop43
 90
        3
102
RTVSPost2010PropOp43
 70
     1
102
RTVSPost2010Prop44ColorIndex
 90
        5
102
RTVSPost2010Prop44ColorRGB
 90
      255
102
RTVSPost2010PropOp44
 70
     1
102
RTVSPost2010Prop45
280
     0
102
RTVSPost2010PropOp45
 70
     1
102
RTVSPost2010Prop46
 90
       50
102
RTVSPost2010PropOp46
 70
     1
102
RTVSPost2010Prop47
 90
       50
102
RTVSPost2010PropOp47
 70
     1
102
RTVSPost2010Prop48
 90
       50
102
RTVSPost2010PropOp48
 70
     1
102
RTVSPost2010Prop49
280
     0
102
RTVSPost2010PropOp49
 70
     1
102
RTVSPost2010Prop50
 90
       50
102
RTVSPost2010PropOp50
 70
     1
102
RTVSPost2010Prop51ColorIndex
 90
      256
102
RTVSPost2010Prop51ColorRGB
 90
-16777216
102
RTVSPost2010PropOp51
 70
     0
102
RTVSPost2010Prop52
140
1.0
102
RTVSPost2010PropOp52
 70
     0
102
RTVSPost2010Prop53
 90
        2
102
RTVSPost2010PropOp53
 70
     1
102
RTVSPost2010Prop54
  1
strokes_ogs.tif
102
RTVSPost2010PropOp54
 70
     1
102
RTVSPost2010Prop55
280
     0
102
RTVSPost2010PropOp55
 70
     1
102
RTVSPost2010Prop56
140
1.0
102
RTVSPost2010PropOp56
 70
     1
102
RTVSPost2010Prop57
140
1.0
102
RTVSPost2010PropOp57
 70
     1
102
RTVSPropertyOp0
 70
     1
102
RTVSPropertyOp1
 70
     1
102
RTVSPropertyOp2
 70
     1
102
RTVSPropertyOp3
 70
     1
102
RTVSPropertyOp4
 70
     1
102
RTVSPropertyOp5
 70
     1
102
RTVSPropertyOp6
 70
     1
102
RTVSPropertyOp7
 70
     1
102
RTVSPropertyOp8
 70
     1
102
RTVSPropertyOp9
 70
     1
102
RTVSPropertyOp10
 70
     1
102
RTVSPropertyOp11
 70
     1
102
RTVSPropertyOp12
 70
     1
102
RTVSPropertyOp13
 70
     1
102
RTVSPropertyOp14
 70
     1
102
RTVSPropertyOp15
 70
     1
102
RTVSPropertyOp16
 70
     1
102
RTVSPropertyOp17
 70
     1
102
RTVSPropertyOp18
 70
     1
102
RTVSPropertyOp19
 70
     1
102
RTVSPropertyOp20
 70
     1
102
RTVSPropertyOp21
 70
     1
102
RTVSPropertyOp22
 70
     1
102
RTVSPropertyOp23
 70
     1
102
RTVSPropertyOp24
 70
     1
102
RTVSPropertyOp25
 70
     1
102
RTVSPropertyOp26
 70
     1
102
RTVSPropertyOp27
 70
     1
102
RTVSPropertyOp28
 70
     1
102
RTVSPropertyOp29
 70
     1
102
RTVSPropertyOp30
 70
     1
102
RTVSPropertyOp31
 70
     1
102
RTVSPropertyOp32
 70
     1
102
RTVSPropertyOp33
 70
     1
102
RTVSPropertyOp34
 70
     1
102
RTVSPropertyOp35
 70
     1
102
RTVSPropertyOp36
 70
     1
102
RTVSPropertyOp37
 70
     1
102
RTVSPropertyOp38
 70
     1
102
RTVSPropertyOp39
 70
     1
102
RTVSPropertyOp40
 70
     1
102
RTVSPropertyOp41
 70
     1
102
RTVSPropertyOp42
 70
     1
102
RTVSPropertyOp43
 70
     1
102
RTVSPropertyOp44
 70
     1
102
RTVSPropertyOp45
 70
     1
102
RTVSPropertyOp46
 70
     1
102
RTVSPropertyOp47
 70
     1
102
RTVSPropertyOp48
 70
     1
102
RTVSPropertyOp49
 70
     1
102
RTVSPropertyOp50
 70
     1
102
RTVSPropertyOp51
 70
     0
102
RTVSPropertyOp52
 70
     0
102
RTVSPropertyOp53
 70
     1
102
RTVSPropertyOp54
 70
     1
102
RTVSPropertyOp55
 70
     1
102
RTVSPropertyOp56
 70
     1
102
RTVSPropertyOp57
 70
     1
102
RTVSPropertyOp58
 70
     1
102
RTVSPropertyOp59
 70
     1
102
RTVSPropertyOp60
 70
     1
102
RTVSPropertyOp61
 70
     1
102
RTVSPropertyOp62
 70
     1
  0
XRECORD
  5
86181
102
{ACAD_REACTORS
330
86180
102
}
330
86180
100
AcDbXrecord
280
     1
102
RTVSPost2010Prop28
280
     0
102
RTVSPost2010PropOp28
 70
     1
102
RTVSPost2010Prop29
280
     1
102
RTVSPost2010PropOp29
 70
     1
102
RTVSPost2010Prop30
280
     1
102
RTVSPost2010PropOp30
 70
     1
102
RTVSPost2010Prop31
280
     0
102
RTVSPost2010PropOp31
 70
     1
102
RTVSPost2010Prop32
280
     0
102
RTVSPost2010PropOp32
 70
     1
102
RTVSPost2010Prop33
280
     0
102
RTVSPost2010PropOp33
 70
     1
102
RTVSPost2010Prop34
280
     0
102
RTVSPost2010PropOp34
 70
     1
102
RTVSPost2010Prop35
280
     0
102
RTVSPost2010PropOp35
 70
     1
102
RTVSPost2010Prop36
280
     0
102
RTVSPost2010PropOp36
 70
     1
102
RTVSPost2010Prop37
 90
       50
102
RTVSPost2010PropOp37
 70
     1
102
RTVSPost2010Prop38
140
0.0
102
RTVSPost2010PropOp38
 70
     1
102
RTVSPost2010Prop39
140
1.0
102
RTVSPost2010PropOp39
 70
     1
102
RTVSPost2010Prop40
 90
        0
102
RTVSPost2010PropOp40
 70
     1
102
RTVSPost2010Prop41ColorIndex
 90
       18
102
RTVSPost2010Prop41ColorRGB
 90
-16777216
102
RTVSPost2010PropOp41
 70
     1
102
RTVSPost2010Prop42
 90
       50
102
RTVSPost2010PropOp42
 70
     1
102
RTVSPost2010Prop43
 90
        3
102
RTVSPost2010PropOp43
 70
     1
102
RTVSPost2010Prop44ColorIndex
 90
        5
102
RTVSPost2010Prop44ColorRGB
 90
      255
102
RTVSPost2010PropOp44
 70
     1
102
RTVSPost2010Prop45
280
     0
102
RTVSPost2010PropOp45
 70
     1
102
RTVSPost2010Prop46
 90
       50
102
RTVSPost2010PropOp46
 70
     1
102
RTVSPost2010Prop47
 90
       50
102
RTVSPost2010PropOp47
 70
     1
102
RTVSPost2010Prop48
 90
       50
102
RTVSPost2010PropOp48
 70
     1
102
RTVSPost2010Prop49
280
     0
102
RTVSPost2010PropOp49
 70
     1
102
RTVSPost2010Prop50
 90
       50
102
RTVSPost2010PropOp50
 70
     1
102
RTVSPost2010Prop51ColorIndex
 90
      256
102
RTVSPost2010Prop51ColorRGB
 90
-16777216
102
RTVSPost2010PropOp51
 70
     0
102
RTVSPost2010Prop52
140
1.0
102
RTVSPost2010PropOp52
 70
     0
102
RTVSPost2010Prop53
 90
        2
102
RTVSPost2010PropOp53
 70
     1
102
RTVSPost2010Prop54
  1
strokes_ogs.tif
102
RTVSPost2010PropOp54
 70
     1
102
RTVSPost2010Prop55
280
     0
102
RTVSPost2010PropOp55
 70
     1
102
RTVSPost2010Prop56
140
1.0
102
RTVSPost2010PropOp56
 70
     1
102
RTVSPost2010Prop57
140
1.0
102
RTVSPost2010PropOp57
 70
     1
102
RTVSPropertyOp0
 70
     1
102
RTVSPropertyOp1
 70
     1
102
RTVSPropertyOp2
 70
     1
102
RTVSPropertyOp3
 70
     1
102
RTVSPropertyOp4
 70
     1
102
RTVSPropertyOp5
 70
     1
102
RTVSPropertyOp6
 70
     1
102
RTVSPropertyOp7
 70
     1
102
RTVSPropertyOp8
 70
     1
102
RTVSPropertyOp9
 70
     1
102
RTVSPropertyOp10
 70
     1
102
RTVSPropertyOp11
 70
     1
102
RTVSPropertyOp12
 70
     1
102
RTVSPropertyOp13
 70
     1
102
RTVSPropertyOp14
 70
     1
102
RTVSPropertyOp15
 70
     1
102
RTVSPropertyOp16
 70
     1
102
RTVSPropertyOp17
 70
     1
102
RTVSPropertyOp18
 70
     1
102
RTVSPropertyOp19
 70
     1
102
RTVSPropertyOp20
 70
     1
102
RTVSPropertyOp21
 70
     1
102
RTVSPropertyOp22
 70
     1
102
RTVSPropertyOp23
 70
     1
102
RTVSPropertyOp24
 70
     1
102
RTVSPropertyOp25
 70
     1
102
RTVSPropertyOp26
 70
     1
102
RTVSPropertyOp27
 70
     1
102
RTVSPropertyOp28
 70
     1
102
RTVSPropertyOp29
 70
     1
102
RTVSPropertyOp30
 70
     1
102
RTVSPropertyOp31
 70
     1
102
RTVSPropertyOp32
 70
     1
102
RTVSPropertyOp33
 70
     1
102
RTVSPropertyOp34
 70
     1
102
RTVSPropertyOp35
 70
     1
102
RTVSPropertyOp36
 70
     1
102
RTVSPropertyOp37
 70
     1
102
RTVSPropertyOp38
 70
     1
102
RTVSPropertyOp39
 70
     1
102
RTVSPropertyOp40
 70
     1
102
RTVSPropertyOp41
 70
     1
102
RTVSPropertyOp42
 70
     1
102
RTVSPropertyOp43
 70
     1
102
RTVSPropertyOp44
 70
     1
102
RTVSPropertyOp45
 70
     1
102
RTVSPropertyOp46
 70
     1
102
RTVSPropertyOp47
 70
     1
102
RTVSPropertyOp48
 70
     1
102
RTVSPropertyOp49
 70
     1
102
RTVSPropertyOp50
 70
     1
102
RTVSPropertyOp51
 70
     0
102
RTVSPropertyOp52
 70
     0
102
RTVSPropertyOp53
 70
     1
102
RTVSPropertyOp54
 70
     1
102
RTVSPropertyOp55
 70
     1
102
RTVSPropertyOp56
 70
     1
102
RTVSPropertyOp57
 70
     1
102
RTVSPropertyOp58
 70
     1
102
RTVSPropertyOp59
 70
     1
102
RTVSPropertyOp60
 70
     1
102
RTVSPropertyOp61
 70
     1
102
RTVSPropertyOp62
 70
     1
  0
XRECORD
  5
86199
102
{ACAD_REACTORS
330
86198
102
}
330
86198
100
AcDbXrecord
280
     1
102
RTVSPost2010Prop28
280
     0
102
RTVSPost2010PropOp28
 70
     1
102
RTVSPost2010Prop29
280
     1
102
RTVSPost2010PropOp29
 70
     1
102
RTVSPost2010Prop30
280
     1
102
RTVSPost2010PropOp30
 70
     1
102
RTVSPost2010Prop31
280
     0
102
RTVSPost2010PropOp31
 70
     1
102
RTVSPost2010Prop32
280
     0
102
RTVSPost2010PropOp32
 70
     1
102
RTVSPost2010Prop33
280
     0
102
RTVSPost2010PropOp33
 70
     1
102
RTVSPost2010Prop34
280
     0
102
RTVSPost2010PropOp34
 70
     1
102
RTVSPost2010Prop35
280
     0
102
RTVSPost2010PropOp35
 70
     1
102
RTVSPost2010Prop36
280
     0
102
RTVSPost2010PropOp36
 70
     1
102
RTVSPost2010Prop37
 90
       50
102
RTVSPost2010PropOp37
 70
     1
102
RTVSPost2010Prop38
140
0.0
102
RTVSPost2010PropOp38
 70
     1
102
RTVSPost2010Prop39
140
1.0
102
RTVSPost2010PropOp39
 70
     1
102
RTVSPost2010Prop40
 90
        0
102
RTVSPost2010PropOp40
 70
     1
102
RTVSPost2010Prop41ColorIndex
 90
       18
102
RTVSPost2010Prop41ColorRGB
 90
-16777216
102
RTVSPost2010PropOp41
 70
     1
102
RTVSPost2010Prop42
 90
       50
102
RTVSPost2010PropOp42
 70
     1
102
RTVSPost2010Prop43
 90
        3
102
RTVSPost2010PropOp43
 70
     1
102
RTVSPost2010Prop44ColorIndex
 90
        5
102
RTVSPost2010Prop44ColorRGB
 90
      255
102
RTVSPost2010PropOp44
 70
     1
102
RTVSPost2010Prop45
280
     0
102
RTVSPost2010PropOp45
 70
     1
102
RTVSPost2010Prop46
 90
       50
102
RTVSPost2010PropOp46
 70
     1
102
RTVSPost2010Prop47
 90
       50
102
RTVSPost2010PropOp47
 70
     1
102
RTVSPost2010Prop48
 90
       50
102
RTVSPost2010PropOp48
 70
     1
102
RTVSPost2010Prop49
280
     0
102
RTVSPost2010PropOp49
 70
     1
102
RTVSPost2010Prop50
 90
       50
102
RTVSPost2010PropOp50
 70
     1
102
RTVSPost2010Prop51ColorIndex
 90
      256
102
RTVSPost2010Prop51ColorRGB
 90
-16777216
102
RTVSPost2010PropOp51
 70
     0
102
RTVSPost2010Prop52
140
1.0
102
RTVSPost2010PropOp52
 70
     0
102
RTVSPost2010Prop53
 90
        2
102
RTVSPost2010PropOp53
 70
     1
102
RTVSPost2010Prop54
  1
strokes_ogs.tif
102
RTVSPost2010PropOp54
 70
     1
102
RTVSPost2010Prop55
280
     0
102
RTVSPost2010PropOp55
 70
     1
102
RTVSPost2010Prop56
140
1.0
102
RTVSPost2010PropOp56
 70
     1
102
RTVSPost2010Prop57
140
1.0
102
RTVSPost2010PropOp57
 70
     1
102
RTVSPropertyOp0
 70
     1
102
RTVSPropertyOp1
 70
     1
102
RTVSPropertyOp2
 70
     1
102
RTVSPropertyOp3
 70
     1
102
RTVSPropertyOp4
 70
     1
102
RTVSPropertyOp5
 70
     1
102
RTVSPropertyOp6
 70
     1
102
RTVSPropertyOp7
 70
     1
102
RTVSPropertyOp8
 70
     1
102
RTVSPropertyOp9
 70
     1
102
RTVSPropertyOp10
 70
     1
102
RTVSPropertyOp11
 70
     1
102
RTVSPropertyOp12
 70
     1
102
RTVSPropertyOp13
 70
     1
102
RTVSPropertyOp14
 70
     1
102
RTVSPropertyOp15
 70
     1
102
RTVSPropertyOp16
 70
     1
102
RTVSPropertyOp17
 70
     1
102
RTVSPropertyOp18
 70
     1
102
RTVSPropertyOp19
 70
     1
102
RTVSPropertyOp20
 70
     1
102
RTVSPropertyOp21
 70
     1
102
RTVSPropertyOp22
 70
     1
102
RTVSPropertyOp23
 70
     1
102
RTVSPropertyOp24
 70
     1
102
RTVSPropertyOp25
 70
     1
102
RTVSPropertyOp26
 70
     1
102
RTVSPropertyOp27
 70
     1
102
RTVSPropertyOp28
 70
     1
102
RTVSPropertyOp29
 70
     1
102
RTVSPropertyOp30
 70
     1
102
RTVSPropertyOp31
 70
     1
102
RTVSPropertyOp32
 70
     1
102
RTVSPropertyOp33
 70
     1
102
RTVSPropertyOp34
 70
     1
102
RTVSPropertyOp35
 70
     1
102
RTVSPropertyOp36
 70
     1
102
RTVSPropertyOp37
 70
     1
102
RTVSPropertyOp38
 70
     1
102
RTVSPropertyOp39
 70
     1
102
RTVSPropertyOp40
 70
     1
102
RTVSPropertyOp41
 70
     1
102
RTVSPropertyOp42
 70
     1
102
RTVSPropertyOp43
 70
     1
102
RTVSPropertyOp44
 70
     1
102
RTVSPropertyOp45
 70
     1
102
RTVSPropertyOp46
 70
     1
102
RTVSPropertyOp47
 70
     1
102
RTVSPropertyOp48
 70
     1
102
RTVSPropertyOp49
 70
     1
102
RTVSPropertyOp50
 70
     1
102
RTVSPropertyOp51
 70
     0
102
RTVSPropertyOp52
 70
     0
102
RTVSPropertyOp53
 70
     1
102
RTVSPropertyOp54
 70
     1
102
RTVSPropertyOp55
 70
     1
102
RTVSPropertyOp56
 70
     1
102
RTVSPropertyOp57
 70
     1
102
RTVSPropertyOp58
 70
     1
102
RTVSPropertyOp59
 70
     1
102
RTVSPropertyOp60
 70
     1
102
RTVSPropertyOp61
 70
     1
102
RTVSPropertyOp62
 70
     1
  0
ENDSEC
  0
EOF
