  0
SECTION
  2
HEADER
  9
$ACADVER
  1
AC1027
  9
$ACADMAINTVER
 70
   125
  9
$DWGCODEPAGE
  3
ANSI_932
  9
$LASTSAVEDBY
  1
NN40375
  9
$REQUIREDVERSIONS
160
                 0
  9
$INSBASE
 10
0.0
 20
0.0
 30
0.0
  9
$EXTMIN
 10
-855.000000000011
 20
-320.0
 30
0.0
  9
$EXTMAX
 10
1272.949725941987
 20
1319.599307268768
 30
0.0
  9
$LIMMIN
 10
-1183.738028243999
 20
-482.577477193845
  9
$LIMMAX
 10
1198.257431087698
 20
821.9562918286355
  9
$ORTHOMODE
 70
     0
  9
$REGENMODE
 70
     1
  9
$FILLMODE
 70
     1
  9
$QTEXTMODE
 70
     0
  9
$MIRRTEXT
 70
     0
  9
$LTSCALE
 40
100.0
  9
$ATTMODE
 70
     1
  9
$TEXTSIZE
 40
64.0
  9
$TRACEWID
 40
0.05
  9
$TEXTSTYLE
  7
STANDARD
  9
$CLAYER
  8
NOTE
  9
$CELTYPE
  6
BYLAYER
  9
$CECOLOR
 62
   256
  9
$CELTSCALE
 40
1.0
  9
$DISPSILH
 70
     0
  9
$DIMSCALE
 40
1.0
  9
$DIMASZ
 40
10.0
  9
$DIMEXO
 40
10.0
  9
$DIMDLI
 40
100.0
  9
$DIMRND
 40
0.0
  9
$DIMDLE
 40
0.0
  9
$DIMEXE
 40
10.0
  9
$DIMTP
 40
0.0
  9
$DIMTM
 40
0.0
  9
$DIMTXT
 40
45.0
  9
$DIMCEN
 40
0.082
  9
$DIMTSZ
 40
0.0
  9
$DIMTOL
 70
     0
  9
$DIMLIM
 70
     0
  9
$DIMTIH
 70
     0
  9
$DIMTOH
 70
     0
  9
$DIMSE1
 70
     0
  9
$DIMSE2
 70
     0
  9
$DIMTAD
 70
     1
  9
$DIMZIN
 70
     8
  9
$DIMBLK
  1
ORIGIN
  9
$DIMASO
 70
     1
  9
$DIMSHO
 70
     0
  9
$DIMPOST
  1

  9
$DIMAPOST
  1

  9
$DIMALT
 70
     0
  9
$DIMALTD
 70
     2
  9
$DIMALTF
 40
25.4
  9
$DIMLFAC
 40
1.0
  9
$DIMTOFL
 70
     1
  9
$DIMTVP
 40
0.0
  9
$DIMTIX
 70
     0
  9
$DIMSOXD
 70
     0
  9
$DIMSAH
 70
     0
  9
$DIMBLK1
  1

  9
$DIMBLK2
  1

  9
$DIMSTYLE
  2
STANDARD
  9
$DIMCLRD
 70
   256
  9
$DIMCLRE
 70
   256
  9
$DIMCLRT
 70
   256
  9
$DIMTFAC
 40
1.0
  9
$DIMGAP
 40
10.0
  9
$DIMJUST
 70
     0
  9
$DIMSD1
 70
     0
  9
$DIMSD2
 70
     0
  9
$DIMTOLJ
 70
     1
  9
$DIMTZIN
 70
     0
  9
$DIMALTZ
 70
     0
  9
$DIMALTTZ
 70
     0
  9
$DIMUPT
 70
     0
  9
$DIMDEC
 70
     2
  9
$DIMTDEC
 70
     2
  9
$DIMALTU
 70
     2
  9
$DIMALTTD
 70
     2
  9
$DIMTXSTY
  7
STANDARD
  9
$DIMAUNIT
 70
     0
  9
$DIMADEC
 70
     0
  9
$DIMALTRND
 40
0.0
  9
$DIMAZIN
 70
     0
  9
$DIMDSEP
 70
    46
  9
$DIMATFIT
 70
     3
  9
$DIMFRAC
 70
     0
  9
$DIMLDRBLK
  1
Open30
  9
$DIMLUNIT
 70
     2
  9
$DIMLWD
 70
    -1
  9
$DIMLWE
 70
    -2
  9
$DIMTMOVE
 70
     0
  9
$DIMFXL
 40
1.0
  9
$DIMFXLON
 70
     0
  9
$DIMJOGANG
 40
0.7853981633974483
  9
$DIMTFILL
 70
     0
  9
$DIMTFILLCLR
 70
     0
  9
$DIMARCSYM
 70
     0
  9
$DIMLTYPE
  6
BYLAYER
  9
$DIMLTEX1
  6

  9
$DIMLTEX2
  6

  9
$DIMTXTDIRECTION
 70
     0
  9
$LUNITS
 70
     2
  9
$LUPREC
 70
     4
  9
$SKETCHINC
 40
0.1
  9
$FILLETRAD
 40
2.0
  9
$AUNITS
 70
     1
  9
$AUPREC
 70
     3
  9
$MENU
  1
ACAD
  9
$ELEVATION
 40
0.0
  9
$PELEVATION
 40
0.0
  9
$THICKNESS
 40
0.0
  9
$LIMCHECK
 70
     0
  9
$CHAMFERA
 40
0.0
  9
$CHAMFERB
 40
0.0
  9
$CHAMFERC
 40
0.0
  9
$CHAMFERD
 40
0.0
  9
$SKPOLY
 70
     0
  9
$TDCREATE
 40
2450330.393194445
  9
$TDUCREATE
 40
2450330.018205984
  9
$TDUPDATE
 40
2460264.657905093
  9
$TDUUPDATE
 40
2460264.282905093
  9
$TDINDWG
 40
5.4576427431
  9
$TDUSRTIMER
 40
5.4576406019
  9
$USRTIMER
 70
     1
  9
$ANGBASE
 50
0.0
  9
$ANGDIR
 70
     0
  9
$PDMODE
 70
     3
  9
$PDSIZE
 40
-2.0
  9
$PLINEWID
 40
0.0
  9
$SPLFRAME
 70
     0
  9
$SPLINETYPE
 70
     6
  9
$SPLINESEGS
 70
     8
  9
$HANDSEED
  5
DCE7B
  9
$SURFTAB1
 70
     6
  9
$SURFTAB2
 70
     6
  9
$SURFTYPE
 70
     6
  9
$SURFU
 70
     6
  9
$SURFV
 70
     6
  9
$UCSBASE
  2

  9
$UCSNAME
  2

  9
$UCSORG
 10
0.0
 20
0.0
 30
0.0
  9
$UCSXDIR
 10
1.0
 20
0.0
 30
0.0
  9
$UCSYDIR
 10
0.0
 20
1.0
 30
0.0
  9
$UCSORTHOREF
  2

  9
$UCSORTHOVIEW
 70
     0
  9
$UCSORGTOP
 10
0.0
 20
0.0
 30
0.0
  9
$UCSORGBOTTOM
 10
0.0
 20
0.0
 30
0.0
  9
$UCSORGLEFT
 10
0.0
 20
0.0
 30
0.0
  9
$UCSORGRIGHT
 10
0.0
 20
0.0
 30
0.0
  9
$UCSORGFRONT
 10
0.0
 20
0.0
 30
0.0
  9
$UCSORGBACK
 10
0.0
 20
0.0
 30
0.0
  9
$PUCSBASE
  2

  9
$PUCSNAME
  2

  9
$PUCSORG
 10
0.0
 20
0.0
 30
0.0
  9
$PUCSXDIR
 10
1.0
 20
0.0
 30
0.0
  9
$PUCSYDIR
 10
0.0
 20
1.0
 30
0.0
  9
$PUCSORTHOREF
  2

  9
$PUCSORTHOVIEW
 70
     0
  9
$PUCSORGTOP
 10
0.0
 20
0.0
 30
0.0
  9
$PUCSORGBOTTOM
 10
0.0
 20
0.0
 30
0.0
  9
$PUCSORGLEFT
 10
0.0
 20
0.0
 30
0.0
  9
$PUCSORGRIGHT
 10
0.0
 20
0.0
 30
0.0
  9
$PUCSORGFRONT
 10
0.0
 20
0.0
 30
0.0
  9
$PUCSORGBACK
 10
0.0
 20
0.0
 30
0.0
  9
$USERI1
 70
     0
  9
$USERI2
 70
     0
  9
$USERI3
 70
     0
  9
$USERI4
 70
     0
  9
$USERI5
 70
     0
  9
$USERR1
 40
20.0
  9
$USERR2
 40
0.0
  9
$USERR3
 40
0.0
  9
$USERR4
 40
0.0
  9
$USERR5
 40
0.0
  9
$WORLDVIEW
 70
     1
  9
$SHADEDGE
 70
     3
  9
$SHADEDIF
 70
    70
  9
$TILEMODE
 70
     1
  9
$MAXACTVP
 70
    64
  9
$PINSBASE
 10
0.0
 20
0.0
 30
0.0
  9
$PLIMCHECK
 70
     0
  9
$PEXTMIN
 10
1.000000000000000E+20
 20
1.000000000000000E+20
 30
1.000000000000000E+20
  9
$PEXTMAX
 10
-1.000000000000000E+20
 20
-1.000000000000000E+20
 30
-1.000000000000000E+20
  9
$PLIMMIN
 10
0.0
 20
0.0
  9
$PLIMMAX
 10
12.0
 20
9.0
  9
$UNITMODE
 70
     0
  9
$VISRETAIN
 70
     1
  9
$PLINEGEN
 70
     0
  9
$PSLTSCALE
 70
     1
  9
$TREEDEPTH
 70
  3020
  9
$CMLSTYLE
  2
STANDARD
  9
$CMLJUST
 70
     0
  9
$CMLSCALE
 40
1.0
  9
$PROXYGRAPHICS
 70
     1
  9
$MEASUREMENT
 70
     0
  9
$CELWEIGHT
370
    -1
  9
$ENDCAPS
280
     0
  9
$JOINSTYLE
280
     0
  9
$LWDISPLAY
290
     0
  9
$INSUNITS
 70
     0
  9
$HYPERLINKBASE
  1

  9
$STYLESHEET
  1
MONOCHROME.CTB
  9
$XEDIT
290
     1
  9
$CEPSNTYPE
380
     0
  9
$PSTYLEMODE
290
     1
  9
$FINGERPRINTGUID
  2
{97DA8DB6-C4F0-4C3D-ABEB-53C4FBBC7EFF}
  9
$VERSIONGUID
  2
{91140672-C889-D447-8C9B-451098321909}
  9
$EXTNAMES
290
     1
  9
$PSVPSCALE
 40
0.0
  9
$OLESTARTUP
290
     0
  9
$SORTENTS
280
   127
  9
$INDEXCTL
280
     0
  9
$HIDETEXT
280
     0
  9
$XCLIPFRAME
280
     2
  9
$HALOGAP
280
     0
  9
$OBSCOLOR
 70
   257
  9
$OBSLTYPE
280
     0
  9
$INTERSECTIONDISPLAY
280
     0
  9
$INTERSECTIONCOLOR
 70
   257
  9
$DIMASSOC
280
     1
  9
$PROJECTNAME
  1

  9
$CAMERADISPLAY
290
     0
  9
$LENSLENGTH
 40
50.0
  9
$CAMERAHEIGHT
 40
0.0
  9
$STEPSPERSEC
 40
2.0
  9
$STEPSIZE
 40
6.0
  9
$3DDWFPREC
 40
2.0
  9
$PSOLWIDTH
 40
0.25
  9
$PSOLHEIGHT
 40
4.0
  9
$LOFTANG1
 40
1.570795999999999
  9
$LOFTANG2
 40
1.570795999999999
  9
$LOFTMAG1
 40
0.0
  9
$LOFTMAG2
 40
0.0
  9
$LOFTPARAM
 70
     7
  9
$LOFTNORMALS
280
     1
  9
$LATITUDE
 40
37.795
  9
$LONGITUDE
 40
-122.394
  9
$NORTHDIRECTION
 40
0.0
  9
$TIMEZONE
 70
 -8000
  9
$LIGHTGLYPHDISPLAY
280
     1
  9
$TILEMODELIGHTSYNCH
280
     1
  9
$CMATERIAL
347
CDFED
  9
$SOLIDHIST
280
     0
  9
$SHOWHIST
280
     1
  9
$DWFFRAME
280
     2
  9
$DGNFRAME
280
     0
  9
$REALWORLDSCALE
290
     1
  9
$INTERFERECOLOR
 62
     1
  9
$INTERFEREOBJVS
345
CE00F
  9
$INTERFEREVPVS
346
CE00C
  9
$CSHADOW
280
     0
  9
$SHADOWPLANELOCATION
 40
0.0
  0
ENDSEC
  0
SECTION
  2
CLASSES
  0
CLASS
  1
ACDBDICTIONARYWDFLT
  2
AcDbDictionaryWithDefault
  3
ObjectDBX Classes
 90
        0
 91
        1
280
     0
281
     0
  0
CLASS
  1
MATERIAL
  2
AcDbMaterial
  3
ObjectDBX Classes
 90
     1153
 91
        3
280
     0
281
     0
  0
CLASS
  1
VISUALSTYLE
  2
AcDbVisualStyle
  3
ObjectDBX Classes
 90
     4095
 91
       24
280
     0
281
     0
  0
CLASS
  1
TABLESTYLE
  2
AcDbTableStyle
  3
ObjectDBX Classes
 90
     4095
 91
        1
280
     0
281
     0
  0
CLASS
  1
SCALE
  2
AcDbScale
  3
ObjectDBX Classes
 90
     1153
 91
       17
280
     0
281
     0
  0
CLASS
  1
MLEADERSTYLE
  2
AcDbMLeaderStyle
  3
ACDB_MLEADERSTYLE_CLASS
 90
     4095
 91
        1
280
     0
281
     0
  0
CLASS
  1
ACDBSECTIONVIEWSTYLE
  2
AcDbSectionViewStyle
  3
ObjectDBX Classes
 90
     1025
 91
        2
280
     0
281
     0
  0
CLASS
  1
ACDBDETAILVIEWSTYLE
  2
AcDbDetailViewStyle
  3
ObjectDBX Classes
 90
     1025
 91
        2
280
     0
281
     0
  0
CLASS
  1
DICTIONARYVAR
  2
AcDbDictionaryVar
  3
ObjectDBX Classes
 90
        0
 91
       15
280
     0
281
     0
  0
CLASS
  1
SORTENTSTABLE
  2
AcDbSortentsTable
  3
ObjectDBX Classes
 90
        0
 91
        1
280
     0
281
     0
  0
CLASS
  1
CELLSTYLEMAP
  2
AcDbCellStyleMap
  3
ObjectDBX Classes
 90
     1152
 91
        2
280
     0
281
     0
  0
CLASS
  1
MULTILEADER
  2
AcDbMLeader
  3
ACDB_MLEADER_CLASS
 90
     1025
 91
        0
280
     0
281
     1
  0
ENDSEC
  0
SECTION
  2
TABLES
  0
TABLE
  2
VPORT
  5
8
330
0
100
AcDbSymbolTable
 70
     1
1001
ACAD
1000
DbSaveVer
1071
      224
  0
VPORT
  5
CDFC4
330
8
100
AcDbSymbolTableRecord
100
AcDbViewportTableRecord
  2
*ACTIVE
 70
     0
 10
0.0
 20
0.0
 11
1.0
 21
1.0
 12
0.1675793131502701
 22
385.9771644473485
 13
0.0
 23
0.0
 14
50.0
 24
50.0
 15
100.0
 25
100.0
 16
0.0
 26
0.0
 36
1.0
 17
0.0
 27
0.0
 37
0.0
 40
847.2156356888936
 41
1.206025267249757
 42
50.0
 43
0.0
 44
0.0
 50
0.0
 51
0.0
 71
     0
 72
   500
 73
     1
 74
     0
 75
     0
 76
     0
 77
     0
 78
     0
281
     0
 65
     1
110
0.0
120
0.0
130
0.0
111
1.0
121
0.0
131
0.0
112
0.0
122
1.0
132
0.0
 79
     0
146
0.0
348
CE00B
 60
     3
 61
     5
292
     1
282
     1
141
0.0
142
0.0
 63
   250
421
  3355443
1001
ACAD_NAV_VCDISPLAY
1070
     3
  0
ENDTAB
  0
TABLE
  2
LTYPE
  5
5
330
0
100
AcDbSymbolTable
 70
     3
  0
LTYPE
  5
13
330
5
100
AcDbSymbolTableRecord
100
AcDbLinetypeTableRecord
  2
BYBLOCK
 70
     0
  3

 72
    65
 73
     0
 40
0.0
  0
LTYPE
  5
14
330
5
100
AcDbSymbolTableRecord
100
AcDbLinetypeTableRecord
  2
BYLAYER
 70
     0
  3

 72
    65
 73
     0
 40
0.0
  0
LTYPE
  5
15
330
5
100
AcDbSymbolTableRecord
100
AcDbLinetypeTableRecord
  2
CONTINUOUS
 70
     0
  3
実線
 72
    65
 73
     0
 40
0.0
  0
LTYPE
  5
889DC
330
5
100
AcDbSymbolTableRecord
100
AcDbLinetypeTableRecord
  2
PHANTOM
 70
     0
  3
_____ _ _ _____ _ _ _____ _ _ _____
 72
    65
 73
     6
 40
0.8
 49
0.45
 74
     0
 49
-0.05
 74
     0
 49
0.1
 74
     0
 49
-0.05
 74
     0
 49
0.1
 74
     0
 49
-0.05
 74
     0
  0
LTYPE
  5
D1A57
330
5
100
AcDbSymbolTableRecord
100
AcDbLinetypeTableRecord
  2
CENTER
 70
     0
  3
____ _ ____ _ ____ _ ____ _ ____ _ ____ _ ____
 72
    65
 73
     4
 40
0.6
 49
0.375
 74
     0
 49
-0.075
 74
     0
 49
0.075
 74
     0
 49
-0.075
 74
     0
  0
ENDTAB
  0
TABLE
  2
LAYER
  5
2
102
{ACAD_XDICTIONARY
360
CE08E
102
}
330
0
100
AcDbSymbolTable
 70
    11
  0
LAYER
  5
10
102
{ACAD_XDICTIONARY
360
CE03C
102
}
330
2
100
AcDbSymbolTableRecord
100
AcDbLayerTableRecord
  2
0
 70
     0
 62
     7
  6
CONTINUOUS
370
    -3
390
F
347
CDFFD
348
0
  0
LAYER
  5
22
102
{ACAD_XDICTIONARY
360
CE03E
102
}
330
2
100
AcDbSymbolTableRecord
100
AcDbLayerTableRecord
  2
SIZE
 70
     0
 62
    30
  6
CONTINUOUS
370
    -3
390
F
347
CDFFD
348
0
  0
LAYER
  5
31
102
{ACAD_XDICTIONARY
360
CE040
102
}
330
2
100
AcDbSymbolTableRecord
100
AcDbLayerTableRecord
  2
DETAIL
 70
     0
 62
     5
  6
CONTINUOUS
370
    -3
390
F
347
CDFFD
348
0
  0
LAYER
  5
32
102
{ACAD_XDICTIONARY
360
CE042
102
}
330
2
100
AcDbSymbolTableRecord
100
AcDbLayerTableRecord
  2
OUTLINE
 70
     0
 62
     3
  6
CONTINUOUS
370
    -3
390
F
347
CDFFD
348
0
  0
LAYER
  5
33
102
{ACAD_XDICTIONARY
360
CE044
102
}
330
2
100
AcDbSymbolTableRecord
100
AcDbLayerTableRecord
  2
BASIS
 70
     0
 62
     6
  6
CENTER
370
    -3
390
F
347
CDFFD
348
0
  0
LAYER
  5
34
102
{ACAD_XDICTIONARY
360
CE046
102
}
330
2
100
AcDbSymbolTableRecord
100
AcDbLayerTableRecord
  2
NOTE
 70
     0
 62
     4
  6
CONTINUOUS
370
    -3
390
F
347
CDFFD
348
0
  0
LAYER
  5
35
102
{ACAD_XDICTIONARY
360
CE048
102
}
330
2
100
AcDbSymbolTableRecord
100
AcDbLayerTableRecord
  2
ARRANGE
 70
     0
 62
     1
  6
CONTINUOUS
370
    -3
390
F
347
CDFFD
348
0
  0
LAYER
  5
37
102
{ACAD_XDICTIONARY
360
CE04A
102
}
330
2
100
AcDbSymbolTableRecord
100
AcDbLayerTableRecord
  2
ETC
 70
     0
 62
    61
  6
CONTINUOUS
370
    -3
390
F
347
CDFFD
348
0
  0
LAYER
  5
3A
330
2
100
AcDbSymbolTableRecord
100
AcDbLayerTableRecord
  2
DEFPOINTS
 70
     0
 62
     7
  6
CONTINUOUS
290
     0
370
    -3
390
F
347
CDFFD
348
0
  0
LAYER
  5
D54F1
330
2
100
AcDbSymbolTableRecord
100
AcDbLayerTableRecord
  2
SERVICE_SPACE
 70
     0
 62
     2
  6
PHANTOM
370
    18
390
F
347
CDFFD
348
0
  0
LAYER
  5
DC4EF
102
{ACAD_XDICTIONARY
360
DC4F0
102
}
330
2
100
AcDbSymbolTableRecord
100
AcDbLayerTableRecord
  2
FIX
 70
     0
 62
    11
  6
CONTINUOUS
370
    -3
390
F
347
CDFFD
348
0
  0
ENDTAB
  0
TABLE
  2
STYLE
  5
3
330
0
100
AcDbSymbolTable
 70
     1
  0
STYLE
  5
11
330
3
100
AcDbSymbolTableRecord
100
AcDbTextStyleTableRecord
  2
STANDARD
 70
     0
 40
0.0
 41
1.0
 50
0.0
 71
     0
 42
64.0
  3
SIMPLEX.shx
  4
extfont.shx
  0
ENDTAB
  0
TABLE
  2
VIEW
  5
6
330
0
100
AcDbSymbolTable
 70
     1
  0
VIEW
  5
3C
330
6
100
AcDbSymbolTableRecord
100
AcDbViewTableRecord
  2
ALL
 70
     0
 40
4282.62
 10
0.0
 20
41.30990399999999
 41
5940.0
 11
0.0
 21
0.0
 31
1.0
 12
0.0
 22
0.0
 32
0.0
 42
50.0
 43
0.0
 44
0.0
 50
0.0
 71
     0
281
     0
 72
     0
 73
     0
348
CE00B
  0
ENDTAB
  0
TABLE
  2
UCS
  5
7
330
0
100
AcDbSymbolTable
 70
     0
  0
ENDTAB
  0
TABLE
  2
APPID
  5
9
330
0
100
AcDbSymbolTable
 70
    11
  0
APPID
  5
12
330
9
100
AcDbSymbolTableRecord
100
AcDbRegAppTableRecord
  2
ACAD
 70
     0
  0
APPID
  5
CE04C
330
9
100
AcDbSymbolTableRecord
100
AcDbRegAppTableRecord
  2
ACAD_PSEXT
 70
     0
  0
APPID
  5
CE068
330
9
100
AcDbSymbolTableRecord
100
AcDbRegAppTableRecord
  2
ACAD_NAV_VCDISPLAY
 70
     0
  0
APPID
  5
CF18C
330
9
100
AcDbSymbolTableRecord
100
AcDbRegAppTableRecord
  2
ACAD_MLEADERVER
 70
     0
  0
APPID
  5
CF3D9
330
9
100
AcDbSymbolTableRecord
100
AcDbRegAppTableRecord
  2
ACAD_EXEMPT_FROM_CAD_STANDARDS
 70
     0
  0
APPID
  5
D172E
330
9
100
AcDbSymbolTableRecord
100
AcDbRegAppTableRecord
  2
AcadAnnoMonitorAlertIconDisabled
 70
     0
  0
APPID
  5
D82D8
330
9
100
AcDbSymbolTableRecord
100
AcDbRegAppTableRecord
  2
ACAD_DSTYLE_DIMJAG
 70
     0
  0
APPID
  5
D82D9
330
9
100
AcDbSymbolTableRecord
100
AcDbRegAppTableRecord
  2
ACAD_DSTYLE_DIMTALN
 70
     0
  0
APPID
  5
D8353
330
9
100
AcDbSymbolTableRecord
100
AcDbRegAppTableRecord
  2
ACAD_DSTYLE_DIMRADIAL_EXTENSION
 70
     0
  0
APPID
  5
DA45F
330
9
100
AcDbSymbolTableRecord
100
AcDbRegAppTableRecord
  2
AcadAnnoPO
 70
     0
  0
APPID
  5
DC38F
330
9
100
AcDbSymbolTableRecord
100
AcDbRegAppTableRecord
  2
ACAD_DSTYLE_DIM_LINETYPE
 70
     0
  0
ENDTAB
  0
TABLE
  2
DIMSTYLE
  5
A
330
0
100
AcDbSymbolTable
 70
     1
100
AcDbDimStyleTable
 71
     1
340
213
  0
DIMSTYLE
105
213
102
{ACAD_REACTORS
330
D843B
330
D844A
330
D8474
330
D8482
330
D8491
330
D84BD
330
D852F
330
D8565
330
DA284
330
DA3E3
330
DAA56
330
DAA6D
330
DC17C
330
DCCDB
330
DCCDC
102
}
330
A
100
AcDbSymbolTableRecord
100
AcDbDimStyleTableRecord
  2
STANDARD
 70
     0
 41
10.0
 42
10.0
 43
100.0
 44
10.0
 73
     0
 74
     0
 77
     1
 78
     8
140
45.0
141
0.082
147
10.0
172
     1
176
   256
177
   256
178
   256
271
     2
272
     2
340
11
341
DA4D3
342
46
345
14
371
    -1
1001
ACAD_DSTYLE_DIMJAG
1070
   388
1040
1.5
1001
ACAD_DSTYLE_DIMTALN
1070
   392
1070
     0
  0
ENDTAB
  0
TABLE
  2
BLOCK_RECORD
  5
1
330
0
100
AcDbSymbolTable
 70
    21
  0
BLOCK_RECORD
  5
1E
102
{ACAD_XDICTIONARY
360
66E76
102
}
330
1
100
AcDbSymbolTableRecord
100
AcDbBlockTableRecord
  2
*MODEL_SPACE
340
CE039
 70
     0
280
     1
281
     0
  0
BLOCK_RECORD
  5
1A
330
1
100
AcDbSymbolTableRecord
100
AcDbBlockTableRecord
  2
*PAPER_SPACE
340
CE03A
 70
     0
280
     1
281
     0
  0
BLOCK_RECORD
  5
46
330
1
100
AcDbSymbolTableRecord
100
AcDbBlockTableRecord
  2
_ORIGIN
340
0
102
{BLKREFS
331
DCC4F
331
DCC50
331
DCC58
331
DCC59
331
DCCAA
331
DCCAB
331
DCCB6
331
DCCB7
331
DCE62
331
DCE63
331
DCE6B
331
DCE6C
331
DCDE3
331
DCDE4
331
DCDEC
331
DCDED
331
DCDF5
331
DCDF6
331
DCE00
331
DCE01
331
DCE09
331
DCE0A
331
DCE12
331
DCE13
331
DCE1B
331
DCE1C
331
DCE25
331
DCE26
331
DCE2F
331
DCE30
331
DCE3A
331
DCE3B
331
DCE44
331
DCE45
331
DCE4D
331
DCE4E
331
DCE58
331
DCE59
102
}
 70
     0
280
     1
281
     0
  0
BLOCK_RECORD
  5
D843C
330
1
100
AcDbSymbolTableRecord
100
AcDbBlockTableRecord
  2
*D1
340
0
 70
     0
280
     1
281
     0
  0
BLOCK_RECORD
  5
D844B
330
1
100
AcDbSymbolTableRecord
100
AcDbBlockTableRecord
  2
*D2
340
0
 70
     0
280
     1
281
     0
  0
BLOCK_RECORD
  5
D8475
330
1
100
AcDbSymbolTableRecord
100
AcDbBlockTableRecord
  2
*D3
340
0
 70
     0
280
     1
281
     0
  0
BLOCK_RECORD
  5
D8483
330
1
100
AcDbSymbolTableRecord
100
AcDbBlockTableRecord
  2
*D4
340
0
 70
     0
280
     1
281
     0
  0
BLOCK_RECORD
  5
D8492
330
1
100
AcDbSymbolTableRecord
100
AcDbBlockTableRecord
  2
*D5
340
0
 70
     0
280
     1
281
     0
  0
BLOCK_RECORD
  5
D84BE
330
1
100
AcDbSymbolTableRecord
100
AcDbBlockTableRecord
  2
*D6
340
0
 70
     0
280
     1
281
     0
  0
BLOCK_RECORD
  5
D84E1
330
1
100
AcDbSymbolTableRecord
100
AcDbBlockTableRecord
  2
*D7
340
0
 70
     0
280
     1
281
     0
  0
BLOCK_RECORD
  5
D84EF
330
1
100
AcDbSymbolTableRecord
100
AcDbBlockTableRecord
  2
*D8
340
0
 70
     0
280
     1
281
     0
  0
BLOCK_RECORD
  5
D8530
330
1
100
AcDbSymbolTableRecord
100
AcDbBlockTableRecord
  2
*D9
340
0
 70
     0
280
     1
281
     0
  0
BLOCK_RECORD
  5
D8566
330
1
100
AcDbSymbolTableRecord
100
AcDbBlockTableRecord
  2
*D10
340
0
 70
     0
280
     1
281
     0
  0
BLOCK_RECORD
  5
DA285
330
1
100
AcDbSymbolTableRecord
100
AcDbBlockTableRecord
  2
*D11
340
0
 70
     0
280
     1
281
     0
  0
BLOCK_RECORD
  5
DA3E4
330
1
100
AcDbSymbolTableRecord
100
AcDbBlockTableRecord
  2
*D12
340
0
 70
     0
280
     1
281
     0
  0
BLOCK_RECORD
  5
DA4D3
330
1
100
AcDbSymbolTableRecord
100
AcDbBlockTableRecord
  2
_Open30
340
0
 70
     0
280
     1
281
     0
  0
BLOCK_RECORD
  5
DAA57
330
1
100
AcDbSymbolTableRecord
100
AcDbBlockTableRecord
  2
*D14
340
0
 70
     0
280
     1
281
     0
  0
BLOCK_RECORD
  5
DAA6E
330
1
100
AcDbSymbolTableRecord
100
AcDbBlockTableRecord
  2
*D15
340
0
 70
     0
280
     1
281
     0
  0
BLOCK_RECORD
  5
DC17D
330
1
100
AcDbSymbolTableRecord
100
AcDbBlockTableRecord
  2
*D16
340
0
 70
     0
280
     1
281
     0
  0
BLOCK_RECORD
  5
DCCA4
330
1
100
AcDbSymbolTableRecord
100
AcDbBlockTableRecord
  2
*D17
340
0
 70
     0
280
     1
281
     0
  0
BLOCK_RECORD
  5
DCCB1
330
1
100
AcDbSymbolTableRecord
100
AcDbBlockTableRecord
  2
*D18
340
0
 70
     0
280
     1
281
     0
  0
BLOCK_RECORD
  5
DCCDD
330
1
100
AcDbSymbolTableRecord
100
AcDbBlockTableRecord
  2
*D19
340
0
 70
     0
280
     1
281
     0
  0
BLOCK_RECORD
  5
DCCEA
330
1
100
AcDbSymbolTableRecord
100
AcDbBlockTableRecord
  2
*D20
340
0
 70
     0
280
     1
281
     0
  0
ENDTAB
  0
ENDSEC
  0
SECTION
  2
BLOCKS
  0
BLOCK
  5
1F
330
1E
100
AcDbEntity
  8
0
100
AcDbBlockBegin
  2
*MODEL_SPACE
 70
     0
 10
0.0
 20
0.0
 30
0.0
  3
*MODEL_SPACE
  1

  0
ENDBLK
  5
20
330
1E
100
AcDbEntity
  8
0
100
AcDbBlockEnd
  0
BLOCK
  5
1B
330
1A
100
AcDbEntity
 67
     1
  8
0
100
AcDbBlockBegin
  2
*PAPER_SPACE
 70
     0
 10
0.0
 20
0.0
 30
0.0
  3
*PAPER_SPACE
  1

  0
ENDBLK
  5
1C
330
1A
100
AcDbEntity
 67
     1
  8
0
100
AcDbBlockEnd
  0
BLOCK
  5
47
330
46
100
AcDbEntity
  8
0
100
AcDbBlockBegin
  2
_ORIGIN
 70
     0
 10
0.0
 20
0.0
 30
0.0
  3
_ORIGIN
  1

  0
CIRCLE
  5
48
330
46
100
AcDbEntity
  8
0
  6
ByBlock
 62
     0
100
AcDbCircle
 10
0.0
 20
0.0
 30
0.0
 40
0.5
  0
LINE
  5
49
330
46
100
AcDbEntity
  8
0
  6
ByBlock
 62
     0
100
AcDbLine
 10
0.0
 20
0.0
 30
0.0
 11
-1.0
 21
0.0
 31
0.0
  0
ENDBLK
  5
4A
330
46
100
AcDbEntity
  8
0
100
AcDbBlockEnd
  0
BLOCK
  5
D843D
330
D843C
100
AcDbEntity
  8
0
100
AcDbBlockBegin
  2
*D1
 70
     1
 10
0.0
 20
0.0
 30
0.0
  3
*D1
  1

  0
LINE
  5
DCDE0
330
D843C
100
AcDbEntity
  8
SIZE
440
 16777216
370
    -2
100
AcDbLine
 10
-400.0
 20
20.20201300000008
 30
0.0
 11
-400.0
 21
-320.0
 31
0.0
  0
LINE
  5
DCDE1
330
D843C
100
AcDbEntity
  8
SIZE
440
 16777216
370
    -2
100
AcDbLine
 10
-250.0000000000001
 20
-32.77595374088878
 30
0.0
 11
-250.0000000000001
 21
-320.0
 31
0.0
  0
LINE
  5
DCDE2
330
D843C
100
AcDbEntity
  8
SIZE
440
 16777216
100
AcDbLine
 10
-390.0
 20
-310.0
 30
0.0
 11
-260.0000000000001
 21
-310.0
 31
0.0
  0
INSERT
  5
DCDE3
330
D843C
100
AcDbEntity
  8
SIZE
440
 16777216
100
AcDbBlockReference
  2
_ORIGIN
 10
-400.0
 20
-310.0
 30
0.0
 41
10.0
 42
10.0
 43
10.0
 50
180.0
  0
INSERT
  5
DCDE4
330
D843C
100
AcDbEntity
  8
SIZE
440
 16777216
100
AcDbBlockReference
  2
_ORIGIN
 10
-250.0000000000001
 20
-310.0
 30
0.0
 41
10.0
 42
10.0
 43
10.0
  0
MTEXT
  5
DCDE5
330
D843C
100
AcDbEntity
  8
SIZE
440
 16777216
100
AcDbMText
 10
-325.0
 20
-277.5
 30
0.0
 40
45.0
 41
0.0
 46
0.0
 71
     5
 72
     1
  1
\A1;150
 73
     1
 44
1.0
  0
POINT
  5
DCDE6
330
D843C
100
AcDbEntity
  8
DEFPOINTS
 62
     0
440
 16777216
100
AcDbPoint
 10
-400.0
 20
30.20201300000008
 30
0.0
  0
POINT
  5
DCDE7
330
D843C
100
AcDbEntity
  8
DEFPOINTS
 62
     0
440
 16777216
100
AcDbPoint
 10
-250.0000000000001
 20
-22.77595374088878
 30
0.0
  0
POINT
  5
DCDE8
330
D843C
100
AcDbEntity
  8
DEFPOINTS
 62
     0
440
 16777216
100
AcDbPoint
 10
-250.0000000000001
 20
-310.0
 30
0.0
  0
ENDBLK
  5
D843E
330
D843C
100
AcDbEntity
  8
0
100
AcDbBlockEnd
  0
BLOCK
  5
D844C
330
D844B
100
AcDbEntity
  8
0
100
AcDbBlockBegin
  2
*D2
 70
     1
 10
0.0
 20
0.0
 30
0.0
  3
*D2
  1

  0
LINE
  5
DCDE9
330
D844B
100
AcDbEntity
  8
SIZE
440
 16777216
370
    -2
100
AcDbLine
 10
-250.0000000000001
 20
-32.77595374088878
 30
0.0
 11
-250.0000000000001
 21
-320.0
 31
0.0
  0
LINE
  5
DCDEA
330
D844B
100
AcDbEntity
  8
SIZE
440
 16777216
370
    -2
100
AcDbLine
 10
249.9999999999999
 20
-32.54654105426698
 30
0.0
 11
249.9999999999999
 21
-320.0
 31
0.0
  0
LINE
  5
DCDEB
330
D844B
100
AcDbEntity
  8
SIZE
440
 16777216
100
AcDbLine
 10
-240.0000000000001
 20
-310.0
 30
0.0
 11
239.9999999999999
 21
-310.0
 31
0.0
  0
INSERT
  5
DCDEC
330
D844B
100
AcDbEntity
  8
SIZE
440
 16777216
100
AcDbBlockReference
  2
_ORIGIN
 10
-250.0000000000001
 20
-310.0
 30
0.0
 41
10.0
 42
10.0
 43
10.0
 50
180.0
  0
INSERT
  5
DCDED
330
D844B
100
AcDbEntity
  8
SIZE
440
 16777216
100
AcDbBlockReference
  2
_ORIGIN
 10
249.9999999999999
 20
-310.0
 30
0.0
 41
10.0
 42
10.0
 43
10.0
  0
MTEXT
  5
DCDEE
330
D844B
100
AcDbEntity
  8
SIZE
440
 16777216
100
AcDbMText
 10
-0.0000000000001117
 20
-277.5
 30
0.0
 40
45.0
 41
0.0
 46
0.0
 71
     5
 72
     1
  1
\A1;500
 73
     1
 44
1.0
  0
POINT
  5
DCDEF
330
D844B
100
AcDbEntity
  8
DEFPOINTS
 62
     0
440
 16777216
100
AcDbPoint
 10
-250.0000000000001
 20
-22.77595374088878
 30
0.0
  0
POINT
  5
DCDF0
330
D844B
100
AcDbEntity
  8
DEFPOINTS
 62
     0
440
 16777216
100
AcDbPoint
 10
249.9999999999999
 20
-22.54654105426698
 30
0.0
  0
POINT
  5
DCDF1
330
D844B
100
AcDbEntity
  8
DEFPOINTS
 62
     0
440
 16777216
100
AcDbPoint
 10
249.9999999999999
 20
-310.0
 30
0.0
  0
ENDBLK
  5
D844D
330
D844B
100
AcDbEntity
  8
0
100
AcDbBlockEnd
  0
BLOCK
  5
D8476
330
D8475
100
AcDbEntity
  8
0
100
AcDbBlockBegin
  2
*D3
 70
     1
 10
0.0
 20
0.0
 30
0.0
  3
*D3
  1

  0
LINE
  5
DCDF2
330
D8475
100
AcDbEntity
  8
SIZE
440
 16777216
370
    -2
100
AcDbLine
 10
-400.0
 20
40.20201300000008
 30
0.0
 11
-400.0
 21
973.9999999999996
 31
0.0
  0
LINE
  5
DCDF3
330
D8475
100
AcDbEntity
  8
SIZE
440
 16777216
370
    -2
100
AcDbLine
 10
-97.0
 20
642.1774131833636
 30
0.0
 11
-96.99999999999999
 21
973.9999999999996
 31
0.0
  0
LINE
  5
DCDF4
330
D8475
100
AcDbEntity
  8
SIZE
440
 16777216
100
AcDbLine
 10
-390.0
 20
963.9999999999997
 30
0.0
 11
-107.0
 21
963.9999999999997
 31
0.0
  0
INSERT
  5
DCDF5
330
D8475
100
AcDbEntity
  8
SIZE
440
 16777216
100
AcDbBlockReference
  2
_ORIGIN
 10
-400.0
 20
963.9999999999997
 30
0.0
 41
10.0
 42
10.0
 43
10.0
 50
180.0
  0
INSERT
  5
DCDF6
330
D8475
100
AcDbEntity
  8
SIZE
440
 16777216
100
AcDbBlockReference
  2
_ORIGIN
 10
-96.99999999999999
 20
963.9999999999997
 30
0.0
 41
10.0
 42
10.0
 43
10.0
  0
MTEXT
  5
DCDF7
330
D8475
100
AcDbEntity
  8
SIZE
440
 16777216
100
AcDbMText
 10
-248.5
 20
996.4999999999996
 30
0.0
 40
45.0
 41
0.0
 46
0.0
 71
     5
 72
     1
  1
\A1;303
 73
     1
 44
1.0
  0
POINT
  5
DCDF8
330
D8475
100
AcDbEntity
  8
DEFPOINTS
 62
     0
440
 16777216
100
AcDbPoint
 10
-400.0
 20
30.20201300000008
 30
0.0
  0
POINT
  5
DCDF9
330
D8475
100
AcDbEntity
  8
DEFPOINTS
 62
     0
440
 16777216
100
AcDbPoint
 10
-97.0
 20
632.1774131833636
 30
0.0
  0
POINT
  5
DCDFA
330
D8475
100
AcDbEntity
  8
DEFPOINTS
 62
     0
440
 16777216
100
AcDbPoint
 10
-96.99999999999999
 20
963.9999999999997
 30
0.0
  0
ENDBLK
  5
D8477
330
D8475
100
AcDbEntity
  8
0
100
AcDbBlockEnd
  0
BLOCK
  5
D8484
330
D8483
100
AcDbEntity
  8
0
100
AcDbBlockBegin
  2
*D4
 70
     1
 10
0.0
 20
0.0
 30
0.0
  3
*D4
  1

  0
LINE
  5
DCDFB
330
D8483
100
AcDbEntity
  8
SIZE
440
 16777216
370
    -2
100
AcDbLine
 10
-280.0027660000006
 20
-0.0000000000000354
 30
0.0
 11
-605.0013830000027
 21
-0.0000000000000877
 31
0.0
  0
LINE
  5
DCDFC
330
D8483
100
AcDbEntity
  8
SIZE
440
 16777216
370
    -2
100
AcDbLine
 10
-79.89095000000046
 20
10.0
 30
0.0
 11
-605.0013830000027
 21
9.999999999999916
 31
0.0
  0
LINE
  5
DCDFD
330
D8483
100
AcDbEntity
  8
SIZE
440
 16777216
100
AcDbLine
 10
-595.0013830000028
 20
-10.00000000000008
 30
0.0
 11
-595.0013830000028
 21
-20.00000000000009
 31
0.0
  0
LINE
  5
DCDFE
330
D8483
100
AcDbEntity
  8
SIZE
440
 16777216
100
AcDbLine
 10
-595.0013830000028
 20
19.99999999999992
 30
0.0
 11
-595.0013830000028
 21
114.2857142857142
 31
0.0
  0
LINE
  5
DCDFF
330
D8483
100
AcDbEntity
  8
SIZE
440
 16777216
100
AcDbLine
 10
-595.0013830000028
 20
-0.0000000000000861
 30
0.0
 11
-595.0013830000028
 21
9.99999999999992
 31
0.0
  0
INSERT
  5
DCE00
330
D8483
100
AcDbEntity
  8
SIZE
440
 16777216
100
AcDbBlockReference
  2
_ORIGIN
 10
-595.0013830000028
 20
-0.0000000000000861
 30
0.0
 41
10.0
 42
10.0
 43
10.0
 50
90.0
  0
INSERT
  5
DCE01
330
D8483
100
AcDbEntity
  8
SIZE
440
 16777216
100
AcDbBlockReference
  2
_ORIGIN
 10
-595.0013830000028
 20
9.99999999999992
 30
0.0
 41
10.0
 42
10.0
 43
10.0
 50
270.0
  0
MTEXT
  5
DCE02
330
D8483
100
AcDbEntity
  8
SIZE
440
 16777216
100
AcDbMText
 10
-627.5013830000026
 20
72.14285714285724
 30
0.0
 40
45.0
 41
0.0
 46
0.0
 71
     5
 72
     1
  1
\A1;10
 11
0.0000000000000001
 21
1.0
 31
0.0
 73
     1
 44
1.0
  0
POINT
  5
DCE03
330
D8483
100
AcDbEntity
  8
DEFPOINTS
 62
     0
440
 16777216
100
AcDbPoint
 10
-270.0027660000007
 20
-0.0000000000000338
 30
0.0
  0
POINT
  5
DCE04
330
D8483
100
AcDbEntity
  8
DEFPOINTS
 62
     0
440
 16777216
100
AcDbPoint
 10
-69.89095000000046
 20
10.0
 30
0.0
  0
POINT
  5
DCE05
330
D8483
100
AcDbEntity
  8
DEFPOINTS
 62
     0
440
 16777216
100
AcDbPoint
 10
-595.0013830000028
 20
9.99999999999992
 30
0.0
  0
ENDBLK
  5
D8485
330
D8483
100
AcDbEntity
  8
0
100
AcDbBlockEnd
  0
BLOCK
  5
D8493
330
D8492
100
AcDbEntity
  8
0
100
AcDbBlockBegin
  2
*D5
 70
     1
 10
0.0
 20
0.0
 30
0.0
  3
*D5
  1

  0
LINE
  5
DCE06
330
D8492
100
AcDbEntity
  8
SIZE
440
 16777216
370
    -2
100
AcDbLine
 10
-280.0027660000006
 20
-0.0000000000000291
 30
0.0
 11
-709.9999999999997
 21
-0.0000000000000983
 31
0.0
  0
LINE
  5
DCE07
330
D8492
100
AcDbEntity
  8
SIZE
440
 16777216
370
    -2
100
AcDbLine
 10
-378.7119742552477
 20
365.0000000000001
 30
0.0
 11
-709.9999999999998
 21
365.0
 31
0.0
  0
LINE
  5
DCE08
330
D8492
100
AcDbEntity
  8
SIZE
440
 16777216
100
AcDbLine
 10
-699.9999999999998
 20
9.999999999999905
 30
0.0
 11
-699.9999999999999
 21
355.0
 31
0.0
  0
INSERT
  5
DCE09
330
D8492
100
AcDbEntity
  8
SIZE
440
 16777216
100
AcDbBlockReference
  2
_ORIGIN
 10
-699.9999999999998
 20
-0.0000000000000966
 30
0.0
 41
10.0
 42
10.0
 43
10.0
 50
270.0
  0
INSERT
  5
DCE0A
330
D8492
100
AcDbEntity
  8
SIZE
440
 16777216
100
AcDbBlockReference
  2
_ORIGIN
 10
-699.9999999999999
 20
365.0
 30
0.0
 41
10.0
 42
10.0
 43
10.0
 50
90.0
  0
MTEXT
  5
DCE0B
330
D8492
100
AcDbEntity
  8
SIZE
440
 16777216
100
AcDbMText
 10
-732.4999999999996
 20
182.4969255200903
 30
0.0
 40
45.0
 41
0.0
 46
0.0
 71
     5
 72
     1
  1
\A1;365
 11
0.0000000000000001
 21
1.0
 31
0.0
 73
     1
 44
1.0
  0
POINT
  5
DCE0C
330
D8492
100
AcDbEntity
  8
DEFPOINTS
 62
     0
440
 16777216
100
AcDbPoint
 10
-270.0027660000007
 20
-0.0000000000000275
 30
0.0
  0
POINT
  5
DCE0D
330
D8492
100
AcDbEntity
  8
DEFPOINTS
 62
     0
440
 16777216
100
AcDbPoint
 10
-368.7119742552478
 20
365.0000000000001
 30
0.0
  0
POINT
  5
DCE0E
330
D8492
100
AcDbEntity
  8
DEFPOINTS
 62
     0
440
 16777216
100
AcDbPoint
 10
-699.9999999999999
 20
365.0
 30
0.0
  0
ENDBLK
  5
D8494
330
D8492
100
AcDbEntity
  8
0
100
AcDbBlockEnd
  0
BLOCK
  5
D84BF
330
D84BE
100
AcDbEntity
  8
0
100
AcDbBlockBegin
  2
*D6
 70
     1
 10
0.0
 20
0.0
 30
0.0
  3
*D6
  1

  0
LINE
  5
DCE0F
330
D84BE
100
AcDbEntity
  8
SIZE
440
 16777216
370
    -2
100
AcDbLine
 10
-280.0027660000006
 20
-0.0000000000000354
 30
0.0
 11
-810.0000000000109
 21
-0.0000000000001206
 31
0.0
  0
LINE
  5
DCE10
330
D84BE
100
AcDbEntity
  8
SIZE
440
 16777216
370
    -2
100
AcDbLine
 10
-372.5026590000005
 20
714.0000000000002
 30
0.0
 11
-810.0000000000111
 21
714.0000000000001
 31
0.0
  0
LINE
  5
DCE11
330
D84BE
100
AcDbEntity
  8
SIZE
440
 16777216
100
AcDbLine
 10
-800.000000000011
 20
9.999999999999882
 30
0.0
 11
-800.0000000000111
 21
704.0
 31
0.0
  0
INSERT
  5
DCE12
330
D84BE
100
AcDbEntity
  8
SIZE
440
 16777216
100
AcDbBlockReference
  2
_ORIGIN
 10
-800.000000000011
 20
-0.000000000000119
 30
0.0
 41
10.0
 42
10.0
 43
10.0
 50
270.0
  0
INSERT
  5
DCE13
330
D84BE
100
AcDbEntity
  8
SIZE
440
 16777216
100
AcDbBlockReference
  2
_ORIGIN
 10
-800.0000000000111
 20
714.0000000000001
 30
0.0
 41
10.0
 42
10.0
 43
10.0
 50
90.0
  0
MTEXT
  5
DCE14
330
D84BE
100
AcDbEntity
  8
SIZE
440
 16777216
100
AcDbMText
 10
-832.5000000000107
 20
357.0000000000002
 30
0.0
 40
45.0
 41
0.0
 46
0.0
 71
     5
 72
     1
  1
\A1;714
 11
0.0000000000000001
 21
1.0
 31
0.0
 73
     1
 44
1.0
  0
POINT
  5
DCE15
330
D84BE
100
AcDbEntity
  8
DEFPOINTS
 62
     0
440
 16777216
100
AcDbPoint
 10
-270.0027660000007
 20
-0.0000000000000338
 30
0.0
  0
POINT
  5
DCE16
330
D84BE
100
AcDbEntity
  8
DEFPOINTS
 62
     0
440
 16777216
100
AcDbPoint
 10
-362.5026590000005
 20
714.0000000000002
 30
0.0
  0
POINT
  5
DCE17
330
D84BE
100
AcDbEntity
  8
DEFPOINTS
 62
     0
440
 16777216
100
AcDbPoint
 10
-800.0000000000111
 20
714.0000000000001
 30
0.0
  0
ENDBLK
  5
D84C0
330
D84BE
100
AcDbEntity
  8
0
100
AcDbBlockEnd
  0
BLOCK
  5
D84E2
330
D84E1
100
AcDbEntity
  8
0
100
AcDbBlockBegin
  2
*D7
 70
     1
 10
0.0
 20
0.0
 30
0.0
  3
*D7
  1

  0
LINE
  5
DCC4C
330
D84E1
100
AcDbEntity
  8
SIZE
440
 16777216
370
    -2
100
AcDbLine
 10
280.0000000000001
 20
0.0000000000000016
 30
0.0
 11
860.0000000000003
 21
0.0000000000000949
 31
0.0
  0
LINE
  5
DCC4D
330
D84E1
100
AcDbEntity
  8
SIZE
440
 16777216
370
    -2
100
AcDbLine
 10
476.7385325262053
 20
100.0
 30
0.0
 11
860.0000000000003
 21
100.0000000000001
 31
0.0
  0
LINE
  5
DCC4E
330
D84E1
100
AcDbEntity
  8
SIZE
440
 16777216
100
AcDbLine
 10
850.0000000000003
 20
10.00000000000009
 30
0.0
 11
850.0000000000003
 21
90.0000000000001
 31
0.0
  0
INSERT
  5
DCC4F
330
D84E1
100
AcDbEntity
  8
SIZE
440
 16777216
100
AcDbBlockReference
  2
_ORIGIN
 10
850.0000000000003
 20
0.0000000000000933
 30
0.0
 41
10.0
 42
10.0
 43
10.0
 50
270.0
  0
INSERT
  5
DCC50
330
D84E1
100
AcDbEntity
  8
SIZE
440
 16777216
100
AcDbBlockReference
  2
_ORIGIN
 10
850.0000000000003
 20
100.0000000000001
 30
0.0
 41
10.0
 42
10.0
 43
10.0
 50
90.0
  0
MTEXT
  5
DCC51
330
D84E1
100
AcDbEntity
  8
SIZE
440
 16777216
100
AcDbMText
 10
817.5
 20
49.99999999999985
 30
0.0
 40
45.0
 41
0.0
 46
0.0
 71
     5
 72
     1
  1
\A1;{\W0.8;100}
 11
0.0000000000000001
 21
1.0
 31
0.0
 73
     1
 44
1.0
  0
POINT
  5
DCC52
330
D84E1
100
AcDbEntity
  8
DEFPOINTS
 62
     0
440
 16777216
100
AcDbPoint
 10
270.0000000000001
 20
0.0
 30
0.0
  0
POINT
  5
DCC53
330
D84E1
100
AcDbEntity
  8
DEFPOINTS
 62
     0
440
 16777216
100
AcDbPoint
 10
466.7385325262053
 20
100.0
 30
0.0
  0
POINT
  5
DCC54
330
D84E1
100
AcDbEntity
  8
DEFPOINTS
 62
     0
440
 16777216
100
AcDbPoint
 10
850.0000000000003
 20
100.0000000000001
 30
0.0
  0
ENDBLK
  5
D84E3
330
D84E1
100
AcDbEntity
  8
0
100
AcDbBlockEnd
  0
BLOCK
  5
D84F0
330
D84EF
100
AcDbEntity
  8
0
100
AcDbBlockBegin
  2
*D8
 70
     1
 10
0.0
 20
0.0
 30
0.0
  3
*D8
  1

  0
LINE
  5
DCC55
330
D84EF
100
AcDbEntity
  8
SIZE
440
 16777216
370
    -2
100
AcDbLine
 10
280.0000000000001
 20
0.0000000000000016
 30
0.0
 11
960.0
 21
0.000000000000111
 31
0.0
  0
LINE
  5
DCC56
330
D84EF
100
AcDbEntity
  8
SIZE
440
 16777216
370
    -2
100
AcDbLine
 10
476.7385325262053
 20
165.0
 30
0.0
 11
960.0
 21
165.0000000000001
 31
0.0
  0
LINE
  5
DCC57
330
D84EF
100
AcDbEntity
  8
SIZE
440
 16777216
100
AcDbLine
 10
949.9999999999996
 20
10.00000000000011
 30
0.0
 11
949.9999999999996
 21
155.0000000000001
 31
0.0
  0
INSERT
  5
DCC58
330
D84EF
100
AcDbEntity
  8
SIZE
440
 16777216
100
AcDbBlockReference
  2
_ORIGIN
 10
949.9999999999996
 20
0.0000000000001094
 30
0.0
 41
10.0
 42
10.0
 43
10.0
 50
270.0
  0
INSERT
  5
DCC59
330
D84EF
100
AcDbEntity
  8
SIZE
440
 16777216
100
AcDbBlockReference
  2
_ORIGIN
 10
949.9999999999996
 20
165.0000000000001
 30
0.0
 41
10.0
 42
10.0
 43
10.0
 50
90.0
  0
MTEXT
  5
DCC5A
330
D84EF
100
AcDbEntity
  8
SIZE
440
 16777216
100
AcDbMText
 10
917.4999999999997
 20
82.50000000000005
 30
0.0
 40
45.0
 41
0.0
 46
0.0
 71
     5
 72
     1
  1
\A1;165
 11
0.0000000000000001
 21
1.0
 31
0.0
 73
     1
 44
1.0
  0
POINT
  5
DCC5B
330
D84EF
100
AcDbEntity
  8
DEFPOINTS
 62
     0
440
 16777216
100
AcDbPoint
 10
270.0000000000001
 20
0.0
 30
0.0
  0
POINT
  5
DCC5C
330
D84EF
100
AcDbEntity
  8
DEFPOINTS
 62
     0
440
 16777216
100
AcDbPoint
 10
466.7385325262053
 20
165.0
 30
0.0
  0
POINT
  5
DCC5D
330
D84EF
100
AcDbEntity
  8
DEFPOINTS
 62
     0
440
 16777216
100
AcDbPoint
 10
949.9999999999996
 20
165.0000000000001
 30
0.0
  0
ENDBLK
  5
D84F1
330
D84EF
100
AcDbEntity
  8
0
100
AcDbBlockEnd
  0
BLOCK
  5
D8531
330
D8530
100
AcDbEntity
  8
0
100
AcDbBlockBegin
  2
*D9
 70
     1
 10
0.0
 20
0.0
 30
0.0
  3
*D9
  1

  0
LINE
  5
DCE18
330
D8530
100
AcDbEntity
  8
SIZE
440
 16777216
370
    -2
100
AcDbLine
 10
-400.0
 20
697.5028466672207
 30
0.0
 11
-400.0
 21
1074.0
 31
0.0
  0
LINE
  5
DCE19
330
D8530
100
AcDbEntity
  8
SIZE
440
 16777216
370
    -2
100
AcDbLine
 10
400.0
 20
695.501655
 30
0.0
 11
400.0
 21
1074.0
 31
0.0
  0
LINE
  5
DCE1A
330
D8530
100
AcDbEntity
  8
SIZE
440
 16777216
100
AcDbLine
 10
-390.0
 20
1064.0
 30
0.0
 11
390.0
 21
1064.0
 31
0.0
  0
INSERT
  5
DCE1B
330
D8530
100
AcDbEntity
  8
SIZE
440
 16777216
100
AcDbBlockReference
  2
_ORIGIN
 10
-400.0
 20
1064.0
 30
0.0
 41
10.0
 42
10.0
 43
10.0
 50
180.0
  0
INSERT
  5
DCE1C
330
D8530
100
AcDbEntity
  8
SIZE
440
 16777216
100
AcDbBlockReference
  2
_ORIGIN
 10
400.0
 20
1064.0
 30
0.0
 41
10.0
 42
10.0
 43
10.0
  0
MTEXT
  5
DCE1D
330
D8530
100
AcDbEntity
  8
SIZE
440
 16777216
100
AcDbMText
 10
0.000000000000002
 20
1096.5
 30
0.0
 40
45.0
 41
0.0
 46
0.0
 71
     5
 72
     1
  1
\A1;800
 73
     1
 44
1.0
  0
POINT
  5
DCE1E
330
D8530
100
AcDbEntity
  8
DEFPOINTS
 62
     0
440
 16777216
100
AcDbPoint
 10
-400.0
 20
687.5028466672207
 30
0.0
  0
POINT
  5
DCE1F
330
D8530
100
AcDbEntity
  8
DEFPOINTS
 62
     0
440
 16777216
100
AcDbPoint
 10
400.0
 20
685.501655
 30
0.0
  0
POINT
  5
DCE20
330
D8530
100
AcDbEntity
  8
DEFPOINTS
 62
     0
440
 16777216
100
AcDbPoint
 10
400.0
 20
1064.0
 30
0.0
  0
ENDBLK
  5
D8532
330
D8530
100
AcDbEntity
  8
0
100
AcDbBlockEnd
  0
BLOCK
  5
D8567
330
D8566
100
AcDbEntity
  8
0
100
AcDbBlockBegin
  2
*D10
 70
     1
 10
0.0
 20
0.0
 30
0.0
  3
*D10
  1

  0
LINE
  5
DCE21
330
D8566
100
AcDbEntity
  8
SIZE
440
 16777216
370
    -2
100
AcDbLine
 10
400.0
 20
18.19137729374006
 30
0.0
 11
400.0
 21
-210.0
 31
0.0
  0
LINE
  5
DCE22
330
D8566
100
AcDbEntity
  8
SIZE
440
 16777216
370
    -2
100
AcDbLine
 10
462.0
 20
66.32945835418112
 30
0.0
 11
462.0
 21
-210.0
 31
0.0
  0
LINE
  5
DCE23
330
D8566
100
AcDbEntity
  8
SIZE
440
 16777216
100
AcDbLine
 10
410.0
 20
-200.0
 30
0.0
 11
452.0
 21
-200.0
 31
0.0
  0
LINE
  5
DCE24
330
D8566
100
AcDbEntity
  8
SIZE
440
 16777216
100
AcDbLine
 10
462.0
 20
-200.0
 30
0.0
 11
564.8571428571428
 21
-200.0
 31
0.0
  0
INSERT
  5
DCE25
330
D8566
100
AcDbEntity
  8
SIZE
440
 16777216
100
AcDbBlockReference
  2
_ORIGIN
 10
400.0
 20
-200.0
 30
0.0
 41
10.0
 42
10.0
 43
10.0
 50
180.0
  0
INSERT
  5
DCE26
330
D8566
100
AcDbEntity
  8
SIZE
440
 16777216
100
AcDbBlockReference
  2
_ORIGIN
 10
462.0
 20
-200.0
 30
0.0
 41
10.0
 42
10.0
 43
10.0
  0
MTEXT
  5
DCE27
330
D8566
100
AcDbEntity
  8
SIZE
440
 16777216
100
AcDbMText
 10
518.4285714285714
 20
-167.5
 30
0.0
 40
45.0
 41
0.0
 46
0.0
 71
     5
 72
     1
  1
\A1;62
 73
     1
 44
1.0
  0
POINT
  5
DCE28
330
D8566
100
AcDbEntity
  8
DEFPOINTS
 62
     0
440
 16777216
100
AcDbPoint
 10
400.0
 20
28.19137729374006
 30
0.0
  0
POINT
  5
DCE29
330
D8566
100
AcDbEntity
  8
DEFPOINTS
 62
     0
440
 16777216
100
AcDbPoint
 10
462.0
 20
76.32945835418112
 30
0.0
  0
POINT
  5
DCE2A
330
D8566
100
AcDbEntity
  8
DEFPOINTS
 62
     0
440
 16777216
100
AcDbPoint
 10
462.0
 20
-200.0
 30
0.0
  0
ENDBLK
  5
D8568
330
D8566
100
AcDbEntity
  8
0
100
AcDbBlockEnd
  0
BLOCK
  5
DA286
330
DA285
100
AcDbEntity
  8
0
100
AcDbBlockBegin
  2
*D11
 70
     1
 10
0.0
 20
0.0
 30
0.0
  3
*D11
  1

  0
LINE
  5
DCE2B
330
DA285
100
AcDbEntity
  8
SIZE
440
 16777216
370
    -2
100
AcDbLine
 10
-372.5026590000005
 20
714.0000000000002
 30
0.0
 11
-810.0000000000115
 21
714.0000000000001
 31
0.0
  0
LINE
  5
DCE2C
330
DA285
100
AcDbEntity
  8
SIZE
440
 16777216
370
    -2
100
AcDbLine
 10
-510.0000000000002
 20
814.0
 30
0.0
 11
-810.0000000000116
 21
814.0
 31
0.0
  0
LINE
  5
DCE2D
330
DA285
100
AcDbEntity
  8
SIZE
440
 16777216
100
AcDbLine
 10
-800.0000000000115
 20
724.0000000000001
 30
0.0
 11
-800.0000000000115
 21
804.0
 31
0.0
  0
LINE
  5
DCE2E
330
DA285
100
AcDbEntity
  8
SIZE
440
 16777216
100
AcDbLine
 10
-800.0000000000115
 20
814.0
 30
0.0
 11
-800.0000000000115
 21
1060.0
 31
0.0
  0
INSERT
  5
DCE2F
330
DA285
100
AcDbEntity
  8
SIZE
440
 16777216
100
AcDbBlockReference
  2
_ORIGIN
 10
-800.0000000000115
 20
714.0000000000001
 30
0.0
 41
10.0
 42
10.0
 43
10.0
 50
270.0
  0
INSERT
  5
DCE30
330
DA285
100
AcDbEntity
  8
SIZE
440
 16777216
100
AcDbBlockReference
  2
_ORIGIN
 10
-800.0000000000115
 20
814.0
 30
0.0
 41
10.0
 42
10.0
 43
10.0
 50
90.0
  0
MTEXT
  5
DCE31
330
DA285
100
AcDbEntity
  8
SIZE
440
 16777216
100
AcDbMText
 10
-832.5000000000111
 20
942.0
 30
0.0
 40
45.0
 41
0.0
 46
0.0
 71
     5
 72
     1
  1
\A1;100以上
 11
0.0000000000000001
 21
1.0
 31
0.0
 73
     1
 44
1.0
  0
POINT
  5
DCE32
330
DA285
100
AcDbEntity
  8
DEFPOINTS
 62
     0
440
 16777216
100
AcDbPoint
 10
-362.5026590000005
 20
714.0000000000002
 30
0.0
  0
POINT
  5
DCE33
330
DA285
100
AcDbEntity
  8
DEFPOINTS
 62
     0
440
 16777216
100
AcDbPoint
 10
-500.0000000000002
 20
814.0
 30
0.0
  0
POINT
  5
DCE34
330
DA285
100
AcDbEntity
  8
DEFPOINTS
 62
     0
440
 16777216
100
AcDbPoint
 10
-800.0000000000115
 20
814.0
 30
0.0
  0
ENDBLK
  5
DA287
330
DA285
100
AcDbEntity
  8
0
100
AcDbBlockEnd
  0
BLOCK
  5
DA3E5
330
DA3E4
100
AcDbEntity
  8
0
100
AcDbBlockBegin
  2
*D12
 70
     1
 10
0.0
 20
0.0
 30
0.0
  3
*D12
  1

  0
LINE
  5
DCE35
330
DA3E4
100
AcDbEntity
  8
SIZE
440
 16777216
370
    -2
100
AcDbLine
 10
-403.3
 20
709.3817255808073
 30
0.0
 11
-403.3
 21
923.9999999999996
 31
0.0
  0
LINE
  5
DCE36
330
DA3E4
100
AcDbEntity
  8
SIZE
440
 16777216
370
    -2
100
AcDbLine
 10
-425.3
 20
699.5029298799013
 30
0.0
 11
-425.3
 21
923.9999999999996
 31
0.0
  0
LINE
  5
DCE37
330
DA3E4
100
AcDbEntity
  8
SIZE
440
 16777216
100
AcDbLine
 10
-393.3
 20
913.9999999999997
 30
0.0
 11
-383.3
 21
913.9999999999997
 31
0.0
  0
LINE
  5
DCE38
330
DA3E4
100
AcDbEntity
  8
SIZE
440
 16777216
100
AcDbLine
 10
-435.3
 20
913.9999999999997
 30
0.0
 11
-590.3625547329165
 21
913.9999999999997
 31
0.0
  0
LINE
  5
DCE39
330
DA3E4
100
AcDbEntity
  8
SIZE
440
 16777216
100
AcDbLine
 10
-403.3
 20
913.9999999999997
 30
0.0
 11
-425.3
 21
913.9999999999997
 31
0.0
  0
INSERT
  5
DCE3A
330
DA3E4
100
AcDbEntity
  8
SIZE
440
 16777216
100
AcDbBlockReference
  2
_ORIGIN
 10
-403.3
 20
913.9999999999997
 30
0.0
 41
10.0
 42
10.0
 43
10.0
 50
180.0
  0
INSERT
  5
DCE3B
330
DA3E4
100
AcDbEntity
  8
SIZE
440
 16777216
100
AcDbBlockReference
  2
_ORIGIN
 10
-425.3
 20
913.9999999999997
 30
0.0
 41
10.0
 42
10.0
 43
10.0
  0
MTEXT
  5
DCE3C
330
DA3E4
100
AcDbEntity
  8
SIZE
440
 16777216
100
AcDbMText
 10
-543.933983304345
 20
946.4999999999996
 30
0.0
 40
45.0
 41
0.0
 46
0.0
 71
     5
 72
     1
  1
\A1;22
 73
     1
 44
1.0
  0
POINT
  5
DCE3D
330
DA3E4
100
AcDbEntity
  8
DEFPOINTS
 62
     0
440
 16777216
100
AcDbPoint
 10
-403.3
 20
699.3817255808074
 30
0.0
  0
POINT
  5
DCE3E
330
DA3E4
100
AcDbEntity
  8
DEFPOINTS
 62
     0
440
 16777216
100
AcDbPoint
 10
-425.3
 20
689.5029298799013
 30
0.0
  0
POINT
  5
DCE3F
330
DA3E4
100
AcDbEntity
  8
DEFPOINTS
 62
     0
440
 16777216
100
AcDbPoint
 10
-425.3
 20
913.9999999999997
 30
0.0
  0
ENDBLK
  5
DA3E6
330
DA3E4
100
AcDbEntity
  8
0
100
AcDbBlockEnd
  0
BLOCK
  5
DA4D7
330
DA4D3
100
AcDbEntity
  8
0
100
AcDbBlockBegin
  2
_Open30
 70
     0
 10
0.0
 20
0.0
 30
0.0
  3
_Open30
  1

  0
LINE
  5
DA4D4
330
DA4D3
100
AcDbEntity
  8
0
  6
ByBlock
 62
     0
370
    -2
100
AcDbLine
 10
-1.0
 20
0.26794919
 30
0.0
 11
0.0
 21
0.0
 31
0.0
  0
LINE
  5
DA4D5
330
DA4D3
100
AcDbEntity
  8
0
  6
ByBlock
 62
     0
370
    -2
100
AcDbLine
 10
0.0
 20
0.0
 30
0.0
 11
-1.0
 21
-0.26794919
 31
0.0
  0
LINE
  5
DA4D6
330
DA4D3
100
AcDbEntity
  8
0
  6
ByBlock
 62
     0
370
    -2
100
AcDbLine
 10
0.0
 20
0.0
 30
0.0
 11
-1.0
 21
0.0
 31
0.0
  0
ENDBLK
  5
DA4D8
330
DA4D3
100
AcDbEntity
  8
0
100
AcDbBlockEnd
  0
BLOCK
  5
DAA58
330
DAA57
100
AcDbEntity
  8
0
100
AcDbBlockBegin
  2
*D14
 70
     1
 10
0.0
 20
0.0
 30
0.0
  3
*D14
  1

  0
LINE
  5
DCE40
330
DAA57
100
AcDbEntity
  8
SIZE
440
 16777216
370
    -2
100
AcDbLine
 10
-400.0
 20
40.20201300000008
 30
0.0
 11
-400.0
 21
1074.0
 31
0.0
  0
LINE
  5
DCE41
330
DAA57
100
AcDbEntity
  8
SIZE
440
 16777216
370
    -2
100
AcDbLine
 10
-499.9999999999998
 20
823.9999999999994
 30
0.0
 11
-499.9999999999998
 21
1074.0
 31
0.0
  0
LINE
  5
DCE42
330
DAA57
100
AcDbEntity
  8
SIZE
440
 16777216
100
AcDbLine
 10
-409.9999999999999
 20
1064.0
 30
0.0
 11
-489.9999999999998
 21
1064.0
 31
0.0
  0
LINE
  5
DCE43
330
DAA57
100
AcDbEntity
  8
SIZE
440
 16777216
100
AcDbLine
 10
-499.9999999999998
 20
1064.0
 30
0.0
 11
-745.9999999999998
 21
1064.0
 31
0.0
  0
INSERT
  5
DCE44
330
DAA57
100
AcDbEntity
  8
SIZE
440
 16777216
100
AcDbBlockReference
  2
_ORIGIN
 10
-400.0
 20
1064.0
 30
0.0
 41
10.0
 42
10.0
 43
10.0
  0
INSERT
  5
DCE45
330
DAA57
100
AcDbEntity
  8
SIZE
440
 16777216
100
AcDbBlockReference
  2
_ORIGIN
 10
-499.9999999999998
 20
1064.0
 30
0.0
 41
10.0
 42
10.0
 43
10.0
 50
180.0
  0
MTEXT
  5
DCE46
330
DAA57
100
AcDbEntity
  8
SIZE
440
 16777216
100
AcDbMText
 10
-627.9999999999997
 20
1096.5
 30
0.0
 40
45.0
 41
0.0
 46
0.0
 71
     5
 72
     1
  1
\A1;100以上
 73
     1
 44
1.0
  0
POINT
  5
DCE47
330
DAA57
100
AcDbEntity
  8
DEFPOINTS
 62
     0
440
 16777216
100
AcDbPoint
 10
-400.0
 20
30.20201300000008
 30
0.0
  0
POINT
  5
DCE48
330
DAA57
100
AcDbEntity
  8
DEFPOINTS
 62
     0
440
 16777216
100
AcDbPoint
 10
-499.9999999999998
 20
813.9999999999995
 30
0.0
  0
POINT
  5
DCE49
330
DAA57
100
AcDbEntity
  8
DEFPOINTS
 62
     0
440
 16777216
100
AcDbPoint
 10
-499.9999999999998
 20
1064.0
 30
0.0
  0
ENDBLK
  5
DAA59
330
DAA57
100
AcDbEntity
  8
0
100
AcDbBlockEnd
  0
BLOCK
  5
DAA6F
330
DAA6E
100
AcDbEntity
  8
0
100
AcDbBlockBegin
  2
*D15
 70
     1
 10
0.0
 20
0.0
 30
0.0
  3
*D15
  1

  0
LINE
  5
DCE4A
330
DAA6E
100
AcDbEntity
  8
SIZE
440
 16777216
370
    -2
100
AcDbLine
 10
400.0
 20
695.501655
 30
0.0
 11
400.0
 21
1074.0
 31
0.0
  0
LINE
  5
DCE4B
330
DAA6E
100
AcDbEntity
  8
SIZE
440
 16777216
370
    -2
100
AcDbLine
 10
750.0
 20
823.9999999999996
 30
0.0
 11
750.0
 21
1074.0
 31
0.0
  0
LINE
  5
DCE4C
330
DAA6E
100
AcDbEntity
  8
SIZE
440
 16777216
100
AcDbLine
 10
410.0
 20
1064.0
 30
0.0
 11
740.0
 21
1064.0
 31
0.0
  0
INSERT
  5
DCE4D
330
DAA6E
100
AcDbEntity
  8
SIZE
440
 16777216
100
AcDbBlockReference
  2
_ORIGIN
 10
400.0
 20
1064.0
 30
0.0
 41
10.0
 42
10.0
 43
10.0
 50
180.0
  0
INSERT
  5
DCE4E
330
DAA6E
100
AcDbEntity
  8
SIZE
440
 16777216
100
AcDbBlockReference
  2
_ORIGIN
 10
750.0
 20
1064.0
 30
0.0
 41
10.0
 42
10.0
 43
10.0
  0
MTEXT
  5
DCE4F
330
DAA6E
100
AcDbEntity
  8
SIZE
440
 16777216
100
AcDbMText
 10
575.0
 20
1096.5
 30
0.0
 40
45.0
 41
0.0
 46
0.0
 71
     5
 72
     1
  1
\A1;350以上
 73
     1
 44
1.0
  0
POINT
  5
DCE50
330
DAA6E
100
AcDbEntity
  8
DEFPOINTS
 62
     0
440
 16777216
100
AcDbPoint
 10
400.0
 20
685.501655
 30
0.0
  0
POINT
  5
DCE51
330
DAA6E
100
AcDbEntity
  8
DEFPOINTS
 62
     0
440
 16777216
100
AcDbPoint
 10
750.0
 20
813.9999999999997
 30
0.0
  0
POINT
  5
DCE52
330
DAA6E
100
AcDbEntity
  8
DEFPOINTS
 62
     0
440
 16777216
100
AcDbPoint
 10
750.0
 20
1064.0
 30
0.0
  0
ENDBLK
  5
DAA70
330
DAA6E
100
AcDbEntity
  8
0
100
AcDbBlockEnd
  0
BLOCK
  5
DC17E
330
DC17D
100
AcDbEntity
  8
0
100
AcDbBlockBegin
  2
*D16
 70
     1
 10
0.0
 20
0.0
 30
0.0
  3
*D16
  1

  0
LINE
  5
DCE53
330
DC17D
100
AcDbEntity
  8
SIZE
440
 16777216
370
    -2
100
AcDbLine
 10
429.0
 20
49.89451973785219
 30
0.0
 11
429.0
 21
-110.0
 31
0.0
  0
LINE
  5
DCE54
330
DC17D
100
AcDbEntity
  8
SIZE
440
 16777216
370
    -2
100
AcDbLine
 10
400.0
 20
18.19137729374004
 30
0.0
 11
400.0
 21
-110.0
 31
0.0
  0
LINE
  5
DCE55
330
DC17D
100
AcDbEntity
  8
SIZE
440
 16777216
100
AcDbLine
 10
390.0
 20
-100.0
 30
0.0
 11
380.0
 21
-100.0
 31
0.0
  0
LINE
  5
DCE56
330
DC17D
100
AcDbEntity
  8
SIZE
440
 16777216
100
AcDbLine
 10
439.0
 20
-100.0
 30
0.0
 11
552.0623238059394
 21
-100.0
 31
0.0
  0
LINE
  5
DCE57
330
DC17D
100
AcDbEntity
  8
SIZE
440
 16777216
100
AcDbLine
 10
400.0
 20
-100.0
 30
0.0
 11
429.0
 21
-100.0
 31
0.0
  0
INSERT
  5
DCE58
330
DC17D
100
AcDbEntity
  8
SIZE
440
 16777216
100
AcDbBlockReference
  2
_ORIGIN
 10
400.0
 20
-100.0
 30
0.0
 41
10.0
 42
10.0
 43
10.0
  0
INSERT
  5
DCE59
330
DC17D
100
AcDbEntity
  8
SIZE
440
 16777216
100
AcDbBlockReference
  2
_ORIGIN
 10
429.0
 20
-100.0
 30
0.0
 41
10.0
 42
10.0
 43
10.0
 50
180.0
  0
MTEXT
  5
DCE5A
330
DC17D
100
AcDbEntity
  8
SIZE
440
 16777216
100
AcDbMText
 10
506.7051809487966
 20
-67.5
 30
0.0
 40
45.0
 41
0.0
 46
0.0
 71
     5
 72
     1
  1
\A1;29
 73
     1
 44
1.0
  0
POINT
  5
DCE5B
330
DC17D
100
AcDbEntity
  8
DEFPOINTS
 62
     0
440
 16777216
100
AcDbPoint
 10
429.0
 20
59.89451973785219
 30
0.0
  0
POINT
  5
DCE5C
330
DC17D
100
AcDbEntity
  8
DEFPOINTS
 62
     0
440
 16777216
100
AcDbPoint
 10
400.0
 20
28.19137729374004
 30
0.0
  0
POINT
  5
DCE5D
330
DC17D
100
AcDbEntity
  8
DEFPOINTS
 62
     0
440
 16777216
100
AcDbPoint
 10
400.0
 20
-100.0
 30
0.0
  0
ENDBLK
  5
DC17F
330
DC17D
100
AcDbEntity
  8
0
100
AcDbBlockEnd
  0
BLOCK
  5
DCCA5
330
DCCA4
100
AcDbEntity
  8
0
100
AcDbBlockBegin
  2
*D17
 70
     1
 10
0.0
 20
0.0
 30
0.0
  3
*D17
  1

  0
LINE
  5
DCCA6
330
DCCA4
100
AcDbEntity
  8
SIZE
440
 16777216
370
    -2
100
AcDbLine
 10
481.5
 20
117.0000000000001
 30
0.0
 11
896.2302094569606
 21
117.0000000000001
 31
0.0
  0
LINE
  5
DCCA7
330
DCCA4
100
AcDbEntity
  8
SIZE
440
 16777216
370
    -2
100
AcDbLine
 10
279.9987249999996
 20
-0.0000000000000093
 30
0.0
 11
896.2302094569606
 21
0.0000000000000898
 31
0.0
  0
LINE
  5
DCCA8
330
DCCA4
100
AcDbEntity
  8
SIZE
440
 16777216
100
AcDbLine
 10
886.2302094569605
 20
107.0000000000001
 30
0.0
 11
886.2302094569605
 21
10.00000000000009
 31
0.0
  0
LINE
  5
DCCA9
330
DCCA4
100
AcDbEntity
  8
SIZE
440
 16777216
100
AcDbLine
 10
886.2302094569605
 20
0.0000000000000882
 30
0.0
 11
886.2302094569605
 21
-128.5714285714285
 31
0.0
  0
INSERT
  5
DCCAA
330
DCCA4
100
AcDbEntity
  8
SIZE
440
 16777216
100
AcDbBlockReference
  2
_ORIGIN
 10
886.2302094569605
 20
117.0000000000001
 30
0.0
 41
10.0
 42
10.0
 43
10.0
 50
90.0
  0
INSERT
  5
DCCAB
330
DCCA4
100
AcDbEntity
  8
SIZE
440
 16777216
100
AcDbBlockReference
  2
_ORIGIN
 10
886.2302094569605
 20
0.0000000000000882
 30
0.0
 41
10.0
 42
10.0
 43
10.0
 50
270.0
  0
MTEXT
  5
DCCAC
330
DCCA4
100
AcDbEntity
  8
SIZE
440
 16777216
100
AcDbMText
 10
853.7302094569604
 20
-69.28571428571443
 30
0.0
 40
45.0
 41
0.0
 46
0.0
 71
     5
 72
     1
  1
\A1;117
 11
0.0000000000000001
 21
1.0
 31
0.0
 73
     1
 44
1.0
  0
POINT
  5
DCCAD
330
DCCA4
100
AcDbEntity
  8
DEFPOINTS
 62
     0
440
 16777216
100
AcDbPoint
 10
471.4999999999999
 20
117.0
 30
0.0
  0
POINT
  5
DCCAE
330
DCCA4
100
AcDbEntity
  8
DEFPOINTS
 62
     0
440
 16777216
100
AcDbPoint
 10
269.9987249999996
 20
-0.0000000000000109
 30
0.0
  0
POINT
  5
DCCAF
330
DCCA4
100
AcDbEntity
  8
DEFPOINTS
 62
     0
440
 16777216
100
AcDbPoint
 10
886.2302094569605
 20
0.0000000000000882
 30
0.0
  0
ENDBLK
  5
DCCB0
330
DCCA4
100
AcDbEntity
  8
0
100
AcDbBlockEnd
  0
BLOCK
  5
DCCB2
330
DCCB1
100
AcDbEntity
  8
0
100
AcDbBlockBegin
  2
*D18
 70
     1
 10
0.0
 20
0.0
 30
0.0
  3
*D18
  1

  0
LINE
  5
DCCB3
330
DCCB1
100
AcDbEntity
  8
SIZE
440
 16777216
370
    -2
100
AcDbLine
 10
481.5
 20
179.0
 30
0.0
 11
1019.965182824984
 21
179.0000000000001
 31
0.0
  0
LINE
  5
DCCB4
330
DCCB1
100
AcDbEntity
  8
SIZE
440
 16777216
370
    -2
100
AcDbLine
 10
279.9987249999996
 20
-0.0000000000000093
 30
0.0
 11
1019.965182824984
 21
0.0000000000001097
 31
0.0
  0
LINE
  5
DCCB5
330
DCCB1
100
AcDbEntity
  8
SIZE
440
 16777216
100
AcDbLine
 10
1009.965182824984
 20
169.0000000000001
 30
0.0
 11
1009.965182824984
 21
10.00000000000011
 31
0.0
  0
INSERT
  5
DCCB6
330
DCCB1
100
AcDbEntity
  8
SIZE
440
 16777216
100
AcDbBlockReference
  2
_ORIGIN
 10
1009.965182824984
 20
179.0000000000001
 30
0.0
 41
10.0
 42
10.0
 43
10.0
 50
90.0
  0
INSERT
  5
DCCB7
330
DCCB1
100
AcDbEntity
  8
SIZE
440
 16777216
100
AcDbBlockReference
  2
_ORIGIN
 10
1009.965182824984
 20
0.0000000000001081
 30
0.0
 41
10.0
 42
10.0
 43
10.0
 50
270.0
  0
MTEXT
  5
DCCB8
330
DCCB1
100
AcDbEntity
  8
SIZE
440
 16777216
100
AcDbMText
 10
977.465182824984
 20
89.49999999999983
 30
0.0
 40
45.0
 41
0.0
 46
0.0
 71
     5
 72
     1
  1
\A1;179
 11
0.0000000000000001
 21
1.0
 31
0.0
 73
     1
 44
1.0
  0
POINT
  5
DCCB9
330
DCCB1
100
AcDbEntity
  8
DEFPOINTS
 62
     0
440
 16777216
100
AcDbPoint
 10
471.4999999999999
 20
179.0
 30
0.0
  0
POINT
  5
DCCBA
330
DCCB1
100
AcDbEntity
  8
DEFPOINTS
 62
     0
440
 16777216
100
AcDbPoint
 10
269.9987249999996
 20
-0.0000000000000109
 30
0.0
  0
POINT
  5
DCCBB
330
DCCB1
100
AcDbEntity
  8
DEFPOINTS
 62
     0
440
 16777216
100
AcDbPoint
 10
1009.965182824984
 20
0.0000000000001081
 30
0.0
  0
ENDBLK
  5
DCCBC
330
DCCB1
100
AcDbEntity
  8
0
100
AcDbBlockEnd
  0
BLOCK
  5
DCCDE
330
DCCDD
100
AcDbEntity
  8
0
100
AcDbBlockBegin
  2
*D19
 70
     1
 10
0.0
 20
0.0
 30
0.0
  3
*D19
  1

  0
LINE
  5
DCE5E
330
DCCDD
100
AcDbEntity
  8
SIZE
440
 16777216
370
    -2
100
AcDbLine
 10
481.5
 20
117.0000000000001
 30
0.0
 11
896.2302094569606
 21
117.0000000000001
 31
0.0
  0
LINE
  5
DCE5F
330
DCCDD
100
AcDbEntity
  8
SIZE
440
 16777216
370
    -2
100
AcDbLine
 10
279.9987249999996
 20
-0.0000000000000093
 30
0.0
 11
896.2302094569606
 21
0.0000000000000898
 31
0.0
  0
LINE
  5
DCE60
330
DCCDD
100
AcDbEntity
  8
SIZE
440
 16777216
100
AcDbLine
 10
886.2302094569606
 20
107.0000000000001
 30
0.0
 11
886.2302094569606
 21
10.00000000000009
 31
0.0
  0
LINE
  5
DCE61
330
DCCDD
100
AcDbEntity
  8
SIZE
440
 16777216
100
AcDbLine
 10
886.2302094569606
 20
0.0000000000000882
 30
0.0
 11
886.2302094569606
 21
-128.5714285714285
 31
0.0
  0
INSERT
  5
DCE62
330
DCCDD
100
AcDbEntity
  8
SIZE
440
 16777216
100
AcDbBlockReference
  2
_ORIGIN
 10
886.2302094569606
 20
117.0000000000001
 30
0.0
 41
10.0
 42
10.0
 43
10.0
 50
90.0
  0
INSERT
  5
DCE63
330
DCCDD
100
AcDbEntity
  8
SIZE
440
 16777216
100
AcDbBlockReference
  2
_ORIGIN
 10
886.2302094569606
 20
0.0000000000000882
 30
0.0
 41
10.0
 42
10.0
 43
10.0
 50
270.0
  0
MTEXT
  5
DCE64
330
DCCDD
100
AcDbEntity
  8
SIZE
440
 16777216
100
AcDbMText
 10
853.7302094569604
 20
-69.28571428571444
 30
0.0
 40
45.0
 41
0.0
 46
0.0
 71
     5
 72
     1
  1
\A1;117
 11
0.0000000000000001
 21
1.0
 31
0.0
 73
     1
 44
1.0
  0
POINT
  5
DCE65
330
DCCDD
100
AcDbEntity
  8
DEFPOINTS
 62
     0
440
 16777216
100
AcDbPoint
 10
471.5
 20
117.0
 30
0.0
  0
POINT
  5
DCE66
330
DCCDD
100
AcDbEntity
  8
DEFPOINTS
 62
     0
440
 16777216
100
AcDbPoint
 10
269.9987249999996
 20
-0.0000000000000109
 30
0.0
  0
POINT
  5
DCE67
330
DCCDD
100
AcDbEntity
  8
DEFPOINTS
 62
     0
440
 16777216
100
AcDbPoint
 10
886.2302094569606
 20
0.0000000000000882
 30
0.0
  0
ENDBLK
  5
DCCDF
330
DCCDD
100
AcDbEntity
  8
0
100
AcDbBlockEnd
  0
BLOCK
  5
DCCEB
330
DCCEA
100
AcDbEntity
  8
0
100
AcDbBlockBegin
  2
*D20
 70
     1
 10
0.0
 20
0.0
 30
0.0
  3
*D20
  1

  0
LINE
  5
DCE68
330
DCCEA
100
AcDbEntity
  8
SIZE
440
 16777216
370
    -2
100
AcDbLine
 10
481.5
 20
179.0
 30
0.0
 11
1019.965182824984
 21
179.0000000000001
 31
0.0
  0
LINE
  5
DCE69
330
DCCEA
100
AcDbEntity
  8
SIZE
440
 16777216
370
    -2
100
AcDbLine
 10
279.9987249999996
 20
-0.0000000000000093
 30
0.0
 11
1019.965182824984
 21
0.0000000000001097
 31
0.0
  0
LINE
  5
DCE6A
330
DCCEA
100
AcDbEntity
  8
SIZE
440
 16777216
100
AcDbLine
 10
1009.965182824984
 20
169.0000000000001
 30
0.0
 11
1009.965182824984
 21
10.00000000000011
 31
0.0
  0
INSERT
  5
DCE6B
330
DCCEA
100
AcDbEntity
  8
SIZE
440
 16777216
100
AcDbBlockReference
  2
_ORIGIN
 10
1009.965182824984
 20
179.0000000000001
 30
0.0
 41
10.0
 42
10.0
 43
10.0
 50
90.0
  0
INSERT
  5
DCE6C
330
DCCEA
100
AcDbEntity
  8
SIZE
440
 16777216
100
AcDbBlockReference
  2
_ORIGIN
 10
1009.965182824984
 20
0.0000000000001081
 30
0.0
 41
10.0
 42
10.0
 43
10.0
 50
270.0
  0
MTEXT
  5
DCE6D
330
DCCEA
100
AcDbEntity
  8
SIZE
440
 16777216
100
AcDbMText
 10
977.465182824984
 20
89.49999999999983
 30
0.0
 40
45.0
 41
0.0
 46
0.0
 71
     5
 72
     1
  1
\A1;179
 11
0.0000000000000001
 21
1.0
 31
0.0
 73
     1
 44
1.0
  0
POINT
  5
DCE6E
330
DCCEA
100
AcDbEntity
  8
DEFPOINTS
 62
     0
440
 16777216
100
AcDbPoint
 10
471.5
 20
179.0
 30
0.0
  0
POINT
  5
DCE6F
330
DCCEA
100
AcDbEntity
  8
DEFPOINTS
 62
     0
440
 16777216
100
AcDbPoint
 10
269.9987249999996
 20
-0.0000000000000109
 30
0.0
  0
POINT
  5
DCE70
330
DCCEA
100
AcDbEntity
  8
DEFPOINTS
 62
     0
440
 16777216
100
AcDbPoint
 10
1009.965182824984
 20
0.0000000000001081
 30
0.0
  0
ENDBLK
  5
DCCEC
330
DCCEA
100
AcDbEntity
  8
0
100
AcDbBlockEnd
  0
ENDSEC
  0
SECTION
  2
ENTITIES
  0
MTEXT
  5
38341
330
1E
100
AcDbEntity
  8
0
100
AcDbMText
 10
384.721997983203
 20
4023.282340837186
 30
0.0
 40
64.0
 41
187.9848
 46
0.0
 71
     1
 72
     5
  1

 73
     1
 44
1.0
  0
CIRCLE
  5
D7A1D
102
{ACAD_REACTORS
330
DAE52
102
}
330
1E
100
AcDbEntity
  8
ARRANGE
100
AcDbCircle
 10
0.0
 20
0.0
 30
0.0
 40
40.0
  0
POINT
  5
D7A1E
102
{ACAD_REACTORS
330
DAE52
102
}
330
1E
100
AcDbEntity
  8
ARRANGE
100
AcDbPoint
 10
0.0
 20
0.0
 30
0.0
  0
LINE
  5
D8439
330
1E
100
AcDbEntity
  8
BASIS
100
AcDbLine
 10
-250.0000000000001
 20
-22.77595374088878
 30
0.0
 11
-250.0000000000001
 21
38.77595374088878
 31
0.0
  0
DIMENSION
  5
D843B
330
1E
100
AcDbEntity
  8
SIZE
100
AcDbDimension
280
     0
  2
*D1
 10
-250.0000000000001
 20
-310.0
 30
0.0
 11
-325.0
 21
-277.5
 31
0.0
 70
    32
 71
     5
 42
149.9999999999999
 73
     0
 74
     0
 75
     0
  3
STANDARD
100
AcDbAlignedDimension
 13
-400.0
 23
30.20201300000008
 33
0.0
 14
-250.0000000000001
 24
-22.77595374088878
 34
0.0
100
AcDbRotatedDimension
1001
ACAD
1000
DSTYLE
1002
{
1070
    43
1040
200.0
1070
   271
1070
     5
1070
   272
1070
     3
1070
   341
1005
46
1002
}
  0
LINE
  5
D8449
330
1E
100
AcDbEntity
  8
BASIS
100
AcDbLine
 10
249.9999999999999
 20
-22.54654105426698
 30
0.0
 11
249.9999999999999
 21
38.54654105426698
 31
0.0
  0
DIMENSION
  5
D844A
330
1E
100
AcDbEntity
  8
SIZE
100
AcDbDimension
280
     0
  2
*D2
 10
249.9999999999999
 20
-310.0
 30
0.0
 11
-0.0000000000001117
 21
-277.5
 31
0.0
 70
    32
 71
     5
 42
500.0
 73
     0
 74
     0
 75
     0
  3
STANDARD
100
AcDbAlignedDimension
 13
-250.0000000000001
 23
-22.77595374088878
 33
0.0
 14
249.9999999999999
 24
-22.54654105426698
 34
0.0
100
AcDbRotatedDimension
1001
ACAD
1000
DSTYLE
1002
{
1070
    43
1040
200.0
1070
   271
1070
     5
1070
   272
1070
     3
1070
   341
1005
46
1002
}
  0
LINE
  5
D8472
330
1E
100
AcDbEntity
  8
BASIS
100
AcDbLine
 10
-97.0
 20
632.1774131833636
 30
0.0
 11
-97.0
 21
79.17933150861336
 31
0.0
  0
DIMENSION
  5
D8474
330
1E
100
AcDbEntity
  8
SIZE
100
AcDbDimension
280
     0
  2
*D3
 10
-96.99999999999999
 20
963.9999999999997
 30
0.0
 11
-248.5
 21
996.4999999999996
 31
0.0
 70
    32
 71
     5
 42
303.0
 73
     0
 74
     0
 75
     0
  3
STANDARD
100
AcDbAlignedDimension
 13
-400.0
 23
30.20201300000008
 33
0.0
 14
-97.0
 24
632.1774131833636
 34
0.0
100
AcDbRotatedDimension
1001
ACAD
1000
DSTYLE
1002
{
1070
   271
1070
     5
1002
}
  0
DIMENSION
  5
D8482
330
1E
100
AcDbEntity
  8
SIZE
100
AcDbDimension
280
     0
  2
*D4
 10
-595.0013830000028
 20
9.99999999999992
 30
0.0
 11
-595.0013830000026
 21
72.14285714285724
 31
0.0
 70
   160
 71
     5
 42
9.999999999999991
 73
     0
 74
     0
 75
     0
  3
STANDARD
100
AcDbAlignedDimension
 13
-270.0027660000005
 23
-0.0000000000000338
 33
0.0
 14
-69.89095000000043
 24
10.0
 34
0.0
 50
90.0
100
AcDbRotatedDimension
1001
ACAD
1000
DSTYLE
1002
{
1070
   271
1070
     5
1002
}
  0
DIMENSION
  5
D8491
330
1E
100
AcDbEntity
  8
SIZE
100
AcDbDimension
280
     0
  2
*D5
 10
-699.9999999999999
 20
365.0
 30
0.0
 11
-699.9999999999996
 21
182.4969255200903
 31
0.0
 70
   160
 71
     5
 42
365.0000000000001
 73
     0
 74
     0
 75
     0
  3
STANDARD
100
AcDbAlignedDimension
 13
-270.0027660000005
 23
-0.0000000000000275
 33
0.0
 14
-368.7119742552476
 24
365.0
 34
0.0
 50
90.0
100
AcDbRotatedDimension
1001
ACAD
1000
DSTYLE
1002
{
1070
    42
1040
10.0
1070
    44
1040
10.0
1070
   140
1040
45.0
1070
   271
1070
     5
1002
}
  0
DIMENSION
  5
D84BD
330
1E
100
AcDbEntity
  8
SIZE
100
AcDbDimension
280
     0
  2
*D6
 10
-800.0000000000111
 20
714.0000000000001
 30
0.0
 11
-832.5000000000107
 21
357.0000000000002
 31
0.0
 70
    32
 71
     5
 42
714.0000000000002
 73
     0
 74
     0
 75
     0
  3
STANDARD
100
AcDbAlignedDimension
 13
-270.0027660000005
 23
-0.0000000000000338
 33
0.0
 14
-362.5026590000004
 24
714.0
 34
0.0
 50
90.0
100
AcDbRotatedDimension
1001
ACAD
1000
DSTYLE
1002
{
1070
    42
1040
10.0
1070
    44
1040
10.0
1070
   140
1040
45.0
1070
   271
1070
     5
1002
}
  0
DIMENSION
  5
D852F
330
1E
100
AcDbEntity
  8
SIZE
100
AcDbDimension
280
     0
  2
*D9
 10
400.0
 20
1064.0
 30
0.0
 11
0.000000000000002
 21
1096.5
 31
0.0
 70
    32
 71
     5
 42
800.0
 73
     0
 74
     0
 75
     0
  3
STANDARD
100
AcDbAlignedDimension
 13
-400.0
 23
687.5028466672207
 33
0.0
 14
400.0
 24
685.501655
 34
0.0
100
AcDbRotatedDimension
1001
ACAD
1000
DSTYLE
1002
{
1070
   271
1070
     5
1002
}
  0
DIMENSION
  5
D8565
330
1E
100
AcDbEntity
  8
SIZE
100
AcDbDimension
280
     0
  2
*D10
 10
462.0
 20
-200.0
 30
0.0
 11
518.4285714285714
 21
-167.5
 31
0.0
 70
    32
 71
     5
 42
62.0
 73
     0
 74
     0
 75
     0
  3
STANDARD
100
AcDbAlignedDimension
 13
400.0
 23
28.19137729374006
 33
0.0
 14
462.0
 24
76.32945835418112
 34
0.0
100
AcDbRotatedDimension
1001
ACAD
1000
DSTYLE
1002
{
1070
   271
1070
     5
1002
}
  0
DIMENSION
  5
DA284
330
1E
100
AcDbEntity
  8
SIZE
100
AcDbDimension
280
     0
  2
*D11
 10
-800.0000000000115
 20
814.0
 30
0.0
 11
-832.5000000000111
 21
942.0
 31
0.0
 70
    32
 71
     5
 42
99.99999999999978
 73
     0
 74
     0
 75
     0
  3
STANDARD
100
AcDbAlignedDimension
 13
-362.5026590000004
 23
714.0
 33
0.0
 14
-500.0
 24
813.9999999999997
 34
0.0
 50
90.0
100
AcDbRotatedDimension
1001
ACAD
1000
DSTYLE
1002
{
1070
    42
1040
10.0
1070
    44
1040
10.0
1070
     3
1000
以上
1070
   140
1040
45.0
1070
   271
1070
     5
1002
}
  0
LINE
  5
DA363
330
1E
100
AcDbEntity
  8
BASIS
100
AcDbLine
 10
0.0
 20
-60.0
 30
0.0
 11
0.0
 21
750.0
 31
0.0
  0
DIMENSION
  5
DA3E3
330
1E
100
AcDbEntity
  8
SIZE
100
AcDbDimension
280
     0
  2
*D12
 10
-425.3
 20
913.9999999999997
 30
0.0
 11
-543.933983304345
 21
913.9999999999997
 31
0.0
 70
   160
 71
     5
 42
22.0
 73
     0
 74
     0
 75
     0
  3
STANDARD
100
AcDbAlignedDimension
 13
-403.3
 23
699.3817255808074
 33
0.0
 14
-425.3
 24
689.5029298799013
 34
0.0
100
AcDbRotatedDimension
1001
ACAD
1000
DSTYLE
1002
{
1070
    43
1040
200.0
1070
   271
1070
     5
1070
   272
1070
     3
1070
   341
1005
46
1002
}
  0
LINE
  5
DA86D
330
1E
100
AcDbEntity
  8
SERVICE_SPACE
100
AcDbLine
 10
749.9999999999999
 20
0.0000000000000093
 30
0.0
 11
-500.0
 21
-0.0000000000000434
 31
0.0
  0
LINE
  5
DA86E
330
1E
100
AcDbEntity
  8
BASIS
100
AcDbLine
 10
173.7119742552477
 20
365.0
 30
0.0
 11
-368.7119742552476
 21
365.0
 31
0.0
  0
LINE
  5
DA98A
330
1E
100
AcDbEntity
  8
SERVICE_SPACE
100
AcDbLine
 10
750.0
 20
0.0000000000000093
 30
0.0
 11
750.0
 21
813.9999999999997
 31
0.0
  0
LINE
  5
DA98B
330
1E
100
AcDbEntity
  8
SERVICE_SPACE
100
AcDbLine
 10
-500.0
 20
0.0000000000000604
 30
0.0
 11
-500.0
 21
813.9999999999997
 31
0.0
  0
LINE
  5
DA98C
330
1E
100
AcDbEntity
  8
SERVICE_SPACE
100
AcDbLine
 10
750.0
 20
814.0
 30
0.0
 11
-500.0
 21
813.9999999999997
 31
0.0
  0
DIMENSION
  5
DAA56
330
1E
100
AcDbEntity
  8
SIZE
100
AcDbDimension
280
     0
  2
*D14
 10
-499.9999999999998
 20
1064.0
 30
0.0
 11
-627.9999999999997
 21
1096.5
 31
0.0
 70
    32
 71
     5
 42
99.99999999999984
 73
     0
 74
     0
 75
     0
  3
STANDARD
100
AcDbAlignedDimension
 13
-400.0
 23
30.20201300000008
 33
0.0
 14
-499.9999999999998
 24
813.9999999999995
 34
0.0
100
AcDbRotatedDimension
1001
ACAD
1000
DSTYLE
1002
{
1070
     3
1000
以上
1070
   271
1070
     5
1002
}
  0
DIMENSION
  5
DAA6D
330
1E
100
AcDbEntity
  8
SIZE
100
AcDbDimension
280
     0
  2
*D15
 10
750.0
 20
1064.0
 30
0.0
 11
575.0
 21
1096.5
 31
0.0
 70
    32
 71
     5
 42
350.0
 73
     0
 74
     0
 75
     0
  3
STANDARD
100
AcDbAlignedDimension
 13
400.0
 23
685.501655
 33
0.0
 14
750.0
 24
813.9999999999997
 34
0.0
100
AcDbRotatedDimension
1001
ACAD
1000
DSTYLE
1002
{
1070
     3
1000
以上
1070
   271
1070
     5
1002
}
  0
MTEXT
  5
DAACC
330
1E
100
AcDbEntity
  8
NOTE
100
AcDbMText
 10
-109.7333746281572
 20
983.630255258031
 30
0.0
 40
45.0
 41
0.0
 46
0.0
 71
     1
 72
     5
  1

 73
     1
 44
1.0
  0
MTEXT
  5
DAAD1
330
1E
100
AcDbEntity
  8
NOTE
100
AcDbMText
 10
-570.4525233456562
 20
-139.913986233474
 30
0.0
 40
45.0
 41
0.0
 46
0.0
 71
     3
 72
     5
  1

 73
     1
 44
1.0
  0
MTEXT
  5
DAAD6
330
1E
100
AcDbEntity
  8
NOTE
100
AcDbMText
 10
815.6610665242098
 20
526.443232532307
 30
0.0
 40
45.0
 41
0.0
 46
0.0
 71
     1
 72
     5
  1

 73
     1
 44
1.0
  0
MTEXT
  5
DAADB
330
1E
100
AcDbEntity
  8
NOTE
100
AcDbMText
 10
808.629421201511
 20
405.5224105558785
 30
0.0
 40
45.0
 41
0.0
 46
0.0
 71
     1
 72
     5
  1

 73
     1
 44
1.0
  0
TEXT
  5
DB1D8
330
1E
100
AcDbEntity
  8
ETC
100
AcDbText
 10
846.2830559419863
 20
1166.663037268768
 30
0.0
 40
64.0
  1
SMUZ6922
 41
0.8750000068359389
 72
     5
 11
1272.949725941987
 21
1166.663037268768
 31
0.0
100
AcDbText
  0
TEXT
  5
DB1D9
330
1E
100
AcDbEntity
  8
ETC
100
AcDbText
 10
848.4729959419864
 20
1255.599307268768
 30
0.0
 40
64.0
  1
室外機
100
AcDbText
  0
LINE
  5
DB47C
330
1E
100
AcDbEntity
  8
DETAIL
  6
Continuous
100
AcDbLine
 10
416.1391029338565
 20
309.547727339157
 30
0.0
 11
431.0362687274301
 21
335.3524853524305
 31
0.0
  0
LINE
  5
DB47E
330
1E
100
AcDbEntity
  8
DETAIL
  6
Continuous
100
AcDbLine
 10
431.9733349999997
 20
340.0343699999999
 30
0.0
 11
431.9733349999997
 21
338.8527019999997
 31
0.0
  0
LINE
  5
DB47F
330
1E
100
AcDbEntity
  8
DETAIL
  6
Continuous
100
AcDbLine
 10
431.9733349999997
 20
281.1539092502075
 30
0.0
 11
431.9733349999997
 21
234.6234664921585
 31
0.0
  0
LINE
  5
DB480
330
1E
100
AcDbEntity
  8
DETAIL
  6
Continuous
100
AcDbLine
 10
414.7995339999996
 20
304.5480339737014
 30
0.0
 11
414.7995339999996
 21
290.5977099098464
 31
0.0
  0
LINE
  5
DB481
330
1E
100
AcDbEntity
  8
DETAIL
  6
Continuous
100
AcDbLine
 10
439.4789201161946
 20
223.4969111019116
 30
0.0
 11
455.7453457365043
 21
216.6421146146249
 31
0.0
  0
LINE
  5
DB482
330
1E
100
AcDbEntity
  8
DETAIL
  6
Continuous
100
AcDbLine
 10
462.0
 20
207.3699851227526
 30
0.0
 11
462.0
 21
76.32945835418112
 31
0.0
  0
LINE
  5
DB483
330
1E
100
AcDbEntity
  8
DETAIL
  6
Continuous
100
AcDbLine
 10
401.9975589999993
 20
29.1111792534707
 30
0.0
 11
401.9975584600688
 21
579.8026799045137
 31
0.0
  0
LINE
  5
DB484
330
1E
100
AcDbEntity
  8
DETAIL
  6
Continuous
100
AcDbLine
 10
401.6272160978092
 20
28.62828274544756
 30
0.0
 11
398.1774055385331
 21
27.70201300000008
 31
0.0
  0
LINE
  5
DB486
330
1E
100
AcDbEntity
  8
DETAIL
  6
Continuous
100
AcDbLine
 10
402.2938369999994
 20
569.1263300000001
 30
0.0
 11
429.3261482366694
 21
557.0997311382479
 31
0.0
  0
LINE
  5
DB487
330
1E
100
AcDbEntity
  8
DETAIL
  6
Continuous
100
AcDbLine
 10
405.2359489999998
 20
540.6172900198733
 30
0.0
 11
405.2359489999998
 21
525.341693206288
 31
0.0
  0
LINE
  5
DB489
330
1E
100
AcDbEntity
  8
DETAIL
  6
Continuous
100
AcDbLine
 10
422.3594299999994
 20
425.2350269999997
 30
0.0
 11
401.9975586116161
 21
425.2350269999998
 31
0.0
  0
LINE
  5
DB48B
330
1E
100
AcDbEntity
  8
DETAIL
  6
Continuous
100
AcDbLine
 10
429.0860778038804
 20
512.3110554841916
 30
0.0
 11
406.9683033176714
 21
522.6226723486861
 31
0.0
  0
LINE
  5
DB490
330
1E
100
AcDbEntity
  8
DETAIL
  6
Continuous
100
AcDbLine
 10
402.3696289999998
 20
37.14846499999976
 30
0.0
 11
439.7608443635308
 21
47.35068517854363
 31
0.0
  0
LINE
  5
DB491
330
1E
100
AcDbEntity
  8
DETAIL
  6
Continuous
100
AcDbLine
 10
408.9105701999265
 20
543.5404537574375
 30
0.0
 11
427.3942340667638
 21
539.2747086208758
 31
0.0
  0
LINE
  5
DB494
330
1E
100
AcDbEntity
  8
DETAIL
  6
Continuous
100
AcDbLine
 10
428.3594299999994
 20
419.2350269999995
 30
0.0
 11
428.3594299999994
 21
405.3354386464353
 31
0.0
  0
LINE
  5
DB495
330
1E
100
AcDbEntity
  8
DETAIL
  6
Continuous
100
AcDbLine
 10
432.2937289999995
 20
552.5314412999809
 30
0.0
 11
432.2937289999995
 21
543.1722602709611
 31
0.0
  0
LINE
  5
DB497
330
1E
100
AcDbEntity
  8
DETAIL
  6
Continuous
100
AcDbLine
 10
431.9733349999997
 20
507.7793540548553
 30
0.0
 11
431.9733349999997
 21
393.3403329999996
 31
0.0
  0
SPLINE
  5
DB499
330
1E
100
AcDbEntity
  8
DETAIL
  6
Continuous
100
AcDbSpline
210
0.0
220
0.0
230
1.0
 70
     8
 71
     3
 72
     8
 73
     4
 74
     0
 42
0.00000001
 43
0.0000000001
 40
0.0
 40
0.0
 40
0.0
 40
0.0
 40
1.0
 40
1.0
 40
1.0
 40
1.0
 10
402.3696291874994
 20
37.14846517013848
 30
0.0
 10
402.1525881718742
 20
37.08989854687479
 30
0.0
 10
401.9975588749994
 20
36.89008300868046
 30
0.0
 10
401.9975588749994
 20
36.66270670659697
 30
0.0
  0
SPLINE
  5
DB49B
330
1E
100
AcDbEntity
  8
DETAIL
  6
Continuous
100
AcDbSpline
210
0.0
220
0.0
230
1.0
 70
     8
 71
     3
 72
     8
 73
     4
 74
     0
 42
0.00000001
 43
0.0000000001
 40
0.0
 40
0.0
 40
0.0
 40
0.0
 40
1.0
 40
1.0
 40
1.0
 40
1.0
 10
416.1396758454857
 20
309.5487201614584
 30
0.0
 10
415.2611764965277
 20
308.0294330520833
 30
0.0
 10
414.7995337013886
 20
306.3068853090276
 30
0.0
 10
414.7995337013886
 20
304.5498866111111
 30
0.0
  0
SPLINE
  5
DB49D
330
1E
100
AcDbEntity
  8
DETAIL
  6
Continuous
100
AcDbSpline
210
0.0
220
0.0
230
1.0
 70
     8
 71
     3
 72
     8
 73
     4
 74
     0
 42
0.00000001
 43
0.0000000001
 40
0.0
 40
0.0
 40
0.0
 40
0.0
 40
1.0
 40
1.0
 40
1.0
 40
1.0
 10
431.0362687274301
 20
335.3524853524305
 30
0.0
 10
431.6529408194435
 20
336.4170198576385
 30
0.0
 10
431.9733346996526
 20
337.6228032777776
 30
0.0
 10
431.9733346996526
 20
338.8527023663191
 30
0.0
  0
SPLINE
  5
DB4A5
330
1E
100
AcDbEntity
  8
DETAIL
  6
Continuous
100
AcDbSpline
210
0.0
220
0.0
230
1.0
 70
     8
 71
     3
 72
     8
 73
     4
 74
     0
 42
0.00000001
 43
0.0000000001
 40
0.0
 40
0.0
 40
0.0
 40
0.0
 40
1.0
 40
1.0
 40
1.0
 40
1.0
 10
401.9975588749994
 20
569.5879725486109
 30
0.0
 10
401.9975588749994
 20
569.3881570104163
 30
0.0
 10
402.1146921215277
 20
569.2055669496526
 30
0.0
 10
402.2938370868049
 20
569.1263297534719
 30
0.0
  0
SPLINE
  5
DB4AF
330
1E
100
AcDbEntity
  8
DETAIL
  6
Continuous
100
AcDbSpline
210
0.0
220
0.0
230
1.0
 70
    24
 71
     3
 72
    11
 73
     7
 74
     0
 42
0.00000001
 43
0.0000000001
 40
6.0
 40
6.0
 40
6.0
 40
6.0
 40
7.0
 40
7.0
 40
7.0
 40
8.0
 40
8.0
 40
8.0
 40
8.0
 10
428.5936960277776
 20
394.1706005868054
 30
0.0
 10
428.5833607413185
 20
394.1706005868054
 30
0.0
 10
428.6005862187494
 20
394.1706005868054
 30
0.0
 10
428.5868058368047
 20
394.1706005868054
 30
0.0
 10
428.5730254548607
 20
394.1706005868054
 30
0.0
 10
428.5936960277776
 20
394.1706005868054
 30
0.0
 10
428.5799156458328
 20
394.1706005868054
 30
0.0
  0
LINE
  5
DB4C2
330
1E
100
AcDbEntity
  8
DETAIL
  6
Continuous
100
AcDbLine
 10
230.7659774487843
 20
16.76383486197892
 30
0.0
 11
230.0183919999995
 21
8.219998000000032
 31
0.0
  0
LINE
  5
DB4C3
330
1E
100
AcDbEntity
  8
DETAIL
  6
Continuous
100
AcDbLine
 10
229.9977209999997
 20
0.0
 30
0.0
 11
269.9987249999995
 21
0.0
 31
0.0
  0
LINE
  5
DB4C4
330
1E
100
AcDbEntity
  8
DETAIL
  6
Continuous
100
AcDbLine
 10
229.9977209999997
 20
0.0
 30
0.0
 11
229.9977209999997
 21
7.782470999999986
 31
0.0
  0
LINE
  5
DB4C5
330
1E
100
AcDbEntity
  8
DETAIL
  6
Continuous
100
AcDbLine
 10
269.9814989999995
 20
8.219998000000032
 30
0.0
 11
269.2339136467008
 21
16.76383486197892
 31
0.0
  0
LINE
  5
DB4C7
330
1E
100
AcDbEntity
  8
DETAIL
  6
Continuous
100
AcDbLine
 10
269.9987249999995
 20
0.0
 30
0.0
 11
269.9987249999995
 21
7.782470999999986
 31
0.0
  0
SPLINE
  5
DB4C9
330
1E
100
AcDbEntity
  8
DETAIL
  6
Continuous
100
AcDbSpline
210
0.0
220
0.0
230
1.0
 70
     8
 71
     3
 72
     8
 73
     4
 74
     0
 42
0.00000001
 43
0.0000000001
 40
0.0
 40
0.0
 40
0.0
 40
0.0
 40
1.0
 40
1.0
 40
1.0
 40
1.0
 10
269.2339136467008
 20
16.76383486197892
 30
0.0
 10
269.0995549227428
 20
18.31412783072892
 30
0.0
 10
267.8007539244786
 20
19.5026857734374
 30
0.0
 10
266.2470158602427
 20
19.5026857734374
 30
0.0
  0
SPLINE
  5
DB4CA
330
1E
100
AcDbEntity
  8
DETAIL
  6
Continuous
100
AcDbSpline
210
0.0
220
0.0
230
1.0
 70
     8
 71
     3
 72
     8
 73
     4
 74
     0
 42
0.00000001
 43
0.0000000001
 40
0.0
 40
0.0
 40
0.0
 40
0.0
 40
1.0
 40
1.0
 40
1.0
 40
1.0
 10
233.7528752352428
 20
19.5026857734374
 30
0.0
 10
232.1991371710065
 20
19.5026857734374
 30
0.0
 10
230.9003361727428
 20
18.31412783072892
 30
0.0
 10
230.7659774487843
 20
16.76383486197892
 30
0.0
  0
SPLINE
  5
DB4CB
330
1E
100
AcDbEntity
  8
DETAIL
  6
Continuous
100
AcDbSpline
210
0.0
220
0.0
230
1.0
 70
     8
 71
     3
 72
     8
 73
     4
 74
     0
 42
0.00000001
 43
0.0000000001
 40
0.0
 40
0.0
 40
0.0
 40
0.0
 40
1.0
 40
1.0
 40
1.0
 40
1.0
 10
230.0183917282984
 20
8.219998056423719
 30
0.0
 10
230.0046113463536
 20
8.075304046006749
 30
0.0
 10
229.9977211553815
 20
7.927164940103919
 30
0.0
 10
229.9977211553815
 20
7.782470929687406
 30
0.0
  0
SPLINE
  5
DB4CC
330
1E
100
AcDbEntity
  8
DETAIL
  6
Continuous
100
AcDbSpline
210
0.0
220
0.0
230
1.0
 70
     8
 71
     3
 72
     8
 73
     4
 74
     0
 42
0.00000001
 43
0.0000000001
 40
0.0
 40
0.0
 40
0.0
 40
0.0
 40
1.0
 40
1.0
 40
1.0
 40
1.0
 10
269.9987248446177
 20
7.782470929687406
 30
0.0
 10
269.9987248446177
 20
7.927164940103919
 30
0.0
 10
269.9952797491314
 20
8.075304046006749
 30
0.0
 10
269.9814993671871
 20
8.219998056423719
 30
0.0
  0
LINE
  5
DB4CE
330
1E
100
AcDbEntity
  8
DETAIL
  6
Continuous
100
AcDbLine
 10
381.7785941409422
 20
20.96715214094204
 30
0.0
 11
388.5134549999993
 21
27.70201300000008
 31
0.0
  0
LINE
  5
DB4CF
330
1E
100
AcDbEntity
  8
DETAIL
  6
Continuous
100
AcDbLine
 10
230.0543109348704
 20
19.50268600072782
 30
0.0
 11
378.2430602366313
 21
19.50268604687453
 31
0.0
  0
LINE
  5
DB4D2
330
1E
100
AcDbEntity
  8
DETAIL
  6
Continuous
100
AcDbLine
 10
-387.5007050000004
 20
19.50268599999981
 30
0.0
 11
-230.2394750000003
 21
19.50268599999981
 31
0.0
  0
LINE
  5
DB4D4
330
1E
100
AcDbEntity
  8
DETAIL
  6
Continuous
100
AcDbLine
 10
-395.5007050000004
 20
27.50268599999981
 30
0.0
 11
-395.5007050000004
 21
27.70201300000008
 31
0.0
  0
LINE
  5
DB4D8
330
1E
100
AcDbEntity
  8
DETAIL
  6
Continuous
100
AcDbLine
 10
-69.89095000000043
 20
10.0
 30
0.0
 11
69.89035399999966
 21
10.0
 31
0.0
  0
LINE
  5
DB4DE
330
1E
100
AcDbEntity
  8
DETAIL
  6
Continuous
100
AcDbLine
 10
-230.0189879999998
 20
8.219998000000032
 30
0.0
 11
-230.7665739010427
 21
16.76383486197892
 31
0.0
  0
LINE
  5
DB4DF
330
1E
100
AcDbEntity
  8
DETAIL
  6
Continuous
100
AcDbLine
 10
-269.2345100989587
 20
16.76383486197892
 30
0.0
 11
-269.9820960000006
 21
8.219998000000032
 31
0.0
  0
LINE
  5
DB4E2
330
1E
100
AcDbEntity
  8
DETAIL
  6
Continuous
100
AcDbLine
 10
-270.0027660000005
 20
0.0
 30
0.0
 11
-229.9983179999999
 21
0.0
 31
0.0
  0
LINE
  5
DB4E3
330
1E
100
AcDbEntity
  8
DETAIL
  6
Continuous
100
AcDbLine
 10
-229.9983179999999
 20
0.0
 30
0.0
 11
-229.9983179999999
 21
7.782470999999986
 31
0.0
  0
LINE
  5
DB4E4
330
1E
100
AcDbEntity
  8
DETAIL
  6
Continuous
100
AcDbLine
 10
-270.0027660000005
 20
0.0
 30
0.0
 11
-270.0027660000005
 21
7.782470999999986
 31
0.0
  0
SPLINE
  5
DB4E7
330
1E
100
AcDbEntity
  8
DETAIL
  6
Continuous
100
AcDbSpline
210
0.0
220
0.0
230
1.0
 70
     8
 71
     3
 72
     8
 73
     4
 74
     0
 42
0.00000001
 43
0.0000000001
 40
0.0
 40
0.0
 40
0.0
 40
0.0
 40
1.0
 40
1.0
 40
1.0
 40
1.0
 10
-269.982095819445
 20
8.219998056423719
 30
0.0
 10
-269.9958762013894
 20
8.075304046006749
 30
0.0
 10
-270.0027663923611
 20
7.927164940103919
 30
0.0
 10
-270.0027663923611
 20
7.782470929687406
 30
0.0
  0
SPLINE
  5
DB4E8
330
1E
100
AcDbEntity
  8
DETAIL
  6
Continuous
100
AcDbSpline
210
0.0
220
0.0
230
1.0
 70
     8
 71
     3
 72
     8
 73
     4
 74
     0
 42
0.00000001
 43
0.0000000001
 40
0.0
 40
0.0
 40
0.0
 40
0.0
 40
1.0
 40
1.0
 40
1.0
 40
1.0
 10
-229.9983176076394
 20
7.782470929687406
 30
0.0
 10
-229.9983176076394
 20
7.927164940103919
 30
0.0
 10
-230.0052077986111
 20
8.075304046006749
 30
0.0
 10
-230.0189881805563
 20
8.219998056423719
 30
0.0
  0
SPLINE
  5
DB4E9
330
1E
100
AcDbEntity
  8
DETAIL
  6
Continuous
100
AcDbSpline
210
0.0
220
0.0
230
1.0
 70
     8
 71
     3
 72
     8
 73
     4
 74
     0
 42
0.00000001
 43
0.0000000001
 40
0.0
 40
0.0
 40
0.0
 40
0.0
 40
1.0
 40
1.0
 40
1.0
 40
1.0
 10
-266.2476123125007
 20
19.5026857734374
 30
0.0
 10
-267.8013503767361
 20
19.5026857734374
 30
0.0
 10
-269.1001513750007
 20
18.31412783072892
 30
0.0
 10
-269.2345100989587
 20
16.76383486197892
 30
0.0
  0
SPLINE
  5
DB4EA
330
1E
100
AcDbEntity
  8
DETAIL
  6
Continuous
100
AcDbSpline
210
0.0
220
0.0
230
1.0
 70
     8
 71
     3
 72
     8
 73
     4
 74
     0
 42
0.00000001
 43
0.0000000001
 40
0.0
 40
0.0
 40
0.0
 40
0.0
 40
1.0
 40
1.0
 40
1.0
 40
1.0
 10
-230.7665739010427
 20
16.76383486197892
 30
0.0
 10
-230.9009326250007
 20
18.31412783072892
 30
0.0
 10
-232.1997336232644
 20
19.5026857734374
 30
0.0
 10
-233.7534716875007
 20
19.5026857734374
 30
0.0
  0
SPLINE
  5
DB4EC
330
1E
100
AcDbEntity
  8
DETAIL
  6
Continuous
100
AcDbSpline
210
0.0
220
0.0
230
1.0
 70
     8
 71
     3
 72
     8
 73
     4
 74
     0
 42
0.00000001
 43
0.0000000001
 40
0.0
 40
0.0
 40
0.0
 40
0.0
 40
1.0
 40
1.0
 40
1.0
 40
1.0
 10
401.9975584600688
 20
579.8026799045137
 30
0.0
 10
401.9975584600688
 20
580.9051104600692
 30
0.0
 10
401.1018336336801
 20
581.800835286458
 30
0.0
 10
399.9994030781245
 20
581.800835286458
 30
0.0
  0
LINE
  5
DB529
330
1E
100
AcDbEntity
  8
DETAIL
  6
Continuous
100
AcDbLine
 10
195.9923509999994
 20
141.2523599999999
 30
0.0
 11
217.4943039999994
 21
141.2523599999999
 31
0.0
  0
LINE
  5
DB52A
330
1E
100
AcDbEntity
  8
DETAIL
  6
Continuous
100
AcDbLine
 10
323.9914279999994
 20
86.25141099999973
 30
0.0
 11
345.4933814704855
 21
86.25141099999973
 31
0.0
  0
LINE
  5
DB52B
330
1E
100
AcDbEntity
  8
DETAIL
  6
Continuous
100
AcDbLine
 10
259.9953349999996
 20
86.25141099999973
 30
0.0
 11
281.4938429999993
 21
86.25141099999973
 31
0.0
  0
LINE
  5
DB52E
330
1E
100
AcDbEntity
  8
DETAIL
  6
Continuous
100
AcDbLine
 10
-397.5
 20
27.70201300000008
 30
0.0
 11
398.1774055385331
 21
27.70201300000008
 31
0.0
  0
LINE
  5
DB530
330
1E
100
AcDbEntity
  8
DETAIL
  6
Continuous
100
AcDbLine
 10
222.4943039999994
 20
658.0637479999992
 30
0.0
 11
222.4943039999994
 21
652.1405159999998
 31
0.0
  0
LINE
  5
DB531
330
1E
100
AcDbEntity
  8
DETAIL
  6
Continuous
100
AcDbLine
 10
195.9923509999994
 20
548.2524960000001
 30
0.0
 11
217.4943039999994
 21
548.2524960000001
 31
0.0
  0
LINE
  5
DB532
330
1E
100
AcDbEntity
  8
DETAIL
  6
Continuous
100
AcDbLine
 10
254.9953349999996
 20
91.25141099999972
 30
0.0
 11
254.9953349999996
 21
543.2524960000002
 31
0.0
  0
LINE
  5
DB533
330
1E
100
AcDbEntity
  8
DETAIL
  6
Continuous
100
AcDbLine
 10
222.4943039999994
 20
543.2524960000002
 30
0.0
 11
222.4943039999994
 21
146.2523599999998
 31
0.0
  0
LINE
  5
DB534
330
1E
100
AcDbEntity
  8
DETAIL
  6
Continuous
100
AcDbLine
 10
190.9923509999994
 20
543.2524960000002
 30
0.0
 11
190.9923509999994
 21
146.2523599999999
 31
0.0
  0
LINE
  5
DB535
330
1E
100
AcDbEntity
  8
DETAIL
  6
Continuous
100
AcDbLine
 10
286.4938429999993
 20
91.25141099999972
 30
0.0
 11
286.4938429999993
 21
543.2524960000002
 31
0.0
  0
LINE
  5
DB536
330
1E
100
AcDbEntity
  8
DETAIL
  6
Continuous
100
AcDbLine
 10
259.9953349999996
 20
548.2524960000001
 30
0.0
 11
281.4938429999993
 21
548.2524960000001
 31
0.0
  0
LINE
  5
DB537
330
1E
100
AcDbEntity
  8
DETAIL
  6
Continuous
100
AcDbLine
 10
318.9914279999994
 20
91.25141099999972
 30
0.0
 11
318.9914279999994
 21
543.2524960000002
 31
0.0
  0
LINE
  5
DB539
330
1E
100
AcDbEntity
  8
DETAIL
  6
Continuous
100
AcDbLine
 10
323.9914279999994
 20
548.2524960000001
 30
0.0
 11
345.4933814704855
 21
548.2524960000001
 31
0.0
  0
LINE
  5
DB53A
330
1E
100
AcDbEntity
  8
DETAIL
  6
Continuous
100
AcDbLine
 10
400.0
 20
685.501655
 30
0.0
 11
400.0
 21
28.19137729374004
 31
0.0
  0
LINE
  5
DB53B
330
1E
100
AcDbEntity
  8
DETAIL
  6
Continuous
100
AcDbLine
 10
-350.9625100000003
 20
652.1405159999998
 30
0.0
 11
-350.9625100000003
 21
658.0637479999992
 31
0.0
  0
LINE
  5
DB53C
330
1E
100
AcDbEntity
  8
DETAIL
  6
Continuous
100
AcDbLine
 10
217.4943039999994
 20
647.1405159999997
 30
0.0
 11
-345.9625100000005
 21
647.1405159999997
 31
0.0
  0
LINE
  5
DB53D
330
1E
100
AcDbEntity
  8
DETAIL
  6
Continuous
100
AcDbLine
 10
-345.9625100000003
 20
663.0637479999996
 30
0.0
 11
217.4943039999992
 21
663.0637479999996
 31
0.0
  0
LINE
  5
DB53E
330
1E
100
AcDbEntity
  8
DETAIL
  6
Continuous
100
AcDbLine
 10
-398.7188396598832
 20
686.4520849711289
 30
0.0
 11
399.0003259149298
 21
686.5007324157986
 31
0.0
  0
LINE
  5
DB545
330
1E
100
AcDbEntity
  8
DETAIL
  6
Continuous
100
AcDbLine
 10
-400.0
 20
30.20201300000008
 30
0.0
 11
-400.0
 21
687.503256
 31
0.0
  0
SPLINE
  5
DB550
330
1E
100
AcDbEntity
  8
DETAIL
  6
Continuous
100
AcDbSpline
210
0.0
220
0.0
230
1.0
 70
    24
 71
     3
 72
     8
 73
     4
 74
     0
 42
0.00000001
 43
0.0000000001
 40
2.0
 40
2.0
 40
2.0
 40
2.0
 40
3.0
 40
3.0
 40
3.0
 40
3.0
 10
-350.9625104565976
 20
66.50067816232604
 30
0.0
 10
-350.9625104565976
 20
66.50067816232604
 30
0.0
 10
-350.9625104565976
 20
71.50295680815951
 30
0.0
 10
-350.9625104565976
 20
71.50295680815951
 30
0.0
  0
SPLINE
  5
DB55B
330
1E
100
AcDbEntity
  8
DETAIL
  6
Continuous
100
AcDbSpline
210
0.0
220
0.0
230
1.0
 70
     8
 71
     3
 72
     8
 73
     4
 74
     0
 42
0.00000001
 43
0.0000000001
 40
0.0
 40
0.0
 40
0.0
 40
0.0
 40
1.0
 40
1.0
 40
1.0
 40
1.0
 10
400.0
 20
685.5016547248259
 30
0.0
 10
399.9994036059025
 20
686.0528700026041
 30
0.0
 10
399.5515411927076
 20
686.5007324157986
 30
0.0
 10
399.0003259149298
 20
686.5007324157986
 30
0.0
  0
SPLINE
  5
DB55E
330
1E
100
AcDbEntity
  8
DETAIL
  6
Continuous
100
AcDbSpline
210
0.0
220
0.0
230
1.0
 70
     8
 71
     3
 72
     8
 73
     4
 74
     0
 42
0.00000001
 43
0.0000000001
 40
0.0
 40
0.0
 40
0.0
 40
0.0
 40
1.0
 40
1.0
 40
1.0
 40
1.0
 10
-398.7188396598832
 20
686.4520849711289
 30
0.0
 10
-399.4074431822919
 20
686.4283854105901
 30
0.0
 10
-399.9999996059031
 20
685.7772623637153
 30
0.0
 10
-399.9999996059031
 20
685.0021158793403
 30
0.0
  0
ARC
  5
DB56B
330
1E
100
AcDbEntity
  8
DETAIL
  6
Continuous
370
     0
100
AcDbCircle
 10
133.9649629758742
 20
131.5349289052013
 30
0.0
 40
22.37366937754991
100
AcDbArc
 50
269.8971612991471
 51
0.1028387008529279
  0
ARC
  5
DB56C
330
1E
100
AcDbEntity
  8
DETAIL
  6
Continuous
370
     0
100
AcDbCircle
 10
-327.9565731383809
 20
131.5466499081203
 30
0.0
 40
22.3853770383758
100
AcDbArc
 50
179.9272152399811
 51
270.0815906893533
  0
ARC
  5
DB56D
330
1E
100
AcDbEntity
  8
DETAIL
  6
Continuous
370
     0
100
AcDbCircle
 10
-327.9572657100152
 20
599.0588875928814
 30
0.0
 40
22.38468535797705
100
AcDbArc
 50
89.91663408317386
 51
180.0745599874326
  0
ARC
  5
DB56E
330
1E
100
AcDbEntity
  8
DETAIL
  6
Continuous
370
     0
100
AcDbCircle
 10
133.9584757718153
 20
599.0634232744005
 30
0.0
 40
22.38015131028044
100
AcDbArc
 50
359.9049931712712
 51
90.08620089934543
  0
LINE
  5
DB56F
330
1E
100
AcDbEntity
  8
DETAIL
  6
Continuous
370
     0
100
AcDbLine
 10
350.4933814704855
 20
543.2524960000002
 30
0.0
 11
350.4933814704855
 21
91.25141099999972
 31
0.0
  0
LINE
  5
DB570
330
1E
100
AcDbEntity
  8
DETAIL
  6
Continuous
370
     0
100
AcDbLine
 10
-342.0702584999999
 20
556.4518228923607
 30
0.0
 11
148.0703664999996
 21
556.4518228923607
 31
0.0
  0
LINE
  5
DB571
330
1E
100
AcDbEntity
  8
DETAIL
  6
Continuous
370
     0
100
AcDbLine
 10
-342.0702584999999
 20
461.4498688923612
 30
0.0
 11
148.0703664999996
 21
461.4498688923612
 31
0.0
  0
LINE
  5
DB572
330
1E
100
AcDbEntity
  8
DETAIL
  6
Continuous
370
     0
100
AcDbLine
 10
-342.0702584999999
 20
271.4528534401047
 30
0.0
 11
148.0703664999996
 21
271.4528534401047
 31
0.0
  0
LINE
  5
DB573
330
1E
100
AcDbEntity
  8
DETAIL
  6
Continuous
370
     0
100
AcDbLine
 10
-342.0702584999999
 20
176.4508998923616
 30
0.0
 11
148.0703664999996
 21
176.4508998923616
 31
0.0
  0
LINE
  5
DB574
330
1E
100
AcDbEntity
  8
DETAIL
  6
Continuous
370
     0
100
AcDbLine
 10
-342.0685954419987
 20
366.4513618923611
 30
0.0
 11
148.0720295580008
 21
366.4513618923611
 31
0.0
  0
LINE
  5
DB575
330
1E
100
AcDbEntity
  8
DETAIL
  6
Continuous
370
     0
100
AcDbLine
 10
-311.7017420000011
 20
141.98272
 30
0.0
 11
117.6915139999992
 21
141.98272
 31
0.0
  0
LINE
  5
DB576
330
1E
100
AcDbEntity
  8
DETAIL
  6
Continuous
370
     0
100
AcDbLine
 10
-311.7017420000011
 20
118.5422899999998
 30
0.0
 11
117.6915139999992
 21
118.5422899999998
 31
0.0
  0
LINE
  5
DB577
330
1E
100
AcDbEntity
  8
DETAIL
  6
Continuous
370
     0
100
AcDbLine
 10
-308.6941729999999
 20
609.8129069999994
 30
0.0
 11
-308.6941731527786
 21
113.9017470303815
 31
0.0
  0
LINE
  5
DB578
330
1E
100
AcDbEntity
  8
DETAIL
  6
Continuous
370
     0
100
AcDbLine
 10
-297.3012429999999
 20
609.8129069999994
 30
0.0
 11
-297.3012431527786
 21
113.9017470303815
 31
0.0
  0
LINE
  5
DB579
330
1E
100
AcDbEntity
  8
DETAIL
  6
Continuous
370
     0
100
AcDbLine
 10
-285.9014221527777
 20
609.8129069696177
 30
0.0
 11
-285.9014223055565
 21
113.9017469999999
 31
0.0
  0
LINE
  5
DB57A
330
1E
100
AcDbEntity
  8
DETAIL
  6
Continuous
370
     0
100
AcDbLine
 10
-274.498155152778
 20
609.8129069696177
 30
0.0
 11
-274.4981553055559
 21
113.9017469999999
 31
0.0
  0
LINE
  5
DB57B
330
1E
100
AcDbEntity
  8
DETAIL
  6
Continuous
370
     0
100
AcDbLine
 10
-263.1017800000009
 20
609.8129069999994
 30
0.0
 11
-263.1017801527779
 21
113.9017470303815
 31
0.0
  0
LINE
  5
DB57C
330
1E
100
AcDbEntity
  8
DETAIL
  6
Continuous
370
     0
100
AcDbLine
 10
-251.6985141527785
 20
609.8129069696177
 30
0.0
 11
-251.6985143055563
 21
113.9017469999999
 31
0.0
  0
LINE
  5
DB57D
330
1E
100
AcDbEntity
  8
DETAIL
  6
Continuous
370
     0
100
AcDbLine
 10
-240.3021380000009
 20
609.8129069999994
 30
0.0
 11
-240.3021381527778
 21
113.9017470303815
 31
0.0
  0
LINE
  5
DB57E
330
1E
100
AcDbEntity
  8
DETAIL
  6
Continuous
370
     0
100
AcDbLine
 10
-228.8988720000006
 20
609.8129069999994
 30
0.0
 11
-228.8988721527785
 21
113.9017470303815
 31
0.0
  0
LINE
  5
DB57F
330
1E
100
AcDbEntity
  8
DETAIL
  6
Continuous
370
     0
100
AcDbLine
 10
-217.502496000001
 20
609.8129069999994
 30
0.0
 11
-217.5024961527779
 21
113.9017470303815
 31
0.0
  0
LINE
  5
DB580
330
1E
100
AcDbEntity
  8
DETAIL
  6
Continuous
370
     0
100
AcDbLine
 10
-206.0992300000007
 20
609.8129069999994
 30
0.0
 11
-206.0992301527786
 21
113.9017470303815
 31
0.0
  0
LINE
  5
DB581
330
1E
100
AcDbEntity
  8
DETAIL
  6
Continuous
370
     0
100
AcDbLine
 10
-194.702854000001
 20
609.8129069999997
 30
0.0
 11
-194.7028541527778
 21
113.9017470303815
 31
0.0
  0
LINE
  5
DB582
330
1E
100
AcDbEntity
  8
DETAIL
  6
Continuous
370
     0
100
AcDbLine
 10
-183.2995881527786
 20
609.8129069696177
 30
0.0
 11
-183.2995883055555
 21
113.9017469999999
 31
0.0
  0
LINE
  5
DB583
330
1E
100
AcDbEntity
  8
DETAIL
  6
Continuous
370
     0
100
AcDbLine
 10
-171.8997671527777
 20
609.8129069696177
 30
0.0
 11
-171.8997673055564
 21
113.9017469999999
 31
0.0
  0
LINE
  5
DB584
330
1E
100
AcDbEntity
  8
DETAIL
  6
Continuous
370
     0
100
AcDbLine
 10
-160.4999461527786
 20
609.8129069696177
 30
0.0
 11
-160.4999463055555
 21
113.9017469999999
 31
0.0
  0
LINE
  5
DB585
330
1E
100
AcDbEntity
  8
DETAIL
  6
Continuous
370
     0
100
AcDbLine
 10
-149.1001250000008
 20
609.8129069999994
 30
0.0
 11
-149.1001251527777
 21
113.9017470303815
 31
0.0
  0
LINE
  5
DB586
330
1E
100
AcDbEntity
  8
DETAIL
  6
Continuous
370
     0
100
AcDbLine
 10
-137.7003041527787
 20
609.8129069696177
 30
0.0
 11
-137.7003043055556
 21
113.9017469999999
 31
0.0
  0
LINE
  5
DB587
330
1E
100
AcDbEntity
  8
DETAIL
  6
Continuous
370
     0
100
AcDbLine
 10
-126.3004830000009
 20
609.8129069999994
 30
0.0
 11
-126.3004831527778
 21
113.9017470303815
 31
0.0
  0
LINE
  5
DB588
330
1E
100
AcDbEntity
  8
DETAIL
  6
Continuous
370
     0
100
AcDbLine
 10
-114.9006621527787
 20
609.8129069696177
 30
0.0
 11
-114.9006623055556
 21
113.9017469999999
 31
0.0
  0
LINE
  5
DB589
330
1E
100
AcDbEntity
  8
DETAIL
  6
Continuous
370
     0
100
AcDbLine
 10
-103.5008410000009
 20
609.8129069999994
 30
0.0
 11
-103.5008411527778
 21
113.9017470303815
 31
0.0
  0
LINE
  5
DB58A
330
1E
100
AcDbEntity
  8
DETAIL
  6
Continuous
370
     0
100
AcDbLine
 10
-92.10102000000052
 20
609.8129069999994
 30
0.0
 11
-92.10102015277836
 21
113.9017470303815
 31
0.0
  0
LINE
  5
DB58B
330
1E
100
AcDbEntity
  8
DETAIL
  6
Continuous
370
     0
100
AcDbLine
 10
-80.70120000000043
 20
609.8129069999994
 30
0.0
 11
-80.70120015277828
 21
113.9017470303815
 31
0.0
  0
LINE
  5
DB58C
330
1E
100
AcDbEntity
  8
DETAIL
  6
Continuous
370
     0
100
AcDbLine
 10
-69.30137800000057
 20
609.8129069999994
 30
0.0
 11
-69.30137815277794
 21
113.9017470303815
 31
0.0
  0
LINE
  5
DB58D
330
1E
100
AcDbEntity
  8
DETAIL
  6
Continuous
370
     0
100
AcDbLine
 10
-57.89811200000031
 20
609.8129069999994
 30
0.0
 11
-57.89811215277814
 21
113.9017470303815
 31
0.0
  0
LINE
  5
DB58E
330
1E
100
AcDbEntity
  8
DETAIL
  6
Continuous
370
     0
100
AcDbLine
 10
-46.50173700000049
 20
609.8129069999994
 30
0.0
 11
-46.50173715277833
 21
113.9017470303815
 31
0.0
  0
LINE
  5
DB58F
330
1E
100
AcDbEntity
  8
DETAIL
  6
Continuous
370
     0
100
AcDbLine
 10
-35.09847015277819
 20
609.8129069696177
 30
0.0
 11
-35.09847030555602
 21
113.9017469999999
 31
0.0
  0
LINE
  5
DB590
330
1E
100
AcDbEntity
  8
DETAIL
  6
Continuous
370
     0
100
AcDbLine
 10
-23.70209470052123
 20
609.8129069696177
 30
0.0
 11
-23.70209485329906
 21
113.9017469999999
 31
0.0
  0
LINE
  5
DB591
330
1E
100
AcDbEntity
  8
DETAIL
  6
Continuous
370
     0
100
AcDbLine
 10
-12.29882815277824
 20
609.8129069696177
 30
0.0
 11
-12.29882830555607
 21
113.9017469999999
 31
0.0
  0
LINE
  5
DB592
330
1E
100
AcDbEntity
  8
DETAIL
  6
Continuous
370
     0
100
AcDbLine
 10
-0.9024530000006052
 20
609.8129069999997
 30
0.0
 11
-0.9024531527784349
 21
113.9017470303815
 31
0.0
  0
LINE
  5
DB593
330
1E
100
AcDbEntity
  8
DETAIL
  6
Continuous
370
     0
100
AcDbLine
 10
10.50081384722171
 20
609.8129069696177
 30
0.0
 11
10.50081369444388
 21
113.9017469999999
 31
0.0
  0
LINE
  5
DB594
330
1E
100
AcDbEntity
  8
DETAIL
  6
Continuous
370
     0
100
AcDbLine
 10
21.89718899999935
 20
609.8129069999994
 30
0.0
 11
21.89718884722152
 21
113.9017470303815
 31
0.0
  0
LINE
  5
DB595
330
1E
100
AcDbEntity
  8
DETAIL
  6
Continuous
370
     0
100
AcDbLine
 10
33.30045584722166
 20
609.8129069696177
 30
0.0
 11
33.30045569444383
 21
113.9017469999999
 31
0.0
  0
LINE
  5
DB596
330
1E
100
AcDbEntity
  8
DETAIL
  6
Continuous
370
     0
100
AcDbLine
 10
44.70027684722163
 20
609.8129069696177
 30
0.0
 11
44.70027669444426
 21
113.9017469999999
 31
0.0
  0
LINE
  5
DB597
330
1E
100
AcDbEntity
  8
DETAIL
  6
Continuous
370
     0
100
AcDbLine
 10
56.1000978472216
 20
609.8129069696177
 30
0.0
 11
56.10009769444423
 21
113.9017469999999
 31
0.0
  0
LINE
  5
DB598
330
1E
100
AcDbEntity
  8
DETAIL
  6
Continuous
370
     0
100
AcDbLine
 10
67.49991799999953
 20
609.8129069999994
 30
0.0
 11
67.49991784722169
 21
113.9017470303815
 31
0.0
  0
LINE
  5
DB599
330
1E
100
AcDbEntity
  8
DETAIL
  6
Continuous
370
     0
100
AcDbLine
 10
78.89973884722166
 20
609.8129069696177
 30
0.0
 11
78.89973869444384
 21
113.9017469999999
 31
0.0
  0
LINE
  5
DB59A
330
1E
100
AcDbEntity
  8
DETAIL
  6
Continuous
370
     0
100
AcDbLine
 10
90.29955999999948
 20
609.8129069999994
 30
0.0
 11
90.29955984722164
 21
113.9017470303815
 31
0.0
  0
LINE
  5
DB59B
330
1E
100
AcDbEntity
  8
DETAIL
  6
Continuous
370
     0
100
AcDbLine
 10
101.6993809999994
 20
609.8129069999994
 30
0.0
 11
101.6993808472216
 21
113.9017470303815
 31
0.0
  0
LINE
  5
DB59C
330
1E
100
AcDbEntity
  8
DETAIL
  6
Continuous
370
     0
100
AcDbLine
 10
113.0992019999994
 20
609.8129069999994
 30
0.0
 11
113.0992018472215
 21
113.9017470303815
 31
0.0
  0
LINE
  5
DB59D
330
1E
100
AcDbEntity
  8
DETAIL
  6
Continuous
370
     0
100
AcDbLine
 10
-330.7841260000005
 20
566.4494889999996
 30
0.0
 11
-330.7841258923618
 21
152.1491965156247
 31
0.0
  0
LINE
  5
DB59E
330
1E
100
AcDbEntity
  8
DETAIL
  6
Continuous
370
     0
100
AcDbLine
 10
-340.7473418923619
 20
566.4529335156247
 30
0.0
 11
-340.7473417847232
 21
152.1526410312499
 31
0.0
  0
LINE
  5
DB59F
330
1E
100
AcDbEntity
  8
DETAIL
  6
Continuous
370
     0
100
AcDbLine
 10
134.4829099999997
 20
566.4529339999997
 30
0.0
 11
134.4829101076384
 21
152.1526415156249
 31
0.0
  0
LINE
  5
DB5A0
330
1E
100
AcDbEntity
  8
DETAIL
  6
Continuous
370
     0
100
AcDbLine
 10
144.4461259999998
 20
566.4529339999997
 30
0.0
 11
144.4461261076385
 21
152.1526415156249
 31
0.0
  0
LINE
  5
DB5A1
330
1E
100
AcDbEntity
  8
DETAIL
  6
Continuous
370
     0
100
AcDbLine
 10
123.1898869999995
 20
136.7461750000002
 30
0.0
 11
123.1898869999995
 21
616.7030979999997
 31
0.0
  0
LINE
  5
DB5A2
330
1E
100
AcDbEntity
  8
DETAIL
  6
Continuous
370
     0
100
AcDbLine
 10
129.6942269999995
 20
607.4599069999997
 30
0.0
 11
-323.7010090000004
 21
607.4599069999997
 31
0.0
  0
LINE
  5
DB5A3
330
1E
100
AcDbEntity
  8
DETAIL
  6
Continuous
370
     0
100
AcDbLine
 10
-319.4876570000007
 20
616.7030979999997
 30
0.0
 11
-319.4876570000007
 21
136.7461750000002
 31
0.0
  0
CIRCLE
  5
DB5A4
330
1E
100
AcDbEntity
  8
DETAIL
  6
Continuous
100
AcDbCircle
 10
-318.3387180000009
 20
129.197971
 30
0.0
 40
5.499999999998624
  0
LINE
  5
DB5A6
330
1E
100
AcDbEntity
  8
DETAIL
  6
Continuous
100
AcDbLine
 10
-318.8386349012599
 20
131.1893138934497
 30
0.0
 11
-317.8387128706108
 21
131.1893111705972
 31
0.0
  0
ARC
  5
DB5A7
330
1E
100
AcDbEntity
  8
DETAIL
  6
Continuous
100
AcDbCircle
 10
-316.822153366169
 20
130.7146116529457
 30
0.0
 40
1.016638307944891
100
AcDbArc
 50
180.6793031412338
 51
270.0142035915511
  0
LINE
  5
DB5A8
330
1E
100
AcDbEntity
  8
DETAIL
  6
Continuous
100
AcDbLine
 10
-317.8387202222821
 20
130.7025585938422
 30
0.0
 11
-317.8387128706108
 21
131.1893111705972
 31
0.0
  0
LINE
  5
DB5A9
330
1E
100
AcDbEntity
  8
DETAIL
  6
Continuous
100
AcDbLine
 10
-316.8342321055988
 20
129.6979737964534
 30
0.0
 11
-316.3473673903955
 21
129.6978899070777
 31
0.0
  0
LINE
  5
DB5AA
330
1E
100
AcDbEntity
  8
DETAIL
  6
Continuous
100
AcDbLine
 10
-316.3473673903955
 20
129.6978899070777
 30
0.0
 11
-316.3473701132916
 21
128.6979678764214
 31
0.0
  0
LINE
  5
DB5AB
330
1E
100
AcDbEntity
  8
DETAIL
  6
Continuous
100
AcDbLine
 10
-316.3473701132916
 20
128.6979678764214
 30
0.0
 11
-316.8341226901848
 21
128.6979752281072
 31
0.0
  0
ARC
  5
DB5AC
330
1E
100
AcDbEntity
  8
DETAIL
  6
Continuous
100
AcDbCircle
 10
-316.8224193307615
 20
127.6823538802455
 30
0.0
 40
1.015688776571959
100
AcDbArc
 50
90.66021005218058
 51
177.6724019152106
  0
LINE
  5
DB5AD
330
1E
100
AcDbEntity
  8
DETAIL
  6
Continuous
100
AcDbLine
 10
-317.8387913767819
 20
127.206622396257
 30
0.0
 11
-317.8372701119097
 21
127.7236041270039
 31
0.0
  0
LINE
  5
DB5AE
330
1E
100
AcDbEntity
  8
DETAIL
  6
Continuous
100
AcDbLine
 10
-317.8387913767819
 20
127.206622396257
 30
0.0
 11
-318.8387133522356
 21
127.2066251172032
 31
0.0
  0
ARC
  5
DB5AF
330
1E
100
AcDbEntity
  8
DETAIL
  6
Continuous
100
AcDbCircle
 10
-319.855074750144
 20
127.682417141455
 30
0.0
 40
1.015688776571959
100
AcDbArc
 50
2.325207704216837
 51
89.33739956726153
  0
LINE
  5
DB5B0
330
1E
100
AcDbEntity
  8
DETAIL
  6
Continuous
100
AcDbLine
 10
-320.3300815957736
 20
128.6980509558061
 30
0.0
 11
-319.8433290189969
 21
128.6980380001687
 31
0.0
  0
LINE
  5
DB5B1
330
1E
100
AcDbEntity
  8
DETAIL
  6
Continuous
100
AcDbLine
 10
-320.3300426019114
 20
129.6979729857053
 30
0.0
 11
-320.3300815957736
 21
128.6980509558061
 31
0.0
  0
LINE
  5
DB5B2
330
1E
100
AcDbEntity
  8
DETAIL
  6
Continuous
100
AcDbLine
 10
-319.8431778836312
 20
129.6980365630797
 30
0.0
 11
-320.3300426019114
 21
129.6979729857053
 31
0.0
  0
ARC
  5
DB5B3
330
1E
100
AcDbEntity
  8
DETAIL
  6
Continuous
100
AcDbCircle
 10
-319.8552142089072
 20
130.7146749226126
 30
0.0
 40
1.016638307944891
100
AcDbArc
 50
269.9834060278737
 51
359.318306478156
  0
LINE
  5
DB5B4
330
1E
100
AcDbEntity
  8
DETAIL
  6
Continuous
100
AcDbLine
 10
-318.8386478565335
 20
130.7025794523388
 30
0.0
 11
-318.8386349008815
 21
131.1893320289764
 31
0.0
  0
LINE
  5
DB5B5
330
1E
100
AcDbEntity
  8
DETAIL
  6
Continuous
100
AcDbLine
 10
-318.8387225525312
 20
127.2066432548272
 30
0.0
 11
-318.8402222489185
 21
127.7236250485912
 31
0.0
  0
CIRCLE
  5
DB5B6
330
1E
100
AcDbEntity
  8
DETAIL
  6
Continuous
100
AcDbCircle
 10
124.3371039999992
 20
129.197971
 30
0.0
 40
5.499999999998624
  0
LINE
  5
DB5B8
330
1E
100
AcDbEntity
  8
DETAIL
  6
Continuous
100
AcDbLine
 10
123.8371870987403
 20
131.1893138934497
 30
0.0
 11
124.8371091293893
 21
131.1893111705972
 31
0.0
  0
ARC
  5
DB5B9
330
1E
100
AcDbEntity
  8
DETAIL
  6
Continuous
100
AcDbCircle
 10
125.8536686338311
 20
130.7146116529457
 30
0.0
 40
1.016638307944891
100
AcDbArc
 50
180.6793031412338
 51
270.0142035915511
  0
LINE
  5
DB5BA
330
1E
100
AcDbEntity
  8
DETAIL
  6
Continuous
100
AcDbLine
 10
124.8371017777181
 20
130.7025585938422
 30
0.0
 11
124.8371091293893
 21
131.1893111705972
 31
0.0
  0
LINE
  5
DB5BB
330
1E
100
AcDbEntity
  8
DETAIL
  6
Continuous
100
AcDbLine
 10
125.8415898944013
 20
129.6979737964534
 30
0.0
 11
126.3284546096047
 21
129.6978899070777
 31
0.0
  0
LINE
  5
DB5BC
330
1E
100
AcDbEntity
  8
DETAIL
  6
Continuous
100
AcDbLine
 10
126.3284546096047
 20
129.6978899070777
 30
0.0
 11
126.3284518867085
 21
128.6979678764214
 31
0.0
  0
LINE
  5
DB5BD
330
1E
100
AcDbEntity
  8
DETAIL
  6
Continuous
100
AcDbLine
 10
126.3284518867085
 20
128.6979678764214
 30
0.0
 11
125.8416993098153
 21
128.6979752281072
 31
0.0
  0
ARC
  5
DB5BE
330
1E
100
AcDbEntity
  8
DETAIL
  6
Continuous
100
AcDbCircle
 10
125.8534026692382
 20
127.6823538802455
 30
0.0
 40
1.015688776571959
100
AcDbArc
 50
90.66021005218058
 51
177.6724019152106
  0
LINE
  5
DB5BF
330
1E
100
AcDbEntity
  8
DETAIL
  6
Continuous
100
AcDbLine
 10
124.8370306232182
 20
127.206622396257
 30
0.0
 11
124.8385518880904
 21
127.7236041270039
 31
0.0
  0
LINE
  5
DB5C0
330
1E
100
AcDbEntity
  8
DETAIL
  6
Continuous
100
AcDbLine
 10
124.8370306232182
 20
127.206622396257
 30
0.0
 11
123.8371086477646
 21
127.2066251172032
 31
0.0
  0
ARC
  5
DB5C1
330
1E
100
AcDbEntity
  8
DETAIL
  6
Continuous
100
AcDbCircle
 10
122.8207472498561
 20
127.682417141455
 30
0.0
 40
1.015688776571959
100
AcDbArc
 50
2.325207704216837
 51
89.33739956726153
  0
LINE
  5
DB5C2
330
1E
100
AcDbEntity
  8
DETAIL
  6
Continuous
100
AcDbLine
 10
122.3457404042265
 20
128.6980509558061
 30
0.0
 11
122.8324929810028
 21
128.6980380001687
 31
0.0
  0
LINE
  5
DB5C3
330
1E
100
AcDbEntity
  8
DETAIL
  6
Continuous
100
AcDbLine
 10
122.3457793980887
 20
129.6979729857053
 30
0.0
 11
122.3457404042265
 21
128.6980509558061
 31
0.0
  0
LINE
  5
DB5C4
330
1E
100
AcDbEntity
  8
DETAIL
  6
Continuous
100
AcDbLine
 10
122.8326441163685
 20
129.6980365630797
 30
0.0
 11
122.3457793980887
 21
129.6979729857053
 31
0.0
  0
ARC
  5
DB5C5
330
1E
100
AcDbEntity
  8
DETAIL
  6
Continuous
100
AcDbCircle
 10
122.8206077910922
 20
130.7146749226126
 30
0.0
 40
1.016638307944891
100
AcDbArc
 50
269.9834060278737
 51
359.318306478156
  0
LINE
  5
DB5C6
330
1E
100
AcDbEntity
  8
DETAIL
  6
Continuous
100
AcDbLine
 10
123.8371741434665
 20
130.7025794523388
 30
0.0
 11
123.8371870991186
 21
131.1893320289764
 31
0.0
  0
LINE
  5
DB5C7
330
1E
100
AcDbEntity
  8
DETAIL
  6
Continuous
100
AcDbLine
 10
123.837099447468
 20
127.2066432548272
 30
0.0
 11
123.8355997510812
 21
127.7236250485912
 31
0.0
  0
LINE
  5
DB5CA
330
1E
100
AcDbEntity
  8
DETAIL
  6
Continuous
370
     0
100
AcDbLine
 10
-230.2394750000003
 20
19.50268599999981
 30
0.0
 11
-69.89095000000043
 21
10.0
 31
0.0
  0
LINE
  5
DB5CB
330
1E
100
AcDbEntity
  8
DETAIL
  6
Continuous
370
     0
100
AcDbLine
 10
69.89035399999966
 20
10.0
 30
0.0
 11
230.0543109348704
 21
19.50268600072782
 31
0.0
  0
LINE
  5
DB5CC
330
1E
100
AcDbEntity
  8
DETAIL
  6
Continuous
370
     0
100
AcDbLine
 10
401.997558630217
 20
406.2633912426218
 30
0.0
 11
421.9803472671661
 21
400.5293871677261
 31
0.0
  0
ARC
  5
DB5D1
330
1E
100
AcDbEntity
  8
DETAIL
  6
Continuous
370
     0
100
AcDbCircle
 10
428.5653438230347
 20
393.9061196752282
 30
0.0
 40
0.2659962407676653
100
AcDbArc
 50
83.88129147406353
 51
149.8583347009362
  0
ARC
  5
DB5D2
330
1E
100
AcDbEntity
  8
DETAIL
  6
Continuous
370
     0
100
AcDbCircle
 10
428.9734311409238
 20
389.0840350669347
 30
0.0
 40
0.7600891471310817
100
AcDbArc
 50
192.7079113001312
 51
238.2113250901739
  0
ARC
  5
DB5D3
330
1E
100
AcDbEntity
  8
DETAIL
  6
Continuous
370
     0
100
AcDbCircle
 10
436.9171465212521
 20
391.3040787249233
 30
0.0
 40
9.007297270767347
100
AcDbArc
 50
162.3194155402038
 51
195.3690306811063
  0
LINE
  5
DB5D4
330
1E
100
AcDbEntity
  8
DETAIL
  6
Continuous
370
     0
100
AcDbLine
 10
428.5936960277776
 20
394.1706005868054
 30
0.0
 11
431.9733349999997
 21
393.3403329999996
 31
0.0
  0
LINE
  5
DB5D5
330
1E
100
AcDbEntity
  8
DETAIL
  6
Continuous
370
     0
100
AcDbLine
 10
428.5730254548607
 20
388.4379616979164
 30
0.0
 11
431.9733349999997
 21
387.535347
 31
0.0
  0
SPLINE
  5
DB5D6
330
1E
100
AcDbEntity
  8
DETAIL
  6
Continuous
100
AcDbSpline
210
0.0
220
0.0
230
1.0
 70
    24
 71
     3
 72
    11
 73
     7
 74
     0
 42
0.00000001
 43
0.0000000001
 40
6.0
 40
6.0
 40
6.0
 40
6.0
 40
7.0
 40
7.0
 40
7.0
 40
8.0
 40
8.0
 40
8.0
 40
8.0
 10
428.5936957274302
 20
384.6724719062498
 30
0.0
 10
428.5833604409718
 20
384.6724719062498
 30
0.0
 10
428.6005859184024
 20
384.6724719062498
 30
0.0
 10
428.5868055364581
 20
384.6724719062498
 30
0.0
 10
428.5730251545136
 20
384.6724719062498
 30
0.0
 10
428.5936957274302
 20
384.6724719062498
 30
0.0
 10
428.5799153454854
 20
384.6724719062498
 30
0.0
  0
ARC
  5
DB5D7
330
1E
100
AcDbEntity
  8
DETAIL
  6
Continuous
370
     0
100
AcDbCircle
 10
428.5653435226873
 20
384.4079909946727
 30
0.0
 40
0.2659962407676653
100
AcDbArc
 50
83.88129147406353
 51
149.8583347009362
  0
ARC
  5
DB5D8
330
1E
100
AcDbEntity
  8
DETAIL
  6
Continuous
370
     0
100
AcDbCircle
 10
428.9734308405767
 20
379.5859063863791
 30
0.0
 40
0.7600891471310817
100
AcDbArc
 50
192.7079113001312
 51
238.2113250901739
  0
ARC
  5
DB5D9
330
1E
100
AcDbEntity
  8
DETAIL
  6
Continuous
370
     0
100
AcDbCircle
 10
436.9171462209044
 20
381.8059500443678
 30
0.0
 40
9.007297270767347
100
AcDbArc
 50
162.3194155402038
 51
195.3690306811063
  0
LINE
  5
DB5DA
330
1E
100
AcDbEntity
  8
DETAIL
  6
Continuous
370
     0
100
AcDbLine
 10
428.5936957274302
 20
384.6724719062498
 30
0.0
 11
431.9733346996526
 21
383.8422043194441
 31
0.0
  0
LINE
  5
DB5DB
330
1E
100
AcDbEntity
  8
DETAIL
  6
Continuous
370
     0
100
AcDbLine
 10
428.5730251545136
 20
378.9398330173609
 30
0.0
 11
431.9733346996526
 21
378.0372183194445
 31
0.0
  0
SPLINE
  5
DB5DC
330
1E
100
AcDbEntity
  8
DETAIL
  6
Continuous
100
AcDbSpline
210
0.0
220
0.0
230
1.0
 70
    24
 71
     3
 72
    11
 73
     7
 74
     0
 42
0.00000001
 43
0.0000000001
 40
6.0
 40
6.0
 40
6.0
 40
6.0
 40
7.0
 40
7.0
 40
7.0
 40
8.0
 40
8.0
 40
8.0
 40
8.0
 10
428.5936957274302
 20
375.1708985555556
 30
0.0
 10
428.5833604409718
 20
375.1708985555556
 30
0.0
 10
428.6005859184024
 20
375.1708985555556
 30
0.0
 10
428.5868055364581
 20
375.1708985555556
 30
0.0
 10
428.5730251545136
 20
375.1708985555556
 30
0.0
 10
428.5936957274302
 20
375.1708985555556
 30
0.0
 10
428.5799153454854
 20
375.1708985555556
 30
0.0
  0
ARC
  5
DB5DD
330
1E
100
AcDbEntity
  8
DETAIL
  6
Continuous
370
     0
100
AcDbCircle
 10
428.5653435226873
 20
374.9064176439783
 30
0.0
 40
0.2659962407676653
100
AcDbArc
 50
83.88129147406353
 51
149.8583347009362
  0
ARC
  5
DB5DE
330
1E
100
AcDbEntity
  8
DETAIL
  6
Continuous
370
     0
100
AcDbCircle
 10
428.9734308405767
 20
370.0843330356847
 30
0.0
 40
0.7600891471310817
100
AcDbArc
 50
192.7079113001312
 51
238.2113250901739
  0
ARC
  5
DB5DF
330
1E
100
AcDbEntity
  8
DETAIL
  6
Continuous
370
     0
100
AcDbCircle
 10
436.9171462209044
 20
372.3043766936735
 30
0.0
 40
9.007297270767347
100
AcDbArc
 50
162.3194155402038
 51
195.3690306811063
  0
LINE
  5
DB5E0
330
1E
100
AcDbEntity
  8
DETAIL
  6
Continuous
370
     0
100
AcDbLine
 10
428.5936957274302
 20
375.1708985555556
 30
0.0
 11
431.9733346996526
 21
374.3406309687498
 31
0.0
  0
LINE
  5
DB5E1
330
1E
100
AcDbEntity
  8
DETAIL
  6
Continuous
370
     0
100
AcDbLine
 10
428.5730251545136
 20
369.4382596666665
 30
0.0
 11
431.9733346996526
 21
368.5356449687501
 31
0.0
  0
SPLINE
  5
DB5E2
330
1E
100
AcDbEntity
  8
DETAIL
  6
Continuous
100
AcDbSpline
210
0.0
220
0.0
230
1.0
 70
    24
 71
     3
 72
    11
 73
     7
 74
     0
 42
0.00000001
 43
0.0000000001
 40
6.0
 40
6.0
 40
6.0
 40
6.0
 40
7.0
 40
7.0
 40
7.0
 40
8.0
 40
8.0
 40
8.0
 40
8.0
 10
428.5936960277776
 20
365.6727705868056
 30
0.0
 10
428.5833607413185
 20
365.6727705868056
 30
0.0
 10
428.6005862187494
 20
365.6727705868056
 30
0.0
 10
428.5868058368047
 20
365.6727705868056
 30
0.0
 10
428.5730254548607
 20
365.6727705868056
 30
0.0
 10
428.5936960277776
 20
365.6727705868056
 30
0.0
 10
428.5799156458328
 20
365.6727705868056
 30
0.0
  0
ARC
  5
DB5E3
330
1E
100
AcDbEntity
  8
DETAIL
  6
Continuous
370
     0
100
AcDbCircle
 10
428.5653438230347
 20
365.4082896752283
 30
0.0
 40
0.2659962407676653
100
AcDbArc
 50
83.88129147406353
 51
149.8583347009362
  0
ARC
  5
DB5E4
330
1E
100
AcDbEntity
  8
DETAIL
  6
Continuous
370
     0
100
AcDbCircle
 10
428.9734311409238
 20
360.5862050669348
 30
0.0
 40
0.7600891471310817
100
AcDbArc
 50
192.7079113001312
 51
238.2113250901739
  0
ARC
  5
DB5E5
330
1E
100
AcDbEntity
  8
DETAIL
  6
Continuous
370
     0
100
AcDbCircle
 10
436.9171465212521
 20
362.8062487249235
 30
0.0
 40
9.007297270767347
100
AcDbArc
 50
162.3194155402038
 51
195.3690306811063
  0
LINE
  5
DB5E6
330
1E
100
AcDbEntity
  8
DETAIL
  6
Continuous
370
     0
100
AcDbLine
 10
428.5936960277776
 20
365.6727705868056
 30
0.0
 11
431.9733349999997
 21
364.8425029999998
 31
0.0
  0
LINE
  5
DB5E7
330
1E
100
AcDbEntity
  8
DETAIL
  6
Continuous
370
     0
100
AcDbLine
 10
428.5730254548607
 20
359.9401316979165
 30
0.0
 11
431.9733349999997
 21
359.0375170000001
 31
0.0
  0
SPLINE
  5
DB5E8
330
1E
100
AcDbEntity
  8
DETAIL
  6
Continuous
100
AcDbSpline
210
0.0
220
0.0
230
1.0
 70
    24
 71
     3
 72
    11
 73
     7
 74
     0
 42
0.00000001
 43
0.0000000001
 40
6.0
 40
6.0
 40
6.0
 40
6.0
 40
7.0
 40
7.0
 40
7.0
 40
8.0
 40
8.0
 40
8.0
 40
8.0
 10
428.5936960277776
 20
356.1711965868058
 30
0.0
 10
428.5833607413185
 20
356.1711965868058
 30
0.0
 10
428.6005862187494
 20
356.1711965868058
 30
0.0
 10
428.5868058368047
 20
356.1711965868058
 30
0.0
 10
428.5730254548607
 20
356.1711965868058
 30
0.0
 10
428.5936960277776
 20
356.1711965868058
 30
0.0
 10
428.5799156458328
 20
356.1711965868058
 30
0.0
  0
ARC
  5
DB5E9
330
1E
100
AcDbEntity
  8
DETAIL
  6
Continuous
370
     0
100
AcDbCircle
 10
428.5653438230347
 20
355.9067156752285
 30
0.0
 40
0.2659962407676653
100
AcDbArc
 50
83.88129147406353
 51
149.8583347009362
  0
ARC
  5
DB5EA
330
1E
100
AcDbEntity
  8
DETAIL
  6
Continuous
370
     0
100
AcDbCircle
 10
428.9734311409238
 20
351.0846310669349
 30
0.0
 40
0.7600891471310817
100
AcDbArc
 50
192.7079113001312
 51
238.2113250901739
  0
ARC
  5
DB5EB
330
1E
100
AcDbEntity
  8
DETAIL
  6
Continuous
370
     0
100
AcDbCircle
 10
436.9171465212521
 20
353.3046747249236
 30
0.0
 40
9.007297270767347
100
AcDbArc
 50
162.3194155402038
 51
195.3690306811063
  0
LINE
  5
DB5EC
330
1E
100
AcDbEntity
  8
DETAIL
  6
Continuous
370
     0
100
AcDbLine
 10
428.5936960277776
 20
356.1711965868058
 30
0.0
 11
431.9733349999997
 21
355.340929
 31
0.0
  0
LINE
  5
DB5ED
330
1E
100
AcDbEntity
  8
DETAIL
  6
Continuous
370
     0
100
AcDbLine
 10
428.5730254548607
 20
350.4385576979166
 30
0.0
 11
431.9733349999997
 21
349.5359430000003
 31
0.0
  0
SPLINE
  5
DB5EE
330
1E
100
AcDbEntity
  8
DETAIL
  6
Continuous
100
AcDbSpline
210
0.0
220
0.0
230
1.0
 70
    24
 71
     3
 72
    11
 73
     7
 74
     0
 42
0.00000001
 43
0.0000000001
 40
6.0
 40
6.0
 40
6.0
 40
6.0
 40
7.0
 40
7.0
 40
7.0
 40
8.0
 40
8.0
 40
8.0
 40
8.0
 10
428.5936960277776
 20
346.6730685868057
 30
0.0
 10
428.5833607413185
 20
346.6730685868057
 30
0.0
 10
428.6005862187494
 20
346.6730685868057
 30
0.0
 10
428.5868058368047
 20
346.6730685868057
 30
0.0
 10
428.5730254548607
 20
346.6730685868057
 30
0.0
 10
428.5936960277776
 20
346.6730685868057
 30
0.0
 10
428.5799156458328
 20
346.6730685868057
 30
0.0
  0
ARC
  5
DB5EF
330
1E
100
AcDbEntity
  8
DETAIL
  6
Continuous
370
     0
100
AcDbCircle
 10
428.5653438230347
 20
346.4085876752284
 30
0.0
 40
0.2659962407676653
100
AcDbArc
 50
83.88129147406353
 51
149.8583347009362
  0
ARC
  5
DB5F0
330
1E
100
AcDbEntity
  8
DETAIL
  6
Continuous
370
     0
100
AcDbCircle
 10
428.9734311409238
 20
341.5865030669347
 30
0.0
 40
0.7600891471310817
100
AcDbArc
 50
192.7079113001312
 51
238.2113250901739
  0
ARC
  5
DB5F1
330
1E
100
AcDbEntity
  8
DETAIL
  6
Continuous
370
     0
100
AcDbCircle
 10
436.9171465212521
 20
343.8065467249235
 30
0.0
 40
9.007297270767347
100
AcDbArc
 50
162.3194155402038
 51
195.3690306811063
  0
LINE
  5
DB5F2
330
1E
100
AcDbEntity
  8
DETAIL
  6
Continuous
370
     0
100
AcDbLine
 10
428.5936960277776
 20
346.6730685868057
 30
0.0
 11
431.9733349999997
 21
345.8428009999999
 31
0.0
  0
LINE
  5
DB5F3
330
1E
100
AcDbEntity
  8
DETAIL
  6
Continuous
370
     0
100
AcDbLine
 10
428.5730254548607
 20
340.9404296979165
 30
0.0
 11
431.9733349999997
 21
340.0378150000002
 31
0.0
  0
LINE
  5
DB5F4
330
1E
100
AcDbEntity
  8
DETAIL
  6
Continuous
370
     0
100
AcDbLine
 10
431.9733349999997
 20
387.535347
 30
0.0
 11
431.9733346996526
 21
383.8422043194441
 31
0.0
  0
LINE
  5
DB5F5
330
1E
100
AcDbEntity
  8
DETAIL
  6
Continuous
370
     0
100
AcDbLine
 10
431.9733342275585
 20
378.0372184447624
 30
0.0
 11
431.9733339272112
 21
374.3440757642066
 31
0.0
  0
LINE
  5
DB5F6
330
1E
100
AcDbEntity
  8
DETAIL
  6
Continuous
370
     0
100
AcDbLine
 10
431.9733346996526
 20
368.5356449687501
 30
0.0
 11
431.9733343993052
 21
364.8425022881943
 31
0.0
  0
LINE
  5
DB5F7
330
1E
100
AcDbEntity
  8
DETAIL
  6
Continuous
370
     0
100
AcDbLine
 10
431.9733349999997
 20
359.0375170000001
 30
0.0
 11
431.9733346996526
 21
355.3443743194443
 31
0.0
  0
LINE
  5
DB5F8
330
1E
100
AcDbEntity
  8
DETAIL
  6
Continuous
370
     0
100
AcDbLine
 10
431.973334227278
 20
349.53594320512
 30
0.0
 11
431.9733339269303
 21
345.8428005245642
 31
0.0
  0
LINE
  5
DB734
330
1E
100
AcDbEntity
  8
DETAIL
100
AcDbLine
 10
-362.5026590000004
 20
714.0
 30
0.0
 11
363.4973409999997
 21
714.0
 31
0.0
  0
LINE
  5
DB735
330
1E
100
AcDbEntity
  8
DETAIL
100
AcDbLine
 10
363.4973409999997
 20
712.4029299999993
 30
0.0
 11
363.4973409999997
 21
714.0
 31
0.0
  0
LINE
  5
DB736
330
1E
100
AcDbEntity
  8
DETAIL
100
AcDbLine
 10
-362.5026590000004
 20
712.4029299999997
 30
0.0
 11
363.4973409999997
 21
712.4029299999993
 31
0.0
  0
ARC
  5
DB737
330
1E
100
AcDbEntity
  8
DETAIL
100
AcDbCircle
 10
357.0438881327685
 20
593.5335693818313
 30
0.0
 40
119.044411660866
100
AcDbArc
 50
71.35868744657542
 51
86.89244583542198
  0
ARC
  5
DB738
330
1E
100
AcDbEntity
  8
DETAIL
100
AcDbCircle
 10
393.4973409999998
 20
701.5950037843484
 30
0.0
 40
5.0
100
AcDbArc
 50
0.0
 51
71.35868744657542
  0
LINE
  5
DB739
330
1E
100
AcDbEntity
  8
DETAIL
100
AcDbLine
 10
-362.5026590000004
 20
712.4029299999993
 30
0.0
 11
-362.5026590000004
 21
714.0
 31
0.0
  0
ARC
  5
DB73A
330
1E
100
AcDbEntity
  8
DETAIL
100
AcDbCircle
 10
-356.4294265124532
 20
596.3112885591421
 30
0.0
 40
116.2503908177535
100
AcDbArc
 50
92.99464860049372
 51
112.0976723753618
  0
ARC
  5
DB73B
330
1E
100
AcDbEntity
  8
DETAIL
100
AcDbCircle
 10
-398.3
 20
699.3817255808074
 30
0.0
 40
5.0
100
AcDbArc
 50
111.8546753825663
 51
180.0
  0
LINE
  5
DB73F
330
1E
100
AcDbEntity
  8
DETAIL
100
AcDbLine
 10
-424.1417497855421
 20
691.3278077825777
 30
0.0
 11
-403.0190966380065
 21
701.034035152635
 31
0.0
  0
LINE
  5
DB740
330
1E
100
AcDbEntity
  8
DETAIL
100
AcDbLine
 10
-403.3
 20
687.5029299999995
 30
0.0
 11
-403.3
 21
699.3817255808074
 31
0.0
  0
LINE
  5
DB742
330
1E
100
AcDbEntity
  8
DETAIL
100
AcDbLine
 10
-423.3000071427182
 20
687.5029298799139
 30
0.0
 11
397.082321422136
 21
687.5
 31
0.0
  0
LINE
  5
DB743
330
1E
100
AcDbEntity
  8
DETAIL
100
AcDbLine
 10
398.4973409999998
 20
688.9976207523219
 30
0.0
 11
398.4973409999998
 21
701.5950037843484
 31
0.0
  0
ARC
  5
DB74D
330
1E
100
AcDbEntity
  8
DETAIL
100
AcDbCircle
 10
396.9973093433341
 20
688.9976207523219
 30
0.0
 40
1.500031656775254
100
AcDbArc
 50
273.2488944520166
 51
359.999307395832
  0
ARC
  5
DB74F
330
1E
100
AcDbEntity
  8
DETAIL
  6
Continuous
100
AcDbCircle
 10
422.3594299999994
 20
419.2350269999995
 30
0.0
 40
6.0
100
AcDbArc
 50
0.0
 51
89.99999999999984
  0
ARC
  5
DB753
330
1E
100
AcDbEntity
  8
DETAIL
  6
Continuous
370
     0
100
AcDbCircle
 10
423.3594299999992
 20
405.3354386464353
 30
0.0
 40
5.0
100
AcDbArc
 50
253.9893190915668
 51
0.0
  0
ARC
  5
DB755
330
1E
100
AcDbEntity
  8
DETAIL
  6
Continuous
100
AcDbCircle
 10
426.9733349999996
 20
507.7793540548553
 30
0.0
 40
5.0
100
AcDbArc
 50
0.0
 51
65.00440633915983
  0
ARC
  5
DB757
330
1E
100
AcDbEntity
  8
DETAIL
  6
Continuous
100
AcDbCircle
 10
401.4975589999993
 20
29.11117925298047
 30
0.0
 40
0.5
100
AcDbArc
 50
285.029372840027
 51
0.0000000561761781
  0
ARC
  5
DB758
330
1E
100
AcDbEntity
  8
DETAIL
  6
Continuous
100
AcDbCircle
 10
427.2937289999994
 20
552.5314412999809
 30
0.0
 40
5.0
100
AcDbArc
 50
0.0
 51
66.01585387679509
  0
ARC
  5
DB759
330
1E
100
AcDbEntity
  8
DETAIL
  6
Continuous
100
AcDbCircle
 10
428.2937289999995
 20
543.1722602709611
 30
0.0
 40
4.0
100
AcDbArc
 50
257.0045466589704
 51
0.0
  0
ARC
  5
DB75A
330
1E
100
AcDbEntity
  8
DETAIL
  6
Continuous
100
AcDbCircle
 10
424.7995339999997
 20
304.5480339737014
 30
0.0
 40
10.0
100
AcDbArc
 50
150.0020286570813
 51
180.0
  0
LINE
  5
DB75B
330
1E
100
AcDbEntity
  8
DETAIL
100
AcDbLine
 10
416.9730440464804
 20
287.7138038162414
 30
0.0
 11
429.7998249535189
 21
284.0378153438124
 31
0.0
  0
ARC
  5
DB75C
330
1E
100
AcDbEntity
  8
DETAIL
100
AcDbCircle
 10
417.7995339999998
 20
290.5977099098464
 30
0.0
 40
3.0
100
AcDbArc
 50
180.0
 51
254.0083864915648
  0
ARC
  5
DB75D
330
1E
100
AcDbEntity
  8
DETAIL
100
AcDbCircle
 10
428.9733349999997
 20
281.1539092502075
 30
0.0
 40
3.0
100
AcDbArc
 50
0.0
 51
74.00838649156476
  0
ARC
  5
DB75E
330
1E
100
AcDbEntity
  8
DETAIL
  6
Continuous
100
AcDbCircle
 10
432.0
 20
76.32945835418112
 30
0.0
 40
30.0
100
AcDbArc
 50
284.9926310044858
 51
0.0
  0
ARC
  5
DB761
330
1E
100
AcDbEntity
  8
DETAIL
  6
Continuous
100
AcDbCircle
 10
443.9733349999996
 20
234.6234664921585
 30
0.0
 40
12.0
100
AcDbArc
 50
180.0
 51
248.0044504267838
  0
ARC
  5
DB764
330
1E
100
AcDbEntity
  8
DETAIL
  6
Continuous
100
AcDbCircle
 10
452.0
 20
207.3699851227526
 30
0.0
 40
10.0
100
AcDbArc
 50
0.0
 51
68.00445042678375
  0
ARC
  5
DB765
330
1E
100
AcDbEntity
  8
DETAIL
  6
Continuous
100
AcDbCircle
 10
378.2430602350093
 20
24.50268604687453
 30
0.0
 40
5.0
100
AcDbArc
 50
270.0000000185876
 51
315.0000000000038
  0
ARC
  5
DB766
330
1E
100
AcDbEntity
  8
DETAIL
  6
Continuous
100
AcDbCircle
 10
-387.5007050000004
 20
27.50268599999981
 30
0.0
 40
8.0
100
AcDbArc
 50
180.0
 51
270.0
  0
ARC
  5
DB768
330
1E
100
AcDbEntity
  8
DETAIL
  6
Continuous
100
AcDbCircle
 10
-397.5
 20
30.20201300000008
 30
0.0
 40
2.5
100
AcDbArc
 50
180.0
 51
270.0
  0
LINE
  5
DB769
330
1E
100
AcDbEntity
  8
DETAIL
100
AcDbLine
 10
345.4933809999993
 20
76.96343315364583
 30
0.0
 11
-345.9625104565976
 21
76.96343315364583
 31
0.0
  0
LINE
  5
DB76A
330
1E
100
AcDbEntity
  8
DETAIL
100
AcDbLine
 10
-350.9625104565976
 20
71.96343315364583
 30
0.0
 11
-350.9625104565976
 21
66.04020181684018
 31
0.0
  0
LINE
  5
DB76B
330
1E
100
AcDbEntity
  8
DETAIL
100
AcDbLine
 10
-345.9625104565976
 20
61.04020181684018
 30
0.0
 11
345.4933809999993
 21
61.04020181684018
 31
0.0
  0
LINE
  5
DB76C
330
1E
100
AcDbEntity
  8
DETAIL
100
AcDbLine
 10
350.4933809999993
 20
66.04020181684018
 30
0.0
 11
350.4933809999993
 21
71.96343315364583
 31
0.0
  0
ARC
  5
DB76D
330
1E
100
AcDbEntity
  8
DETAIL
100
AcDbCircle
 10
-345.9625104565976
 20
66.04020181684018
 30
0.0
 40
5.0
100
AcDbArc
 50
180.0
 51
270.0
  0
ARC
  5
DB76E
330
1E
100
AcDbEntity
  8
DETAIL
100
AcDbCircle
 10
-345.9625104565976
 20
71.96343315364583
 30
0.0
 40
5.0
100
AcDbArc
 50
90.0
 51
180.0
  0
ARC
  5
DB76F
330
1E
100
AcDbEntity
  8
DETAIL
100
AcDbCircle
 10
345.4933809999993
 20
66.04020181684018
 30
0.0
 40
5.0
100
AcDbArc
 50
270.0
 51
0.0
  0
ARC
  5
DB770
330
1E
100
AcDbEntity
  8
DETAIL
100
AcDbCircle
 10
345.4933809999993
 20
71.96343315364583
 30
0.0
 40
5.0
100
AcDbArc
 50
0.0
 51
90.0
  0
ARC
  5
DB771
330
1E
100
AcDbEntity
  8
DETAIL
  6
Continuous
100
AcDbCircle
 10
217.4943039999994
 20
146.2523599999999
 30
0.0
 40
5.0
100
AcDbArc
 50
270.0
 51
0.0
  0
ARC
  5
DB772
330
1E
100
AcDbEntity
  8
DETAIL
  6
Continuous
100
AcDbCircle
 10
195.9923509999994
 20
146.2523599999999
 30
0.0
 40
5.0
100
AcDbArc
 50
180.0
 51
270.0
  0
ARC
  5
DB773
330
1E
100
AcDbEntity
  8
DETAIL
  6
Continuous
100
AcDbCircle
 10
195.9923509999994
 20
543.2524960000002
 30
0.0
 40
5.0
100
AcDbArc
 50
90.0
 51
180.0
  0
ARC
  5
DB774
330
1E
100
AcDbEntity
  8
DETAIL
  6
Continuous
100
AcDbCircle
 10
217.4943039999994
 20
543.2524960000002
 30
0.0
 40
5.0
100
AcDbArc
 50
0.0
 51
90.0
  0
ARC
  5
DB775
330
1E
100
AcDbEntity
  8
DETAIL
  6
Continuous
100
AcDbCircle
 10
259.9953349999996
 20
543.2524960000002
 30
0.0
 40
5.0
100
AcDbArc
 50
90.0
 51
180.0
  0
ARC
  5
DB776
330
1E
100
AcDbEntity
  8
DETAIL
  6
Continuous
100
AcDbCircle
 10
281.4938429999993
 20
543.2524960000002
 30
0.0
 40
5.0
100
AcDbArc
 50
0.0
 51
90.0
  0
ARC
  5
DB777
330
1E
100
AcDbEntity
  8
DETAIL
  6
Continuous
100
AcDbCircle
 10
323.9914279999994
 20
543.2524960000002
 30
0.0
 40
5.0
100
AcDbArc
 50
90.0
 51
180.0
  0
ARC
  5
DB778
330
1E
100
AcDbEntity
  8
DETAIL
  6
Continuous
370
     0
100
AcDbCircle
 10
345.4933814704855
 20
543.2524960000002
 30
0.0
 40
5.0
100
AcDbArc
 50
0.0
 51
90.0
  0
ARC
  5
DB779
330
1E
100
AcDbEntity
  8
DETAIL
  6
Continuous
100
AcDbCircle
 10
345.4933814704855
 20
91.25141099999972
 30
0.0
 40
5.0
100
AcDbArc
 50
270.0
 51
0.0
  0
ARC
  5
DB77A
330
1E
100
AcDbEntity
  8
DETAIL
  6
Continuous
100
AcDbCircle
 10
323.9914279999994
 20
91.25141099999972
 30
0.0
 40
5.0
100
AcDbArc
 50
180.0
 51
270.0
  0
ARC
  5
DB77B
330
1E
100
AcDbEntity
  8
DETAIL
  6
Continuous
100
AcDbCircle
 10
281.4938429999993
 20
91.25141099999972
 30
0.0
 40
5.0
100
AcDbArc
 50
270.0
 51
0.0
  0
ARC
  5
DB77C
330
1E
100
AcDbEntity
  8
DETAIL
  6
Continuous
100
AcDbCircle
 10
259.9953349999996
 20
91.25141099999972
 30
0.0
 40
5.0
100
AcDbArc
 50
180.0
 51
270.0
  0
ARC
  5
DB77D
330
1E
100
AcDbEntity
  8
DETAIL
  6
Continuous
100
AcDbCircle
 10
-345.9625100000003
 20
658.0637479999992
 30
0.0
 40
5.0
100
AcDbArc
 50
90.0
 51
180.0
  0
ARC
  5
DB77E
330
1E
100
AcDbEntity
  8
DETAIL
  6
Continuous
100
AcDbCircle
 10
-345.9625100000004
 20
652.1405159999998
 30
0.0
 40
5.0
100
AcDbArc
 50
180.0
 51
270.0
  0
ARC
  5
DB77F
330
1E
100
AcDbEntity
  8
DETAIL
  6
Continuous
100
AcDbCircle
 10
217.4943039999994
 20
652.1405159999998
 30
0.0
 40
5.0
100
AcDbArc
 50
270.0
 51
0.0
  0
ARC
  5
DB780
330
1E
100
AcDbEntity
  8
DETAIL
  6
Continuous
100
AcDbCircle
 10
217.4943039999992
 20
658.0637479999992
 30
0.0
 40
5.0
100
AcDbArc
 50
0.0
 51
90.0
  0
ARC
  5
DB781
330
1E
100
AcDbEntity
  8
DETAIL
  6
Continuous
100
AcDbCircle
 10
408.2359489999998
 20
540.6172900198733
 30
0.0
 40
3.0
100
AcDbArc
 50
77.00454665897028
 51
180.0
  0
ARC
  5
DB782
330
1E
100
AcDbEntity
  8
DETAIL
  6
Continuous
100
AcDbCircle
 10
408.2359489999998
 20
525.341693206288
 30
0.0
 40
3.0
100
AcDbArc
 50
180.0
 51
245.0044063391598
  0
LINE
  5
DB897
330
1E
100
AcDbEntity
  8
OUTLINE
  6
Continuous
100
AcDbLine
 10
416.1391029338565
 20
309.547727339157
 30
0.0
 11
431.0362687274301
 21
335.3524853524305
 31
0.0
  0
LINE
  5
DB898
330
1E
100
AcDbEntity
  8
OUTLINE
  6
Continuous
100
AcDbLine
 10
431.9733349999997
 20
340.0343699999999
 30
0.0
 11
431.9733349999997
 21
338.8527019999997
 31
0.0
  0
LINE
  5
DB899
330
1E
100
AcDbEntity
  8
OUTLINE
  6
Continuous
100
AcDbLine
 10
431.9733349999997
 20
281.1539092502075
 30
0.0
 11
431.9733349999997
 21
234.6234664921585
 31
0.0
  0
ARC
  5
DB89A
330
1E
100
AcDbEntity
  8
OUTLINE
100
AcDbCircle
 10
428.9733349999997
 20
281.1539092502075
 30
0.0
 40
3.0
100
AcDbArc
 50
0.0
 51
74.00838649155969
  0
LINE
  5
DB89B
330
1E
100
AcDbEntity
  8
OUTLINE
  6
Continuous
100
AcDbLine
 10
414.7995339999996
 20
304.5480339737014
 30
0.0
 11
414.7995339999996
 21
290.5977099098464
 31
0.0
  0
ARC
  5
DB89C
330
1E
100
AcDbEntity
  8
OUTLINE
100
AcDbCircle
 10
417.7995339999998
 20
290.5977099098464
 30
0.0
 40
3.0
100
AcDbArc
 50
180.0
 51
254.0083864915597
  0
ARC
  5
DB89D
330
1E
100
AcDbEntity
  8
OUTLINE
  6
Continuous
100
AcDbCircle
 10
424.7995339999997
 20
304.5480339737014
 30
0.0
 40
10.0
100
AcDbArc
 50
150.0020286570833
 51
180.0
  0
LINE
  5
DB89E
330
1E
100
AcDbEntity
  8
OUTLINE
  6
Continuous
100
AcDbLine
 10
439.4789201161946
 20
223.4969111019116
 30
0.0
 11
455.7453457365043
 21
216.6421146146249
 31
0.0
  0
ARC
  5
DB89F
330
1E
100
AcDbEntity
  8
OUTLINE
  6
Continuous
100
AcDbCircle
 10
443.9733349999996
 20
234.6234664921585
 30
0.0
 40
12.0
100
AcDbArc
 50
180.0
 51
248.0044504267849
  0
LINE
  5
DB8A0
330
1E
100
AcDbEntity
  8
OUTLINE
  6
Continuous
100
AcDbLine
 10
462.0
 20
207.3699851227526
 30
0.0
 11
462.0
 21
76.32945835418112
 31
0.0
  0
ARC
  5
DB8A1
330
1E
100
AcDbEntity
  8
OUTLINE
  6
Continuous
100
AcDbCircle
 10
452.0
 20
207.3699851227526
 30
0.0
 40
10.0
100
AcDbArc
 50
0.0
 51
68.00445042678497
  0
ARC
  5
DB8A2
330
1E
100
AcDbEntity
  8
OUTLINE
  6
Continuous
100
AcDbCircle
 10
432.0
 20
76.32945835418112
 30
0.0
 40
30.0
100
AcDbArc
 50
284.9926310044888
 51
0.0
  0
LINE
  5
DB8A3
330
1E
100
AcDbEntity
  8
OUTLINE
  6
Continuous
100
AcDbLine
 10
401.9975589999994
 20
29.1111792534707
 30
0.0
 11
401.9975589925953
 21
36.66304977332205
 31
0.0
  0
LINE
  5
DB8A4
330
1E
100
AcDbEntity
  8
OUTLINE
  6
Continuous
100
AcDbLine
 10
401.6272160978092
 20
28.62828274544756
 30
0.0
 11
398.1774055385331
 21
27.70201300000008
 31
0.0
  0
ARC
  5
DB8A5
330
1E
100
AcDbEntity
  8
OUTLINE
  6
Continuous
100
AcDbCircle
 10
401.4975589999994
 20
29.11117925298048
 30
0.0
 40
0.5
100
AcDbArc
 50
285.029372840025
 51
0.0000000561764326
  0
LINE
  5
DB8A6
330
1E
100
AcDbEntity
  8
OUTLINE
  6
Continuous
100
AcDbLine
 10
402.2938369999994
 20
569.1263300000001
 30
0.0
 11
429.3261482366694
 21
557.0997311382479
 31
0.0
  0
ARC
  5
DB8A7
330
1E
100
AcDbEntity
  8
OUTLINE
  6
Continuous
100
AcDbCircle
 10
427.2937289999994
 20
552.5314412999809
 30
0.0
 40
5.0
100
AcDbArc
 50
0.0
 51
66.01585387678749
  0
LINE
  5
DB8A8
330
1E
100
AcDbEntity
  8
OUTLINE
  6
Continuous
100
AcDbLine
 10
405.2359489999998
 20
540.6172900198733
 30
0.0
 11
405.2359489999998
 21
525.341693206288
 31
0.0
  0
LINE
  5
DB8AB
330
1E
100
AcDbEntity
  8
OUTLINE
  6
Continuous
100
AcDbLine
 10
429.0860778038804
 20
512.3110554841916
 30
0.0
 11
406.9683033176714
 21
522.6226723486861
 31
0.0
  0
ARC
  5
DB8AC
330
1E
100
AcDbEntity
  8
OUTLINE
  6
Continuous
100
AcDbCircle
 10
408.2359489999998
 20
525.341693206288
 30
0.0
 40
3.0
100
AcDbArc
 50
180.0
 51
245.0044063391561
  0
LINE
  5
DB8AD
330
1E
100
AcDbEntity
  8
OUTLINE
  6
Continuous
100
AcDbLine
 10
402.3696289999998
 20
37.14846499999976
 30
0.0
 11
439.760844363531
 21
47.35068517854363
 31
0.0
  0
LINE
  5
DB8AE
330
1E
100
AcDbEntity
  8
OUTLINE
  6
Continuous
100
AcDbLine
 10
408.9105701999265
 20
543.5404537574375
 30
0.0
 11
427.3942340667638
 21
539.2747086208758
 31
0.0
  0
ARC
  5
DB8AF
330
1E
100
AcDbEntity
  8
OUTLINE
  6
Continuous
100
AcDbCircle
 10
408.2359489999998
 20
540.6172900198733
 30
0.0
 40
3.0
100
AcDbArc
 50
77.00454665897175
 51
180.0
  0
ARC
  5
DB8B0
330
1E
100
AcDbEntity
  8
OUTLINE
  6
Continuous
100
AcDbCircle
 10
428.2937289999995
 20
543.1722602709611
 30
0.0
 40
4.0
100
AcDbArc
 50
257.0045466589718
 51
0.0
  0
LINE
  5
DB8B2
330
1E
100
AcDbEntity
  8
OUTLINE
  6
Continuous
100
AcDbLine
 10
432.2937289999995
 20
552.5314412999809
 30
0.0
 11
432.2937289999995
 21
543.1722602709611
 31
0.0
  0
LINE
  5
DB8B3
330
1E
100
AcDbEntity
  8
OUTLINE
  6
Continuous
100
AcDbLine
 10
431.9733349999997
 20
507.7793540548553
 30
0.0
 11
431.9733349999997
 21
393.3403329999996
 31
0.0
  0
ARC
  5
DB8B4
330
1E
100
AcDbEntity
  8
OUTLINE
  6
Continuous
100
AcDbCircle
 10
426.9733349999996
 20
507.7793540548553
 30
0.0
 40
5.0
100
AcDbArc
 50
0.0
 51
65.0044063391561
  0
SPLINE
  5
DB8B5
330
1E
100
AcDbEntity
  8
OUTLINE
  6
Continuous
100
AcDbSpline
210
0.0
220
0.0
230
1.0
 70
     8
 71
     3
 72
     8
 73
     4
 74
     0
 42
0.00000001
 43
0.0000000001
 40
0.0
 40
0.0
 40
0.0
 40
0.0
 40
1.0
 40
1.0
 40
1.0
 40
1.0
 10
402.3696291874994
 20
37.14846517013848
 30
0.0
 10
402.1525881718742
 20
37.08989854687479
 30
0.0
 10
401.9975588749994
 20
36.89008300868046
 30
0.0
 10
401.9975588749994
 20
36.66270670659697
 30
0.0
  0
SPLINE
  5
DB8B7
330
1E
100
AcDbEntity
  8
OUTLINE
  6
Continuous
100
AcDbSpline
210
0.0
220
0.0
230
1.0
 70
     8
 71
     3
 72
     8
 73
     4
 74
     0
 42
0.00000001
 43
0.0000000001
 40
0.0
 40
0.0
 40
0.0
 40
0.0
 40
1.0
 40
1.0
 40
1.0
 40
1.0
 10
431.0362687274301
 20
335.3524853524305
 30
0.0
 10
431.6529408194435
 20
336.4170198576385
 30
0.0
 10
431.9733346996526
 20
337.6228032777776
 30
0.0
 10
431.9733346996526
 20
338.8527023663191
 30
0.0
  0
SPLINE
  5
DB8B8
330
1E
100
AcDbEntity
  8
OUTLINE
  6
Continuous
100
AcDbSpline
210
0.0
220
0.0
230
1.0
 70
     8
 71
     3
 72
     8
 73
     4
 74
     0
 42
0.00000001
 43
0.0000000001
 40
0.0
 40
0.0
 40
0.0
 40
0.0
 40
1.0
 40
1.0
 40
1.0
 40
1.0
 10
401.9975588749994
 20
569.5879725486109
 30
0.0
 10
401.9975588749994
 20
569.3881570104163
 30
0.0
 10
402.1146921215277
 20
569.2055669496526
 30
0.0
 10
402.2938370868049
 20
569.1263297534719
 30
0.0
  0
SPLINE
  5
DB8B9
330
1E
100
AcDbEntity
  8
OUTLINE
  6
Continuous
100
AcDbSpline
210
0.0
220
0.0
230
1.0
 70
    24
 71
     3
 72
    11
 73
     7
 74
     0
 42
0.00000001
 43
0.0000000001
 40
6.0
 40
6.0
 40
6.0
 40
6.0
 40
7.0
 40
7.0
 40
7.0
 40
8.0
 40
8.0
 40
8.0
 40
8.0
 10
428.5936960277776
 20
394.1706005868054
 30
0.0
 10
428.5833607413185
 20
394.1706005868054
 30
0.0
 10
428.6005862187494
 20
394.1706005868054
 30
0.0
 10
428.5868058368047
 20
394.1706005868054
 30
0.0
 10
428.5730254548607
 20
394.1706005868054
 30
0.0
 10
428.5936960277776
 20
394.1706005868054
 30
0.0
 10
428.5799156458328
 20
394.1706005868054
 30
0.0
  0
LINE
  5
DB8BD
330
1E
100
AcDbEntity
  8
OUTLINE
  6
Continuous
100
AcDbLine
 10
230.7659774487843
 20
16.76383486197892
 30
0.0
 11
230.0183919999995
 21
8.219998000000032
 31
0.0
  0
LINE
  5
DB8BE
330
1E
100
AcDbEntity
  8
OUTLINE
  6
Continuous
100
AcDbLine
 10
229.9977209999997
 20
0.0
 30
0.0
 11
269.9987249999995
 21
0.0
 31
0.0
  0
LINE
  5
DB8BF
330
1E
100
AcDbEntity
  8
OUTLINE
  6
Continuous
100
AcDbLine
 10
229.9977209999997
 20
0.0
 30
0.0
 11
229.9977209999997
 21
7.782470999999986
 31
0.0
  0
LINE
  5
DB8C0
330
1E
100
AcDbEntity
  8
OUTLINE
  6
Continuous
100
AcDbLine
 10
269.9814989999995
 20
8.219998000000032
 30
0.0
 11
269.2339136467008
 21
16.76383486197892
 31
0.0
  0
LINE
  5
DB8C1
330
1E
100
AcDbEntity
  8
OUTLINE
  6
Continuous
100
AcDbLine
 10
269.9987249999995
 20
0.0
 30
0.0
 11
269.9987249999995
 21
7.782470999999986
 31
0.0
  0
SPLINE
  5
DB8C2
330
1E
100
AcDbEntity
  8
OUTLINE
  6
Continuous
100
AcDbSpline
210
0.0
220
0.0
230
1.0
 70
     8
 71
     3
 72
     8
 73
     4
 74
     0
 42
0.00000001
 43
0.0000000001
 40
0.0
 40
0.0
 40
0.0
 40
0.0
 40
1.0
 40
1.0
 40
1.0
 40
1.0
 10
269.2339136467008
 20
16.76383486197892
 30
0.0
 10
269.0995549227428
 20
18.31412783072892
 30
0.0
 10
267.8007539244786
 20
19.5026857734374
 30
0.0
 10
266.2470158602427
 20
19.5026857734374
 30
0.0
  0
SPLINE
  5
DB8C3
330
1E
100
AcDbEntity
  8
OUTLINE
  6
Continuous
100
AcDbSpline
210
0.0
220
0.0
230
1.0
 70
     8
 71
     3
 72
     8
 73
     4
 74
     0
 42
0.00000001
 43
0.0000000001
 40
0.0
 40
0.0
 40
0.0
 40
0.0
 40
1.0
 40
1.0
 40
1.0
 40
1.0
 10
233.7528752352428
 20
19.5026857734374
 30
0.0
 10
232.1991371710065
 20
19.5026857734374
 30
0.0
 10
230.9003361727428
 20
18.31412783072892
 30
0.0
 10
230.7659774487843
 20
16.76383486197892
 30
0.0
  0
SPLINE
  5
DB8C4
330
1E
100
AcDbEntity
  8
OUTLINE
  6
Continuous
100
AcDbSpline
210
0.0
220
0.0
230
1.0
 70
     8
 71
     3
 72
     8
 73
     4
 74
     0
 42
0.00000001
 43
0.0000000001
 40
0.0
 40
0.0
 40
0.0
 40
0.0
 40
1.0
 40
1.0
 40
1.0
 40
1.0
 10
230.0183917282984
 20
8.219998056423719
 30
0.0
 10
230.0046113463536
 20
8.075304046006749
 30
0.0
 10
229.9977211553815
 20
7.927164940103919
 30
0.0
 10
229.9977211553815
 20
7.782470929687406
 30
0.0
  0
SPLINE
  5
DB8C5
330
1E
100
AcDbEntity
  8
OUTLINE
  6
Continuous
100
AcDbSpline
210
0.0
220
0.0
230
1.0
 70
     8
 71
     3
 72
     8
 73
     4
 74
     0
 42
0.00000001
 43
0.0000000001
 40
0.0
 40
0.0
 40
0.0
 40
0.0
 40
1.0
 40
1.0
 40
1.0
 40
1.0
 10
269.9987248446177
 20
7.782470929687406
 30
0.0
 10
269.9987248446177
 20
7.927164940103919
 30
0.0
 10
269.9952797491314
 20
8.075304046006749
 30
0.0
 10
269.9814993671871
 20
8.219998056423719
 30
0.0
  0
LINE
  5
DB8C7
330
1E
100
AcDbEntity
  8
OUTLINE
  6
Continuous
100
AcDbLine
 10
381.7785941409422
 20
20.96715214094203
 30
0.0
 11
388.5134549999993
 21
27.70201300000008
 31
0.0
  0
LINE
  5
DB8C8
330
1E
100
AcDbEntity
  8
OUTLINE
  6
Continuous
100
AcDbLine
 10
230.0543109225987
 20
19.50268599999982
 30
0.0
 11
378.2430602366314
 21
19.50268604687453
 31
0.0
  0
ARC
  5
DB8C9
330
1E
100
AcDbEntity
  8
OUTLINE
  6
Continuous
100
AcDbCircle
 10
378.2430602350093
 20
24.50268604687453
 30
0.0
 40
5.0
100
AcDbArc
 50
270.0000000185773
 51
315.0000000000058
  0
LINE
  5
DB8CA
330
1E
100
AcDbEntity
  8
OUTLINE
  6
Continuous
100
AcDbLine
 10
-387.5007050000004
 20
19.50268599999981
 30
0.0
 11
-230.2394750000003
 21
19.50268599999981
 31
0.0
  0
LINE
  5
DB8CB
330
1E
100
AcDbEntity
  8
OUTLINE
  6
Continuous
100
AcDbLine
 10
-395.5007050000004
 20
27.50268599999981
 30
0.0
 11
-395.5007050000004
 21
27.70201300000008
 31
0.0
  0
ARC
  5
DB8CC
330
1E
100
AcDbEntity
  8
OUTLINE
  6
Continuous
100
AcDbCircle
 10
-387.5007050000004
 20
27.50268599999981
 30
0.0
 40
8.0
100
AcDbArc
 50
180.0
 51
270.0
  0
LINE
  5
DB8CD
330
1E
100
AcDbEntity
  8
OUTLINE
  6
Continuous
100
AcDbLine
 10
-69.89095000000043
 20
10.0
 30
0.0
 11
69.89035399999966
 21
10.0
 31
0.0
  0
LINE
  5
DB8CF
330
1E
100
AcDbEntity
  8
OUTLINE
  6
Continuous
100
AcDbLine
 10
-230.0189879999998
 20
8.219998000000032
 30
0.0
 11
-230.7665739010427
 21
16.76383486197892
 31
0.0
  0
LINE
  5
DB8D0
330
1E
100
AcDbEntity
  8
OUTLINE
  6
Continuous
100
AcDbLine
 10
-269.2345100989587
 20
16.76383486197892
 30
0.0
 11
-269.9820960000006
 21
8.219998000000032
 31
0.0
  0
LINE
  5
DB8D1
330
1E
100
AcDbEntity
  8
OUTLINE
  6
Continuous
100
AcDbLine
 10
-270.0027660000005
 20
0.0
 30
0.0
 11
-229.9983179999999
 21
0.0
 31
0.0
  0
LINE
  5
DB8D2
330
1E
100
AcDbEntity
  8
OUTLINE
  6
Continuous
100
AcDbLine
 10
-229.9983179999999
 20
0.0
 30
0.0
 11
-229.9983179999999
 21
7.782470999999986
 31
0.0
  0
LINE
  5
DB8D3
330
1E
100
AcDbEntity
  8
OUTLINE
  6
Continuous
100
AcDbLine
 10
-270.0027660000005
 20
0.0
 30
0.0
 11
-270.0027660000005
 21
7.782470999999986
 31
0.0
  0
SPLINE
  5
DB8D6
330
1E
100
AcDbEntity
  8
OUTLINE
  6
Continuous
100
AcDbSpline
210
0.0
220
0.0
230
1.0
 70
     8
 71
     3
 72
     8
 73
     4
 74
     0
 42
0.00000001
 43
0.0000000001
 40
0.0
 40
0.0
 40
0.0
 40
0.0
 40
1.0
 40
1.0
 40
1.0
 40
1.0
 10
-269.982095819445
 20
8.219998056423719
 30
0.0
 10
-269.9958762013894
 20
8.075304046006749
 30
0.0
 10
-270.0027663923611
 20
7.927164940103919
 30
0.0
 10
-270.0027663923611
 20
7.782470929687406
 30
0.0
  0
SPLINE
  5
DB8D7
330
1E
100
AcDbEntity
  8
OUTLINE
  6
Continuous
100
AcDbSpline
210
0.0
220
0.0
230
1.0
 70
     8
 71
     3
 72
     8
 73
     4
 74
     0
 42
0.00000001
 43
0.0000000001
 40
0.0
 40
0.0
 40
0.0
 40
0.0
 40
1.0
 40
1.0
 40
1.0
 40
1.0
 10
-229.9983176076394
 20
7.782470929687406
 30
0.0
 10
-229.9983176076394
 20
7.927164940103919
 30
0.0
 10
-230.0052077986111
 20
8.075304046006749
 30
0.0
 10
-230.0189881805563
 20
8.219998056423719
 30
0.0
  0
SPLINE
  5
DB8D8
330
1E
100
AcDbEntity
  8
OUTLINE
  6
Continuous
100
AcDbSpline
210
0.0
220
0.0
230
1.0
 70
     8
 71
     3
 72
     8
 73
     4
 74
     0
 42
0.00000001
 43
0.0000000001
 40
0.0
 40
0.0
 40
0.0
 40
0.0
 40
1.0
 40
1.0
 40
1.0
 40
1.0
 10
-266.2476123125007
 20
19.5026857734374
 30
0.0
 10
-267.8013503767361
 20
19.5026857734374
 30
0.0
 10
-269.1001513750007
 20
18.31412783072892
 30
0.0
 10
-269.2345100989587
 20
16.76383486197892
 30
0.0
  0
SPLINE
  5
DB8D9
330
1E
100
AcDbEntity
  8
OUTLINE
  6
Continuous
100
AcDbSpline
210
0.0
220
0.0
230
1.0
 70
     8
 71
     3
 72
     8
 73
     4
 74
     0
 42
0.00000001
 43
0.0000000001
 40
0.0
 40
0.0
 40
0.0
 40
0.0
 40
1.0
 40
1.0
 40
1.0
 40
1.0
 10
-230.7665739010427
 20
16.76383486197892
 30
0.0
 10
-230.9009326250007
 20
18.31412783072892
 30
0.0
 10
-232.1997336232644
 20
19.5026857734374
 30
0.0
 10
-233.7534716875007
 20
19.5026857734374
 30
0.0
  0
SPLINE
  5
DB8DA
330
1E
100
AcDbEntity
  8
OUTLINE
  6
Continuous
100
AcDbSpline
210
0.0
220
0.0
230
1.0
 70
     8
 71
     3
 72
     8
 73
     4
 74
     0
 42
0.00000001
 43
0.0000000001
 40
0.0
 40
0.0
 40
0.0
 40
0.0
 40
1.0
 40
1.0
 40
1.0
 40
1.0
 10
401.9975584600688
 20
579.8026799045137
 30
0.0
 10
401.9975584600688
 20
580.9051104600692
 30
0.0
 10
401.1018336336801
 20
581.800835286458
 30
0.0
 10
399.9994030781245
 20
581.800835286458
 30
0.0
  0
LINE
  5
DB8E2
330
1E
100
AcDbEntity
  8
OUTLINE
  6
Continuous
100
AcDbLine
 10
-397.5
 20
27.70201300000008
 30
0.0
 11
398.1774055385331
 21
27.70201300000008
 31
0.0
  0
ARC
  5
DB8E3
330
1E
100
AcDbEntity
  8
OUTLINE
  6
Continuous
100
AcDbCircle
 10
-397.5
 20
30.20201300000008
 30
0.0
 40
2.5
100
AcDbArc
 50
180.0
 51
270.0
  0
LINE
  5
DB8F6
330
1E
100
AcDbEntity
  8
OUTLINE
  6
Continuous
100
AcDbLine
 10
400.0
 20
685.501655
 30
0.0
 11
400.0
 21
28.19137729374004
 31
0.0
  0
LINE
  5
DB8FD
330
1E
100
AcDbEntity
  8
OUTLINE
  6
Continuous
100
AcDbLine
 10
397.6980792934023
 20
686.5007322048605
 30
0.0
 11
399.0003259149298
 21
686.5007324157986
 31
0.0
  0
LINE
  5
DB8FE
330
1E
100
AcDbEntity
  8
OUTLINE
  6
Continuous
100
AcDbLine
 10
-400.0
 20
30.20201300000008
 30
0.0
 11
-400.0
 21
687.503256
 31
0.0
  0
SPLINE
  5
DB900
330
1E
100
AcDbEntity
  8
OUTLINE
  6
Continuous
100
AcDbSpline
210
0.0
220
0.0
230
1.0
 70
     8
 71
     3
 72
     8
 73
     4
 74
     0
 42
0.00000001
 43
0.0000000001
 40
0.0
 40
0.0
 40
0.0
 40
0.0
 40
1.0
 40
1.0
 40
1.0
 40
1.0
 10
400.0
 20
685.5016547248259
 30
0.0
 10
399.9994036059025
 20
686.0528700026041
 30
0.0
 10
399.5515411927076
 20
686.5007324157986
 30
0.0
 10
399.0003259149298
 20
686.5007324157986
 30
0.0
  0
LINE
  5
DB962
330
1E
100
AcDbEntity
  8
OUTLINE
  6
Continuous
370
     0
100
AcDbLine
 10
-230.2394750000003
 20
19.50268599999981
 30
0.0
 11
-69.89095000000043
 21
10.0
 31
0.0
  0
LINE
  5
DB963
330
1E
100
AcDbEntity
  8
OUTLINE
  6
Continuous
370
     0
100
AcDbLine
 10
69.89035399999966
 20
10.0
 30
0.0
 11
230.0543109225987
 21
19.50268599999982
 31
0.0
  0
ARC
  5
DB966
330
1E
100
AcDbEntity
  8
OUTLINE
  6
Continuous
370
     0
100
AcDbCircle
 10
428.5653438230347
 20
393.9061196752282
 30
0.0
 40
0.2659962407676653
100
AcDbArc
 50
83.88129147406363
 51
149.8583347009348
  0
ARC
  5
DB967
330
1E
100
AcDbEntity
  8
OUTLINE
  6
Continuous
370
     0
100
AcDbCircle
 10
428.9734311409238
 20
389.0840350669347
 30
0.0
 40
0.7600891471310817
100
AcDbArc
 50
192.7079113001304
 51
238.2113250901744
  0
ARC
  5
DB968
330
1E
100
AcDbEntity
  8
OUTLINE
  6
Continuous
370
     0
100
AcDbCircle
 10
436.9171465212521
 20
391.3040787249233
 30
0.0
 40
9.007297270767347
100
AcDbArc
 50
162.319415540203
 51
195.3690306811055
  0
LINE
  5
DB969
330
1E
100
AcDbEntity
  8
OUTLINE
  6
Continuous
370
     0
100
AcDbLine
 10
428.5936960277776
 20
394.1706005868054
 30
0.0
 11
431.9733349999997
 21
393.3403329999996
 31
0.0
  0
LINE
  5
DB96A
330
1E
100
AcDbEntity
  8
OUTLINE
  6
Continuous
370
     0
100
AcDbLine
 10
428.5730254548607
 20
388.4379616979164
 30
0.0
 11
431.9733349999997
 21
387.535347
 31
0.0
  0
SPLINE
  5
DB96B
330
1E
100
AcDbEntity
  8
OUTLINE
  6
Continuous
100
AcDbSpline
210
0.0
220
0.0
230
1.0
 70
    24
 71
     3
 72
    11
 73
     7
 74
     0
 42
0.00000001
 43
0.0000000001
 40
6.0
 40
6.0
 40
6.0
 40
6.0
 40
7.0
 40
7.0
 40
7.0
 40
8.0
 40
8.0
 40
8.0
 40
8.0
 10
428.5936957274302
 20
384.6724719062498
 30
0.0
 10
428.5833604409718
 20
384.6724719062498
 30
0.0
 10
428.6005859184024
 20
384.6724719062498
 30
0.0
 10
428.5868055364581
 20
384.6724719062498
 30
0.0
 10
428.5730251545136
 20
384.6724719062498
 30
0.0
 10
428.5936957274302
 20
384.6724719062498
 30
0.0
 10
428.5799153454854
 20
384.6724719062498
 30
0.0
  0
ARC
  5
DB96C
330
1E
100
AcDbEntity
  8
OUTLINE
  6
Continuous
370
     0
100
AcDbCircle
 10
428.5653435226873
 20
384.4079909946727
 30
0.0
 40
0.2659962407676653
100
AcDbArc
 50
83.88129147406363
 51
149.8583347009348
  0
ARC
  5
DB96D
330
1E
100
AcDbEntity
  8
OUTLINE
  6
Continuous
370
     0
100
AcDbCircle
 10
428.9734308405767
 20
379.5859063863791
 30
0.0
 40
0.7600891471310817
100
AcDbArc
 50
192.7079113001304
 51
238.2113250901744
  0
ARC
  5
DB96E
330
1E
100
AcDbEntity
  8
OUTLINE
  6
Continuous
370
     0
100
AcDbCircle
 10
436.9171462209044
 20
381.8059500443678
 30
0.0
 40
9.007297270767347
100
AcDbArc
 50
162.319415540203
 51
195.3690306811055
  0
LINE
  5
DB96F
330
1E
100
AcDbEntity
  8
OUTLINE
  6
Continuous
370
     0
100
AcDbLine
 10
428.5936957274302
 20
384.6724719062498
 30
0.0
 11
431.9733346996526
 21
383.8422043194441
 31
0.0
  0
LINE
  5
DB970
330
1E
100
AcDbEntity
  8
OUTLINE
  6
Continuous
370
     0
100
AcDbLine
 10
428.5730251545136
 20
378.9398330173609
 30
0.0
 11
431.9733346996526
 21
378.0372183194445
 31
0.0
  0
SPLINE
  5
DB971
330
1E
100
AcDbEntity
  8
OUTLINE
  6
Continuous
100
AcDbSpline
210
0.0
220
0.0
230
1.0
 70
    24
 71
     3
 72
    11
 73
     7
 74
     0
 42
0.00000001
 43
0.0000000001
 40
6.0
 40
6.0
 40
6.0
 40
6.0
 40
7.0
 40
7.0
 40
7.0
 40
8.0
 40
8.0
 40
8.0
 40
8.0
 10
428.5936957274302
 20
375.1708985555556
 30
0.0
 10
428.5833604409718
 20
375.1708985555556
 30
0.0
 10
428.6005859184024
 20
375.1708985555556
 30
0.0
 10
428.5868055364581
 20
375.1708985555556
 30
0.0
 10
428.5730251545136
 20
375.1708985555556
 30
0.0
 10
428.5936957274302
 20
375.1708985555556
 30
0.0
 10
428.5799153454854
 20
375.1708985555556
 30
0.0
  0
ARC
  5
DB972
330
1E
100
AcDbEntity
  8
OUTLINE
  6
Continuous
370
     0
100
AcDbCircle
 10
428.5653435226873
 20
374.9064176439783
 30
0.0
 40
0.2659962407676653
100
AcDbArc
 50
83.88129147406363
 51
149.8583347009348
  0
ARC
  5
DB973
330
1E
100
AcDbEntity
  8
OUTLINE
  6
Continuous
370
     0
100
AcDbCircle
 10
428.9734308405767
 20
370.0843330356847
 30
0.0
 40
0.7600891471310817
100
AcDbArc
 50
192.7079113001304
 51
238.2113250901744
  0
ARC
  5
DB974
330
1E
100
AcDbEntity
  8
OUTLINE
  6
Continuous
370
     0
100
AcDbCircle
 10
436.9171462209044
 20
372.3043766936735
 30
0.0
 40
9.007297270767347
100
AcDbArc
 50
162.319415540203
 51
195.3690306811055
  0
LINE
  5
DB975
330
1E
100
AcDbEntity
  8
OUTLINE
  6
Continuous
370
     0
100
AcDbLine
 10
428.5936957274302
 20
375.1708985555556
 30
0.0
 11
431.9733346996526
 21
374.3406309687498
 31
0.0
  0
LINE
  5
DB976
330
1E
100
AcDbEntity
  8
OUTLINE
  6
Continuous
370
     0
100
AcDbLine
 10
428.5730251545136
 20
369.4382596666665
 30
0.0
 11
431.9733346996526
 21
368.5356449687501
 31
0.0
  0
SPLINE
  5
DB977
330
1E
100
AcDbEntity
  8
OUTLINE
  6
Continuous
100
AcDbSpline
210
0.0
220
0.0
230
1.0
 70
    24
 71
     3
 72
    11
 73
     7
 74
     0
 42
0.00000001
 43
0.0000000001
 40
6.0
 40
6.0
 40
6.0
 40
6.0
 40
7.0
 40
7.0
 40
7.0
 40
8.0
 40
8.0
 40
8.0
 40
8.0
 10
428.5936960277776
 20
365.6727705868056
 30
0.0
 10
428.5833607413185
 20
365.6727705868056
 30
0.0
 10
428.6005862187494
 20
365.6727705868056
 30
0.0
 10
428.5868058368047
 20
365.6727705868056
 30
0.0
 10
428.5730254548607
 20
365.6727705868056
 30
0.0
 10
428.5936960277776
 20
365.6727705868056
 30
0.0
 10
428.5799156458328
 20
365.6727705868056
 30
0.0
  0
ARC
  5
DB978
330
1E
100
AcDbEntity
  8
OUTLINE
  6
Continuous
370
     0
100
AcDbCircle
 10
428.5653438230347
 20
365.4082896752283
 30
0.0
 40
0.2659962407676653
100
AcDbArc
 50
83.88129147406363
 51
149.8583347009348
  0
ARC
  5
DB979
330
1E
100
AcDbEntity
  8
OUTLINE
  6
Continuous
370
     0
100
AcDbCircle
 10
428.9734311409238
 20
360.5862050669348
 30
0.0
 40
0.7600891471310817
100
AcDbArc
 50
192.7079113001304
 51
238.2113250901744
  0
ARC
  5
DB97A
330
1E
100
AcDbEntity
  8
OUTLINE
  6
Continuous
370
     0
100
AcDbCircle
 10
436.9171465212521
 20
362.8062487249235
 30
0.0
 40
9.007297270767347
100
AcDbArc
 50
162.319415540203
 51
195.3690306811055
  0
LINE
  5
DB97B
330
1E
100
AcDbEntity
  8
OUTLINE
  6
Continuous
370
     0
100
AcDbLine
 10
428.5936960277776
 20
365.6727705868056
 30
0.0
 11
431.9733349999997
 21
364.8425029999998
 31
0.0
  0
LINE
  5
DB97C
330
1E
100
AcDbEntity
  8
OUTLINE
  6
Continuous
370
     0
100
AcDbLine
 10
428.5730254548607
 20
359.9401316979165
 30
0.0
 11
431.9733349999997
 21
359.0375170000001
 31
0.0
  0
SPLINE
  5
DB97D
330
1E
100
AcDbEntity
  8
OUTLINE
  6
Continuous
100
AcDbSpline
210
0.0
220
0.0
230
1.0
 70
    24
 71
     3
 72
    11
 73
     7
 74
     0
 42
0.00000001
 43
0.0000000001
 40
6.0
 40
6.0
 40
6.0
 40
6.0
 40
7.0
 40
7.0
 40
7.0
 40
8.0
 40
8.0
 40
8.0
 40
8.0
 10
428.5936960277776
 20
356.1711965868058
 30
0.0
 10
428.5833607413185
 20
356.1711965868058
 30
0.0
 10
428.6005862187494
 20
356.1711965868058
 30
0.0
 10
428.5868058368047
 20
356.1711965868058
 30
0.0
 10
428.5730254548607
 20
356.1711965868058
 30
0.0
 10
428.5936960277776
 20
356.1711965868058
 30
0.0
 10
428.5799156458328
 20
356.1711965868058
 30
0.0
  0
ARC
  5
DB97E
330
1E
100
AcDbEntity
  8
OUTLINE
  6
Continuous
370
     0
100
AcDbCircle
 10
428.5653438230347
 20
355.9067156752285
 30
0.0
 40
0.2659962407676653
100
AcDbArc
 50
83.88129147406363
 51
149.8583347009348
  0
ARC
  5
DB97F
330
1E
100
AcDbEntity
  8
OUTLINE
  6
Continuous
370
     0
100
AcDbCircle
 10
428.9734311409238
 20
351.0846310669349
 30
0.0
 40
0.7600891471310817
100
AcDbArc
 50
192.7079113001304
 51
238.2113250901744
  0
ARC
  5
DB980
330
1E
100
AcDbEntity
  8
OUTLINE
  6
Continuous
370
     0
100
AcDbCircle
 10
436.9171465212521
 20
353.3046747249236
 30
0.0
 40
9.007297270767347
100
AcDbArc
 50
162.319415540203
 51
195.3690306811055
  0
LINE
  5
DB981
330
1E
100
AcDbEntity
  8
OUTLINE
  6
Continuous
370
     0
100
AcDbLine
 10
428.5936960277776
 20
356.1711965868058
 30
0.0
 11
431.9733349999997
 21
355.340929
 31
0.0
  0
LINE
  5
DB982
330
1E
100
AcDbEntity
  8
OUTLINE
  6
Continuous
370
     0
100
AcDbLine
 10
428.5730254548607
 20
350.4385576979166
 30
0.0
 11
431.9733349999997
 21
349.5359430000003
 31
0.0
  0
SPLINE
  5
DB983
330
1E
100
AcDbEntity
  8
OUTLINE
  6
Continuous
100
AcDbSpline
210
0.0
220
0.0
230
1.0
 70
    24
 71
     3
 72
    11
 73
     7
 74
     0
 42
0.00000001
 43
0.0000000001
 40
6.0
 40
6.0
 40
6.0
 40
6.0
 40
7.0
 40
7.0
 40
7.0
 40
8.0
 40
8.0
 40
8.0
 40
8.0
 10
428.5936960277776
 20
346.6730685868057
 30
0.0
 10
428.5833607413185
 20
346.6730685868057
 30
0.0
 10
428.6005862187494
 20
346.6730685868057
 30
0.0
 10
428.5868058368047
 20
346.6730685868057
 30
0.0
 10
428.5730254548607
 20
346.6730685868057
 30
0.0
 10
428.5936960277776
 20
346.6730685868057
 30
0.0
 10
428.5799156458328
 20
346.6730685868057
 30
0.0
  0
ARC
  5
DB984
330
1E
100
AcDbEntity
  8
OUTLINE
  6
Continuous
370
     0
100
AcDbCircle
 10
428.5653438230347
 20
346.4085876752284
 30
0.0
 40
0.2659962407676653
100
AcDbArc
 50
83.88129147406363
 51
149.8583347009348
  0
ARC
  5
DB985
330
1E
100
AcDbEntity
  8
OUTLINE
  6
Continuous
370
     0
100
AcDbCircle
 10
428.9734311409238
 20
341.5865030669347
 30
0.0
 40
0.7600891471310817
100
AcDbArc
 50
192.7079113001304
 51
238.2113250901744
  0
ARC
  5
DB986
330
1E
100
AcDbEntity
  8
OUTLINE
  6
Continuous
370
     0
100
AcDbCircle
 10
436.9171465212521
 20
343.8065467249235
 30
0.0
 40
9.007297270767347
100
AcDbArc
 50
162.319415540203
 51
195.3690306811055
  0
LINE
  5
DB987
330
1E
100
AcDbEntity
  8
OUTLINE
  6
Continuous
370
     0
100
AcDbLine
 10
428.5936960277776
 20
346.6730685868057
 30
0.0
 11
431.9733349999997
 21
345.8428009999999
 31
0.0
  0
LINE
  5
DB988
330
1E
100
AcDbEntity
  8
OUTLINE
  6
Continuous
370
     0
100
AcDbLine
 10
428.5730254548607
 20
340.9404296979165
 30
0.0
 11
431.9733349999997
 21
340.0378150000002
 31
0.0
  0
LINE
  5
DB989
330
1E
100
AcDbEntity
  8
OUTLINE
  6
Continuous
370
     0
100
AcDbLine
 10
431.9733349999997
 20
387.535347
 30
0.0
 11
431.9733346996526
 21
383.8422043194441
 31
0.0
  0
LINE
  5
DB98A
330
1E
100
AcDbEntity
  8
OUTLINE
  6
Continuous
370
     0
100
AcDbLine
 10
431.9733342275585
 20
378.0372184447624
 30
0.0
 11
431.9733339272112
 21
374.3440757642066
 31
0.0
  0
LINE
  5
DB98B
330
1E
100
AcDbEntity
  8
OUTLINE
  6
Continuous
370
     0
100
AcDbLine
 10
431.9733346996526
 20
368.5356449687501
 30
0.0
 11
431.9733343993052
 21
364.8425022881943
 31
0.0
  0
LINE
  5
DB98C
330
1E
100
AcDbEntity
  8
OUTLINE
  6
Continuous
370
     0
100
AcDbLine
 10
431.9733349999997
 20
359.0375170000001
 30
0.0
 11
431.9733346996526
 21
355.3443743194443
 31
0.0
  0
LINE
  5
DB98D
330
1E
100
AcDbEntity
  8
OUTLINE
  6
Continuous
370
     0
100
AcDbLine
 10
431.973334227278
 20
349.53594320512
 30
0.0
 11
431.9733339269303
 21
345.8428005245642
 31
0.0
  0
LINE
  5
DB98E
330
1E
100
AcDbEntity
  8
OUTLINE
100
AcDbLine
 10
-362.5026590000004
 20
714.0
 30
0.0
 11
363.4973409999998
 21
714.0
 31
0.0
  0
LINE
  5
DB98F
330
1E
100
AcDbEntity
  8
OUTLINE
100
AcDbLine
 10
363.4973409999998
 20
712.4029299999993
 30
0.0
 11
363.4973409999998
 21
714.0
 31
0.0
  0
ARC
  5
DB991
330
1E
100
AcDbEntity
  8
OUTLINE
100
AcDbCircle
 10
357.0438881327687
 20
593.5335693818313
 30
0.0
 40
119.044411660866
100
AcDbArc
 50
71.35868744657206
 51
86.89244583542837
  0
ARC
  5
DB992
330
1E
100
AcDbEntity
  8
OUTLINE
100
AcDbCircle
 10
393.4973409999998
 20
701.5950037843484
 30
0.0
 40
5.0
100
AcDbArc
 50
0.0
 51
71.35868744657206
  0
LINE
  5
DB993
330
1E
100
AcDbEntity
  8
OUTLINE
100
AcDbLine
 10
-362.5026590000004
 20
712.4029299999993
 30
0.0
 11
-362.5026590000004
 21
714.0
 31
0.0
  0
ARC
  5
DB994
330
1E
100
AcDbEntity
  8
OUTLINE
100
AcDbCircle
 10
-356.4294265124516
 20
596.3112885591347
 30
0.0
 40
116.2503908177609
100
AcDbArc
 50
92.9946486004877
 51
112.0976723753666
  0
ARC
  5
DB995
330
1E
100
AcDbEntity
  8
OUTLINE
100
AcDbCircle
 10
-398.3
 20
699.3817255808074
 30
0.0
 40
5.0
100
AcDbArc
 50
111.8546753825717
 51
160.7031857973483
  0
LINE
  5
DB997
330
1E
100
AcDbEntity
  8
OUTLINE
100
AcDbLine
 10
-424.1417497855421
 20
691.3278077825777
 30
0.0
 11
-403.0190966380068
 21
701.0340351526346
 31
0.0
  0
LINE
  5
DB999
330
1E
100
AcDbEntity
  8
OUTLINE
100
AcDbLine
 10
-423.3000071427182
 20
687.5029298799139
 30
0.0
 11
397.0823214221359
 21
687.5
 31
0.0
  0
LINE
  5
DB99A
330
1E
100
AcDbEntity
  8
OUTLINE
100
AcDbLine
 10
398.4973409999998
 20
688.9976207523219
 30
0.0
 11
398.4973409999998
 21
701.5950037843484
 31
0.0
  0
ARC
  5
DB99B
330
1E
100
AcDbEntity
  8
OUTLINE
100
AcDbCircle
 10
396.9973093433341
 20
688.9976207523219
 30
0.0
 40
1.500031656775254
100
AcDbArc
 50
273.2488944520152
 51
359.999307395832
  0
LINE
  5
DB99C
330
1E
100
AcDbEntity
  8
OUTLINE
100
AcDbLine
 10
416.9730440464804
 20
287.7138038162414
 30
0.0
 11
429.7998249535189
 21
284.0378153438124
 31
0.0
  0
ARC
  5
DB9A5
330
1E
100
AcDbEntity
  8
OUTLINE
100
AcDbCircle
 10
397.7010488431857
 20
689.007942367851
 30
0.0
 40
2.507211921563075
100
AcDbArc
 50
216.9732379643579
 51
269.9321386804375
  0
ARC
  5
DB9A7
330
1E
100
AcDbEntity
  8
DETAIL
100
AcDbCircle
 10
397.7010488431857
 20
689.0079423678507
 30
0.0
 40
2.507211921563075
100
AcDbArc
 50
216.9732379643579
 51
269.9321386804375
  0
LINE
  5
DB9A8
330
1E
100
AcDbEntity
  8
OUTLINE
100
AcDbLine
 10
401.9975584600688
 20
579.8026799045137
 30
0.0
 11
401.9975588749994
 21
569.5879725486109
 31
0.0
  0
LINE
  5
DB9A9
330
1E
100
AcDbEntity
  8
DETAIL
100
AcDbLine
 10
-327.9246957864673
 20
109.1612955668399
 30
0.0
 11
133.9248050815886
 21
109.1612955668399
 31
0.0
  0
LINE
  5
DB9AA
330
1E
100
AcDbEntity
  8
DETAIL
100
AcDbLine
 10
156.3385963142357
 20
131.5750867994869
 30
0.0
 11
156.3385963142349
 21
599.0263129279465
 31
0.0
  0
LINE
  5
DB9AB
330
1E
100
AcDbEntity
  8
DETAIL
100
AcDbLine
 10
133.9248050815996
 20
621.4435492560759
 30
0.0
 11
-327.9246957864511
 21
621.4435492560762
 31
0.0
  0
LINE
  5
DB9AC
330
1E
100
AcDbEntity
  8
DETAIL
100
AcDbLine
 10
-350.3419321145837
 20
599.0297580234417
 30
0.0
 11
-350.3419321145835
 21
131.5750867994812
 31
0.0
  0
LINE
  5
DBFD2
330
1E
100
AcDbEntity
  8
DETAIL
  6
Continuous
100
AcDbLine
 10
-425.3
 20
689.5135703949851
 30
0.0
 11
-425.3
 21
689.5029298799013
 31
0.0
  0
LINE
  5
DBFD5
330
1E
100
AcDbEntity
  8
OUTLINE
  6
Continuous
100
AcDbLine
 10
-425.3
 20
689.5135703949851
 30
0.0
 11
-425.3
 21
689.5029298799013
 31
0.0
  0
ARC
  5
DBFDF
330
1E
100
AcDbEntity
  8
OUTLINE
100
AcDbCircle
 10
-423.3
 20
689.5135703949851
 30
0.0
 40
2.0
100
AcDbArc
 50
114.8898354530808
 51
180.0
  0
ARC
  5
DBFE0
330
1E
100
AcDbEntity
  8
OUTLINE
100
AcDbCircle
 10
-423.3
 20
689.5029298799013
 30
0.0
 40
2.0
100
AcDbArc
 50
180.0
 51
269.9997953761951
  0
ARC
  5
DBFE1
330
1E
100
AcDbEntity
  8
DETAIL
100
AcDbCircle
 10
-423.3
 20
689.5135703949851
 30
0.0
 40
2.0
100
AcDbArc
 50
114.8898354530808
 51
180.0
  0
ARC
  5
DBFE2
330
1E
100
AcDbEntity
  8
DETAIL
100
AcDbCircle
 10
-423.3
 20
689.5029298799013
 30
0.0
 40
2.0
100
AcDbArc
 50
180.0
 51
269.9997953761951
  0
DIMENSION
  5
DC17C
330
1E
100
AcDbEntity
  8
SIZE
100
AcDbDimension
280
     0
  2
*D16
 10
400.0
 20
-100.0
 30
0.0
 11
506.7051809487966
 21
-100.0
 31
0.0
 70
   160
 71
     5
 42
29.0
 73
     0
 74
     0
 75
     0
  3
STANDARD
100
AcDbAlignedDimension
 13
429.0
 23
59.89451973785219
 33
0.0
 14
400.0
 24
28.19137729374004
 34
0.0
100
AcDbRotatedDimension
  0
TEXT
  5
DC1AE
330
1E
100
AcDbEntity
  8
NOTE
100
AcDbText
 10
359.6872469446759
 20
-298.1620193710126
 30
0.0
 40
45.0
  1
Dφ42
 41
0.8
 11
359.6872469446759
 21
-298.1620193710126
 31
0.0
100
AcDbText
 73
     1
  0
MTEXT
  5
DC1AF
330
1E
100
AcDbEntity
  8
NOTE
100
AcDbMText
 10
-753.8816468333306
 20
-74.27142559722597
 30
0.0
 40
45.0
 41
445.2929256957268
 46
0.0
 71
     1
 72
     5
  1
AH\P2X10X21
 73
     1
 44
1.0
1001
ACAD
1000
ACAD_MTEXT_COLUMN_INFO_BEGIN
1070
    75
1070
     2
1070
    79
1070
     0
1070
    76
1070
     1
1070
    78
1070
     0
1070
    48
1040
445.2929256957268
1070
    49
1040
320.0
1070
    50
1070
     1
1040
178.4358242355259
1000
ACAD_MTEXT_COLUMN_INFO_END
  0
TEXT
  5
DC1B0
330
1E
100
AcDbEntity
  8
NOTE
100
AcDbText
 10
-795.8475169742841
 20
-268.3552636764216
 30
0.0
 40
45.0
  1
(基礎ボルト M8)
 41
0.7
 11
-795.8475169742841
 21
-223.3552636764216
 31
0.0
100
AcDbText
 73
     3
  0
TEXT
  5
DC1B1
330
1E
100
AcDbEntity
  8
NOTE
100
AcDbText
 10
852.5764853733251
 20
808.1084126075257
 30
0.0
 40
45.0
  1
設置必要スペ－ス
 50
359.9999974955313
 41
0.8
100
AcDbText
  0
LINE
  5
DC1B2
330
1E
100
AcDbEntity
  8
NOTE
100
AcDbLine
 10
-470.3244282522063
 20
-203.9031767305078
 30
0.0
 11
-806.6481145215457
 21
-203.9031767305078
 31
0.0
  0
LINE
  5
DC1B3
330
1E
100
AcDbEntity
  8
NOTE
100
AcDbLine
 10
347.3249551874868
 20
-308.7931449197331
 30
0.0
 11
514.8115778274168
 21
-308.7931449197331
 31
0.0
  0
LINE
  5
DC1B4
330
1E
100
AcDbEntity
  8
NOTE
100
AcDbLine
 10
843.7923427538008
 20
797.9061471828462
 30
0.0
 11
1203.136059205367
 21
797.9061471828462
 31
0.0
  0
TEXT
  5
DC361
330
1E
100
AcDbEntity
  8
SIZE
100
AcDbText
 10
-140.367232470746
 20
-243.2459316844768
 30
0.0
 40
45.0
  1
ボルトピッチ
 50
0.0000025044687019
 41
0.9
100
AcDbText
  0
MTEXT
  5
DC366
330
1E
100
AcDbEntity
  8
NOTE
100
AcDbMText
 10
-470.7744282522063
 20
-158.9031767305078
 30
0.0
 40
45.0
 41
0.0
 46
0.0
 71
     3
 72
     5
  1

 73
     1
 44
1.0
  0
LWPOLYLINE
  5
DC368
330
1E
100
AcDbEntity
  8
NOTE
100
AcDbPolyline
 90
        2
 70
     0
 43
0.0
 10
-250.0005420000002
 20
0.0
 10
-470.3244282522063
 20
-203.9031767305078
  0
MTEXT
  5
DC36B
330
1E
100
AcDbEntity
  8
NOTE
100
AcDbMText
 10
347.7749551874869
 20
-263.7931449197331
 30
0.0
 40
45.0
 41
0.0
 46
0.0
 71
     1
 72
     5
  1

 73
     1
 44
1.0
  0
LWPOLYLINE
  5
DC36D
330
1E
100
AcDbEntity
  8
NOTE
  6
ByBlock
370
    -2
100
AcDbPolyline
 90
        2
 70
     0
 43
0.0
 10
0.0
 20
10.0
 10
347.3249551874868
 20
-308.7931449197331
  0
MTEXT
  5
DC370
330
1E
100
AcDbEntity
  8
NOTE
100
AcDbMText
 10
844.2423427538008
 20
842.9061471828461
 30
0.0
 40
45.0
 41
0.0
 46
0.0
 71
     1
 72
     5
  1

 73
     1
 44
1.0
  0
LINE
  5
DC375
330
1E
100
AcDbEntity
  8
NOTE
100
AcDbLine
 10
-286.6375813435989
 20
-19.30290593693737
 30
0.0
 11
-250.0005420000002
 21
0.0
 31
0.0
  0
LINE
  5
DC376
330
1E
100
AcDbEntity
  8
NOTE
100
AcDbLine
 10
-250.0005420000002
 20
0.0
 30
0.0
 11
-272.077695981477
 21
-35.03532647989475
 31
0.0
  0
LINE
  5
DC378
330
1E
100
AcDbEntity
  8
NOTE
100
AcDbLine
 10
22.22126802263966
 20
-24.94409931505835
 30
0.0
 11
0.0
 21
10.0
 31
0.0
  0
LINE
  5
DC379
330
1E
100
AcDbEntity
  8
NOTE
100
AcDbLine
 10
0.0
 20
10.0
 30
0.0
 11
36.71623218255489
 21
-9.151843874451632
 31
0.0
  0
LINE
  5
DC37B
330
1E
100
AcDbEntity
  8
NOTE
100
AcDbLine
 10
783.0467796839791
 20
702.5592110228091
 30
0.0
 11
750.0
 21
677.6035466959837
 31
0.0
  0
LINE
  5
DC37C
330
1E
100
AcDbEntity
  8
NOTE
100
AcDbLine
 10
750.0
 20
677.6035466959837
 30
0.0
 11
766.1415187291845
 21
715.7391757400946
 31
0.0
  0
LINE
  5
DC37E
330
1E
100
AcDbEntity
  8
NOTE
100
AcDbLine
 10
843.7923427538008
 20
797.9061471828462
 30
0.0
 11
750.0
 21
677.6035466959837
 31
0.0
  0
CIRCLE
  5
DC4F8
330
1E
100
AcDbEntity
  8
FIX
100
AcDbCircle
 10
-250.0
 20
-0.0000000000000284
 30
0.0
 40
5.0
  0
CIRCLE
  5
DC4F9
330
1E
100
AcDbEntity
  8
FIX
100
AcDbCircle
 10
250.0
 20
-0.0000000000000073
 30
0.0
 40
5.0
  0
LINE
  5
DCCD0
330
1E
100
AcDbEntity
  8
BASIS
100
AcDbLine
 10
429.0
 20
59.89451973785219
 30
0.0
 11
429.0
 21
214.1189688712773
 31
0.0
  0
TEXT
  5
DCCD1
330
1E
100
AcDbEntity
  8
NOTE
100
AcDbText
 10
831.3570371406656
 20
492.7714228243488
 30
0.0
 40
45.0
  1
RLφ6.35
 50
0.0000017075472925
 41
0.8
100
AcDbText
  0
TEXT
  5
DCCD2
330
1E
100
AcDbEntity
  8
NOTE
100
AcDbText
 10
832.613101828994
 20
367.8920488690674
 30
0.0
 40
45.0
  1
RG%%C9.52
 41
0.8
100
AcDbText
  0
LINE
  5
DCCD3
330
1E
100
AcDbEntity
  8
BASIS
100
AcDbLine
 10
471.4999999999998
 20
117.0
 30
0.0
 11
386.5
 21
117.0
 31
0.0
  0
LWPOLYLINE
  5
DCCD4
330
1E
100
AcDbEntity
  8
NOTE
100
AcDbPolyline
 90
        4
 70
     0
 43
0.0
 10
429.0
 20
179.0
 10
802.151886300366
 20
481.4968630409536
 42
-0.171966511234363
 10
803.4113426312812
 20
481.9432319480639
 10
1058.63886856723
 20
481.9432409519642
  0
LINE
  5
DCCD5
330
1E
100
AcDbEntity
  8
NOTE
100
AcDbLine
 10
466.8220283100827
 20
195.8632441714494
 30
0.0
 11
429.0
 21
179.0
 31
0.0
  0
LINE
  5
DCCD6
330
1E
100
AcDbEntity
  8
NOTE
100
AcDbLine
 10
429.0
 20
179.0
 30
0.0
 11
453.3232154055036
 21
212.5150118873934
 31
0.0
  0
LWPOLYLINE
  5
DCCD7
330
1E
100
AcDbEntity
  8
NOTE
100
AcDbPolyline
 90
        4
 70
     0
 43
0.0
 10
429.0
 20
117.0
 10
787.4264074682343
 20
360.6763773898549
 42
-0.1503871902940007
 10
788.5508583448254
 20
361.0224094282009
 10
1058.63886856723
 20
361.0224219156937
  0
LINE
  5
DCCD8
330
1E
100
AcDbEntity
  8
NOTE
100
AcDbLine
 10
468.1052737601709
 20
130.6254318689983
 30
0.0
 11
429.0
 21
117.0
 31
0.0
  0
LINE
  5
DCCD9
330
1E
100
AcDbEntity
  8
NOTE
100
AcDbLine
 10
429.0
 20
117.0
 30
0.0
 11
456.0534447059864
 21
148.3526068934432
 31
0.0
  0
LINE
  5
DCCDA
330
1E
100
AcDbEntity
  8
BASIS
100
AcDbLine
 10
471.4999999999998
 20
179.0
 30
0.0
 11
386.5
 21
179.0
 31
0.0
  0
DIMENSION
  5
DCCDB
330
1E
100
AcDbEntity
  8
SIZE
100
AcDbDimension
280
     0
  2
*D19
 10
886.2302094569606
 20
0.0000000000000882
 30
0.0
 11
886.2302094569605
 21
-69.28571428571444
 31
0.0
 70
   160
 71
     5
 42
117.0
 73
     0
 74
     0
 75
     0
  3
STANDARD
100
AcDbAlignedDimension
 13
471.4999999999998
 23
117.0
 33
0.0
 14
269.9987249999995
 24
-0.0000000000000109
 34
0.0
 50
90.0
100
AcDbRotatedDimension
  0
DIMENSION
  5
DCCDC
330
1E
100
AcDbEntity
  8
SIZE
100
AcDbDimension
280
     0
  2
*D20
 10
1009.965182824984
 20
0.0000000000001081
 30
0.0
 11
1009.965182824984
 21
89.49999999999983
 31
0.0
 70
   160
 71
     5
 42
179.0
 73
     0
 74
     0
 75
     0
  3
STANDARD
100
AcDbAlignedDimension
 13
471.4999999999998
 23
179.0
 33
0.0
 14
269.9987249999995
 24
-0.0000000000000109
 34
0.0
 50
90.0
100
AcDbRotatedDimension
  0
ENDSEC
  0
SECTION
  2
OBJECTS
  0
DICTIONARY
  5
C
330
0
100
AcDbDictionary
281
     1
  3
ACAD_CIP_PREVIOUS_PRODUCT_INFO
350
CE03B
  3
ACAD_COLOR
350
CE01E
  3
ACAD_DETAILVIEWSTYLE
350
CE037
  3
ACAD_GROUP
350
D
  3
ACAD_LAYOUT
350
19
  3
ACAD_MATERIAL
350
CDFEC
  3
ACAD_MLEADERSTYLE
350
CE033
  3
ACAD_MLINESTYLE
350
16
  3
ACAD_PLOTSETTINGS
350
18
  3
ACAD_PLOTSTYLENAME
350
E
  3
ACAD_SCALELIST
350
CE021
  3
ACAD_SECTIONVIEWSTYLE
350
CE035
  3
ACAD_TABLESTYLE
350
CE01F
  3
ACAD_VISUALSTYLE
350
CE005
  3
ACDB_RECOMPOSE_DATA
350
DCE72
  3
AcDbVariableDictionary
350
CF14E
  0
DICTIONARY
  5
CE08E
330
2
100
AcDbDictionary
280
     1
281
     1
  3
ACAD_LAYERSTATES
360
CE08F
  0
DICTIONARY
  5
CE03C
330
10
100
AcDbDictionary
280
     1
281
     1
  3
ADSK_XREC_LAYER_RECONCILED
360
CE03D
  0
DICTIONARY
  5
CE03E
330
22
100
AcDbDictionary
280
     1
281
     1
  3
ADSK_XREC_LAYER_RECONCILED
360
CE03F
  0
DICTIONARY
  5
CE040
330
31
100
AcDbDictionary
280
     1
281
     1
  3
ADSK_XREC_LAYER_RECONCILED
360
CE041
  0
DICTIONARY
  5
CE042
330
32
100
AcDbDictionary
280
     1
281
     1
  3
ADSK_XREC_LAYER_RECONCILED
360
CE043
  0
DICTIONARY
  5
CE044
330
33
100
AcDbDictionary
280
     1
281
     1
  3
ADSK_XREC_LAYER_RECONCILED
360
CE045
  0
DICTIONARY
  5
CE046
330
34
100
AcDbDictionary
280
     1
281
     1
  3
ADSK_XREC_LAYER_RECONCILED
360
CE047
  0
DICTIONARY
  5
CE048
330
35
100
AcDbDictionary
280
     1
281
     1
  3
ADSK_XREC_LAYER_RECONCILED
360
CE049
  0
DICTIONARY
  5
CE04A
330
37
100
AcDbDictionary
280
     1
281
     1
  3
ADSK_XREC_LAYER_RECONCILED
360
CE04B
  0
DICTIONARY
  5
DC4F0
330
DC4EF
100
AcDbDictionary
280
     1
281
     1
  0
DICTIONARY
  5
66E76
330
1E
100
AcDbDictionary
280
     1
281
     1
  3
ACAD_SORTENTS
360
CF3CE
  0
XRECORD
  5
CE03B
102
{ACAD_REACTORS
330
C
102
}
330
C
100
AcDbXrecord
280
     1
300
ACDLT
300
2021
300
87396ACDLT_2021_0F
  0
DICTIONARY
  5
CE01E
102
{ACAD_REACTORS
330
C
102
}
330
C
100
AcDbDictionary
281
     1
  0
DICTIONARY
  5
CE037
102
{ACAD_REACTORS
330
C
102
}
330
C
100
AcDbDictionary
281
     1
  3
Imperial24
350
CE038
  3
Metric50
350
CE091
  0
DICTIONARY
  5
D
102
{ACAD_REACTORS
330
C
102
}
330
C
100
AcDbDictionary
281
     1
  3
*A1
350
DAE52
  0
DICTIONARY
  5
19
102
{ACAD_REACTORS
330
C
102
}
330
C
100
AcDbDictionary
281
     1
  3
Model
350
CE039
  3
レイアウト1
350
CE03A
  0
DICTIONARY
  5
CDFEC
102
{ACAD_REACTORS
330
C
102
}
330
C
100
AcDbDictionary
281
     1
  3
ByBlock
350
CDFF5
  3
ByLayer
350
CDFED
  3
Global
350
CDFFD
  0
DICTIONARY
  5
CE033
102
{ACAD_REACTORS
330
C
102
}
330
C
100
AcDbDictionary
281
     1
  3
Standard
350
CE034
  0
DICTIONARY
  5
16
102
{ACAD_REACTORS
330
C
102
}
330
C
100
AcDbDictionary
281
     1
  3
STANDARD
350
17
  0
DICTIONARY
  5
18
102
{ACAD_REACTORS
330
C
102
}
330
C
100
AcDbDictionary
281
     1
  0
ACDBDICTIONARYWDFLT
  5
E
102
{ACAD_REACTORS
330
C
102
}
330
C
100
AcDbDictionary
281
     1
  3
Normal
350
F
100
AcDbDictionaryWithDefault
340
F
  0
DICTIONARY
  5
CE021
102
{ACAD_REACTORS
330
C
102
}
330
C
100
AcDbDictionary
281
     1
  3
A0
350
CE022
  3
A1
350
CE023
  3
A2
350
CE024
  3
A3
350
CE025
  3
A4
350
CE026
  3
A5
350
CE027
  3
A6
350
CE028
  3
A7
350
CE029
  3
A8
350
CE02A
  3
A9
350
CE02B
  3
B0
350
CE02C
  3
B1
350
CE02D
  3
B2
350
CE02E
  3
B3
350
CE02F
  3
B4
350
CE030
  3
B5
350
CE031
  3
B6
350
CE032
  0
DICTIONARY
  5
CE035
102
{ACAD_REACTORS
330
C
102
}
330
C
100
AcDbDictionary
281
     1
  3
Imperial24
350
CE036
  3
Metric50
350
CE090
  0
DICTIONARY
  5
CE01F
102
{ACAD_REACTORS
330
C
102
}
330
C
100
AcDbDictionary
281
     1
  3
Standard
350
CE020
  0
DICTIONARY
  5
CE005
102
{ACAD_REACTORS
330
C
102
}
330
C
100
AcDbDictionary
281
     1
  3
2dWireframe
350
CE00B
  3
Basic
350
CE00A
  3
Brighten
350
CE011
  3
ColorChange
350
CE015
  3
Conceptual
350
CE00E
  3
Dim
350
CE010
  3
EdgeColorOff
350
CE01D
  3
Facepattern
350
CE014
  3
Flat
350
CE006
  3
FlatWithEdges
350
CE007
  3
Gouraud
350
CE008
  3
GouraudWithEdges
350
CE009
  3
Hidden
350
CE00D
  3
JitterOff
350
CE01B
  3
Linepattern
350
CE013
  3
OverhangOff
350
CE01C
  3
Realistic
350
CE00F
  3
Shaded
350
CE01A
  3
Shaded with edges
350
CE019
  3
Shades of Gray
350
CE016
  3
Sketchy
350
CE017
  3
Thicken
350
CE012
  3
Wireframe
350
CE00C
  3
X-Ray
350
CE018
  0
XRECORD
  5
DCE72
102
{ACAD_REACTORS
330
C
102
}
330
C
100
AcDbXrecord
280
     1
 90
        1
330
CE020
330
DC1AF
  0
DICTIONARY
  5
CF14E
102
{ACAD_REACTORS
330
C
102
}
330
C
100
AcDbDictionary
281
     1
  3
CANNOSCALE
350
CF153
  3
CMLEADERSTYLE
350
CF150
  3
CTABLESTYLE
350
CF14F
  3
CVIEWDETAILSTYLE
350
CF151
  3
CVIEWSECTIONSTYLE
350
CF152
  3
DIMASSOC
350
CF621
  3
INDEXCTL
350
CF620
  3
LAYEREVAL
350
D165F
  3
LAYERNOTIFY
350
D1660
  3
LIGHTINGUNITS
350
D165E
  3
MSLTSCALE
350
D165D
  3
SORTENTS
350
CF61F
  0
DICTIONARY
  5
CE08F
102
{ACAD_REACTORS
330
CE08E
102
}
330
CE08E
100
AcDbDictionary
281
     1
  0
XRECORD
  5
CE03D
102
{ACAD_REACTORS
330
CE03C
102
}
330
CE03C
100
AcDbXrecord
280
     1
290
     1
  0
XRECORD
  5
CE03F
102
{ACAD_REACTORS
330
CE03E
102
}
330
CE03E
100
AcDbXrecord
280
     1
290
     1
  0
XRECORD
  5
CE041
102
{ACAD_REACTORS
330
CE040
102
}
330
CE040
100
AcDbXrecord
280
     1
290
     1
  0
XRECORD
  5
CE043
102
{ACAD_REACTORS
330
CE042
102
}
330
CE042
100
AcDbXrecord
280
     1
290
     1
  0
XRECORD
  5
CE045
102
{ACAD_REACTORS
330
CE044
102
}
330
CE044
100
AcDbXrecord
280
     1
290
     1
  0
XRECORD
  5
CE047
102
{ACAD_REACTORS
330
CE046
102
}
330
CE046
100
AcDbXrecord
280
     1
290
     1
  0
XRECORD
  5
CE049
102
{ACAD_REACTORS
330
CE048
102
}
330
CE048
100
AcDbXrecord
280
     1
290
     1
  0
XRECORD
  5
CE04B
102
{ACAD_REACTORS
330
CE04A
102
}
330
CE04A
100
AcDbXrecord
280
     1
290
     1
  0
SORTENTSTABLE
  5
CF3CE
102
{ACAD_REACTORS
330
66E76
102
}
330
66E76
100
AcDbSortentsTable
330
1E
331
38341
  5
D8397
331
D7A1D
  5
D8398
331
D7A1E
  5
D8399
331
D8439
  5
DA45C
331
D843B
  5
DA45D
331
D8449
  5
DA6AF
331
D844A
  5
DA6B0
331
D8472
  5
DA742
331
D8474
  5
DA836
331
D8482
  5
DA86D
331
D8491
  5
DA86E
331
D84BD
  5
DA8A7
331
D852F
  5
DA8B0
331
D8565
  5
DA8B1
331
DA284
  5
DA8B2
331
DA363
  5
DA8B3
331
DA3E3
  5
DA8B6
331
DA86D
  5
DA8BC
331
DA86E
  5
DA8BE
331
DA98A
  5
DA8B5
331
DA98B
  5
DA8B4
331
DA98C
  5
DA8BD
331
DAAD1
  5
DAAD5
331
DAAD6
  5
DAADD
331
DAADB
  5
DAAE5
331
DB480
  5
DB481
331
DB481
  5
DB484
331
DB482
  5
DB489
331
DB483
  5
DB495
331
DB484
  5
DB496
331
DB486
  5
DB498
331
DB487
  5
DB49D
331
DB489
  5
DB49E
331
DB48B
  5
DB4A0
331
DB490
  5
DB4A2
331
DB491
  5
DB4A4
331
DB494
  5
DB4AE
331
DB495
  5
DB4AF
331
DB497
  5
DB4C4
331
DB499
  5
DB4C9
331
DB49B
  5
DB4CA
331
DB49D
  5
DB4CB
331
DB4A5
  5
DB4D2
331
DB4AF
  5
DB4D3
331
DB4C2
  5
DB4D9
331
DB4C3
  5
DB4DA
331
DB4C4
  5
DB4DB
331
DB4C5
  5
DB4DE
331
DB4C7
  5
DB4DF
331
DB4C9
  5
DB4E2
331
DB4CA
  5
DB4E3
331
DB4CB
  5
DB4E4
331
DB4CC
  5
DB4E5
331
DB4CE
  5
DB4E7
331
DB4CF
  5
DB4E8
331
DB4D2
  5
DB4ED
331
DB4D4
  5
DB52A
331
DB4D8
  5
DB52C
331
DB4DE
  5
DB530
331
DB4DF
  5
DB531
331
DB4E2
  5
DB532
331
DB4E3
  5
DB533
331
DB4E4
  5
DB534
331
DB4E7
  5
DB537
331
DB4E8
  5
DB539
331
DB4E9
  5
DB53A
331
DB4EA
  5
DB53B
331
DB4EC
  5
DB53D
331
DB529
  5
DB543
331
DB52A
  5
DB547
331
DB52B
  5
DB549
331
DB52E
  5
DB54B
331
DB530
  5
DB54D
331
DB531
  5
DB54F
331
DB532
  5
DB551
331
DB533
  5
DB554
331
DB534
  5
DB558
331
DB535
  5
DB570
331
DB536
  5
DB576
331
DB537
  5
DB577
331
DB539
  5
DB579
331
DB53A
  5
DB57B
331
DB53B
  5
DB57C
331
DB53C
  5
DB57D
331
DB53D
  5
DB581
331
DB53E
  5
DB586
331
DB545
  5
DB587
331
DB550
  5
DB588
331
DB55B
  5
DB589
331
DB55E
  5
DB58A
331
DB56B
  5
DB58F
331
DB56C
  5
DB590
331
DB56D
  5
DB591
331
DB56E
  5
DB592
331
DB56F
  5
DB593
331
DB570
  5
DB595
331
DB571
  5
DB596
331
DB572
  5
DB597
331
DB573
  5
DB598
331
DB574
  5
DB599
331
DB575
  5
DB59A
331
DB576
  5
DB59B
331
DB577
  5
DB59C
331
DB578
  5
DB59D
331
DB579
  5
DB59E
331
DB57A
  5
DB59F
331
DB57B
  5
DB5A0
331
DB57C
  5
DB5A1
331
DB57D
  5
DB5A2
331
DB57E
  5
DB5A3
331
DB57F
  5
DB5A4
331
DB580
  5
DB5A6
331
DB581
  5
DB5A7
331
DB582
  5
DB5A8
331
DB583
  5
DB5A9
331
DB584
  5
DB5AA
331
DB585
  5
DB5AB
331
DB586
  5
DB5AC
331
DB587
  5
DB5AD
331
DB588
  5
DB5AE
331
DB589
  5
DB5AF
331
DB58A
  5
DB5B0
331
DB58B
  5
DB5B1
331
DB58C
  5
DB5B2
331
DB58D
  5
DB5B3
331
DB58E
  5
DB5B4
331
DB58F
  5
DB5B5
331
DB590
  5
DB5B6
331
DB591
  5
DB5B8
331
DB592
  5
DB5B9
331
DB593
  5
DB5BA
331
DB594
  5
DB5BB
331
DB595
  5
DB5BC
331
DB596
  5
DB5BD
331
DB597
  5
DB5BE
331
DB598
  5
DB5BF
331
DB599
  5
DB5C0
331
DB59A
  5
DB5C1
331
DB59B
  5
DB5C2
331
DB59C
  5
DB5C3
331
DB59D
  5
DB5C4
331
DB59E
  5
DB5C5
331
DB59F
  5
DB5C6
331
DB5A0
  5
DB5C7
331
DB5A1
  5
DB5C8
331
DB5A2
  5
DB5C9
331
DB5A3
  5
DB5CA
331
DB5A4
  5
DB5CB
331
DB5A6
  5
DB5CC
331
DB5A7
  5
DB5CE
331
DB5A8
  5
DB5CF
331
DB5A9
  5
DB5D4
331
DB5AA
  5
DB5D5
331
DB5AB
  5
DB5D6
331
DB5AC
  5
DB5D7
331
DB5AD
  5
DB5D8
331
DB5AE
  5
DB5D9
331
DB5AF
  5
DB5DA
331
DB5B0
  5
DB5DB
331
DB5B1
  5
DB5DC
331
DB5B2
  5
DB5DF
331
DB5B3
  5
DB5E0
331
DB5B4
  5
DB5E1
331
DB5B5
  5
DB5E2
331
DB5B6
  5
DB5E3
331
DB5B8
  5
DB5E4
331
DB5B9
  5
DB5E5
331
DB5BA
  5
DB5E6
331
DB5BB
  5
DB5E7
331
DB5BC
  5
DB5E8
331
DB5BD
  5
DB5E9
331
DB5BE
  5
DB5EA
331
DB5BF
  5
DB5EB
331
DB5C0
  5
DB5EC
331
DB5C1
  5
DB5ED
331
DB5C2
  5
DB5EE
331
DB5C3
  5
DB5EF
331
DB5C4
  5
DB5F0
331
DB5C5
  5
DB5F1
331
DB5C6
  5
DB5F2
331
DB5C7
  5
DB5F3
331
DB5CA
  5
DB5F4
331
DB5CB
  5
DB5F5
331
DB5CC
  5
DB5F6
331
DB5D1
  5
DB5F8
331
DB5D2
  5
DB60B
331
DB5D3
  5
DB60C
331
DB5D4
  5
DB60D
331
DB5D5
  5
DB60E
331
DB5D6
  5
DB60F
331
DB5D7
  5
DB610
331
DB5D8
  5
DB611
331
DB5D9
  5
DB612
331
DB5DA
  5
DB613
331
DB5DB
  5
DB614
331
DB5DC
  5
DB615
331
DB5DD
  5
DB616
331
DB5DE
  5
DB617
331
DB5DF
  5
DB618
331
DB5E0
  5
DB619
331
DB5E1
  5
DB61A
331
DB5E2
  5
DB61B
331
DB5E3
  5
DB61C
331
DB5E4
  5
DB61D
331
DB5E5
  5
DB61E
331
DB5E6
  5
DB61F
331
DB5E7
  5
DB620
331
DB5E8
  5
DB621
331
DB5E9
  5
DB622
331
DB5EA
  5
DB623
331
DB5EB
  5
DB624
331
DB5EC
  5
DB625
331
DB5ED
  5
DB626
331
DB5EE
  5
DB627
331
DB5EF
  5
DB628
331
DB5F0
  5
DB629
331
DB5F1
  5
DB62A
331
DB5F2
  5
DB62B
331
DB5F3
  5
DB62C
331
DB5F4
  5
DB62D
331
DB5F5
  5
DB62E
331
DB5F6
  5
DB62F
331
DB5F7
  5
DB630
331
DB5F8
  5
DB631
331
DB734
  5
DB76C
331
DB735
  5
DB76D
331
DB736
  5
DB76E
331
DB737
  5
DB76F
331
DB738
  5
DB770
331
DB739
  5
DB771
331
DB73A
  5
DB772
331
DB73B
  5
DB773
331
DB73F
  5
DB775
331
DB740
  5
DB777
331
DB742
  5
DB778
331
DB743
  5
DB77A
331
DB74D
  5
DB77B
331
DB74F
  5
DB49F
331
DB753
  5
DB5F7
331
DB755
  5
DB4C5
331
DB757
  5
DB497
331
DB758
  5
DB49A
331
DB759
  5
DB4AD
331
DB75A
  5
DB483
331
DB75B
  5
DB77C
331
DB75C
  5
DB482
331
DB75D
  5
DB480
331
DB75E
  5
DB492
331
DB761
  5
DB486
331
DB764
  5
DB491
331
DB765
  5
DB4EA
331
DB766
  5
DB52B
331
DB768
  5
DB54C
331
DB769
  5
DB77D
331
DB76A
  5
DB77F
331
DB76B
  5
DB782
331
DB76C
  5
DB897
331
DB76D
  5
DB781
331
DB76E
  5
DB780
331
DB76F
  5
DB898
331
DB770
  5
DB77E
331
DB771
  5
DB546
331
DB772
  5
DB56B
331
DB773
  5
DB550
331
DB774
  5
DB555
331
DB775
  5
DB553
331
DB776
  5
DB571
331
DB777
  5
DB57A
331
DB778
  5
DB594
331
DB779
  5
DB548
331
DB77A
  5
DB578
331
DB77B
  5
DB54A
331
DB77C
  5
DB552
331
DB77D
  5
DB585
331
DB77E
  5
DB57E
331
DB77F
  5
DB54E
331
DB780
  5
DB584
331
DB781
  5
DB4AA
331
DB782
  5
DB4A1
331
DB897
  5
DB899
331
DB898
  5
DB89A
331
DB899
  5
DB89B
331
DB89A
  5
DB89C
331
DB89B
  5
DB89D
331
DB89C
  5
DB89E
331
DB89D
  5
DB89F
331
DB89E
  5
DB8A0
331
DB89F
  5
DB8A1
331
DB8A0
  5
DB8A2
331
DB8A1
  5
DB8A3
331
DB8A2
  5
DB8A4
331
DB8A3
  5
DB8A5
331
DB8A4
  5
DB8A6
331
DB8A5
  5
DB8A7
331
DB8A6
  5
DB8A8
331
DB8A7
  5
DB8AB
331
DB8A8
  5
DB8AC
331
DB8AB
  5
DB8AD
331
DB8AC
  5
DB8AE
331
DB8AD
  5
DB8AF
331
DB8AE
  5
DB8B0
331
DB8AF
  5
DB8B2
331
DB8B0
  5
DB8B3
331
DB8B2
  5
DB8B4
331
DB8B3
  5
DB8B5
331
DB8B4
  5
DB8B6
331
DB8B5
  5
DB8B7
331
DB8B7
  5
DB8B9
331
DB8B8
  5
DB8BD
331
DB8B9
  5
DB8BE
331
DB8BD
  5
DB8BF
331
DB8BE
  5
DB8C0
331
DB8BF
  5
DB8C1
331
DB8C0
  5
DB8C2
331
DB8C1
  5
DB8C3
331
DB8C2
  5
DB8C4
331
DB8C3
  5
DB8C5
331
DB8C4
  5
DB8C7
331
DB8C5
  5
DB8C8
331
DB8C7
  5
DB8C9
331
DB8C8
  5
DB8CA
331
DB8C9
  5
DB8CB
331
DB8CA
  5
DB8CC
331
DB8CB
  5
DB8CD
331
DB8CC
  5
DB8CF
331
DB8CD
  5
DB8D0
331
DB8CF
  5
DB8D1
331
DB8D0
  5
DB8D2
331
DB8D1
  5
DB8D3
331
DB8D2
  5
DB8D6
331
DB8D3
  5
DB8D7
331
DB8D6
  5
DB8D8
331
DB8D7
  5
DB8D9
331
DB8D8
  5
DB8DA
331
DB8D9
  5
DB8E2
331
DB8DA
  5
DB8E3
331
DB8E2
  5
DB8F6
331
DB8E3
  5
DB8FD
331
DB8F6
  5
DB8FE
331
DB8FD
  5
DB900
331
DB8FE
  5
DB962
331
DB900
  5
DB963
331
DB962
  5
DB966
331
DB963
  5
DB967
331
DB966
  5
DB968
331
DB967
  5
DB969
331
DB968
  5
DB96A
331
DB969
  5
DB96B
331
DB96A
  5
DB96C
331
DB96B
  5
DB96D
331
DB96C
  5
DB96E
331
DB96D
  5
DB96F
331
DB96E
  5
DB970
331
DB96F
  5
DB971
331
DB970
  5
DB972
331
DB971
  5
DB973
331
DB972
  5
DB974
331
DB973
  5
DB975
331
DB974
  5
DB976
331
DB975
  5
DB977
331
DB976
  5
DB978
331
DB977
  5
DB979
331
DB978
  5
DB97A
331
DB979
  5
DB97B
331
DB97A
  5
DB97C
331
DB97B
  5
DB97D
331
DB97C
  5
DB97E
331
DB97D
  5
DB97F
331
DB97E
  5
DB980
331
DB97F
  5
DB981
331
DB980
  5
DB982
331
DB981
  5
DB983
331
DB982
  5
DB984
331
DB983
  5
DB985
331
DB984
  5
DB986
331
DB985
  5
DB987
331
DB986
  5
DB988
331
DB987
  5
DB989
331
DB988
  5
DB98A
331
DB989
  5
DB98B
331
DB98A
  5
DB98C
331
DB98B
  5
DB98D
331
DB98C
  5
DB98E
331
DB98D
  5
DB98F
331
DB98E
  5
DB991
331
DB98F
  5
DB992
331
DB991
  5
DB993
331
DB992
  5
DB994
331
DB993
  5
DB995
331
DB994
  5
DB997
331
DB995
  5
DB999
331
DB997
  5
DB99A
331
DB999
  5
DB99B
331
DB99A
  5
DB9A5
331
DB99B
  5
DB9A7
331
DB99C
  5
DB9A8
331
DB9A5
  5
DB9A9
331
DB9A7
  5
DB9AA
331
DB9A8
  5
DB9AB
331
DB9A9
  5
DB9AC
331
DB9AA
  5
DBFD2
331
DB9AB
  5
DBFD5
331
DB9AC
  5
DBFDF
331
DBFD2
  5
DBFE0
331
DBFD5
  5
DBFE1
331
DBFDF
  5
DBFE2
331
DBFE0
  5
DB99C
331
DBFE1
  5
DB776
331
DBFE2
  5
DB779
331
DC36B
  5
DC36F
331
DC36D
  5
DC371
331
DC370
  5
DC377
331
DC375
  5
DC36A
331
DC376
  5
DC36B
331
DC378
  5
DC372
331
DC379
  5
DC374
331
DC37B
  5
DC37A
331
DC37C
  5
DC37B
  0
ACDBDETAILVIEWSTYLE
  5
CE038
102
{ACAD_XDICTIONARY
360
DCE75
102
}
102
{ACAD_REACTORS
330
CE037
102
}
330
CE037
100
AcDbModelDocViewStyle
 70
     0
  3
Imperial24
290
     0
100
AcDbDetailViewStyle
 70
     0
 71
     0
 90
        3
 71
     1
340
11
 62
   256
 40
0.24
340
0
 62
   256
 40
0.24
300

 40
0.36
280
     3
 71
     2
340
15
 90
       25
 62
   256
 71
     3
340
11
 62
   256
 40
0.24
 90
        1
 40
0.75
 90
        1
300
%<\AcVar ViewType \f "%tc1">% %<\AcVar ViewDetailId>%\PSCALE %<\AcVar ViewScale \f "%sn">%
 71
     4
340
15
 90
       25
 62
   256
340
15
 90
       25
 62
   256
280
     0
  0
ACDBDETAILVIEWSTYLE
  5
CE091
102
{ACAD_XDICTIONARY
360
DCE79
102
}
102
{ACAD_REACTORS
330
CE037
102
}
330
CE037
100
AcDbModelDocViewStyle
 70
     0
  3
Metric50
290
     0
100
AcDbDetailViewStyle
 70
     0
 71
     0
 90
        3
 71
     1
340
11
 62
   256
 40
5.0
340
0
 62
   256
 40
5.0
300

 40
0.0
280
     1
 71
     2
340
15
 90
       25
 62
   256
 71
     3
340
11
 62
   256
 40
5.0
 90
        0
 40
15.0
 90
        1
300
%<\AcVar ViewDetailId>% (%<\AcVar ViewScale \f "%sn">%)
 71
     4
340
15
 90
       25
 62
   256
340
15
 90
       25
 62
   256
280
     0
  0
GROUP
  5
DAE52
102
{ACAD_REACTORS
330
D
102
}
330
D
100
AcDbGroup
300

 70
     1
 71
     1
340
D7A1E
340
D7A1D
  0
LAYOUT
  5
CE039
102
{ACAD_REACTORS
330
19
102
}
330
19
100
AcDbPlotSettings
  1

  2
none_device
  4
Letter_(8.50_x_11.00_Inches)
  6

 40
6.349999904632567
 41
6.349999904632567
 42
6.350006103515625
 43
6.350006103515625
 44
215.8999938964844
 45
279.3999938964844
 46
0.0
 47
0.0
 48
0.0
 49
0.0
140
0.0
141
0.0
142
1.0
143
200.390412514189
 70
 11952
 72
     0
 73
     1
 74
     0
  7

 75
     0
147
0.004990258702767
 76
     0
 77
     2
 78
   300
148
26170.69265086344
149
13346.95154705586
100
AcDbLayout
  1
Model
 70
     1
 71
     0
 10
0.0
 20
0.0
 11
12.0
 21
9.0
 12
0.0
 22
0.0
 32
0.0
 14
0.0
 24
0.0
 34
0.0
 15
0.0
 25
0.0
 35
0.0
146
0.0
 13
0.0
 23
0.0
 33
0.0
 16
1.0
 26
0.0
 36
0.0
 17
0.0
 27
1.0
 37
0.0
 76
     0
330
1E
331
CDFC4
1001
ACAD_PSEXT
1000
なし
1000
なし
1000
適切ではありません
1000
新しいプロッタ環境設定名を選択しない限り、レイアウトは印刷されません。
1070
     0
  0
LAYOUT
  5
CE03A
102
{ACAD_REACTORS
330
19
102
}
330
19
100
AcDbPlotSettings
  1

  2
なし
  4

  6

 40
0.0
 41
0.0
 42
0.0
 43
0.0
 44
0.0
 45
0.0
 46
0.0
 47
0.0
 48
0.0
 49
0.0
140
0.0
141
0.0
142
1.0
143
1.0
 70
   688
 72
     0
 73
     0
 74
     5
  7

 75
    16
147
1.0
 76
     0
 77
     2
 78
   300
148
0.0
149
0.0
100
AcDbLayout
  1
レイアウト1
 70
     1
 71
     1
 10
0.0
 20
0.0
 11
12.0
 21
9.0
 12
0.0
 22
0.0
 32
0.0
 14
1.000000000000000E+20
 24
1.000000000000000E+20
 34
1.000000000000000E+20
 15
-1.000000000000000E+20
 25
-1.000000000000000E+20
 35
-1.000000000000000E+20
146
0.0
 13
0.0
 23
0.0
 33
0.0
 16
1.0
 26
0.0
 36
0.0
 17
0.0
 27
1.0
 37
0.0
 76
     0
330
1A
  0
MATERIAL
  5
CDFF5
102
{ACAD_XDICTIONARY
360
CDFF6
102
}
102
{ACAD_REACTORS
330
CDFEC
102
}
330
CDFEC
100
AcDbMaterial
  1
ByBlock
 72
     0
 43
0.0208333333333333
 43
0.0
 43
0.0
 43
0.0
 43
0.0
 43
0.0208333333333333
 43
0.0
 43
0.0
 43
0.0
 43
0.0
 43
1.0
 43
0.0
 43
0.0
 43
0.0
 43
0.0
 43
1.0
 77
     0
 47
0.0208333333333333
 47
0.0
 47
0.0
 47
0.0
 47
0.0
 47
0.0208333333333333
 47
0.0
 47
0.0
 47
0.0
 47
0.0
 47
1.0
 47
0.0
 47
0.0
 47
0.0
 47
0.0
 47
1.0
171
     0
 49
0.0208333333333333
 49
0.0
 49
0.0
 49
0.0
 49
0.0
 49
0.0208333333333333
 49
0.0
 49
0.0
 49
0.0
 49
0.0
 49
1.0
 49
0.0
 49
0.0
 49
0.0
 49
0.0
 49
1.0
175
     0
142
0.0208333333333333
142
0.0
142
0.0
142
0.0
142
0.0
142
0.0208333333333333
142
0.0
142
0.0
142
0.0
142
0.0
142
1.0
142
0.0
142
0.0
142
0.0
142
0.0
142
1.0
179
     0
144
0.0208333333333333
144
0.0
144
0.0
144
0.0
144
0.0
144
0.0208333333333333
144
0.0
144
0.0
144
0.0
144
0.0
144
1.0
144
0.0
144
0.0
144
0.0
144
0.0
144
1.0
147
0.0208333333333333
147
0.0
147
0.0
147
0.0
147
0.0
147
0.0208333333333333
147
0.0
147
0.0
147
0.0
147
0.0
147
1.0
147
0.0
147
0.0
147
0.0
147
0.0
147
1.0
  0
MATERIAL
  5
CDFED
102
{ACAD_XDICTIONARY
360
CDFEE
102
}
102
{ACAD_REACTORS
330
CDFEC
102
}
330
CDFEC
100
AcDbMaterial
  1
ByLayer
 72
     0
 43
0.0208333333333333
 43
0.0
 43
0.0
 43
0.0
 43
0.0
 43
0.0208333333333333
 43
0.0
 43
0.0
 43
0.0
 43
0.0
 43
1.0
 43
0.0
 43
0.0
 43
0.0
 43
0.0
 43
1.0
 77
     0
 47
0.0208333333333333
 47
0.0
 47
0.0
 47
0.0
 47
0.0
 47
0.0208333333333333
 47
0.0
 47
0.0
 47
0.0
 47
0.0
 47
1.0
 47
0.0
 47
0.0
 47
0.0
 47
0.0
 47
1.0
171
     0
 49
0.0208333333333333
 49
0.0
 49
0.0
 49
0.0
 49
0.0
 49
0.0208333333333333
 49
0.0
 49
0.0
 49
0.0
 49
0.0
 49
1.0
 49
0.0
 49
0.0
 49
0.0
 49
0.0
 49
1.0
175
     0
142
0.0208333333333333
142
0.0
142
0.0
142
0.0
142
0.0
142
0.0208333333333333
142
0.0
142
0.0
142
0.0
142
0.0
142
1.0
142
0.0
142
0.0
142
0.0
142
0.0
142
1.0
179
     0
144
0.0208333333333333
144
0.0
144
0.0
144
0.0
144
0.0
144
0.0208333333333333
144
0.0
144
0.0
144
0.0
144
0.0
144
1.0
144
0.0
144
0.0
144
0.0
144
0.0
144
1.0
147
0.0208333333333333
147
0.0
147
0.0
147
0.0
147
0.0
147
0.0208333333333333
147
0.0
147
0.0
147
0.0
147
0.0
147
1.0
147
0.0
147
0.0
147
0.0
147
0.0
147
1.0
  0
MATERIAL
  5
CDFFD
102
{ACAD_XDICTIONARY
360
CDFFE
102
}
102
{ACAD_REACTORS
330
CDFEC
102
}
330
CDFEC
100
AcDbMaterial
  1
Global
 72
     0
 43
0.0208333333333333
 43
0.0
 43
0.0
 43
0.0
 43
0.0
 43
0.0208333333333333
 43
0.0
 43
0.0
 43
0.0
 43
0.0
 43
1.0
 43
0.0
 43
0.0
 43
0.0
 43
0.0
 43
1.0
 77
     0
 47
0.0208333333333333
 47
0.0
 47
0.0
 47
0.0
 47
0.0
 47
0.0208333333333333
 47
0.0
 47
0.0
 47
0.0
 47
0.0
 47
1.0
 47
0.0
 47
0.0
 47
0.0
 47
0.0
 47
1.0
171
     0
 49
0.0208333333333333
 49
0.0
 49
0.0
 49
0.0
 49
0.0
 49
0.0208333333333333
 49
0.0
 49
0.0
 49
0.0
 49
0.0
 49
1.0
 49
0.0
 49
0.0
 49
0.0
 49
0.0
 49
1.0
175
     0
142
0.0208333333333333
142
0.0
142
0.0
142
0.0
142
0.0
142
0.0208333333333333
142
0.0
142
0.0
142
0.0
142
0.0
142
1.0
142
0.0
142
0.0
142
0.0
142
0.0
142
1.0
179
     0
144
0.0208333333333333
144
0.0
144
0.0
144
0.0
144
0.0
144
0.0208333333333333
144
0.0
144
0.0
144
0.0
144
0.0
144
1.0
144
0.0
144
0.0
144
0.0
144
0.0
144
1.0
147
0.0208333333333333
147
0.0
147
0.0
147
0.0
147
0.0
147
0.0208333333333333
147
0.0
147
0.0
147
0.0
147
0.0
147
1.0
147
0.0
147
0.0
147
0.0
147
0.0
147
1.0
  0
MLEADERSTYLE
  5
CE034
102
{ACAD_REACTORS
330
CE033
102
}
330
CE033
100
AcDbMLeaderStyle
179
     2
170
     2
171
     1
172
     0
 90
        2
 40
0.0
 41
0.0
173
     1
 91
-1056964608
340
13
 92
       -2
290
     1
 42
0.09
291
     1
 43
0.36
  3
Standard
341
DA4D3
 44
40.0
300

342
11
174
     5
178
     6
175
     1
176
     0
 93
-1056964608
 45
45.0
292
     0
297
     0
 46
0.18
 94
-1056964608
 47
1.0
 49
1.0
140
1.0
293
     1
141
0.0
294
     1
177
     0
142
1.0
295
     0
296
     0
143
0.125
271
     0
272
     9
273
     9
298
     1
1001
ACAD_MLEADERVER
1070
     2
  0
MLINESTYLE
  5
17
102
{ACAD_REACTORS
330
16
102
}
330
16
100
AcDbMlineStyle
  2
STANDARD
 70
     0
  3

 62
   256
 51
90.0
 52
90.0
 71
     2
 49
0.5
 62
   256
  6
BYLAYER
 49
-0.5
 62
   256
  6
BYLAYER
  0
ACDBPLACEHOLDER
  5
F
102
{ACAD_REACTORS
330
E
102
}
330
E
  0
SCALE
  5
CE022
102
{ACAD_REACTORS
330
CE021
102
}
330
CE021
100
AcDbScale
 70
     0
300
1:1
140
1.0
141
1.0
290
     1
  0
SCALE
  5
CE023
102
{ACAD_REACTORS
330
CE021
102
}
330
CE021
100
AcDbScale
 70
     0
300
1/128" = 1'-0"
140
0.0078125
141
12.0
290
     0
  0
SCALE
  5
CE024
102
{ACAD_REACTORS
330
CE021
102
}
330
CE021
100
AcDbScale
 70
     0
300
1/64" = 1'-0"
140
0.015625
141
12.0
290
     0
  0
SCALE
  5
CE025
102
{ACAD_REACTORS
330
CE021
102
}
330
CE021
100
AcDbScale
 70
     0
300
1/32" = 1'-0"
140
0.03125
141
12.0
290
     0
  0
SCALE
  5
CE026
102
{ACAD_REACTORS
330
CE021
102
}
330
CE021
100
AcDbScale
 70
     0
300
1/16" = 1'-0"
140
0.0625
141
12.0
290
     0
  0
SCALE
  5
CE027
102
{ACAD_REACTORS
330
CE021
102
}
330
CE021
100
AcDbScale
 70
     0
300
3/32" = 1'-0"
140
0.09375
141
12.0
290
     0
  0
SCALE
  5
CE028
102
{ACAD_REACTORS
330
CE021
102
}
330
CE021
100
AcDbScale
 70
     0
300
1/8" = 1'-0"
140
0.125
141
12.0
290
     0
  0
SCALE
  5
CE029
102
{ACAD_REACTORS
330
CE021
102
}
330
CE021
100
AcDbScale
 70
     0
300
3/16" = 1'-0"
140
0.1875
141
12.0
290
     0
  0
SCALE
  5
CE02A
102
{ACAD_REACTORS
330
CE021
102
}
330
CE021
100
AcDbScale
 70
     0
300
1/4" = 1'-0"
140
0.25
141
12.0
290
     0
  0
SCALE
  5
CE02B
102
{ACAD_REACTORS
330
CE021
102
}
330
CE021
100
AcDbScale
 70
     0
300
3/8" = 1'-0"
140
0.375
141
12.0
290
     0
  0
SCALE
  5
CE02C
102
{ACAD_REACTORS
330
CE021
102
}
330
CE021
100
AcDbScale
 70
     0
300
1/2" = 1'-0"
140
0.5
141
12.0
290
     0
  0
SCALE
  5
CE02D
102
{ACAD_REACTORS
330
CE021
102
}
330
CE021
100
AcDbScale
 70
     0
300
3/4" = 1'-0"
140
0.75
141
12.0
290
     0
  0
SCALE
  5
CE02E
102
{ACAD_REACTORS
330
CE021
102
}
330
CE021
100
AcDbScale
 70
     0
300
1" = 1'-0"
140
1.0
141
12.0
290
     0
  0
SCALE
  5
CE02F
102
{ACAD_REACTORS
330
CE021
102
}
330
CE021
100
AcDbScale
 70
     0
300
1-1/2" = 1'-0"
140
1.5
141
12.0
290
     0
  0
SCALE
  5
CE030
102
{ACAD_REACTORS
330
CE021
102
}
330
CE021
100
AcDbScale
 70
     0
300
3" = 1'-0"
140
3.0
141
12.0
290
     0
  0
SCALE
  5
CE031
102
{ACAD_REACTORS
330
CE021
102
}
330
CE021
100
AcDbScale
 70
     0
300
6" = 1'-0"
140
6.0
141
12.0
290
     0
  0
SCALE
  5
CE032
102
{ACAD_REACTORS
330
CE021
102
}
330
CE021
100
AcDbScale
 70
     0
300
1'-0" = 1'-0"
140
12.0
141
12.0
290
     0
  0
ACDBSECTIONVIEWSTYLE
  5
CE036
102
{ACAD_XDICTIONARY
360
DCE73
102
}
102
{ACAD_REACTORS
330
CE035
102
}
330
CE035
100
AcDbModelDocViewStyle
 70
     0
  3
Imperial24
290
     0
100
AcDbSectionViewStyle
 70
     0
 71
     0
 90
       78
 71
     1
340
11
 62
   256
 40
0.24
340
0
340
0
 62
   256
 40
0.24
300
I, O, Q, S, X, Z
 40
0.48
 90
        3
 40
0.18
 90
        1
 71
     2
340
15
 90
       25
 62
   256
340
15
 90
       50
 62
   256
 40
0.24
 40
0.0
 40
0.24
 71
     3
340
11
 62
   256
 40
0.24
 90
        1
 40
0.75
 90
        1
300
%<\AcVar ViewType \f "%tc1">% %<\AcVar ViewSectionStartId>%-%<\AcVar ViewSectionEndId>%\PSCALE %<\AcVar ViewScale \f "%sn">%
 71
     4
 62
   256
 62
   257
300
ANSI31
 40
1.0
 90
        0
290
     0
290
     0
 90
        6
 40
0.0
 40
1.570796326794896
 40
0.2617993877991494
 40
1.308996938995747
 40
-0.2617993877991494
 40
1.832595714594044
  0
ACDBSECTIONVIEWSTYLE
  5
CE090
102
{ACAD_XDICTIONARY
360
DCE77
102
}
102
{ACAD_REACTORS
330
CE035
102
}
330
CE035
100
AcDbModelDocViewStyle
 70
     0
  3
Metric50
290
     0
100
AcDbSectionViewStyle
 70
     0
 71
     0
 90
      102
 71
     1
340
11
 62
   256
 40
5.0
340
0
340
0
 62
   256
 40
5.0
300
I, O, Q, S, X, Z
 40
10.0
 90
        0
 40
2.5
 90
        0
 71
     2
340
15
 90
       25
 62
   256
340
15
 90
       50
 62
   256
 40
5.0
 40
2.5
 40
5.0
 71
     3
340
11
 62
   256
 40
5.0
 90
        0
 40
15.0
 90
        1
300
%<\AcVar ViewSectionStartId>%-%<\AcVar ViewSectionEndId>% (%<\AcVar ViewScale \f "%sn">%)
 71
     4
 62
   256
 62
   257
300
ANSI31
 40
1.0
 90
        0
290
     0
290
     0
 90
        6
 40
0.0
 40
1.570796326794896
 40
0.2617993877991494
 40
1.308996938995747
 40
-0.2617993877991494
 40
1.832595714594044
  0
TABLESTYLE
  5
CE020
102
{ACAD_XDICTIONARY
360
DA44C
102
}
102
{ACAD_REACTORS
330
CE01F
102
}
330
CE01F
100
AcDbTableStyle
280
     0
  3
Standard
 70
     0
 71
     0
 40
0.06
 41
0.06
280
     0
281
     0
  7
STANDARD
140
0.18
170
     2
 62
     0
 63
     7
283
     0
 90
      512
 91
        0
  1

274
    -2
284
     1
 64
     0
275
    -2
285
     1
 65
     0
276
    -2
286
     1
 66
     0
277
    -2
287
     1
 67
     0
278
    -2
288
     1
 68
     0
279
    -2
289
     1
 69
     0
  7
STANDARD
140
0.25
170
     5
 62
     0
 63
     7
283
     0
 90
      512
 91
        0
  1

274
    -2
284
     1
 64
     0
275
    -2
285
     1
 65
     0
276
    -2
286
     1
 66
     0
277
    -2
287
     1
 67
     0
278
    -2
288
     1
 68
     0
279
    -2
289
     1
 69
     0
  7
STANDARD
140
0.18
170
     5
 62
     0
 63
     7
283
     0
 90
      512
 91
        0
  1

274
    -2
284
     1
 64
     0
275
    -2
285
     1
 65
     0
276
    -2
286
     1
 66
     0
277
    -2
287
     1
 67
     0
278
    -2
288
     1
 68
     0
279
    -2
289
     1
 69
     0
  0
VISUALSTYLE
  5
CE00B
102
{ACAD_REACTORS
330
CE005
102
}
330
CE005
100
AcDbVisualStyle
  2

 70
     4
177
     3
291
     0
 70
    58
 90
        0
176
     1
 90
        2
176
     1
 90
        0
176
     1
 90
        0
176
     1
 40
0.6
176
     1
 40
30.0
176
     1
 62
     7
176
     1
 90
        1
176
     1
 90
        4
176
     1
 62
     7
176
     1
 62
   257
176
     1
 90
        1
176
     1
 90
        1
176
     1
 40
1.0
176
     1
 90
        0
176
     1
 62
   257
176
     1
 40
1.0
176
     1
 90
        1
176
     1
 90
        6
176
     1
 90
        2
176
     1
 62
     7
176
     1
 90
        5
176
     1
 90
        0
176
     1
 90
        0
176
     1
290
     0
176
     1
 90
        1
176
     1
 40
0.0
176
     1
 90
        0
176
     1
290
     1
176
     1
290
     1
176
     1
290
     0
176
     1
290
     0
176
     1
290
     0
176
     1
290
     0
176
     1
290
     0
176
     1
290
     0
176
     1
290
     0
176
     1
 90
       50
176
     1
 40
0.0
176
     1
 40
1.0
176
     1
 90
        0
176
     1
 62
    18
176
     1
 90
       50
176
     1
 90
        3
176
     1
 62
     5
420
      255
176
     1
290
     0
176
     1
 90
       50
176
     1
 90
       50
176
     1
 90
       50
176
     1
290
     0
176
     1
 90
       50
176
     1
 62
   256
176
     0
 40
1.0
176
     0
 90
        2
176
     1
  1
strokes_ogs.tif
176
     1
290
     0
176
     1
 40
1.0
176
     1
 40
1.0
176
     1
1001
ACAD
1000
AcDbSavedByObjectVersion
1070
     0
  0
VISUALSTYLE
  5
CE00A
102
{ACAD_REACTORS
330
CE005
102
}
330
CE005
100
AcDbVisualStyle
  2

 70
     7
177
     3
291
     1
 70
    58
 90
        1
176
     1
 90
        0
176
     1
 90
        1
176
     1
 90
        0
176
     1
 40
0.6
176
     1
 40
30.0
176
     1
 62
     7
176
     1
 90
        0
176
     1
 90
        4
176
     1
 62
     7
176
     1
 62
   257
176
     1
 90
        1
176
     1
 90
        1
176
     1
 40
1.0
176
     1
 90
        8
176
     1
 62
     7
176
     1
 40
1.0
176
     1
 90
        1
176
     1
 90
        6
176
     1
 90
        2
176
     1
 62
     7
176
     1
 90
        5
176
     1
 90
        0
176
     1
 90
        0
176
     1
290
     0
176
     1
 90
        1
176
     1
 40
0.0
176
     1
 90
        0
176
     1
290
     0
176
     1
290
     1
176
     1
290
     1
176
     1
290
     0
176
     1
290
     0
176
     1
290
     0
176
     1
290
     0
176
     1
290
     0
176
     1
290
     0
176
     1
 90
       50
176
     1
 40
0.0
176
     1
 40
1.0
176
     1
 90
        0
176
     1
 62
    18
176
     1
 90
       50
176
     1
 90
        3
176
     1
 62
     5
420
      255
176
     1
290
     0
176
     1
 90
       50
176
     1
 90
       50
176
     1
 90
       50
176
     1
290
     0
176
     1
 90
       50
176
     1
 62
   256
176
     0
 40
1.0
176
     0
 90
        2
176
     1
  1
strokes_ogs.tif
176
     1
290
     0
176
     1
 40
1.0
176
     1
 40
1.0
176
     1
1001
ACAD
1000
AcDbSavedByObjectVersion
1070
     0
  0
VISUALSTYLE
  5
CE011
102
{ACAD_REACTORS
330
CE005
102
}
330
CE005
100
AcDbVisualStyle
  2

 70
    12
177
     3
291
     1
 70
    58
 90
        2
176
     1
 90
        2
176
     1
 90
        0
176
     1
 90
        0
176
     1
 40
0.6
176
     1
 40
30.0
176
     1
 62
     7
176
     1
 90
        1
176
     1
 90
        4
176
     1
 62
     7
176
     1
 62
   257
176
     1
 90
        1
176
     1
 90
        1
176
     1
 40
1.0
176
     1
 90
        8
176
     1
 62
     7
176
     1
 40
1.0
176
     1
 90
        1
176
     1
 90
        6
176
     1
 90
        2
176
     1
 62
     7
176
     1
 90
        5
176
     1
 90
        0
176
     1
 90
        0
176
     1
290
     0
176
     1
 90
        1
176
     1
 40
50.0
176
     1
 90
        0
176
     1
290
     0
176
     1
290
     1
176
     1
290
     1
176
     1
290
     0
176
     1
290
     0
176
     1
290
     0
176
     1
290
     0
176
     1
290
     0
176
     1
290
     0
176
     1
 90
       50
176
     1
 40
0.0
176
     1
 40
1.0
176
     1
 90
        0
176
     1
 62
    18
176
     1
 90
       50
176
     1
 90
        3
176
     1
 62
     5
420
      255
176
     1
290
     0
176
     1
 90
       50
176
     1
 90
       50
176
     1
 90
       50
176
     1
290
     0
176
     1
 90
       50
176
     1
 62
   256
176
     0
 40
1.0
176
     0
 90
        2
176
     1
  1
strokes_ogs.tif
176
     1
290
     0
176
     1
 40
1.0
176
     1
 40
1.0
176
     1
1001
ACAD
1000
AcDbSavedByObjectVersion
1070
     0
  0
VISUALSTYLE
  5
CE015
102
{ACAD_REACTORS
330
CE005
102
}
330
CE005
100
AcDbVisualStyle
  2

 70
    16
177
     3
291
     1
 70
    58
 90
        2
176
     1
 90
        2
176
     1
 90
        3
176
     1
 90
        0
176
     1
 40
0.6
176
     1
 40
30.0
176
     1
 62
     8
176
     1
 90
        1
176
     1
 90
        4
176
     1
 62
     7
176
     1
 62
   257
176
     1
 90
        1
176
     1
 90
        1
176
     1
 40
1.0
176
     1
 90
        8
176
     1
 62
     8
176
     1
 40
1.0
176
     1
 90
        1
176
     1
 90
        6
176
     1
 90
        2
176
     1
 62
     7
176
     1
 90
        5
176
     1
 90
        0
176
     1
 90
        0
176
     1
290
     0
176
     1
 90
        1
176
     1
 40
0.0
176
     1
 90
        0
176
     1
290
     0
176
     1
290
     1
176
     1
290
     1
176
     1
290
     0
176
     1
290
     0
176
     1
290
     0
176
     1
290
     0
176
     1
290
     0
176
     1
290
     0
176
     1
 90
       50
176
     1
 40
0.0
176
     1
 40
1.0
176
     1
 90
        0
176
     1
 62
    18
176
     1
 90
       50
176
     1
 90
        3
176
     1
 62
     5
420
      255
176
     1
290
     0
176
     1
 90
       50
176
     1
 90
       50
176
     1
 90
       50
176
     1
290
     0
176
     1
 90
       50
176
     1
 62
   256
176
     0
 40
1.0
176
     0
 90
        2
176
     1
  1
strokes_ogs.tif
176
     1
290
     0
176
     1
 40
1.0
176
     1
 40
1.0
176
     1
1001
ACAD
1000
AcDbSavedByObjectVersion
1070
     0
  0
VISUALSTYLE
  5
CE00E
102
{ACAD_REACTORS
330
CE005
102
}
330
CE005
100
AcDbVisualStyle
  2

 70
     9
177
     3
291
     0
 70
    58
 90
        3
176
     1
 90
        2
176
     1
 90
        0
176
     1
 90
        0
176
     1
 40
0.6
176
     1
 40
30.0
176
     1
 62
     7
176
     1
 90
        2
176
     1
 90
        2
176
     1
 62
     7
176
     1
 62
   257
176
     1
 90
        1
176
     1
 90
        1
176
     1
 40
179.0
176
     1
 90
        8
176
     1
 62
     7
176
     1
 40
1.0
176
     1
 90
        1
176
     1
 90
        6
176
     1
 90
        2
176
     1
 62
     7
176
     1
 90
        3
176
     1
 90
        0
176
     1
 90
        0
176
     1
290
     0
176
     1
 90
        1
176
     1
 40
0.0
176
     1
 90
        0
176
     1
290
     0
176
     1
290
     1
176
     1
290
     1
176
     1
290
     0
176
     1
290
     0
176
     1
290
     0
176
     1
290
     0
176
     1
290
     0
176
     1
290
     0
176
     1
 90
       50
176
     1
 40
0.0
176
     1
 40
1.0
176
     1
 90
        0
176
     1
 62
    18
176
     1
 90
       50
176
     1
 90
        3
176
     1
 62
     5
420
      255
176
     1
290
     0
176
     1
 90
       50
176
     1
 90
       50
176
     1
 90
       50
176
     1
290
     0
176
     1
 90
       50
176
     1
 62
   256
176
     0
 40
1.0
176
     0
 90
        2
176
     1
  1
strokes_ogs.tif
176
     1
290
     0
176
     1
 40
1.0
176
     1
 40
1.0
176
     1
1001
ACAD
1000
AcDbSavedByObjectVersion
1070
     0
  0
VISUALSTYLE
  5
CE010
102
{ACAD_REACTORS
330
CE005
102
}
330
CE005
100
AcDbVisualStyle
  2

 70
    11
177
     3
291
     1
 70
    58
 90
        2
176
     1
 90
        2
176
     1
 90
        0
176
     1
 90
        0
176
     1
 40
0.6
176
     1
 40
30.0
176
     1
 62
     7
176
     1
 90
        1
176
     1
 90
        4
176
     1
 62
     7
176
     1
 62
   257
176
     1
 90
        1
176
     1
 90
        1
176
     1
 40
1.0
176
     1
 90
        8
176
     1
 62
     7
176
     1
 40
1.0
176
     1
 90
        1
176
     1
 90
        6
176
     1
 90
        2
176
     1
 62
     7
176
     1
 90
        5
176
     1
 90
        0
176
     1
 90
        0
176
     1
290
     0
176
     1
 90
        1
176
     1
 40
-50.0
176
     1
 90
        0
176
     1
290
     0
176
     1
290
     1
176
     1
290
     1
176
     1
290
     0
176
     1
290
     0
176
     1
290
     0
176
     1
290
     0
176
     1
290
     0
176
     1
290
     0
176
     1
 90
       50
176
     1
 40
0.0
176
     1
 40
1.0
176
     1
 90
        0
176
     1
 62
    18
176
     1
 90
       50
176
     1
 90
        3
176
     1
 62
     5
420
      255
176
     1
290
     0
176
     1
 90
       50
176
     1
 90
       50
176
     1
 90
       50
176
     1
290
     0
176
     1
 90
       50
176
     1
 62
   256
176
     0
 40
1.0
176
     0
 90
        2
176
     1
  1
strokes_ogs.tif
176
     1
290
     0
176
     1
 40
1.0
176
     1
 40
1.0
176
     1
1001
ACAD
1000
AcDbSavedByObjectVersion
1070
     0
  0
VISUALSTYLE
  5
CE01D
102
{ACAD_REACTORS
330
CE005
102
}
330
CE005
100
AcDbVisualStyle
  2

 70
    22
177
     3
291
     1
 70
    58
 90
        2
176
     0
 90
        2
176
     0
 90
        0
176
     0
 90
        0
176
     0
 40
0.6
176
     0
 40
30.0
176
     0
 62
     7
176
     0
 90
        1
176
     0
 90
        4
176
     0
 62
     7
176
     0
 62
   257
176
     0
 90
        1
176
     0
 90
        1
176
     0
 40
1.0
176
     0
 90
        8
176
     2
 62
     7
176
     0
 40
1.0
176
     0
 90
        1
176
     0
 90
        6
176
     0
 90
        2
176
     0
 62
     7
176
     0
 90
        5
176
     0
 90
        0
176
     0
 90
        0
176
     0
290
     0
176
     0
 90
        1
176
     0
 40
0.0
176
     0
 90
        0
176
     0
290
     0
176
     1
290
     1
176
     1
290
     1
176
     1
290
     0
176
     1
290
     0
176
     1
290
     0
176
     1
290
     0
176
     1
290
     0
176
     1
290
     0
176
     1
 90
       50
176
     0
 40
0.0
176
     0
 40
1.0
176
     0
 90
        0
176
     0
 62
    18
176
     0
 90
       50
176
     0
 90
        3
176
     0
 62
     5
420
      255
176
     0
290
     0
176
     1
 90
       50
176
     0
 90
       50
176
     0
 90
       50
176
     0
290
     0
176
     1
 90
       50
176
     0
 62
   256
176
     0
 40
1.0
176
     0
 90
        2
176
     0
  1
strokes_ogs.tif
176
     0
290
     0
176
     1
 40
1.0
176
     0
 40
1.0
176
     0
1001
ACAD
1000
AcDbSavedByObjectVersion
1070
     0
  0
VISUALSTYLE
  5
CE014
102
{ACAD_REACTORS
330
CE005
102
}
330
CE005
100
AcDbVisualStyle
  2

 70
    15
177
     3
291
     1
 70
    58
 90
        2
176
     1
 90
        2
176
     1
 90
        0
176
     1
 90
        0
176
     1
 40
0.6
176
     1
 40
30.0
176
     1
 62
     7
176
     1
 90
        1
176
     1
 90
        4
176
     1
 62
     7
176
     1
 62
   257
176
     1
 90
        1
176
     1
 90
        1
176
     1
 40
1.0
176
     1
 90
        8
176
     1
 62
     7
176
     1
 40
1.0
176
     1
 90
        1
176
     1
 90
        6
176
     1
 90
        2
176
     1
 62
     7
176
     1
 90
        5
176
     1
 90
        0
176
     1
 90
        0
176
     1
290
     0
176
     1
 90
        1
176
     1
 40
0.0
176
     1
 90
        0
176
     1
290
     0
176
     1
290
     1
176
     1
290
     1
176
     1
290
     0
176
     1
290
     0
176
     1
290
     0
176
     1
290
     0
176
     1
290
     0
176
     1
290
     0
176
     1
 90
       50
176
     1
 40
0.0
176
     1
 40
1.0
176
     1
 90
        0
176
     1
 62
    18
176
     1
 90
       50
176
     1
 90
        3
176
     1
 62
     5
420
      255
176
     1
290
     0
176
     1
 90
       50
176
     1
 90
       50
176
     1
 90
       50
176
     1
290
     0
176
     1
 90
       50
176
     1
 62
   256
176
     0
 40
1.0
176
     0
 90
        2
176
     1
  1
strokes_ogs.tif
176
     1
290
     0
176
     1
 40
1.0
176
     1
 40
1.0
176
     1
1001
ACAD
1000
AcDbSavedByObjectVersion
1070
     0
  0
VISUALSTYLE
  5
CE006
102
{ACAD_REACTORS
330
CE005
102
}
330
CE005
100
AcDbVisualStyle
  2

 70
     0
177
     3
291
     1
 70
    58
 90
        2
176
     1
 90
        1
176
     1
 90
        1
176
     1
 90
        2
176
     1
 40
0.6
176
     1
 40
30.0
176
     1
 62
     7
176
     1
 90
        0
176
     1
 90
        0
176
     1
 62
     7
176
     1
 62
   257
176
     1
 90
        1
176
     1
 90
        1
176
     1
 40
1.0
176
     1
 90
        8
176
     1
 62
     7
176
     1
 40
1.0
176
     1
 90
        1
176
     1
 90
        6
176
     1
 90
        2
176
     1
 62
     7
176
     1
 90
        5
176
     1
 90
        0
176
     1
 90
        0
176
     1
290
     0
176
     1
 90
       13
176
     1
 40
0.0
176
     1
 90
        0
176
     1
290
     0
176
     1
290
     1
176
     1
290
     1
176
     1
290
     0
176
     1
290
     0
176
     1
290
     0
176
     1
290
     0
176
     1
290
     0
176
     1
290
     0
176
     1
 90
       50
176
     1
 40
0.0
176
     1
 40
1.0
176
     1
 90
        0
176
     1
 62
    18
176
     1
 90
       50
176
     1
 90
        3
176
     1
 62
     5
420
      255
176
     1
290
     0
176
     1
 90
       50
176
     1
 90
       50
176
     1
 90
       50
176
     1
290
     0
176
     1
 90
       50
176
     1
 62
   256
176
     0
 40
1.0
176
     0
 90
        2
176
     1
  1
strokes_ogs.tif
176
     1
290
     0
176
     1
 40
1.0
176
     1
 40
1.0
176
     1
1001
ACAD
1000
AcDbSavedByObjectVersion
1070
     0
  0
VISUALSTYLE
  5
CE007
102
{ACAD_REACTORS
330
CE005
102
}
330
CE005
100
AcDbVisualStyle
  2

 70
     1
177
     3
291
     1
 70
    58
 90
        2
176
     1
 90
        1
176
     1
 90
        1
176
     1
 90
        2
176
     1
 40
0.6
176
     1
 40
30.0
176
     1
 62
     7
176
     1
 90
        1
176
     1
 90
        0
176
     1
 62
     7
176
     1
 62
   257
176
     1
 90
        1
176
     1
 90
        1
176
     1
 40
1.0
176
     1
 90
        0
176
     1
 62
   257
176
     1
 40
1.0
176
     1
 90
        1
176
     1
 90
        6
176
     1
 90
        2
176
     1
 62
     7
176
     1
 90
        5
176
     1
 90
        0
176
     1
 90
        0
176
     1
290
     0
176
     1
 90
       13
176
     1
 40
0.0
176
     1
 90
        0
176
     1
290
     0
176
     1
290
     1
176
     1
290
     1
176
     1
290
     0
176
     1
290
     0
176
     1
290
     0
176
     1
290
     0
176
     1
290
     0
176
     1
290
     0
176
     1
 90
       50
176
     1
 40
0.0
176
     1
 40
1.0
176
     1
 90
        0
176
     1
 62
    18
176
     1
 90
       50
176
     1
 90
        3
176
     1
 62
     5
420
      255
176
     1
290
     0
176
     1
 90
       50
176
     1
 90
       50
176
     1
 90
       50
176
     1
290
     0
176
     1
 90
       50
176
     1
 62
   256
176
     0
 40
1.0
176
     0
 90
        2
176
     1
  1
strokes_ogs.tif
176
     1
290
     0
176
     1
 40
1.0
176
     1
 40
1.0
176
     1
1001
ACAD
1000
AcDbSavedByObjectVersion
1070
     0
  0
VISUALSTYLE
  5
CE008
102
{ACAD_REACTORS
330
CE005
102
}
330
CE005
100
AcDbVisualStyle
  2

 70
     2
177
     3
291
     1
 70
    58
 90
        2
176
     1
 90
        2
176
     1
 90
        1
176
     1
 90
        2
176
     1
 40
0.6
176
     1
 40
30.0
176
     1
 62
     7
176
     1
 90
        0
176
     1
 90
        0
176
     1
 62
     7
176
     1
 62
   257
176
     1
 90
        1
176
     1
 90
        1
176
     1
 40
1.0
176
     1
 90
        0
176
     1
 62
     7
176
     1
 40
1.0
176
     1
 90
        1
176
     1
 90
        6
176
     1
 90
        2
176
     1
 62
     7
176
     1
 90
        5
176
     1
 90
        0
176
     1
 90
        0
176
     1
290
     0
176
     1
 90
       13
176
     1
 40
0.0
176
     1
 90
        0
176
     1
290
     0
176
     1
290
     1
176
     1
290
     1
176
     1
290
     0
176
     1
290
     0
176
     1
290
     0
176
     1
290
     0
176
     1
290
     0
176
     1
290
     0
176
     1
 90
       50
176
     1
 40
0.0
176
     1
 40
1.0
176
     1
 90
        0
176
     1
 62
    18
176
     1
 90
       50
176
     1
 90
        3
176
     1
 62
     5
420
      255
176
     1
290
     0
176
     1
 90
       50
176
     1
 90
       50
176
     1
 90
       50
176
     1
290
     0
176
     1
 90
       50
176
     1
 62
   256
176
     0
 40
1.0
176
     0
 90
        2
176
     1
  1
strokes_ogs.tif
176
     1
290
     0
176
     1
 40
1.0
176
     1
 40
1.0
176
     1
1001
ACAD
1000
AcDbSavedByObjectVersion
1070
     0
  0
VISUALSTYLE
  5
CE009
102
{ACAD_REACTORS
330
CE005
102
}
330
CE005
100
AcDbVisualStyle
  2

 70
     3
177
     3
291
     1
 70
    58
 90
        2
176
     1
 90
        2
176
     1
 90
        1
176
     1
 90
        2
176
     1
 40
0.6
176
     1
 40
30.0
176
     1
 62
     7
176
     1
 90
        1
176
     1
 90
        0
176
     1
 62
     7
176
     1
 62
   257
176
     1
 90
        1
176
     1
 90
        1
176
     1
 40
1.0
176
     1
 90
        0
176
     1
 62
   257
176
     1
 40
1.0
176
     1
 90
        1
176
     1
 90
        6
176
     1
 90
        2
176
     1
 62
     7
176
     1
 90
        5
176
     1
 90
        0
176
     1
 90
        0
176
     1
290
     0
176
     1
 90
       13
176
     1
 40
0.0
176
     1
 90
        0
176
     1
290
     0
176
     1
290
     1
176
     1
290
     1
176
     1
290
     0
176
     1
290
     0
176
     1
290
     0
176
     1
290
     0
176
     1
290
     0
176
     1
290
     0
176
     1
 90
       50
176
     1
 40
0.0
176
     1
 40
1.0
176
     1
 90
        0
176
     1
 62
    18
176
     1
 90
       50
176
     1
 90
        3
176
     1
 62
     5
420
      255
176
     1
290
     0
176
     1
 90
       50
176
     1
 90
       50
176
     1
 90
       50
176
     1
290
     0
176
     1
 90
       50
176
     1
 62
   256
176
     0
 40
1.0
176
     0
 90
        2
176
     1
  1
strokes_ogs.tif
176
     1
290
     0
176
     1
 40
1.0
176
     1
 40
1.0
176
     1
1001
ACAD
1000
AcDbSavedByObjectVersion
1070
     0
  0
VISUALSTYLE
  5
CE00D
102
{ACAD_REACTORS
330
CE005
102
}
330
CE005
100
AcDbVisualStyle
  2

 70
     6
177
     3
291
     0
 70
    58
 90
        1
176
     1
 90
        2
176
     1
 90
        2
176
     1
 90
        0
176
     1
 40
0.6
176
     1
 40
30.0
176
     1
 62
     7
176
     1
 90
        2
176
     1
 90
        2
176
     1
 62
     7
176
     1
 62
   257
176
     1
 90
        2
176
     1
 90
        1
176
     1
 40
40.0
176
     1
 90
        0
176
     1
 62
   257
176
     1
 40
1.0
176
     1
 90
        1
176
     1
 90
        6
176
     1
 90
        2
176
     1
 62
     7
176
     1
 90
        3
176
     1
 90
        0
176
     1
 90
        0
176
     1
290
     0
176
     1
 90
        1
176
     1
 40
0.0
176
     1
 90
        0
176
     1
290
     0
176
     1
290
     1
176
     1
290
     1
176
     1
290
     0
176
     1
290
     0
176
     1
290
     0
176
     1
290
     0
176
     1
290
     0
176
     1
290
     0
176
     1
 90
       50
176
     1
 40
0.0
176
     1
 40
1.0
176
     1
 90
        0
176
     1
 62
    18
176
     1
 90
       50
176
     1
 90
        3
176
     1
 62
     5
420
      255
176
     1
290
     0
176
     1
 90
       50
176
     1
 90
       50
176
     1
 90
       50
176
     1
290
     0
176
     1
 90
       50
176
     1
 62
   256
176
     0
 40
1.0
176
     0
 90
        2
176
     1
  1
strokes_ogs.tif
176
     1
290
     0
176
     1
 40
1.0
176
     1
 40
1.0
176
     1
1001
ACAD
1000
AcDbSavedByObjectVersion
1070
     0
  0
VISUALSTYLE
  5
CE01B
102
{ACAD_REACTORS
330
CE005
102
}
330
CE005
100
AcDbVisualStyle
  2

 70
    20
177
     3
291
     1
 70
    58
 90
        2
176
     0
 90
        2
176
     0
 90
        0
176
     0
 90
        0
176
     0
 40
0.6
176
     0
 40
30.0
176
     0
 62
     7
176
     0
 90
        1
176
     0
 90
        4
176
     0
 62
     7
176
     0
 62
   257
176
     0
 90
        1
176
     0
 90
        1
176
     0
 40
1.0
176
     0
 90
       10
176
     2
 62
     7
176
     0
 40
1.0
176
     0
 90
        1
176
     0
 90
        6
176
     0
 90
        2
176
     0
 62
     7
176
     0
 90
        5
176
     0
 90
        0
176
     0
 90
        0
176
     0
290
     0
176
     0
 90
        1
176
     0
 40
0.0
176
     0
 90
        0
176
     0
290
     0
176
     1
290
     1
176
     1
290
     1
176
     1
290
     0
176
     1
290
     0
176
     1
290
     0
176
     1
290
     0
176
     1
290
     0
176
     1
290
     0
176
     1
 90
       50
176
     0
 40
0.0
176
     0
 40
1.0
176
     0
 90
        0
176
     0
 62
    18
176
     0
 90
       50
176
     0
 90
        3
176
     0
 62
     5
420
      255
176
     0
290
     0
176
     1
 90
       50
176
     0
 90
       50
176
     0
 90
       50
176
     0
290
     0
176
     1
 90
       50
176
     0
 62
   256
176
     0
 40
1.0
176
     0
 90
        2
176
     0
  1
strokes_ogs.tif
176
     0
290
     0
176
     1
 40
1.0
176
     0
 40
1.0
176
     0
1001
ACAD
1000
AcDbSavedByObjectVersion
1070
     0
  0
VISUALSTYLE
  5
CE013
102
{ACAD_REACTORS
330
CE005
102
}
330
CE005
100
AcDbVisualStyle
  2

 70
    14
177
     3
291
     1
 70
    58
 90
        2
176
     1
 90
        2
176
     1
 90
        0
176
     1
 90
        0
176
     1
 40
0.6
176
     1
 40
30.0
176
     1
 62
     7
176
     1
 90
        1
176
     1
 90
        4
176
     1
 62
     7
176
     1
 62
   257
176
     1
 90
        7
176
     1
 90
        7
176
     1
 40
1.0
176
     1
 90
        8
176
     1
 62
     7
176
     1
 40
1.0
176
     1
 90
        1
176
     1
 90
        6
176
     1
 90
        2
176
     1
 62
     7
176
     1
 90
        5
176
     1
 90
        0
176
     1
 90
        0
176
     1
290
     0
176
     1
 90
        1
176
     1
 40
0.0
176
     1
 90
        0
176
     1
290
     0
176
     1
290
     1
176
     1
290
     1
176
     1
290
     0
176
     1
290
     0
176
     1
290
     0
176
     1
290
     0
176
     1
290
     0
176
     1
290
     0
176
     1
 90
       50
176
     1
 40
0.0
176
     1
 40
1.0
176
     1
 90
        0
176
     1
 62
    18
176
     1
 90
       50
176
     1
 90
        3
176
     1
 62
     5
420
      255
176
     1
290
     0
176
     1
 90
       50
176
     1
 90
       50
176
     1
 90
       50
176
     1
290
     0
176
     1
 90
       50
176
     1
 62
   256
176
     0
 40
1.0
176
     0
 90
        2
176
     1
  1
strokes_ogs.tif
176
     1
290
     0
176
     1
 40
1.0
176
     1
 40
1.0
176
     1
1001
ACAD
1000
AcDbSavedByObjectVersion
1070
     0
  0
VISUALSTYLE
  5
CE01C
102
{ACAD_REACTORS
330
CE005
102
}
330
CE005
100
AcDbVisualStyle
  2

 70
    21
177
     3
291
     1
 70
    58
 90
        2
176
     0
 90
        2
176
     0
 90
        0
176
     0
 90
        0
176
     0
 40
0.6
176
     0
 40
30.0
176
     0
 62
     7
176
     0
 90
        1
176
     0
 90
        4
176
     0
 62
     7
176
     0
 62
   257
176
     0
 90
        1
176
     0
 90
        1
176
     0
 40
1.0
176
     0
 90
        9
176
     2
 62
     7
176
     0
 40
1.0
176
     0
 90
        1
176
     0
 90
        6
176
     0
 90
        2
176
     0
 62
     7
176
     0
 90
        5
176
     0
 90
        0
176
     0
 90
        0
176
     0
290
     0
176
     0
 90
        1
176
     0
 40
0.0
176
     0
 90
        0
176
     0
290
     0
176
     1
290
     1
176
     1
290
     1
176
     1
290
     0
176
     1
290
     0
176
     1
290
     0
176
     1
290
     0
176
     1
290
     0
176
     1
290
     0
176
     1
 90
       50
176
     0
 40
0.0
176
     0
 40
1.0
176
     0
 90
        0
176
     0
 62
    18
176
     0
 90
       50
176
     0
 90
        3
176
     0
 62
     5
420
      255
176
     0
290
     0
176
     1
 90
       50
176
     0
 90
       50
176
     0
 90
       50
176
     0
290
     0
176
     1
 90
       50
176
     0
 62
   256
176
     0
 40
1.0
176
     0
 90
        2
176
     0
  1
strokes_ogs.tif
176
     0
290
     0
176
     1
 40
1.0
176
     0
 40
1.0
176
     0
1001
ACAD
1000
AcDbSavedByObjectVersion
1070
     0
  0
VISUALSTYLE
  5
CE00F
102
{ACAD_REACTORS
330
CE005
102
}
330
CE005
100
AcDbVisualStyle
  2

 70
     8
177
     3
291
     0
 70
    58
 90
        2
176
     1
 90
        3
176
     1
 90
        0
176
     1
 90
        2
176
     1
 40
0.6
176
     1
 40
30.0
176
     1
 62
     7
176
     1
 90
        0
176
     1
 90
        0
176
     1
 62
     7
176
     1
 62
   257
176
     1
 90
        1
176
     1
 90
        1
176
     1
 40
1.0
176
     1
 90
        8
176
     1
 62
   257
176
     1
 40
1.0
176
     1
 90
        1
176
     1
 90
        6
176
     1
 90
        2
176
     1
 62
     7
176
     1
 90
        3
176
     1
 90
        0
176
     1
 90
        0
176
     1
290
     0
176
     1
 90
       13
176
     1
 40
0.0
176
     1
 90
        0
176
     1
290
     0
176
     1
290
     1
176
     1
290
     1
176
     1
290
     0
176
     1
290
     0
176
     1
290
     0
176
     1
290
     0
176
     1
290
     0
176
     1
290
     0
176
     1
 90
       50
176
     1
 40
0.0
176
     1
 40
1.0
176
     1
 90
        0
176
     1
 62
    18
176
     1
 90
       50
176
     1
 90
        3
176
     1
 62
     5
420
      255
176
     1
290
     0
176
     1
 90
       50
176
     1
 90
       50
176
     1
 90
       50
176
     1
290
     0
176
     1
 90
       50
176
     1
 62
   256
176
     0
 40
1.0
176
     0
 90
        2
176
     1
  1
strokes_ogs.tif
176
     1
290
     0
176
     1
 40
1.0
176
     1
 40
1.0
176
     1
1001
ACAD
1000
AcDbSavedByObjectVersion
1070
     0
  0
VISUALSTYLE
  5
CE01A
102
{ACAD_REACTORS
330
CE005
102
}
330
CE005
100
AcDbVisualStyle
  2

 70
    27
177
     3
291
     0
 70
    58
 90
        2
176
     1
 90
        2
176
     1
 90
        1
176
     1
 90
        2
176
     1
 40
0.6
176
     1
 40
30.0
176
     1
 62
     7
176
     1
 90
        0
176
     1
 90
        4
176
     1
 62
     7
176
     1
 62
   257
176
     1
 90
        1
176
     1
 90
        1
176
     1
 40
1.0
176
     1
 90
        8
176
     1
 62
   257
176
     1
 40
1.0
176
     1
 90
        1
176
     1
 90
        6
176
     1
 90
        2
176
     1
 62
     8
176
     1
 90
        3
176
     1
 90
        0
176
     1
 90
        0
176
     1
290
     0
176
     1
 90
        5
176
     1
 40
0.0
176
     1
 90
        0
176
     1
290
     0
176
     1
290
     1
176
     1
290
     1
176
     1
290
     0
176
     1
290
     0
176
     1
290
     0
176
     1
290
     0
176
     1
290
     0
176
     1
290
     0
176
     1
 90
       50
176
     1
 40
0.0
176
     1
 40
1.0
176
     1
 90
        0
176
     1
 62
    18
176
     1
 90
       50
176
     1
 90
        3
176
     1
 62
     5
420
      255
176
     1
290
     0
176
     1
 90
       50
176
     1
 90
       50
176
     1
 90
       50
176
     1
290
     0
176
     1
 90
       50
176
     1
 62
   256
176
     0
 40
1.0
176
     0
 90
        2
176
     1
  1
strokes_ogs.tif
176
     1
290
     0
176
     1
 40
1.0
176
     1
 40
1.0
176
     1
1001
ACAD
1000
AcDbSavedByObjectVersion
1070
     0
  0
VISUALSTYLE
  5
CE019
102
{ACAD_REACTORS
330
CE005
102
}
330
CE005
100
AcDbVisualStyle
  2

 70
    26
177
     3
291
     0
 70
    58
 90
        2
176
     1
 90
        2
176
     1
 90
        1
176
     1
 90
        2
176
     1
 40
0.6
176
     1
 40
30.0
176
     1
 62
     7
176
     1
 90
        1
176
     1
 90
        2
176
     1
 62
     7
176
     1
 62
   257
176
     1
 90
        2
176
     1
 90
        1
176
     1
 40
1.0
176
     1
 90
        8
176
     1
 62
   257
176
     1
 40
1.0
176
     1
 90
        1
176
     1
 90
        6
176
     1
 90
        2
176
     1
 62
     7
176
     1
 90
        3
176
     1
 90
        0
176
     1
 90
        0
176
     1
290
     0
176
     1
 90
        5
176
     1
 40
0.0
176
     1
 90
        0
176
     1
290
     0
176
     1
290
     1
176
     1
290
     1
176
     1
290
     0
176
     1
290
     0
176
     1
290
     0
176
     1
290
     0
176
     1
290
     0
176
     1
290
     0
176
     1
 90
       50
176
     1
 40
0.0
176
     1
 40
1.0
176
     1
 90
        0
176
     1
 62
    18
176
     1
 90
       50
176
     1
 90
        3
176
     1
 62
     5
420
      255
176
     1
290
     0
176
     1
 90
       50
176
     1
 90
       50
176
     1
 90
       50
176
     1
290
     0
176
     1
 90
       50
176
     1
 62
   256
176
     0
 40
1.0
176
     0
 90
        2
176
     1
  1
strokes_ogs.tif
176
     1
290
     0
176
     1
 40
1.0
176
     1
 40
1.0
176
     1
1001
ACAD
1000
AcDbSavedByObjectVersion
1070
     0
  0
VISUALSTYLE
  5
CE016
102
{ACAD_REACTORS
330
CE005
102
}
330
CE005
100
AcDbVisualStyle
  2

 70
    23
177
     3
291
     0
 70
    58
 90
        2
176
     1
 90
        2
176
     1
 90
        3
176
     1
 90
        0
176
     1
 40
0.6
176
     1
 40
30.0
176
     1
 62
     7
176
     1
 90
        2
176
     1
 90
        2
176
     1
 62
     7
176
     1
 62
     7
176
     1
 90
        1
176
     1
 90
        1
176
     1
 40
40.0
176
     1
 90
        8
176
     1
 62
     7
176
     1
 40
1.0
176
     1
 90
        1
176
     1
 90
        6
176
     1
 90
        2
176
     1
 62
     7
176
     1
 90
        3
176
     1
 90
        0
176
     1
 90
        0
176
     1
290
     0
176
     1
 90
        1
176
     1
 40
0.0
176
     1
 90
        0
176
     1
290
     0
176
     1
290
     1
176
     1
290
     1
176
     1
290
     0
176
     1
290
     0
176
     1
290
     0
176
     1
290
     0
176
     1
290
     0
176
     1
290
     0
176
     1
 90
       50
176
     1
 40
0.0
176
     1
 40
1.0
176
     1
 90
        0
176
     1
 62
    18
176
     1
 90
       50
176
     1
 90
        3
176
     1
 62
     5
420
      255
176
     1
290
     0
176
     1
 90
       50
176
     1
 90
       50
176
     1
 90
       50
176
     1
290
     0
176
     1
 90
       50
176
     1
 62
   256
176
     0
 40
1.0
176
     0
 90
        2
176
     1
  1
strokes_ogs.tif
176
     1
290
     0
176
     1
 40
1.0
176
     1
 40
1.0
176
     1
1001
ACAD
1000
AcDbSavedByObjectVersion
1070
     0
  0
VISUALSTYLE
  5
CE017
102
{ACAD_REACTORS
330
CE005
102
}
330
CE005
100
AcDbVisualStyle
  2

 70
    24
177
     3
291
     0
 70
    58
 90
        1
176
     1
 90
        2
176
     1
 90
        2
176
     1
 90
        0
176
     1
 40
0.6
176
     1
 40
30.0
176
     1
 62
     7
176
     1
 90
        2
176
     1
 90
        2
176
     1
 62
     7
176
     1
 62
     7
176
     1
 90
        1
176
     1
 90
        1
176
     1
 40
40.0
176
     1
 90
       11
176
     1
 62
     7
176
     1
 40
1.0
176
     1
 90
        1
176
     1
 90
        6
176
     1
 90
        2
176
     1
 62
     7
176
     1
 90
        6
176
     1
 90
        0
176
     1
 90
        0
176
     1
290
     0
176
     1
 90
        1
176
     1
 40
0.0
176
     1
 90
        0
176
     1
290
     0
176
     1
290
     1
176
     1
290
     1
176
     1
290
     0
176
     1
290
     0
176
     1
290
     0
176
     1
290
     0
176
     1
290
     0
176
     1
290
     0
176
     1
 90
       50
176
     1
 40
0.0
176
     1
 40
1.0
176
     1
 90
        0
176
     1
 62
    18
176
     1
 90
       50
176
     1
 90
        3
176
     1
 62
     5
420
      255
176
     1
290
     0
176
     1
 90
       50
176
     1
 90
       50
176
     1
 90
       50
176
     1
290
     0
176
     1
 90
       50
176
     1
 62
   256
176
     0
 40
1.0
176
     0
 90
        2
176
     1
  1
strokes_ogs.tif
176
     1
290
     0
176
     1
 40
1.0
176
     1
 40
1.0
176
     1
1001
ACAD
1000
AcDbSavedByObjectVersion
1070
     0
  0
VISUALSTYLE
  5
CE012
102
{ACAD_REACTORS
330
CE005
102
}
330
CE005
100
AcDbVisualStyle
  2

 70
    13
177
     3
291
     1
 70
    58
 90
        2
176
     1
 90
        2
176
     1
 90
        0
176
     1
 90
        0
176
     1
 40
0.6
176
     1
 40
30.0
176
     1
 62
     7
176
     1
 90
        1
176
     1
 90
        4
176
     1
 62
     7
176
     1
 62
   257
176
     1
 90
        1
176
     1
 90
        1
176
     1
 40
1.0
176
     1
 90
       12
176
     1
 62
     7
176
     1
 40
1.0
176
     1
 90
        1
176
     1
 90
        6
176
     1
 90
        2
176
     1
 62
     7
176
     1
 90
        5
176
     1
 90
        0
176
     1
 90
        0
176
     1
290
     0
176
     1
 90
        1
176
     1
 40
0.0
176
     1
 90
        0
176
     1
290
     0
176
     1
290
     1
176
     1
290
     1
176
     1
290
     0
176
     1
290
     0
176
     1
290
     0
176
     1
290
     0
176
     1
290
     0
176
     1
290
     0
176
     1
 90
       50
176
     1
 40
0.0
176
     1
 40
1.0
176
     1
 90
        0
176
     1
 62
    18
176
     1
 90
       50
176
     1
 90
        3
176
     1
 62
     5
420
      255
176
     1
290
     0
176
     1
 90
       50
176
     1
 90
       50
176
     1
 90
       50
176
     1
290
     0
176
     1
 90
       50
176
     1
 62
   256
176
     0
 40
1.0
176
     0
 90
        2
176
     1
  1
strokes_ogs.tif
176
     1
290
     0
176
     1
 40
1.0
176
     1
 40
1.0
176
     1
1001
ACAD
1000
AcDbSavedByObjectVersion
1070
     0
  0
VISUALSTYLE
  5
CE00C
102
{ACAD_REACTORS
330
CE005
102
}
330
CE005
100
AcDbVisualStyle
  2

 70
     5
177
     3
291
     0
 70
    58
 90
        0
176
     1
 90
        2
176
     1
 90
        0
176
     1
 90
        0
176
     1
 40
0.6
176
     1
 40
30.0
176
     1
 62
     7
176
     1
 90
        1
176
     1
 90
        4
176
     1
 62
     7
176
     1
 62
   257
176
     1
 90
        1
176
     1
 90
        1
176
     1
 40
1.0
176
     1
 90
        0
176
     1
 62
   257
176
     1
 40
1.0
176
     1
 90
        1
176
     1
 90
        6
176
     1
 90
        2
176
     1
 62
     7
176
     1
 90
        3
176
     1
 90
        0
176
     1
 90
        0
176
     1
290
     0
176
     1
 90
        1
176
     1
 40
0.0
176
     1
 90
        0
176
     1
290
     0
176
     1
290
     1
176
     1
290
     1
176
     1
290
     0
176
     1
290
     0
176
     1
290
     0
176
     1
290
     0
176
     1
290
     0
176
     1
290
     0
176
     1
 90
       50
176
     1
 40
0.0
176
     1
 40
1.0
176
     1
 90
        0
176
     1
 62
    18
176
     1
 90
       50
176
     1
 90
        3
176
     1
 62
     5
420
      255
176
     1
290
     0
176
     1
 90
       50
176
     1
 90
       50
176
     1
 90
       50
176
     1
290
     0
176
     1
 90
       50
176
     1
 62
   256
176
     0
 40
1.0
176
     0
 90
        2
176
     1
  1
strokes_ogs.tif
176
     1
290
     0
176
     1
 40
1.0
176
     1
 40
1.0
176
     1
1001
ACAD
1000
AcDbSavedByObjectVersion
1070
     0
  0
VISUALSTYLE
  5
CE018
102
{ACAD_REACTORS
330
CE005
102
}
330
CE005
100
AcDbVisualStyle
  2

 70
    25
177
     3
291
     0
 70
    58
 90
        2
176
     1
 90
        2
176
     1
 90
        1
176
     1
 90
        1
176
     1
 40
0.5
176
     1
 40
30.0
176
     1
 62
     7
176
     1
 90
        1
176
     1
 90
        0
176
     1
 62
     7
176
     1
 62
   257
176
     1
 90
        1
176
     1
 90
        1
176
     1
 40
1.0
176
     1
 90
        8
176
     1
 62
     7
176
     1
 40
1.0
176
     1
 90
        1
176
     1
 90
        6
176
     1
 90
        2
176
     1
 62
     7
176
     1
 90
        3
176
     1
 90
        0
176
     1
 90
        0
176
     1
290
     0
176
     1
 90
       13
176
     1
 40
0.0
176
     1
 90
        0
176
     1
290
     0
176
     1
290
     1
176
     1
290
     1
176
     1
290
     0
176
     1
290
     0
176
     1
290
     0
176
     1
290
     0
176
     1
290
     0
176
     1
290
     0
176
     1
 90
       50
176
     1
 40
0.0
176
     1
 40
1.0
176
     1
 90
        0
176
     1
 62
    18
176
     1
 90
       50
176
     1
 90
        3
176
     1
 62
     5
420
      255
176
     1
290
     0
176
     1
 90
       50
176
     1
 90
       50
176
     1
 90
       50
176
     1
290
     0
176
     1
 90
       50
176
     1
 62
   256
176
     0
 40
1.0
176
     0
 90
        2
176
     1
  1
strokes_ogs.tif
176
     1
290
     0
176
     1
 40
1.0
176
     1
 40
1.0
176
     1
1001
ACAD
1000
AcDbSavedByObjectVersion
1070
     0
  0
DICTIONARYVAR
  5
CF153
102
{ACAD_REACTORS
330
CF14E
102
}
330
CF14E
100
DictionaryVariables
280
     0
  1
1:1
  0
DICTIONARYVAR
  5
CF150
102
{ACAD_REACTORS
330
CF14E
102
}
330
CF14E
100
DictionaryVariables
280
     0
  1
STANDARD
  0
DICTIONARYVAR
  5
CF14F
102
{ACAD_REACTORS
330
CF14E
102
}
330
CF14E
100
DictionaryVariables
280
     0
  1
STANDARD
  0
DICTIONARYVAR
  5
CF151
102
{ACAD_REACTORS
330
CF14E
102
}
330
CF14E
100
DictionaryVariables
280
     0
  1
Imperial24
  0
DICTIONARYVAR
  5
CF152
102
{ACAD_REACTORS
330
CF14E
102
}
330
CF14E
100
DictionaryVariables
280
     0
  1
Imperial24
  0
DICTIONARYVAR
  5
CF621
102
{ACAD_REACTORS
330
CF14E
102
}
330
CF14E
100
DictionaryVariables
280
     0
  1
1
  0
DICTIONARYVAR
  5
CF620
102
{ACAD_REACTORS
330
CF14E
102
}
330
CF14E
100
DictionaryVariables
280
     0
  1
0
  0
DICTIONARYVAR
  5
D165F
102
{ACAD_REACTORS
330
CF14E
102
}
330
CF14E
100
DictionaryVariables
280
     0
  1
1
  0
DICTIONARYVAR
  5
D1660
102
{ACAD_REACTORS
330
CF14E
102
}
330
CF14E
100
DictionaryVariables
280
     0
  1
15
  0
DICTIONARYVAR
  5
D165E
102
{ACAD_REACTORS
330
CF14E
102
}
330
CF14E
100
DictionaryVariables
280
     0
  1
0
  0
DICTIONARYVAR
  5
D165D
102
{ACAD_REACTORS
330
CF14E
102
}
330
CF14E
100
DictionaryVariables
280
     0
  1
0
  0
DICTIONARYVAR
  5
CF61F
102
{ACAD_REACTORS
330
CF14E
102
}
330
CF14E
100
DictionaryVariables
280
     0
  1
127
  0
DICTIONARY
  5
DCE75
330
CE038
100
AcDbDictionary
280
     1
281
     1
  3
ACAD_XREC_ROUNDTRIP
360
DCE76
  0
DICTIONARY
  5
DCE79
330
CE091
100
AcDbDictionary
280
     1
281
     1
  3
ACAD_XREC_ROUNDTRIP
360
DCE7A
  0
DICTIONARY
  5
CDFF6
330
CDFF5
100
AcDbDictionary
280
     1
281
     1
  3
ACAD_XREC_ROUNDTRIP
360
CF159
  0
DICTIONARY
  5
CDFEE
330
CDFED
100
AcDbDictionary
280
     1
281
     1
  3
ACAD_XREC_ROUNDTRIP
360
CF158
  0
DICTIONARY
  5
CDFFE
330
CDFFD
100
AcDbDictionary
280
     1
281
     1
  3
ACAD_XREC_ROUNDTRIP
360
CF15A
  3
FBXASSET
360
D82D7
  0
DICTIONARY
  5
DCE73
330
CE036
100
AcDbDictionary
280
     1
281
     1
  3
ACAD_XREC_ROUNDTRIP
360
DCE74
  0
DICTIONARY
  5
DCE77
330
CE090
100
AcDbDictionary
280
     1
281
     1
  3
ACAD_XREC_ROUNDTRIP
360
DCE78
  0
DICTIONARY
  5
DA44C
330
CE020
100
AcDbDictionary
280
     1
281
     1
  3
ACAD_ROUNDTRIP_2008_TABLESTYLE_CELLSTYLEMAP
360
DCE71
  0
XRECORD
  5
DCE76
102
{ACAD_REACTORS
330
DCE75
102
}
330
DCE75
100
AcDbXrecord
280
     1
102
DISPLAYNAME
  1
Imperial24
102
FLAGS
 90
        0
  0
XRECORD
  5
DCE7A
102
{ACAD_REACTORS
330
DCE79
102
}
330
DCE79
100
AcDbXrecord
280
     1
102
DISPLAYNAME
  1
Metric50
102
FLAGS
 90
        0
  0
XRECORD
  5
CF159
102
{ACAD_REACTORS
330
CDFF6
102
}
330
CDFF6
100
AcDbXrecord
280
     1
102
MATERIAL
148
0.0
149
0.0
149
0.0
 93
        0
 94
      127
282
     0
 72
     0
 77
     0
171
     0
175
     0
179
     0
273
     0
  0
XRECORD
  5
CF158
102
{ACAD_REACTORS
330
CDFEE
102
}
330
CDFEE
100
AcDbXrecord
280
     1
102
MATERIAL
148
0.0
149
0.0
149
0.0
 93
        0
 94
      127
282
     0
 72
     0
 77
     0
171
     0
175
     0
179
     0
273
     0
  0
XRECORD
  5
CF15A
102
{ACAD_REACTORS
330
CDFFE
102
}
330
CDFFE
100
AcDbXrecord
280
     1
102
MATERIAL
148
0.0
149
0.0
149
0.0
 93
        0
 94
      127
282
     0
 72
     0
 77
     0
171
     0
175
     0
179
     0
273
     0
  0
XRECORD
  5
D82D7
102
{ACAD_REACTORS
330
CDFFE
102
}
330
CDFFE
100
AcDbXrecord
280
     1
 70
     1
 90
652598616
 71
     1
  1
4D0D75DF-57BE-44C6-8B84-F3855D7E2064
311
504B03041400060808001C8F2950141B9A4B36010000A80100004F00000038444146304235342D333633432D343732442D383237452D3736454637323444444345462F4173736574446174612F446566696E6974696F6E4974657261746F7250726F706572746965732E62696E6550CB4E023114AD9A68246161C207B0705B
311
5B86CEB418C4307DA851216160AD65AC40320C84CE84C4154BDDFA2D7E807FA66DC068E24D4ECFED3DEDBDA77D05007CEDC2A560CF61E3D6AAE32B939BD52C4DD2A9996B70E82BD962ACB3539735BA51AC04551037420C896831C8684BC188488E298B55D852FBEEDC918330CFBACC0ADFF27E665393653A378BD29EB8C26E
311
467DAE0B374B6767FED231009E360EE047B0BED364EBC89B5C3BE8A7E5F9A5B6D614178889AEC2714860336A72486820200BA88434928A0644082E151A18BB2857A9B188082C6828140C692C21213C822C6604AA260B4341658023828A69E9BFA6E66D8C733DCB10463B0B0FCB7CC2FBA3DEB053A9FF8936E2D792DFF647C3
311
BB1B2E7B89FC95FF49C9566BA35122079DCA965D11D4DCE3ABE000AC3E5E3E1FDFAAEF7EFF0D504B03041400060808001C8F29505729F385F0000000300200004500000038444146304235342D333633432D343732442D383237452D3736454637323444444345462F4173736574446174612F496E7374616E636550726F70
311
6572746965732E62696EEB606060F80F0540260323103700495E20ED9E9A975A94991C9C9C919A9BA802143071317031377571D335357772D535317136D3B570B230D17533B6303575317735323033614768046931363471713532B5D435353131D635313332D475727372D13534373670367376B67474B5042A03DBCBA019
311
D37FE8ABC6157B20CD04146B0062181F4C03F940F0C11EA29A8141C08141002C0426541C106CAC2CA046088033B02A030AC2157C6006F21A8018AAF50194E6010A610250382264E08660284CD9E98021862280A91564B406929A0FF62C401E28B6F88038B83CB1243943D7A928312F25350524131B1BFB9F161800504B0304
311
1400060808001C8F295088E57597CD3F0000904100006B00000038444146304235342D333633432D343732442D383237452D3736454637323444444345462F5265736F75726365732F34443044373544462D353742452D343443362D384238342D4633383535443745323036342F7468756D626E61696C2F302F67656E6572
311
69635F706E67355B773CD4FF1FBF73E71C0E67EF7576C9DEF3EC995D46C6A1EC5046649CBDF79E192942562825CE965D8A868C2842C8DE9FDFD1F7E7F138F7078FCF6B3F5FCFD7EBFDFEC41B196891913091804020321D6D7513FC77D8C5070EC3FFEE51B21F068154CC75D455CC028A3EA68992803810109FDDE5D5CEC552
311
1B28A1B422BF80741695D5B529DA1C2D058AD2388BDA9F476F7C2CADC939304173DBF48A452BF8A700C0C70C3D121C1AA15A5270C22E2B9E28763651F7DA0D12CE11077B2ECD0D560B5E3DE2368B1E65C5E1C87384A4CC5F2D9FB8BE39E9B77C753783A37998F5CEF1B4FEE553463245C9712270880DF339E0B882A6BA713D
311
865F6F384C842D440934EF264F4A304F8DE4EEFA1E2BF5E2D91F5ADD9613D6E31DDB33ED31DB1D7916CAF091286EA3D31B9CFECB78BB0060245B943C4C040119FF780A74DD308BA9D028678674EB5504ECF284EE814DAED07440BAF649BE4B55DA2890F4D73E2D489A59EE54FDB0A85B59F2F52C4858A02705C4815A792B0C
311
4A996A2023ECB195073E115E3E3647F64243A8338F2000BCB58DA5692C7E7C3D413F963FEDF3CF00FBB0F831A9D51360FECA43819F527B89FA260EB63C5DA676830AA3626A3693B23F1A17A0DFFCE3EE164E31B5365EDF0C89EF64D8E38AB0BA9A1117D7C3A0EC44F44F4023095E80BA610DE336D0F99593A88BFC5306E72D
311
F98F7FD132ED95878DF2964EA7E43071359FD83B2BDF9C6B5BDF768F0F3C0FC351199526F53D9460A34511F75D1B63E488178569472C91A94497807A3FD4A390C6558F26D416365C3656DE6E769DA9D8FC73774E1709812842DD8EF96AED1960F79D21B395CDDFE6F92CB4EB962A4668C76990E2EF29798C8941D67DA50F4A
311
5F947872460F1F6FDB794E8A29FD7AC0C0D6E0714339CE258FB17AE8535221E3464A10F29A0BE5EEECEFC5675926A89F49EB14E5711894F6586DB5754EB4D5DA9C6437EBA57DB97A24F8B8A8DB295FFD73266CF57E82694DF5166DDF93573AFE9C9C5EB05F8FEF8E89E0A8917B0B3724DB7BEBB53252581EFC3E38166BA131
311
A3A5B42FE2AD00A769BBFA4458D2DE7822F8C4F63D0B8E21B285AE13325F3410A435C648C9D91FDEB109E73CEDA7BC796961AF79175E1A3CE4C5E8B0D009B0C9E29EFD98BC8E97554E3D8D838424E270F7685226E5AC268E021EDE3522D583E8F20C0BDE2959EF5BBFEEDAB32FE9A3ED0E39F211A86AA9DEBFC68182EDED13
311
2AB8BB794442D2D7EA9F4D8BFF52BC4D55BB165124EE90A42D101E67BBBB292FFB4F66DE5BF2300E44546757DA7CEF8932BFC9F92A0707953491A55C5A5ACEDABD9FA1AEA01BAC3DC5A24E22E7C47213493996EFBC369D086ED9397C9BA6C7F9855C7BD5E15BFC8C53DB3D2A4C5901A57ACD2FBDF4D1676E95338B2C2BCE65
311
FDA4C64F5FEFDC7D9CA5AA1FCF11E193F2FDABF0F4916BF13FB916A224380E6462A9815F2300DC49CC4DF8D055CEF76462F4B7A7ACA7365C2707891370BC1D0AA6203C44CCAB47084FEC057F27FFCD57F89B8B9852459798A675C66BD7CE572CAF71FF7E6D7ECF7BF62CAB7B3F1107DCD04DC55A3F9961700286141C94A4F7
311
71FEB2BCDA2DDEE0CB0BAE402FF1DB0100F8E475DFFFC074DDB4498AB7D186A7654DDB1CB680D703D47CEB4E72F8CB13D86A4AA68116E26387B93FD6738779B34FEDB8E517EDF2BAF28D9BE93A1D3A164320E07D42E514725C29515FF361754213EDE06B079A2E99EB1CA82A02019EADEEB87B9AF005BD04BBCECB14AACD6B
311
24EFBE482194A97DD32400685FF1FEF1544D1B14EFB1E7F08E6D2CD2AF52DE757F35F5E62332EE88EA26417AD5C3E0E319D68F25414E6D672BD4522B278C57D18F0113921C71D96527E091F00CEB15AE23D24667369BD3CEFA10C7549D930890BA4366F4EBC55F01F746109F98ABCDD5A3EE06619C6AD78AB33E48E4C9BD21
311
BF7478B385EC05C4F8987E2C1BFA0A60EBEDAA0AE0B015C2720ECE180FB6F2DEFBEB822D96338C9B63822183BBF52FB664A7AE57003AABCE512BF77E7E31BDA2E739AC4C131657DDFE5225E900FB56CC01CDE808FA4A9C9DA16AC679656BB64796283D89812B8F91136AE18EE5EBBAF47A73BE3C153EB5D4CD491B4BFB4FE6
311
90A4CF9ABA08C0D8AA64220C438C96EA6CA80B58FE5761E697B3A292EB9FBDA502FA863E49FE694ADDFFF9D62C520BDD1A22014147A0903A05B9B729F54272EF83931FEEC057BFF8C8055C279EAC5C0011804828734024F6CFA319C9CC6867C727184465CD9BB7ED386AFFD96B294A85E3802FAE47244602D8273615952B98
311
C4F23F7EAE4463D9D638EEE374A20959E0FE519C4CFB0FBFE5DD80C2AA3F9DB961D1BDE57E67C9BB47B77FDD74EE3094F5DBBE3EBC1FBDB7393F5116263009E2EFE1AF9A221B2AE234C902BF70E9F280ED23E73908361565964333A3F01D0B006AF32FB21AA1316744B489D5A198E85299241735BE559675130955C902A8ED
311
761FC0DBE337A9F91919AF5CE32AF902ADF9AB2615E00E8A94586BA1A90839B61832FF1BFB76D2EFADE6DB1BA04CCAD3DA649E7E2A0219F592E22F2AD54847EEA8E42271011E9074F8F3DD9FBA6CDF88FFC9FC7E811AD1CA8F4557CE4AFC7BBEDCF0114A48689F20A584520C74DA8127124B767E2FB91A6B186246727BE63C
311
9445BAE02088D58B8EFDC0F1072407CD9B89A13F6303B4A928F593AD489B58E6869325790ADC406036C591729FE14021F94B7796BB11848D463536A092A26F077F94639F7CEEE2A724C66EC885F4A24F8B8A0AC321F8FD149BA529460FAA34E4663C02D41FDF80BCA222D42F0ABFF8490F4FA74C673807C2051D8E467B47B6
311
16072860069A9A303ABA9B319D58404461401B0A0F9BE5E1E151C14BC33B32ABE03DDE91708DFAEB15E7C0D593C86BB7D7EC17BE56E57975F077BFD5525F3A1A361D584A75E08CF29FC7B44B2B3085014F3A5A14517377C3F6B8F37E59514C3B12F8AACDEDDA4DFC49BE5710101534CD6FB6DE15B50F11A09472AABA727F0C
311
49D9CB906B158030065F48EB3625E010CEC1D511D0053474B11E6A4F01C0D6EF1BED3A944FDEC70E0DDCDC756C86545910E0DAE3BE3AA9A404574C2995CD5CAF9549226BC94B4F4F0F5F9086F418F6B32346464610D8BC7391D3C3A3CCF04CFC1FB2A3A3170E369511868F14EEA4E5E438CC73DB1F3248AA94B6B2FF33B222
311
FF3D1E7BF146CAD229770158063BCE4F5391964DF62F7E52A7BE0EEA829C9E13C4C147D6F93FE59E111DAB5E4594D6F3CD1AD375EE039930EFE5AF2BB2D41C83C7DABD8C659BAFBE8FAB392CA634F3D15C1D945DB4588D2B0824A4EC928AAC565557CA2F0DAA588CA5BE30B3A8004F7BF005E96CBF891D7F18112A3619FDF5
311
30DC8AA64954258E1811789B5189B49B4EB53F5F89F7D37523894F3EB57B373763C91E502F52CC99EB7BDDF933FC324C4FFC2561DFFA7339FAFDD0A4BFBE6D3A8FF9ED1FC49898139864602458968913181918F719CCF5A68B2EE9C1FF050E34E63107003B8120FA982C21B30A874E4F5E4B38D5A8290C4B8D9BE48A0BE31E
311
A995BDC37AC6DE90BA17D259DEF53605D55922FEB1855D915B659FBEB350EE0DFB2F9F766E1C84CC8964B75D08667445EAB966015F63A18A9E0A325C1B3DC628C0D3CB60F767FA93CC65F25458BD23C3B312716E5F40E5858AC06EBA9AB14F95DB99147B832069201541D09A0D856E12C629CF32683760EE855537D1901988
311
D5EBC156676C7DD51D7207CF3267AF1D76C2AD867315E44618015313A98B19941C696FED3461CAA9B5415F918556D7802EDACEFD6B2E45853A9735DFC9DBF7E440F9319F8B6805A973BCCDC76C069A9144E51F187EDCC12FC31B5DEAAF0A76137199B106EC84ADA6B6EE697D4E6A96E007417F4E880E8B1E89B4BCE9D81EF6
311
11E2ED8F0C1A6C25F620FAFAAB656A7C42D464880E8AFAB0E0FC8EA38CA9A8AEEAEE3E4648BA4680270A89743CDD3E6C6CBF34B7B640EFA285ABC7EA0A1E28F3CC963D114A80123EE66D0AF7D5380EB41909B605AB4765B709B808590458157E69BA1378FEC4B48CAF6A730E3BE3C5EF2DD1A5EAF94B1DDE50CEB55DDFD7EE
311
9A16747FA4B223359FB1FCC69E1194892BABB93A1D5C4E807AC0EA2E30180811E77A2291F6E7F7FAA5E0F60215BC6024E48DE436C511F0628B8CA189982D4D83CCA17D305A7E923C37941CFDFDCD93ACAF735EF5F0E61BBD3E6C41A59B242790D3A3BAC7064DCD89AA2E37214EC839820949D5CAA31E240D2948E48F690298
311
974A96BA9A8432BC90F5071D6537C9666EA4564796B7AFFFA548077BEEA75F63083435074BA182F3699557397F71548383FDA8CA34D99B981E72835ECDA5DDDC151315173D05A21F651AAF8524E88209E2E7A737ED1045800CE3390050BCFB8BE588DF111617874C62575039CA588EEFDEFEFE319B739DE2EDC147092A2626
311
11E159650E787917885EF08F1F51B8F2D8A71D60B58B190FEF9541A1BE94BC19FEA50784DA1419FE4B0FB51B8D36B5FF8E1286FD8AF42B91E59A5F1CC4D60174E764045FD8C57B18209B217F89A62252BD20BE0E63E12B8E8F029FE19E0E8D0870F58721A557082250D5424F7909369376E41666C0EE77CD87CB283F661D5F
311
B6D0DA023CB67320A20DC7BE661E9E1BFE5463085C557DA1FF9BE835733766C3D139F2CF9E2208873AD0EB4814DE9E6BF2CAF81614D4D43906ED1C05A3265CABBFE192770FC2F64F940CB6B17B5F166F133C9AEEAD2641807C3E69515171DD74C4A85311513D6EC9530B3B601B6BA3EBFF3B5C3D2F7D69765141E345F75433
311
953D013ADDF8F6AA7DC3F4A7563FE5C7D367937E2900D7EAD0F9FC9A4A1A9B5BDF1FEF08532660C01C5D6DE22199AA774383E306DAB87E301ABB7D213887F9869D4942D0D71E94B27EDF216A318BD488D45DF84529EF575AF3C3938C0AAA0215B01994153E2054A0B894DA5C784980633AAD48576957CF4AEAEAFADC7C5873
311
68551C73DBE1E57C58AC713303A8BFC258BD04B51724459FF9E24C03A81E0E0679CEB9B348C0DC998FEB9C6D6EFA77D247CC8F92D3848599ED89A23218D0636465AD1CEEB7DC140D7426F83491C4E8E8281C2FB35240918FFECE880CA2A42D70E8B20B34DF5221C7DB0CF90ECCB9C745B37A47E9B716FF7A97B7A252C1F381
311
4DC7B1E1A7F72B8751D524EF7CAE45B0C73B3BE7D08ED39781B380DDFC9AA4A4749C9493DB5BAD07A6EA6C092FBD0E85DB004DF06B8C9D3089C5320187E4CE1846158C7EA7DDAE8AD9AFFF21AA3A1026BB06A259845E8232DEE62811A4DA9CEAB3A4887320B76E2AE5615EAB7BDF738CBDD01F1E64064BC13D9EC53576751C
311
A8CACD58B3CEB0E6CA585BD089B2A59B9FC101403387AADBDBE70586B93D64BF3AD4453EF9C3B6A93817E8346991798601344F79A83C51F3D50F7BF2683A3605F51A72449489E0EE6169C749C60B1035651103AEE24D24E51A759C840DD3FC6504DA6FE107510E447B43461C79D22970B75DE5E1BD3007D1AFC619A4A4A69B
311
5626AF5E9B8374E20677F77E2F8E73DF868E8BEC7EBA7B6A75EEF7205E1AB9486CB642741D6E03FF13FCCEDB1C4AC129886268B01CDF4B124AF797CF784F3C6DEC97A17D4B558070A0F1C04DA4FF9BDBF34159AEFE958479824B3F58EBD1E19088A2AFDE501B6F2052368A3FD0E650A179EFAB1561E1D27527077136E65267
311
6C3670F42DCB3352F48F6BC86D2C3B0051727E41A0A4DC6CE2BE9D47F5CAA2935A3C0539AF080665997194ABECD723B08129CC5B6B21D2E7D54CD4D12610E7E9FB8306771A89576C7A982002775ED44F3F744CF21EEBB27A631671D921938AAEE3EB0D19CD1E083727F607823E817BF599DCED5394E37EEBC2E88782E63892
311
0CA641EF74D4CDFCDEF06F4278ECB18E31E7E9876F2D783C8BF429C75395F57E98C2B495A3DA077EB3AC3C158608B6B57FE3EA48484D9A480096FCEE0DE880950E7E5A5714131C5C41AAA29FD19AE81AC145FA1B9E85C7169A5AB837B213493DF7E9AA4B5FBF9CDEB36EBD21EF1181B7CF7366AB2A951D01E37AF4EB835D1B
311
E8C117CFBE7625D2EBCDB0B20C5A4B45CED0BCDE3EE8DA9DA78C2E21DEAAFFD1197E463C33CC6A80FB785669B856EFF7A8CCCA2841B5A5369173320B1170C368B2748D81062EA0296E5E2D95D7667A4A46D98A6FF475C76AAB0A8C8D45E226FAFC9FE0133EA9F60111F99CA81ACE03A1D14C89E8B0D69079C91464FA1D99E6
311
51D0EAF606F345C42A8A1AA9BA391031582B96D5B4176A77AADB01F12FD298A75DEEBB2C82F0B8650E880722F8DDD90C56A7A058E5FDEF1AC93545BA27367C76F5D8F9690CB6F8DAE141EDD7971F0FB548A2AE435F224D6E5954CA155512F7332029D5A1230854B79F258EC5FFDB09F5F6343A8EB193229B7F7E79B3E48F8E
311
183860B38C8269D1B53738FF1E0BACF6AADA6D4869E9DE708E79B5DADCC09B1BC76F649731CFAF59A83FD8BAE4C749D66FA87A3810D4D62FFE826FA400C0F325D2BC0F3CA35F5847B82A2ACC7961745C823E4D863D54460AF792CE6F79B5C7A33B25C3AEA6CDE15A919B6367D781E9D44F61BF828672594A3E1D9EDD6DF179
311
A81F27EAC05B936575D73E05C209DDD2115CFB705DF9BBF3C911589B3640735E9E618FC9C36A7326C82B2205E244C55D56FDB9D5DC93CE958D4BF8174D2B3DA54CB3C09F2C2A6DFF73D23B2197355761AD421EC581284A7EF8DE2CE3497C0C804D49B41DFD6A7360844E5BEFFB495CFCDB97A4595911CDBA623274CE852B5E
311
278AF0BEB1770E9D37CD977B2766A7DED0E94B840E1E95E8C77DE5CB6354AF7871427C28ADBEEF7BA0A28E19DE9ACD75F379FE373EAE6DDDAE3834692F9C2B03B4FCA8FCA9ABE8EEEBEBB725B88A7C90941E850682CA04061A7DF0CE82ED49BFAFFD42C309818FAE14755CAAE78B0F73243ECCCAD7DF58FCB9CDFAE7A4D3E6
311
671A613639130D056C8383C8F4FCF4808C331E544DD26E4755D09EA05253B3049A1E32587CC25D72E073E2CD96D04A71BBCB0038FEC3F53D254199C3CDC67CD66640269431860225392B2CB3ECD0B4498AAE78BA1994246AE1EE78F2EDFB79F6C6CB6B5E279C4D373FBC21CB2698C9ACBBEB6A4BB6B39E16AB0E421CCBFC76
311
54D81ED86022F9BB522146F9F4772E2D0E4FA70120C95A85A417BF5078B232F4754363EB1750B2AC2148EB46B1EA72AD9B4D23ADCBC589D70106C3EC2ABEEED84DFE28E718C6C83502C28E9FDD3B09DA0A6F6F7B72B706A31C9E2A331EE70DA56A083D2177BFD63C55B11D8D949FAFCF90B23A1E24B9B5018B9A17E99F2890
311
EC302F330FE7936E2C23F0D237EC8916F5166AB84B62A21BB0B950146962D754F92CC2C8877BED8FC7B7B25726DD19545392570B3A2C66B58F027BEF412E552D12A588C4A3CC5C3193FCB3485EFFF700D0B9EEC077754A33DC1FB9E25AF814628F91DDFECB667D3F7690803F38D13F8AE39353523BB08FC6760144AFA2CE28
311
236F65EDBB3D5F59A57D612B99E3D7E5F8A851666BF9B5A6658EFC96EEB37A378ABB0EB3FDDF1303AF32C41BD1C8560745D7BD81066B0D6313359CF488563D3BA3F8E2185D1FAA3EBA1397C9D0E3DD232180A4DCADB6AF25DB3AC3CC26589C8239E66E81547BC7E2F328F9884764CA37EB5DBE390DFC03A5246B456A7C3684
311
C4377D0EEF9A350680FA9A077E8B2957B489E09AB1AD41316944C2254B5984830F691C93CAA767EECF976FA5647538830B5E63236A6F0365C1E0F3E327F24FE35EDDBD7360B0F7374837409F7A6311BECC12B7026D4FA1AE204FA3F5FE904B1F420C7A9044AE58E403E7C4848E7DA25DC9EDAC79DD756FAA26B9EA83ACE8A2
311
14A2612A22AFA19DAE7DBAC5F8CDE1292A485F98DAC731A29FE01A3966E96BCB9FB5A4C8830E1B9AF0C54B87FBE221A097036E5D28D1F869F810C06A9BB0AC0612F69AEBAF893C6E7AD59460208BAB3A6B09CA4F6BDDAB8CF0D1F84B72487498395A70DCD754796E271099A567A55CF242BBED64696378BB6CF25EF0FCDB58
311
9F3A82F1116D010A9AB9FA4358809EE0C973A2B4229BAA876A70B03AB49CBA7FBE71DB1832FFD32F9BF2C8E98075CACAFB36921235D0F552B6A67E94E094097A5D7DF681B40623DA535ADA7A9AD8E9A62407D7C9A5AE51D62A17A83A23728DE86BB56115804D3F2675F2C6B87541A0FC497BF0CA86420F558C9859EBE9FAD6
311
2747E323E3AADC03FDCDDFE7407B09DA90B44E3185723C5381EAEF589765E2F7A099BA46695BAD60CEF3491B8A171F5F56444F7CE9455312C3498C74173AEA0214EC029833B34B650CBB5A5508D5091665309642791708ECF27CF11DB3D797D6CFE474453BD4BFADB768094B2147814D81C7CBAF8228DCAF5564B5891F5EF6
311
A860EB2E323CB82AB868D8EA048880D63B0DE5341F1B3D53297B928A11E15F25E5148990F710747C3509ED14909C552EBE3973246FCE55D00564D8310BC3EBC5085D08D806799B77D6C57FDF5E55837F9E934F09C03C729271B64F12D0A9F9E938107CAF7BF1EC8CF1BB9B42363D33070F4CACB425E605DDB0A34A12BB936D
311
E286B9887A4E2E558F0886498BFF49C311D96C277CF6A9FC0D75AD0ECC5226D7E0E3572012E56D7FDE4410CEC7A6D0F997F225A2055B8B92E3956E875AE4993CB3D4C9063AF98FD45E1BAB165640A43439A2C9181A7C355B297C0A0CCFFAE19B6FA3C2BA238A885FBC98B8F6DAF4B94B97304878DF4D8BFF6A4AEDF79E90ED
311
4E68F00CD7299F4E0D83E35601AF0CBEF18C1E870E74758FA91F5131075004DB3CFCF09AE1DABC11957FD9808C92E8A678CE9DBE40DDA0E0D1D505AAFBCBA208232BFB6FB3704E8985E61ADE53DE74152F5C7DE74B1DEDCD37DC3E8FB30D7EBA8B9EFFC3606BF90B8D438279CB7709FC7C00D327F41817EEA71CD9E49FE9C8
311
C9A81C70915D9F0F15958EC5AA4C3BBFAF46986B90F188BDB24B89DE3C6F29EC3E6F66D84856EE96A35E657CA41B41EFD8DBFA16AD6E91439EA92B40B21C053249F51AE50EB0B24C770FFAF40DF12C8436366819C48E36547D4E7B72FE2BBF10828583057814A668BDF183F6B2E58DFB151103E56303E63D00F39C27C46616
311
05DB644D19175D02E3F0241E8FC3458D17AAAADB117CE9EEA690D0DB01E634878C04C2C9310B69FCAB831151E3AD293BEF6E46B0ABCECB50F5939B39C613D41E81FAE8D34CAE3C4566B761D37185FE864AC32FCB71AEF39DAA5BAB88609BB980CD2F07A8F941653B529567726E2B2A58D079DD57E1E5E31426CF184A04D7B0
311
3B985F276D47406AF276FE32E3328BA866EB1FD39BEF57863A317634AA5FE467409B3873F5069EF0D71AF00AD189D17BA1974ECDB2D623E9E14086386A6AAB5807825C37B015BFE892AFD154920EC437EB945D958E18622E1E0FE2FA06557CE4BB9BBD05A2D40E774DA2B65473791E314B7D6C886820B2FCFE4AA272B3B8B1
311
5E7344A145E8AF919B5454D89D36D413E87211186BF6F645E5EC94DCCE8E1C799022E4EC9BC86D7A0F2AFB1FC4B2CE48F84B3F49ECE65BAD24CADCC07EFF39AB06BE9E6B27A059938EA7208838455383DDBCFCD967DDE4650EF92A14FF933C975DB20BD7FEEBC4487576485963D757D16340D9599FEB362F775F38CA4185A8
311
6F74B629C81B133644A3B18FD056E997E0734F9BE26D11C0AAFC669E2AC9FC41D281F8B2E1C35AE27BCE05F3DA295488096688719D974DF1B5D182DB7792288697F8763CFB43562C1CDEE11C4AABD5C22B6E33F6F389CFC3477C5919DC0D533F8A7A1846B7ADB60ABDC26C43D0CFC8910B7C15EE22675BD02702ED39DB77A8
311
7A192CA7A543E6205B979B9F5A6B512A3CA799E198B2D5797C0AF8D1D872CA455D4D431A7879D4DD76110B5FF7F4176B54477A9EB5E4A5D11214FDA585F0382751D8E2582BA5D2075053298FEB8F1537304E32CB22C2E2B693DC0A760B1DFCA751BDC445AFDCBB12820ED85F6D5298933C7EF1211E9E057684056CDA3FEF3B
311
B6052355E162DF27C59E965A8DDB7F9437EB72CDDA3A090DE65A5B2F50326247B7EC67B73ACC7047FC9B353D6EE990F772207C6EC52B39DC2F3C0754821DAB559F7C1809C7D0DD5B0499D0442E0A6E391B3D5DB46D11E731E6794EC77523FBDAA242ED67F9FA1FB684255671F63C9BCFE6E7E896D51001A6113EF2298BA494
311
E0B0980D1FA5B9D60796554C02256B1E0345FB7C6186B6A19D2DCA270416262845FA4F42DB5D9B0A0B6F07FCA2E56C242522E001E0CEB734AF310FC8BFB57E38E03AACE93B3326A2197891E68452B26A6307FDABFEE0223D3C03C3C73D2D5BC054C8311F12004CAE488E5C29287F8156A2CAA4AD0D7BE6B97264E4139F437C
311
E73ADF52E5134C52B819777C18B323A5924E4F67AFD13B1CDC3A61793A79FAF5C0CEB718E441071E797C6DCCB9EFCF7E4A1E9F3DF3C2F9C9E8294E9586868788C972857FB0556D7A26941A7EEB9B580AD78EC40B85DC906B4120A563CA3B87797ED612D3B035962BB75F6515A393F4CB057F564CDF54F2E5A024514E6A1F90
311
1DB80C7E70B1FC05E356A7E72FABF4775B3E3FB8F70A2A8E7B6A94542BB304157978CCC999E707A29CC795E67A59CC546A5D47B368954CA7B6E75EC9E1F6FC73CE3B4F71F8CB1A6B15923D61EAAEB14626AAA9D04A26EB9C66CD1BE86CA31A5D8703DE04CD1EBCE4F5CCB62F93909AD11E55799A781A956ED27D3E738F4538
311
CB04ADABC7DAEF20BC35BA6A90BCC1DC61BA05F20D8832FFB9BC9B15E2DB838A0AFBB7E0C82A562127E0446894F427794C3037186F622BF24DE1B00AA10A23BFA47B2A180D6DA5AD6F7326FEB8C100C2D7142EB2A0B2A9D1008A09BA343D70E054AB69E2A7EDB783CBD92537FAF4A44D1296AC2792729104B3276C276C951D
311
0CF3CF3F1E6B017720A7B8505A5FF9589365979678C36F1BAF759EAF57C60F1FF5FE9DCF5F8E764FF25A2D06CF25117A8FED51884C13B2B750DB0E4F5E3D64124FCF11F0AD8F1CC3B3DA4B38ED22BF1CB2585EE6BFEBBA63FBFD44F9537B9B37BDD6B358720F98A8125AED4349CCFEB0E135F19E208A04CA7E2B10711185D7
311
2E381F448036EF57C9F874E54A971CA37A639E986AC0226DC5AA00D5B14FEA9192234B3DE617814FC221C92F33F1D392F297731B567FD98FD91D989379AF567A65B8ADF177591DB90FBEA99BF4ED11B16E50A0AB1DBF1156D034BBE04D69D08F939D8E92BF525A1DDAFF80ECBC95D8F45D3FDD289FD23F7D8B452F8EBB34EC
311
082DEEE68E18EDDF072060FAD2AB1504DD4879BF67099FC58F6E9DEFBF645D16334A3E9A127C6F1AF6132CF287E433B43A0EE93812B4AA0B194E03EE3FF91EF9C6ED0074A2F6EB18A96A7C9890B1FCDA1F2095E944DB911ED54C60DF16FB74C8CE9BDC7C54C4F14078CF73C2FFF1F1BBCCD7CF64F71407EA1683DBC410D226
311
627F66E509060D5C0AFD611DE681D509DB8DD12FB1265B03C6F5C55FF4C30BD94187FF692B4F152982502F193098A789526A038AB529A52BC0DC4FB6285CBAC10A8B8DB75DCD9BDABBB221E27D1F8DA9F5EE5926A1C8AA9BA9BC09239C6A7F12914EA3B59EFF7AAEC3FFCCE56F1C5C2980AD072793527565E774F4631DB178
311
CEEC691B1F367BEA0CF2907E1D6B854D527065979DDEF002D8B2ACEA7CE21AE297737EDE1D45B31233B73FEA35BCFDD0B09721FDBAF6432681F2FD10C3E9EFB246FD6E854B344ACC9D8A0EEF876A7314B49B6A499FC650B099D650DBFEC7638ADFD245E2B7839DA5AC5F7D5623FC0ECEEC8653FC9B2BDD1AD4D00A566FBA71
311
86DD3C9CD26512551637498CADB950FEC71ADB9A5524285DE328B8EC7EC75D2345AEC6A27C42AF6D9B92155315C80DBFCABBB7DA0FAE425C4FB896B15C9BFAC4FE67DF5A23D30C93DA4D8F36FB15D100050DA6062E22AEC5F4DAC4F6FEEF97AE05DE63C6D38F9E068A20BC5E3B6BCD75320C5090924E7F93640A7735B1A434
311
51C2D91EE62C6238B797349E59890AF3A520DF4A87095F3ABEC2E61F0593416CE46CDCBE0E00E2523FCCD04408588B5B6C9DB6459C786CE378770B54F51DA3A5E1DF2A3349BEAAC234A6CF8993B598B3B25B4B113E353A4D750FA7534749430F3EBF2512E7EA3FD43C6AB9A1F765A58463B306721A15D224FAFE8C6F5E3432
311
D57EE697DA0DD5A9D4866A8BCCAAA9DFF1F06047851408FEC060471D0E3EB86BFAF46E4B5E60311DC3E3CEA147C75CF971BE74689507154FF2D2E92F15CDB2B9182B11459FD8ACAC5A85F174BC94A7F4EE4C4F5CAFA7C02E37BF0BC77B7DCD0C047BC316F562A01A441AFA7931CC84A28CB9F4AA367EB515778F29BFE61195
311
FA671F4352E5E46E3A64773F1F76EE5EB36D7BCE9BCEAD837A4D77F8DB8C92AEEF6711920D7C7D0F76B0FD0EB7AB83724CD35BCA7D36DDDF5FBB7FF6F04A91F3E2BB3B8F1A43CD659639507FF6331C5F697BCC782AE57D757A27D97F1AB9E0AEDB43F92F1B2AACDF5FEC8ADBAF9F814E2027003BA2F9E144B1938A7A04050A
311
E5D953B82C45619165C813A10E76DD6906B3C16438064D14CDA713AEC420034613E1AC7241904A49FBF87409AFB1FCB9B72FE7933A87D8FBEDACECE4EDCF6A4FE9FB94D5DEB74FAB7CFEAE17EE965DF980DCCA2D04134994F9A2E94D2265DA4FE6AA7B7AC15FACAC2B5ABBCD7DFF542C5314FDAB2E1B9D8B65220B8E2B638B
311
E008E8DCA22678C820C5053664D15E89F2D735B51A84955E81A443545E9FF787BE0FA700A76D136C27DA179A7C6E8939E01BE756E19CB292798063D8B97F44E8A27BCF3A614FEB8BE974A718E86F7EC99B53CA35FA24F61F2B07266684623A3D4CF073E511F3A10A8FDAFAF0078C577F4DF9D339FE7862E5FA47CF4344209E
311
5BF76D783B1B48E152AD281B15FCB934DCDA49CEC5706B1EE8B460F435324A5CAD154725E21AB8044B75A557A79F6C807B9340AA3D92503E866F4274412926C8C504E4D5EF8C0E68DD0B028781A6B4054F11CF18941F101C57CCC796773ABC8DED9CD91FE5788806C05E548895354AEAC96546D55B0E94A59F148D061F42AA
311
398D822CDECA4CDE79E13469BDCC44FDC990F366BA5978C15F97ED80CBFD73B0CD9B8B83A4F6845BDFBFAF034019473FB9A63BD55D3A4A7284757071574029A4D016DCCBE95DD679EF3C4880BF169422F8C89B68A988D2B13793CAED4F74DE7486C72DC94DF46B8E93D8E02EFCB1FF9B3BA10C8AE7F653DF94F4AF466CDDCE
311
F5776687F7C4C14B63E4EED1719DC2EC482D7DBCC7AE518CDE3D5FF86D39000EC3673C0044E1D308BF05F74D1B5F033A7D1BE7F74BC55BBE3E4A20F920946CA0271EB17BD2B80E5660ACB8A29A79F5E4BBA49D4D945B6EEF4A7EFEAA65E5555BBB57A7E15D2F83C69F30BBB978D2B39F1F26FC097424D39BB33CA3D87ABF64
311
E307938B685BAD44F71556A30B7E712CA4FE600613C3E554B69ADE949A7CFE214DF1FFF05CB82151EC6FC31950239F94CF7AD39DC473F6EA356E5EC2C4EFA04383CEFE985A127484366FBEE3C0EC4FEA363E4F6632AE781392FD45D67B63FB8DF70E82734F431FD3443172A0E30A83D60982D55FA6A2CF86DBA8382502ACC6
311
CDEF3B907982EED1160E14863FA242F9757347E1544275CCDCF71ECD5F8621CBEA326B8BA884AD7F825781923E66971F04010D574C541D8427A438A37EEF8AF88240EED7362C953F5A81DE2D56109CDE2524EA0F5D2F87308C0C47BD97AD605878AB8589E17CA83930CB5E0DCCD75853D68B1AB136594926DE426C367428E9
311
334AFAFF90ECE221BB5DC9E5BB53D2CDEF954EAA9CD814F0E5725F1965DD458E5F8487683AD86B9D0076BE3EE91EB1CECC5331A67A3F79D8B27587C12EC2A6A70474749F27B4C0BBAFB94B34189E88DC18964BE4121B9137FD516C7755356E50D6714E31ACD222621EBBCD1CFF81D87479056A9DA0E0B8EA19D24CF937DA89
311
F78E8650CCBDC110AAB6C4E46DCBFD0446BA9E2060E81F314AC2031E88135E5476AC0160EF5C0DD2EEF1B8B5CB2D198BE9A554A9093B5F7D7E4B5407DDFCA1D9C152FD97F55BFFFDFE802954DFEC8995B983E28AC92F1971E28F531DC407A1280EB125F64A72E617EFB27DFBCEDCDA2D6F2BDADA36873EE46B9BE1782998C6
311
3DA7182BC383FB6FD15DA472B175D7E8B4FC88F38D6E07FEAA3FA3CBB8F6B449ECF14D2175E5C5CCA3A42ABF24CA6C9395AF74535F4DDB38CB84F56614B0FD32D7E19CA5CF988DB4449C40E23DF2B16772594554579094450F56F253CD25EA7F77366FB1CFE79696C428BB64D5A41E986189427E5E4D7E2DAE3D5BB4972B3D
311
C44EAABDDDD63A2264ECFA5C786EB0EE1FDC5BE34FA0F08376869FD1E61EA06CAE15191135445EE8F0394161C3266A596AA035572BB0C8876180D8B9C77D307DF9DCDF7365ABDA6F3A2366436457A4DFC1F259666569A9E4A79C817BDD5610E5200FCE894A358EC72858D50EF67545DA81C6FACE3D457BAF70367E1E6BDD9A
311
952FB4F56247F58F523B97E640246051A72F79BE42FFA0B3187F63097F91C48B868586F714B0EBD5A00A8412C1236E1298F60C72BE6C96B82B404CADAA304AE9F303176B14BA53FBC2D5E86377E35542019E24D97B96A49B2C0E5006E7795954DEAF5DA58958839043C6C70BD3B1B33B6DC5C31316D8A6923F142E26F6711A
311
2258AF977DDF1F970ECC4F1F2B434B96D81BEB6E89BF3BBB3C7C8CC80505070723D6D7D7D3C8CA27CA164A26024FED94B12A86031867241DA53D929636DA600F050BC40CE48B8BA03D69224720DEE2ED2127390BDF5E6EA64527BBD4C4C63FA76BB801FEEC0E61218EC98A8A86CD8313781617877E66692839B9468CF4DB8E
311
50A73986E558E309C0D6F676F921BE02F1185454DC75B111572FF9D27D85EA14C05AD7271225B391C4275659CA4A43759D0BA44639BE4C30A84DB7F67A41399FB95CBF923B1B1672ABC807C1590557FB18D811983FA97F5E609516D62281D38B1281F68FC75528C35E4CD7DF0F7DBB5E5DD69C414EBEA2F4A5B241B996BA77
311
AE6C772E367408C633EA3E438B68563EA8BE7667F3A4C4FDEEA52ABD78A2820F443B7914A15F180018D231E64519C56A12F6CA7C8DAE18F06F6B769DBF92329EF6A5D18FBCE600F36BD8E8198DE5CDAA96181F3A756EBA5501CEE58F497EA4F418A2B82565B9BCC611713C0B708CCA1F398B78C5F7D03B3437CC18F13061F5
311
5C7BEDADD5ACB1DB0E36D3CE47FF6EA1A563A57E9649EA5D14D1A50EAA457463381C073777EF1600607BAF6428A7DDC079D47A204EF1E1F1F0589FB054D45E02CE623B3823C317C601E589E22B1E88B448524B86A82828E32345EC18AE17214B42F8C41C6D428016D9BA31DDCB47572561E5A402E5BA4FCE55F78AF7268524
311
AA04130F3A20BA5D1E9F9948EA48FC8F5314FDB35E21898198060034ACE5E3E2BBCA34092518F275190AF65F45867FF0900AA4B81F25427414C372BF51DC29AA855C5428EE1EEDD6B849AD60F6E73475C2D2523F8A2772C840A478DED18A8C5C91B085F255DC4F54EA7AA8947354FD17ECF8FB3B4A0DE7B483CAF3A1165EE0
311
5BBA413E5C1FEF3DE1D6B8F2F3F3251C17D9FCAB48A9AAF63AC773A0E413BBC46A9ADF84A566FC920E4D8C52C9769EE3301CADEEEDD92B312E02E2A7E35B7F1E7D203FE5A7D75578B06E99D0E46FFADB8FDA17ED8880390DA29094202D6F645F76F6F96409CDA05495A96E84B04A00D1A6C6C81D7F3DE9376E828CCF144EE5
311
0E364ACCE7237EA0BFB5607ED1AC3CFE73794E5B61739D14DF1743441B1AC98F00ECEDE9E7301FA29755FBEFA68C91EF2B314CF510537EF1ABFC9A762496280B546F5EDAAF8A5B387D469FC9A878A92828C88608453ACEC6094DCA54111E7AD5B2663DFE2DD151B7F123B9F4FEF8EE36AB125FD7AD52A59B1B765B3E3F73E3
311
F73DEA93875004D2AFFE3CDE9493B87A9904DD052028949041A91DC0E1BA47BA714343FD5B25E0A6A09503AFC17C790058A836A324FE31D7893512E28230332F153181C1E018E1124EBE1BA262AA428A518237D1EA7275E48C5C561BD19ED6912EDD8367DA0F31E40EEAE9683DA9257525AEA7B632B97119E17145A9023176
311
8A4F3B9120FF32E8319B015E3CBE26F1A754177D8185345817C096B0CE443A955D13AC15E1FB5DEEA0239EC32A3C92241A237B0B02FFCB4F93CF2B02570C8D192E2F2A68CEEB42F12E6F8CEEFF46C251E22B4341C56FB08CCE550E7A9D6F4D6564B9EA52A83D5BF2C6E03FA19D2775E15A8A7ACF30A13C259EE7F5EF2AC3BA
311
354F1500E1A07FC63FB4686E2F12EC69719F9ECF5FE3F35598DF2CE944008CE78F0911BA5BE5D0A34E0098FF038669C26030BA9B300303039852A8F6F496341737CA7E0D2E3AAA36DE0A70AA7D9CA0D54D9AD84B18A44C9E625475E1C97B93BEBB38DCE7D227E67A2D00F531436136355F243D1FC0D712C5765754FA22FCFF
311
AE97919161F46D6E61ACB37D83777B385889770B50765B127768443A5C4D3A4E35A3151111F146B7CA116F918A049F1C272F2CD7976C69A0068773451659A97E0F4A08FE604C3FF6CE7385DB19F4D3ABC8A0D80DA8A42096AC377DB49382B36E270B6FA7570188B4B7D1DDDDA82ACA487CCA5D38BD3BD039ADBAFA4ACFF278
311
09239B722081E2EB9F145320553D183F28471C388BC8814E5045676767AB58A8E72D1CED2CA731379515D2E533E4CF0B39DFC625F97AC4836831A4DE330E87A8126FA17EBE583D614E71E22A8DBF2825599743E0640037303E8E1B1E8EA4E1ABFA4F62907B5E4E0E5DCFDAB417C36C6848A2B8D15F1E505434C0707E16B1CF
311
C2A1C36A42BBF55734F8F4301DDC2A5110CEE8C0747F69519265012A2174BF4E955ECD4FDE095A3ABC70536B7AD0B9D7892F81287D667C108703C9B66A221E9A0929D030008F77FF6F5D2108EF5706FC87A3069B976F7C9FC3239D13D283CDEA83597461079FEEE049B0F392889898B7D87D31F8D60ED7B56B91823A8E4EDD
311
B36C6172ECEE42BD42B12CD67994FA0F0DFAE9389356F4CD4425A4B8AA55CBF7ECD585C6A2C2316791E43D5C06841ADBB226A87FD61515FFBB0167B74E56BD7F3E90A57A97FEDCBDF483A0D6699A8C0849CAEB4947FAA90D8E332D9DEBD9F4738C37DA0CAF9CF3DAA68BCB67C420459C7A64498D6E848E5CADE92BB6901F60
311
7AA331104A67F7CD650EE169B1DAE94D2C31C2F993632259B6957E246EFE4C5481107B07118607700040E5812A2A2A38DA0076875258C753F60E0F2662C748EDD5F3F3686B8FC3BD6FE631ECCAA1E8B1C1E565AD117E54893E79F4672E32F9E46B2A183DFDCF3EECB4D4D077DBEA0DA254D256045109670050129E9B9B1A9E
311
4A11344D61497A992778095151510C4BB7EF2009B63AA4360635312E4CF668B7E0D3D85A8688E2BD83B569439892ADB63461930D428E0DE42E4AC57CE48DA5CC1449530D8BD3D6A0F08DF20C8E8F570F2CFFFCEA286E30969B4654D498A58D9DA782E19FE3F002181838925592C4A1EF0B332D88B61A92C644547BED490D3A
311
42CFFAB70E36D961F694F6307F72FF15A1C79D5B1B5CEFD353D9E2B52566DEC8F8F09CB3E8359C0F68EBBB7898243E34E12A015B2685AB303C04D3A9E00671FF3DFF0A184E4A2ABEB2B666AF5B3A209C73D8EF29DCDB069C9F391EEE9DD0F74C7BCDE16F8F02E3B8816122BBEB50665775B600549D8BB33A54A6BF940C0281
311
18BC6878C79958D6784F9DEAA6E26748386FFAF8D0D0101E2847B6563F5D8DC1D78F787BE00E2C941AE12148D4A81599FE8F68D4DA5CDED75530ADE138240300EE13B0FC13A1687FED6774662C05A2B7DFB186732F0D7A93545D8B0A6390AE5054D9CB582DA846D7A061B3358B45E2B52DDE63E114397EDB7E09233A579155
311
D795BE76102CF277F4DF8B188C4F2879BEAE3C08347124BF9ED23B128259FE107D31E34A652F090B30B39E0D9AF917B76A2806135621A8A60681F16AF216514BBD02711585B5B1AE823F4B2D0369EA5B6BCB863072727FFC871CA6C9AB79A814D989057E9470A3D238BC87CBB4A0EA49AFE2B86F22E499793CAA9047080450
311
166BDC357524561E258C77CB697F1ABB32562CF87C3B7AA12F911EF19FB3E5C02222E887D08202A60A17151F5E053A86B437771088B4FEE14D652C43E8D939995D34545E12E2FF93D4E366EAD25F10CB7DED141563C3D0C447AF06078A91135FD4B9611583CB4BF3BD167F2399CEAB0E0100F8FFC305F00F1711717173138B
311
4B48C83022295DE657EFEDD97F238ECA80F528AFB4F8D67AD4E2594B9A3AA86D7487EFC313BA95745C186F0CDD84CC12DC9CB0424B42203D351FD9C0A3AF10CC7F388E0329279087386421F194F4A29464C1DEF7EF8BE515E4A199DCD5B909342598D8FE6A231F71336248D5CEC5454455C7BE383B3BC7B260FED27F703FDC
311
39A170F3827239102F59D4DEE7FEF82EAA1A5E4BA94DCC4CC44E7E2EDE20F24244E4454369D2E87C3F823F193FD4FD27E1C23984B01898D15ABC20711A8A558054951A6AE280096BA36CBA439603B7B0B4C45F248C14B2383B4B5CD8ECECE4FF859AD4A6CA2326D020EF090F4041D28DB66E5256B56232CC52829DE8060BAE
311
6BBF37D4B7469B822454FE93210A3E8D15E69FFCF01123222611C51C4FD0A041A0CFA2471CF6BE38D2B20FA4C3525B5B8B586759475CF80ADFE67A284AC24651E52B8E683D24C2622642F27E7C3C22783BCF63648BC398BD6CD0D9C97E7E7E3EACB6126DB7A6C1FD9F1031302EE67ED96F22B77C7CA0239BB324207559B105
311
E4693EB26EC46182A92C9C0DBD24F29B31C5C5AC1F84300E0E17CEEAC15F5736FA4A98971E2F1423BFCD68D4BBD5F86E74B40A369F39507C88FCDB35D2DD8DEBEA4AF999E23CF2816D204200DF6E611781B9884C1AC8888B4DE397320472959434323A5A36B22A8E1F721A270DF3BD65E4A31C11FF048AFB0D8B7B68814237
311
93963A23CFCE935FC189ED36FAE35C46DA3574C979E4394BE52084F3081837BE033396D2EBD80F1F691B273F660D2B32FA27A33B1DE4ADA5F0FA4651511102DFA410DDA86E065272CA314D5249DF91B06BB92807B28EFD54F08F7B525252782CD276DD02E6B0319B13DF87B1F6361AD6B28FC0D711CF445429B9E5A433CD49
311
3051C49A9E03DDB1B147D880253514A5DED88009018620EE229101C041950E2D8AA8E1F5F5438E0C0C0C60EEDEE9E3E0C051948C69F84BB7B2A48A1F3C8EB9E6864687F4F4F6F6E2FA87608ADAF9C5E117B7C1A737E710769DA1D15ECE6A84502AA855398712D5FB51BE92E4EF824969CE18278798AC303C2C7980DD2500AD
311
F8FB1E6D6C2FAAFF9987178923334A244758BAA01A9A1B70FA5097D01E1CC2A58DAD0EC94CE6430AA9B0C10D75E3C6BAC670EFBADEE1607739CE0FC18A2587E3EC3058562014C64219C69BC269082D5C2F4A659278D585755912176D78A1B641719C2A394CED495A1AC5D583FD2F5EDD93308EA7EAE8A6DD396598BDBD3D4C
311
FED62D18A5BDFDE0DD5C80D1A89BA62697B131AE7CE9A6594138582F1B37D68F1749AC7CB67A70695D48A4A056AC1FBD4E82358CEAE38F54B95A9016F9000F9879C0D9D131768635CA798895F27D6F1614F11F2838A83611AA51C9A3DDB539D42979C29F10465655C17BEC3E2760B80DCBF609198C7B171A531905F3EC218D
311
696025975E986C6B4C666666787271F202805577DD5A3EF0CAFAF91B62DC4B2DB4217A7606282F31D8DDBC290593BAA93EA6353AFA9939B877978481E15CFC9F2755CDC00C538F63A4BA3E80AE009B73CA0185687D339A507D165B74290D6EE46D5C58148F020C3668ABE9EF2F7549170DC80DB41FFC1D678FF19AEB10C713
311
3832B104B80F691B3138F97A92D26E551F1F110400D45AC71A9B9AC41A1A1B1DAEED0B0810638EFFB511D46B121C6FEA0F38CD00E03CFFEB9713FE1F9C263E4DDEC160D0497FA9A132BA608584057FB15380825DE6C7FC3C667EE947D488A09898D8E939C4953BF4EC9836344D2CC6B2971B2A21A572B06096F4982D2CC723
311
2D46E8EA69DC83722E267754D777F97F96D5DA74E1E75178084D0E70F12AD33E5F71EF2AFA599B2BEBF60A5BE475F444F240CBFE8143C334E7ED9150FEEFEF7EB020C4DBED388DD1D6A167A76F3CBF119B578AE8CFA7736ACAFA4440A1C47185638A0D2F3EB5BDDEFDA958FB13CE4AA4923D5BF840392D4554432952574973
311
4866684BF7F8D9D54D892E19BCA9F829A0F8BFCBEEA6CFDFC61D74EA1A645ED7A1FF241739F15694BD835B66FEC5677E40FE69BD3F91AE402F036537218A401CB0828604AD189E575015C6F3F6BBC8AC79CF6C70653847254B31551EFCBEB5978B9DB85D58D0FA41A9DFE9C624834AA04949D24B5AE6D299E072D152D12097
311
920F14AA92C31C3B97E28B6C2E6E9C23D63043ECBBC0A60FDF5BD0C33C127EA8A3308B8B6AFFEB28B4455BF6E7AF4FC6222728357EB8E46E85053E6A8843AB23295BF838ABDA94658FEF3F832F147046B4ACD6F7D48E8FCC9618582961C898D1C7A253C91BFECBDA6BA18A1FCF70755DCCEE2222F41B76D23CA98D0CB3D95F
311
0CF66D57FFF65E2A90F5DF40FC3187621E981BD0BC1D992787212688976B94A8F0C6EF646624B570B78E068826F87CE27041A95C9A4871FF65CC17FCB1639629AD6A9517000D63AC231F3D741CB8430777E7ECF80CE7A3F73C0F162F7E56AA71F4DA80A33CD6ACEE78E2C11FAC03DAFCE929B106F8F6B3ED2DC71FF994BD9C
311
EF4E9A94896EF1B6E2B7B4978168BCF0847A3D2A4F1B0500B926E634B174548E9FBAD27153FB5FC36799B1E6C7C38A94E1F9E996796D7B485E635D5287A2AE76FBD11A341DB3F8F810385BB7296391973DC6C37C452A9305AEBBE0CDB6C566DB59FE60C8E94B1FD090354BF51439FFD1B48D725228FFA88C84F686F547107A
311
7A235665A4593B7C34D748C1AC8D56DD5DA861EEFBADDECBBD65117E65851F90351AEB65F0EFCFF4BCFEF24CB7A5879699FAC437A7AF9099186CF006BB923A59E37D7A36A29FD8D2CBB914A5E9D0A8FD212FBF796AE9A67958FF1D5D8B85F78F96219D4714EB919929241B6C018AAE0C02069F8D919961EC5DDFBFB7573E3A
311
C8E08BFB7C8534BE6DE045B3CD63DBD71F7638BA2309CAE398EA3A7D8F98BBBC7AEB367EFA5CFA27A9F8F2F52FE878058E6209C026453F8E7E8A237DFC389E9590F6059B397CFD65183BBF936E86896612A5B5FEE49DAC8455D026218AFEBEC12B3523A45B57B82C9C97E02ACFA1184DB18E48CF615DBF39C3CC6F0B4AE6BB
311
EEA2E39D944E290302FA3DE33FA7E40296E2EF7BF1CD855BBECFAD0FD622BEE9746FC4FDFDE545AE6E3BC234CADF83A0FB76DFB145BF3828AE3436368AC24989454F8FF70A177672C711CAA1A76107218CF948CA01F873520E7A2B118EBB161ABAD432932029628B6761590C98AB590C8C8C79798CE9F715BA696E839E9131
311
A4BB68BE923F1747FBFF165331FFDD4D05997ACD168F12CA75348DAC04C7F509FE83898A8B421181AF492861CE81E4A2DD0A30850CFA95E05F097FF70F9E777310D584A75BA7018922E271DAB1D785671157685B7D383D3E074DDB4F1E44EF04B07BAAC75A062077C54B9752C738C9D804D402E02851F3F89605AF189738C1
311
8C021D2139EAF72513824E10DDD3047BACC8521ED7E98B257D1166903B1B08FA6F918FD7E162913FEC7D0EF4787E29C35FBA8C6E2C9C20E9AB30AE42CA2A01A090E7D010C1B5BF9CEE2A304BF3A987FB40D836979B79E18D70F257DA61E808472DD85B82761825779D6B90CAEB0F23360C6F80A7D7D77545E95B3DFF0CF96A
311
827F9B5BCECD2C9698718417EF80FEEDEE938AFF55859D0D540B7FE09435583A6F04874A0C7E8CF234DF4879722000167F5872CEC6BF3EF7E5A8CC8121E6A359227C8A29C95212F9F735BC72A887D56B8F309FC525BFB4FD767AAEC4AEFF249CFBBD2DE1AB9969A6155C7D8DABC307E47324C1F916C7BCFF40ABA5644E9FFB
311
9238D19ADADA49D9610F01ABBA57E4DFCBDCCBB2B93C8953206C91DE01B0E2651A6D6C31721915B31F7B7CBCE55466F6D70402788FA91D73BE4ADCBA99A35F17D6B83383704917D6833F0FA3CD45C926ADB8BC17999A4A0AFBCE2541F7B8CF4C2F5FBA611B3E626D64407CB32C122DFF4EF8674D6EDBB86C8F7C6A16D50FA6
311
85E2CCA34F8F7D1D8265BB0042E9D7F1F666F7BE5FAA5184DF58E12122A42EF02F461B3F369AC746F96528AD208512AB56844CF75B97F352DF7995024FB02855385854F3798670D01CAC771AC3E1889EC25F61A20C1F8CAB46898817F9C47E2CDA1F286BF2F358298709FE567C91133E2638C8B53975E753EA8BFD3578B5F7
311
186B7BF084EBA3F77BAC3132A5779902EC22AF2D2E79F42D324E083386DAEE9810D1B44A5DAA54513C7A71E52A4AB9257D975B621308FE4D2141CC3DCFE946C154A3C1DFCCA7629EC69ACFA831634ADDA93C0388D2A9A2DDAFCF957C6995BCE7FBB6DC4EBAE79E63EB08E9A25F52F67076F7093CA545CA3053B5BF576DEAD4
311
E0017143C5F759F32B2D6F145B52B67B48909B7C7FCA6586EE385A2189C16932CB6DDFD9152AE317C430492A578ED27B72D85D40C7C93C097939E1B50F4D67F05334FE9DC362C30B7FF561B95259138ECFD9274C8D695C31B14D4EAA9F3D7FA8DDF652F8C5DEFA23284C799B7D94416DEE81E05A866302DC70192A5368EA65
311
E1CED8BF107A1E2D3119A71E85DC1A7B0C1E93274CE04DD0F2ABC8AC7C987FDB002B6F81757B43502EF7A0D92E416494FAEEA4C9C090CD9557AA4D532F4996A272B94355C5A0E4974EEA9627476F30809B94D8D8D860062E02204643BEC7D0438AF800FC7E2B26955D595421E83C69E1A07E0E3122285835F014AD538188CF
311
9737CE76D464A353FA55A001AB2526B84E985083693BC76FE211CA1D000679C889E3C009832C87E1AC2EDD05C302557422DF0800E316FCAC86978A371F025A6C7DAA9F333E7BD160403A1A06EA75AA9888FF01504B03041400060808001C8F295028BB58AF800100009E0500003D00000038444146304235342D333633432D
311
343732442D383237452D3736454637323444444345462F536368656D61732F436F6D6D6F6E536368656D612E786D6CBD544D4FC23018BEFB2B96DE15493C78601010A34B880709DEDFB52FD0D8B54BD70DF6EFED3AC0B12E6442E2716BFB3CEFF3D18E26FB440405EA8C2B1992E1C323095052C5B8DC842437EBFB673219DF
311
8DA659866649B798C078B48AE6410122242F2A4994AC7F93815DF85C049C8564CA0A901499DD886B2EB9B1E02448F358701A9235880C49A0119892A20C89D1B9FD768815CAD268CB5E0355B40B1E47F3E37A2020464BED06AA57CE8FCC20C3C3446D46761A2632A8C1283D07031EFF2AE7CCB1BFEEE916E406DFAC8E36FFD9
311
9A9D60A6944090EEDC3B670C7DC13DE86B6B2C5C240D6E503BB85ACD579D513F1B9F9A69DC9CC22AFA80C426D40AF0B21EA168559156B6276F0F726A6BFF04DCD513A87A62CAD41FB24FCB2858B3952E3D852084DA25B9303C15687973CC8E8AAE11DF2836C38C6A9E765E8C1BA1BFB1DC29CDFE518C8B5A7655A4ED7E7729
311
1ABEB80DBD82EC866ADE1B8D05AF9E35CF09D7A061F38A986D9EC412B8F0F65E5D81534D9B231D1E5A8FE577A241F3A5FD01504B03041400060808001C8F2950E336299B9F040000341300003E00000038444146304235342D333633432D343732442D383237452D3736454637323444444345462F536368656D61732F4765
311
6E65726963536368656D612E786D6CD5585B6FE238147EDF5F61E5BD1498E9A895A02398AA5D1E2A5665BAAF96710C78D6B9C87168D95FBFE7F81242134A968E469A4855437C72AEDFB965F4F53551642B7421B3741C0D7AFD88889467B14CD7E3A834AB8BEBE8EBED1FA3495108B3E01B91B0DBD1F3EC8E6C991A470F2215
311
5A72F73CBABC1D4D5921DCD1934863A11F990102A6F61466977B8AC49FB13C174CB3940BE4504A22E3713489B7F82406516225536940BD88E4E552493E8E564C1522225AB0384BD56E1C195DC26FAB13882C2EBD62E1FF9E5B0FCC453132C99548446A1872B62267078F1EF14C3DB1DD1952DDBBB384AD456779F387C51992
311
E0ADCE12FED2622BC5CB1952FC9BDF3295E9206E961AB116DA7ACE45F76F07A26EFC3FD762FD7362FC3C0BAA4DB34C09E682CA5167BADCD16CF94370E331E2F1A3D852008AAD5D64BA2373478338AEB1583B905396D158182655E1B938D07926CF007CC7E85E6709999B0D3827C0BF406BEF55C68CF5579DA32C8C85BE03EF
311
E788787E8FEC95DC85C3E31A615658D81F9A34499612004CE69CAB12531B15A887ACA642C110F8C1A8C1974A85853F407794695C905C688E69B116550ACA946B9B4785FC179E0E229240B62665328E86D5BD2C800CF5D80289F35AC25E3DD51508F4BF9A74A0F5A557BB3D284BC6FF59312E282F956A75C5D453906F48D11A
311
876599E49425602400842995BDF02C4D012E226658F78A710416AC552831FDDEF0E6F0BABEBEA9DC36718CCEF4DAC5A0DF871AECBDD8F448F015F8DA113A473609D1751672B723874B2CAB21ECD6E284E51DCC7D1A47A00F60EC21DC4CC3CDC406DC03760A4E6C772F2F4D561A9AE58C4B03F5B4838701472139EDCB36819A
311
66C472B52AB1139C648956F43E0DAEC067B56B0818F5961D3D446B8F1E1E78C0EAD7EE02AF2895D813E88AC5014A7B436DBB20F778D40A1D9737EFE45B47D49CC8360F9966B15AABAC802C1005548A93EE469F5D55317CD8BF0AA86CABADB2A009D4D6F60CFE53AE370AFE8C45415B15D362A5A038E766E34B00F8C2E3E709
311
8E2093B1C96349FDAEA158903B4BDAEA665F473FECE72186E3BDDCACCADA31839CD6D4FA7D47DF5469006ED340EBE71DF960DDEE88A3E17557039B58C278A1795BA8079419DA8FC5BA1BAA1A66238BF69C7B2BE4E6274839122B7D00BE8B7D52CF61B2D63216046008C8B330FC10F8907787DEF061F47965BBA02FD8F53BA1
311
2F9827614979F53563D0BB1AD67A03DC0E00E2FB2CF3EFB457E70E65A3D7C78E7D700DBB45132AE9BBA5E468CD861408961AD8B00A55C2FCC677F4456039FD9F1907A5B3E2D0EE845FDBA2DAFA88C64195671AD6D282DA2E45B1F50A0D632B0D0B6718757DCC7C84A70A3656F222CDA6DBF07E204AB358961D1BE31E53A82C
311
2C0D56DBF61A5608B5A252A932A1DC6E32462430853353EA30417C8199A662E946A4EF352268B8CDB9A9C6762515ACE8E09BBC031C608A02C4BA89C9DDC074E46E0E26A17BCBD4ED43270D03E3645ADB81F6D62CC07A3243EB81C07E01681DDF2DB4730631E6DDA6CBBD048BE9F06AEB3CF06B31DD6C9575E37E9FF1716134
311
2C4C76D95519672A6509E0F5C4E71B4B1916440059F57D0921F496237E473A83E3E4E06353BD9D27593594D7B6707C08D22FEBDFBFFE03504B03041400060808001C8F29508DFFFC99640100009B0300004500000038444146304235342D333633432D343732442D383237452D3736454637323444444345462F536368656D
311
61732F52656E6465724D6174657269616C536368656D612E786D6CA5535D6BC230147DDFAF08799F5FDB600FADA20EA430D968A7AF12D36B1B481349529DFF7EF9A85A718860DFDA73EFB987734EA3D16FC5D10E946652C4B8DFE9610482CA9C8922C6B5D93CBFE3D1F0291A6B0D26A3255464182D920FB4233CC629881CD4
311
9C18508CF000E3EE309A100D61622AAB4A8A33B2483F11CB639C545B0E1508438C3D3C0361192846DB7ACD198DF186700D182920B914FC1063A36AFBEE8FBA03FFD3CC1D1F4FC9E151A2AF59F628C5B7821D83FDFD3489305080F2EE04BF962195FB285E9D2DD352320A9E827AE357594914E42B1F5FE35F83688F60C4C91A
311
6C946ED0668E8F244BC2EB0BA6E3BCCFC0B6A4B507F9F9F8D51EB315D9BA9E08D308E89F96931666E577837E2B4172199C68C4FE306156D47DF51C698C7B9D97FE5BEFE2190C3C38BB054E6E8163FB039CB4B993C80BF18D969203116D6BBD26238B821F9BB909AD6D9C71B85BCD8C33D66FEA3D31B4BC0AD45BEA46BBEDDF
311
EC0F504B03041400060808001C8F29500A66DFEF51000000570000004700000038444146304235342D333633432D343732442D383237452D3736454637323444444345462F4173736574446174612F41737365745461626C654F66436F6E74656E74732E62696E536160603071317031377571D335357772D535317136D3B5
311
70B230D17533B63035753177353230331102AACB4D2C492DCA4CCC492C28484D2C4ACC4B4E050A82012F90744FCD03CA26072767A4E6260200504B03041400060808001C8F2950C55C663656000000680000004500000038444146304235342D333633432D343732442D383237452D3736454637323444444345462F417373
311
6574446174612F53747265616D56657273696F6E5461626C652E696E665D8CBD0A80300C06F73E4B29FE6CDD8A2E82A083B8B7F209014925C9FBA3AEAEC7DD2555D896CB85E51C2A1BD834F6A1F56EC4494C4695278364ABB24ABD2146F88CCEBB89D5321FF8F3F43D672A3B44DF3CB6A1710F504B03041400060808001C8F
311
29508E8D0C0D37010000A20400003600000038444146304235342D333633432D343732442D383237452D3736454637323444444345462F4173736574446174612F636E782E786D6CCD943F6BC33010C5BF8A1174B42407FA1759A1B44BA6161A3A74BBC8E75444968C742EEDB7AF94786849E99421A0E9F8DDE9E9A1776AF9
311
39B8EA0363B2C1B7ACE19255E84DE8ACDFB66CA2BEBE61D552AB1802FDC058E561C0969532D36A1BC334CEA50E7B985CA93AEB7773F13E25A4356C1C3EF50FC1137A4AAC320E526A5932EF38008789428769C73B20E00D8F98C2140DE64964079C27998840D831BD900B59CBA696B7EBE6FAEEF22A9F37250AA9D5260437F3
311
365F16C378B190E6702FD35289026835453B53E5354CFFA5926FAC5722935A258AD995B983BEC6DC01E3E8AC01CAE6896008A9CE10C2A0C401D64A14177E79F188BDF5B6B4ACB234A0109FB3408C64F10C3DF94FEDE9BD59F944E00D9EB323C71A4FEFC3CBFE17BD1E62B9CFCDF9A5E55823B7BE3F4156C47E9DE4E894EDA2
311
BF01504B03041400060808001C8F2950214D1D1AE6000000600100006700000038444146304235342D333633432D343732442D383237452D3736454637323444444345462F5265736F75726365732F34443044373544462D353742452D343443362D384238342D4633383535443745323036342F7468756D626E61696C2F30
311
2F636E782E786D6C4D904D6AC4300C85AF120C5D267602D33F1CCF25BAEAA6B88E2635E358C6964BE7F6955B2F0604124F1F42EFE9F3CF11866FC8C5635CC53C29314074B8F9B8AFA2D2657C16C3D9E88C48779818A23D60154D1646EF196BEAD206175B4353838FD72EEE10217BF791E22E06176C29AB28EE0B0E3BD94AB8
311
41B94E9B253BCD538682353BE003E40FE8075C064BB009B3A8458D6A1ED5CBDBFCF47A7AE47AD7B291467F2286CEFB4890313D2CCA218F91FF515A36C0E89A7DA79A0961EE9ED392974617CAECBF43744B0CD9948277963826898E804686C01E5AFEC346CBE697DB5F18DC5B36E617504B03041400060808001C8F2950A233
311
C2345D000000800000006500000038444146304235342D333633432D343732442D383237452D3736454637323444444345462F5265736F75726365732F34443044373544462D353742452D343443362D384238342D4633383535443745323036342F7468756D626E61696C2F636E782E786D6C4D8B490E80201004BF42E6EE
311
76F3C0F216234B883063108CCF170C074F95AE5473F5C4C06E932E4F28601967600677D21E9D8092EDB002539227A2FCCB80E1168D80A6417297A89C5D6963B7129A0D1E8F2EE73AA7B62BBEB8B27DE50B504B03041400060808001C8F2950BE89762363000000880000005B00000038444146304235342D333633432D3437
311
32442D383237452D3736454637323444444345462F5265736F75726365732F34443044373544462D353742452D343443362D384238342D4633383535443745323036342F636E782E786D6C4DCC3B0E80201004D0AB90EDFD75167CCE820A4A845D83603CBE602CAC26799919AEEEE0D965E2E908050C6D0FCCE04C8BC35540
311
4EB6198129C92351FAD580A10E464065907C8D948F8F166375F655BDC3FDC3B4E530A176BE7057BDC43B2A593FE403504B03041400060808001C8F295049604CED7E000000A30000003600000038444146304235342D333633432D343732442D383237452D3736454637323444444345462F5265736F75726365732F636E78
311
2E786D6C4D8C410EC2201405AF42FE1EC50A8505D0A4D2DEA3B1B4215230588CC7174C17AE5E327933B2FB6C1EBD6D7AB918145C4E04900DF738BBB02AC8FB8205A04ECB14E3FE770314A6CD2AA818B45C53CCCF03CD7699B2AFD4BBF0382035C4706646CC783F604A6F2D16BDA078BC0AC60C1F1AD2D2629CAB52E6D72B5B
311
F3FA0B504B03041400060808001C8F29500FBD5E7A0A010000550300003400000038444146304235342D333633432D343732442D383237452D3736454637323444444345462F536368656D61732F636E782E786D6CCD933B4F04211485FFCA84C4728099C46718B6B0B0B2512B3B84BB2B59E04E7818FDF7C24AB19BD869B1
311
09059C7CB939E70062F3E9DDF00131590C0B99282703048DC686DD424ADE8E3764D8481111F3114686A03C2CA4C9448A5DC4B276C9C05615D75467C3BE8BF7E83D8667FD0E5E91413B95D242D2E14855C96820EDA95159D189464858A2863A215B0F7D828EA0321822673EF3914F23BF7D99AEEF2EAFEA7A15AC9152BC21BA
311
CEDB9021E27A31738D751BAA212E5803A428D176AAA520F2D81DAD7D08560929528EB5854EE6AFB5926A5D9DD52AD7B2D801FC61A4602DEC49E4070810AD3ED7CC27F6FE2DF4130403F1B1DE54B4CA9D6BF6DF5CFEAD0276F801F519B40F21BF01504B03041400060808001C8F2950E3603EBE7A000000C20000002C000000
311
38444146304235342D333633432D343732442D383237452D3736454637323444444345462F636E782E786D6C6DCD410EC2201085E1AB90D9DBEACE05D09878023D01A1D34A8419C380F1F82DA68B9AB8FDFEC93C3D7C52546FCC12980C9CBA232824CF63A0D9402DD3E10C6AB03A3397DD192872090D3406ABE7CCF5B5D188
311
93ABB1690CF4DCF02282E5EA8A5BB96FFE536F285CB347F95BEFFE81C9ED5AFF9D5B1FB575BB00504B03041400060808001C8F29509ACB02BD7F000000A300000007000000636E782E786D6C4D8CD10E822018465F85FDF794218917822B81F770898E89D0485A8F1F342FBAFAB6B3EF9CAEFF6C0EBD4D7CD9E0395C4E1520
311
E31F61B27EE190F619B7807AD1C510F6BF1B203F6E8643C120BA2586F43CD064E631B9429DF5EB015B79D3D5FD4A71DDD403A68C48DC12A6306B9466844A39289D8D7351F2FC7A794B5E7C01504B03041400060808001C8F2950CA1DF9C9A900000073010000130000005B436F6E74656E745F54797065735D2E786D6CA590
311
410EC2300C04BF12E5DEBA70400835E500FC800F84E0B411AD13252E2ABF27A55740421CEDDDD9B55CEFA7A117778CC979527255565220197F75D42A39B22DB652EC9BFAFC089844F65252B2630E3B80643A1C742A7D40CA8AF571D09CC7D842D0E6A65B8475556DC07862242E78CE904D7D44ABC79EC569CAEBA537E3521C
311
16DF5CA5A40EA17746733E0B6615DE7217475F386F18B9481C510F1F021CD9FF027EA0E1F5C4E609504B03041400060808001C8F29503DEE336E64000000790000001B0000006175746F6465736B2D64657369676E2D7061636B6167652E786D6C35CBC10E83200C00D05F21DCA56CA76D41FC96062B120735B69A7DBE268B
311
B7777961F8D5AF396893C2ADB70FE7ADA196782C2DF776D7A97B5933C430F15651E5469C55D70F80A4992A3ADC954792C525AE70A1E4D6AD9816CC044FEFDF01FE3FDE907802504B03041400060808001C8F29503D97C0DDF9000000960100003700000038444146304235342D333633432D343732442D383237452D373645
311
4637323444444345462F4173736574446174612F636F72652E786D6C8550CB6EC32010FC156BEFD806BF9A0A1339B2F3053DF58630715162B07854FDFC42EC4AEDA912D2A2D999D9DDA1E7AFF5917D4AEB94D13DE0BC844C6A6166A5971E82BFA117C8CE8C5A63FC2F1A649AAFB2870403A38B35613B2061B4973AA1DACCF2
311
00B973D243261EF1D383131F72E5390F3E32DC3DDFB8B8F345E638DF798C86A0E643AAE6E8A66E4A5A60D7FA5A371D6E111E0941F5A5ADD04086165DC7BAAA2FDD3435D3891649CCA857EBCF746125F77206464A52A212A3F2F486BBD7A68DEF9D1689C9A8F336DE7C0C4DD7011BD2D623F79C167BF78F6BD8E6FF5D83D2BE
311
2287EBAE70C0705CF2D960B44829C5F28C30D69428FB06504B03041400060808001C8F2950B30C4443F40000008E0100006800000038444146304235342D333633432D343732442D383237452D3736454637323444444345462F5265736F75726365732F34443044373544462D353742452D343443362D384238342D463338
311
3535443745323036342F7468756D626E61696C2F302F636F72652E786D6C8550CB6EC32010FC156BEFD8805F4D858912C5F9829E7A4398B82831583CAA7E7E2176A5F65469A55D0D33B3ECB0E3D7F2283E95F3DA9A014889A15046DA499B7980186EE8058A2367CEDAF08B0685118B1A20C3C0D9EC6C5C77485A1394C9A8B1
311
93DA41E1BD0A50C8471A06F0F2432DA214312486BF97AB907731AB92941B8FB318F5B44BF594DCF44D2B07FCDA5C9BB6271D22174A5173EE6A74A2A70E5D2F4DDD9CFB716CC703ABB298B3A0979FEDD22911D4049C628A1126081FDE48FFDA76A9DE5995999CF9E0D2CDFBD27C1D70CCAA0DFDE316D7E97FB7A84DA8E9EEB6
311
293C70923EF77CE0ACCAE9A4F68C2EF59C24FF06504B03041400060808001C8F29505D59F1DFFB000000960100006600000038444146304235342D333633432D343732442D383237452D3736454637323444444345462F5265736F75726365732F34443044373544462D353742452D343443362D384238342D463338353544
311
3745323036342F7468756D626E61696C2F636F72652E786D6C8550CB6EC32010FC156BEFD8063FD254982851EC2FE8A9378A89836283C5A3EAE71762576A4F959016CDCECCEE0E3D7D2D73F629AD53467780F31232A98519959E3A08FE865E203B316A8DF1BF689069BEC80E120C8C4ED684758784D15EEA846A33CA1DE4CE
311
490F9998E3A70327EE72E1390F3E32DC235FB978F049E638DF788C86A0C65DAAC6E8A66E4A5A60433DD4CD01B7085F0941F5A5ADD0999C5B345CEBAABE1CFABEE98FB4486246BD5A7EA60B2BB9972330529212951895C7377C786DDAF8DE6991988C3A6FE3CDFBD0741D307F0FCB87E66AA6C5D6FDE31AD6F17FD7A0B4AFC8
311
EEBA291C301C977C36182D524AB13C238C3525CABE01504B03041400060808001C8F29501191EE970D010000B10100005C00000038444146304235342D333633432D343732442D383237452D3736454637323444444345462F5265736F75726365732F34443044373544462D353742452D343443362D384238342D46333835
311
35443745323036342F636F72652E786D6C8550D16E842010FC15C33B0A08EA35C8E5ACFA057DEA1B51CE923BC10834FDFCC29D4DDAA7269BEC6698D961879FBFD67BF6A976A7AD6901CE11C89499ECACCDD282E0AFB001D959F0DD5AFF8B06322357D5820403C197DD86ED80266BBC320935765607289D531E64D33D0E2D70
311
D3875A652E838F0C77CB3739DDE4A2729C3F798287A0E743AAE7B84D5FB5DA8118E948598D2B887B4220EDAA125EC8A582634F4BDAD5C3C086132F925870AFD71FF76957D2AB19088208820843747AC3F50BAB62BDF3223105777E8F371FA6E93A20688FFA9AF523647537404A5F2BD8740D8563D930D6D7034115E5C553F8
311
C7306CF3FF86411B5F92C3F0A97040E0F8FFC783E0450A30B647BAB1A7B0C537504B03041400060808001C8F2950A9CBA780FA000000960100003700000038444146304235342D333633432D343732442D383237452D3736454637323444444345462F5265736F75726365732F636F72652E786D6C8550CB6AC33010FC15B3
311
77D9965F6982AC9010E7034A4FBD0979E38AC492D1A3F4F32BC52EB4A78260C5ECCCECEEB0E3D7FCC83ED13A65740F342F21432DCDA8F4D443F037F202D991336B8CFF45834C8B197B483070365913960D92467BD409D566C40D14CEA1874C3EE2A707273F7016B9083E32DC3D5F84BC8B09739AAF3CCE4250E32655637453
311
378516F8B5B936ED8E76845EAA8A34E7AE26A7EAD491EBA5A99BF36E18DA61CF8A24E6CCABF967BAB4283C8EC0ABB22A494949B97FA3BB43DBC5F7CE8AC4E4CC791B6FDE86A6EB80BFA233C14A74AC58BB7F5CC332FEEF1A94F675B5B9AE0A079CC6259F0DCE8A94522CCF08634D89F26F504B03041400060808001C8F2950
311
106D4E80F8000000940100003500000038444146304235342D333633432D343732442D383237452D3736454637323444444345462F536368656D61732F636F72652E786D6C8550CB6EC32010FC156BEFD806BF9A0813258AFD03EDA93784898B1283C5A3EAE71762576A4F959016CDCECCEE0E3D7D2D8FEC535AA78CEE01E7
311
2564520B33293DF710FC0DBD407662D41AE37FD120D37C913D2418189DAD09EB0E09A3BDD409D566923BC89D931E32F1889F1E9CF8900BCF79F091E1EEF9CAC59DCF32C7F9C663340435ED523545377553D2021BEBB16E3ADC227C2504D597B64267726ED178ADABFAD20D43331C6891C48C7AB5FC4C1756722F2760A42425
311
2A312A0F6FB83B366D7CEFB4484C469DB7F1E67D68BA0ED8EB734F478BADF7C733ACD3FF9E41695F91DD7353386038AEF86C305AA48C627906186BCA937D03504B03041400060808001C8F2950A4F2BCBA02010000D80100002D00000038444146304235342D333633432D343732442D383237452D37364546373234444443
311
45462F636F72652E786D6C9591DD4EC42010855FA5997B5AFA5F0D65A3DBF609BCF20ECB6C25BB85A680F1F1A5B646BDD3840472F8CEC09961A7F7F916BDE16A95D12DA4318508F568A4D2530BDE5D4803D189B3D518F70383488B195BD864E06C5A8D5F0E6934DAA1DE546D241EA2B0161D44E32D1C5AB0E32BCE2216DE05
311
C25EE3458C5731619CC63BC79953F397755C513894C0339A51425342EF9ED2FABEACC27A66C94672E6957679763C86F30BCAC82C2E44025EE62CD9AF03E6953C2025C327D545E10ABCE91E06FA581624AFF23329EAAC234D56F7A4AEFAA1CE8AAE3BF7432812CC9C59B786D61C45B626FCD5BE1B7F45F38BFC67B4DD6181A7
311
DFA192ADCF9C259F4308FB3613FE01504B03041400060808001C8F2950ED75431E08010000B201000008000000636F72652E786D6C8D50CB6EC32010FC15B4776C835F4D848912C5FE829E7AA386B82836580647EDDF1762576A6F959016CDCCEECC2E3B7D4E237AA8C5696B1A2049064899DE4A6D8606567FC32F804E9C2D
311
D6FA5F3240464CAA81080367C362D779877A6BBC32113556AA1D14CE290FA81FC3A701D77FA8492462F541E1EEC92CFABB185442924DC799D7D34F6BBF28E195044E339AE18CE0ECF04AEA635985F7C6D2A8E46C5DB5DCADB40CEEFAA6D502BC2BBAA2AC4985C995525C5CAA1C9FE9B9C2DDB5C88B4BDDB6657B60696CE6CC
311
F925ECBC0F09393D72E2117D59BA519CBD5B3BEE82104A226BC62FE0194B23F127F43ACB7F84D6C6E7741FB87538E024047A12C1385E3094E779438DD7E6DF504B010214001400060808001C8F2950141B9A4B36010000A80100004F000000000000000000000000000000000038444146304235342D333633432D34373244
311
2D383237452D3736454637323444444345462F4173736574446174612F446566696E6974696F6E4974657261746F7250726F706572746965732E62696E504B010214001400060808001C8F29505729F385F0000000300200004500000000000000000000000000A301000038444146304235342D333633432D343732442D38
311
3237452D3736454637323444444345462F4173736574446174612F496E7374616E636550726F706572746965732E62696E504B010214001400060808001C8F295088E57597CD3F0000904100006B00000000000000000000000000F602000038444146304235342D333633432D343732442D383237452D3736454637323444
311
444345462F5265736F75726365732F34443044373544462D353742452D343443362D384238342D4633383535443745323036342F7468756D626E61696C2F302F67656E657269635F706E67504B010214001400060808001C8F295028BB58AF800100009E0500003D000000000000000000000000004C430000384441463042
311
35342D333633432D343732442D383237452D3736454637323444444345462F536368656D61732F436F6D6D6F6E536368656D612E786D6C504B010214001400060808001C8F2950E336299B9F040000341300003E000000000000000000000000002745000038444146304235342D333633432D343732442D383237452D3736
311
454637323444444345462F536368656D61732F47656E65726963536368656D612E786D6C504B010214001400060808001C8F29508DFFFC99640100009B0300004500000000000000000000000000224A000038444146304235342D333633432D343732442D383237452D3736454637323444444345462F536368656D61732F
311
52656E6465724D6174657269616C536368656D612E786D6C504B010214001400060808001C8F29500A66DFEF51000000570000004700000000000000000000000000E94B000038444146304235342D333633432D343732442D383237452D3736454637323444444345462F4173736574446174612F41737365745461626C65
311
4F66436F6E74656E74732E62696E504B010214001400060808001C8F2950C55C6636560000006800000045000000000000000000000000009F4C000038444146304235342D333633432D343732442D383237452D3736454637323444444345462F4173736574446174612F53747265616D56657273696F6E5461626C652E69
311
6E66504B010214001400060808001C8F29508E8D0C0D37010000A20400003600000000000000000000000000584D000038444146304235342D333633432D343732442D383237452D3736454637323444444345462F4173736574446174612F636E782E786D6C504B010214001400060808001C8F2950214D1D1AE600000060
311
0100006700000000000000000000000000E34E000038444146304235342D333633432D343732442D383237452D3736454637323444444345462F5265736F75726365732F34443044373544462D353742452D343443362D384238342D4633383535443745323036342F7468756D626E61696C2F302F636E782E786D6C504B01
311
0214001400060808001C8F2950A233C2345D0000008000000065000000000000000000000000004E50000038444146304235342D333633432D343732442D383237452D3736454637323444444345462F5265736F75726365732F34443044373544462D353742452D343443362D384238342D4633383535443745323036342F
311
7468756D626E61696C2F636E782E786D6C504B010214001400060808001C8F2950BE89762363000000880000005B000000000000000000000000002E51000038444146304235342D333633432D343732442D383237452D3736454637323444444345462F5265736F75726365732F34443044373544462D353742452D343443
311
362D384238342D4633383535443745323036342F636E782E786D6C504B010214001400060808001C8F295049604CED7E000000A300000036000000000000000000000000000A52000038444146304235342D333633432D343732442D383237452D3736454637323444444345462F5265736F75726365732F636E782E786D6C
311
504B010214001400060808001C8F29500FBD5E7A0A010000550300003400000000000000000000000000DC52000038444146304235342D333633432D343732442D383237452D3736454637323444444345462F536368656D61732F636E782E786D6C504B010214001400060808001C8F2950E3603EBE7A000000C20000002C
311
000000000000000000000000003854000038444146304235342D333633432D343732442D383237452D3736454637323444444345462F636E782E786D6C504B010214001400060808001C8F29509ACB02BD7F000000A30000000700000000000000000000000000FC540000636E782E786D6C504B010214001400060808001C
311
8F2950CA1DF9C9A9000000730100001300000000000000000000000000A05500005B436F6E74656E745F54797065735D2E786D6C504B010214001400060808001C8F29503DEE336E64000000790000001B000000000000000000000000007A5600006175746F6465736B2D64657369676E2D7061636B6167652E786D6C504B
311
010214001400060808001C8F29503D97C0DDF90000009601000037000000000000000000000000001757000038444146304235342D333633432D343732442D383237452D3736454637323444444345462F4173736574446174612F636F72652E786D6C504B010214001400060808001C8F2950B30C4443F40000008E010000
311
68000000000000000000000000006558000038444146304235342D333633432D343732442D383237452D3736454637323444444345462F5265736F75726365732F34443044373544462D353742452D343443362D384238342D4633383535443745323036342F7468756D626E61696C2F302F636F72652E786D6C504B010214
311
001400060808001C8F29505D59F1DFFB000000960100006600000000000000000000000000DF59000038444146304235342D333633432D343732442D383237452D3736454637323444444345462F5265736F75726365732F34443044373544462D353742452D343443362D384238342D4633383535443745323036342F7468
311
756D626E61696C2F636F72652E786D6C504B010214001400060808001C8F29501191EE970D010000B10100005C000000000000000000000000005E5B000038444146304235342D333633432D343732442D383237452D3736454637323444444345462F5265736F75726365732F34443044373544462D353742452D34344336
311
2D384238342D4633383535443745323036342F636F72652E786D6C504B010214001400060808001C8F2950A9CBA780FA000000960100003700000000000000000000000000E55C000038444146304235342D333633432D343732442D383237452D3736454637323444444345462F5265736F75726365732F636F72652E786D
311
6C504B010214001400060808001C8F2950106D4E80F8000000940100003500000000000000000000000000345E000038444146304235342D333633432D343732442D383237452D3736454637323444444345462F536368656D61732F636F72652E786D6C504B010214001400060808001C8F2950A4F2BCBA02010000D80100
311
002D000000000000000000000000007F5F000038444146304235342D333633432D343732442D383237452D3736454637323444444345462F636F72652E786D6C504B010214001400060808001C8F2950ED75431E08010000B20100000800000000000000000000000000CC600000636F72652E786D6C504B0506000000001A
311
001A00210B0000FA6100000000
310
504B03041400060808001C8F2950000000000000000000000000370000006662782F30363331343937312D384235352D343938422D414236432D3745334537323330444245452F617474726962757465732E62696E504B03041400060808001C8F2950000000000000000000000000350000006662782F3036333134393731
310
2D384235352D343938422D414236432D3745334537323330444245452F76657274696365732E62696E504B03041400060808001C8F2950F270F1330600000004000000360000006662782F30363331343937312D384235352D343938422D414236432D3745334537323330444245452F747269616E676C65732E62696E6366
310
60600000504B03041400060808001C8F295088E57597CD3F000090410000420000006662782F30363331343937312D384235352D343938422D414236432D3745334537323330444245452F7265736F75726365732F322F305F67656E657269632E706E67355B773CD4FF1FBF73E71C0E67EF7576C9DEF3EC995D46C6A1EC50
310
46649CBDF79E192942562825CE965D8A868C2842C8DE9FDFD1F7E7F138F7078FCF6B3F5FCFD7EBFDFEC41B196891913091804020321D6D7513FC77D8C5070EC3FFEE51B21F068154CC75D455CC028A3EA68992803810109FDDE5D5CEC5521B28A1B422BF80741695D5B529DA1C2D058AD2388BDA9F476F7C2CADC939304173
310
DBF48A452BF8A700C0C70C3D121C1AA15A5270C22E2B9E28763651F7DA0D12CE11077B2ECD0D560B5E3DE2368B1E65C5E1C87384A4CC5F2D9FB8BE39E9B77C753783A37998F5CEF1B4FEE553463245C9712270880DF339E0B882A6BA713D865F6F384C842D440934EF264F4A304F8DE4EEFA1E2BF5E2D91F5ADD9613D6E31D
310
DB33ED31DB1D7916CAF091286EA3D31B9CFECB78BB0060245B943C4C040119FF780A74DD308BA9D028678674EB5504ECF284EE814DAED07440BAF649BE4B55DA2890F4D73E2D489A59EE54FDB0A85B59F2F52C4858A02705C4815A792B0C4A996A2023ECB195073E115E3E3647F64243A8338F2000BCB58DA5692C7E7C3D41
310
3F963FEDF3CF00FBB0F831A9D51360FECA43819F527B89FA260EB63C5DA676830AA3626A3693B23F1A17A0DFFCE3EE164E31B5365EDF0C89EF64D8E38AB0BA9A1117D7C3A0EC44F44F4023095E80BA610DE336D0F99593A88BFC5306E72DF98F7FD132ED95878DF2964EA7E43071359FD83B2BDF9C6B5BDF768F0F3C0FC351
310
199526F53D9460A34511F75D1B63E488178569472C91A94497807A3FD4A390C6558F26D416365C3656DE6E769DA9D8FC73774E1709812842DD8EF96AED1960F79D21B395CDDFE6F92CB4EB962A4668C76990E2EF29798C8941D67DA50F4A5F947872460F1F6FDB794E8A29FD7AC0C0D6E0714339CE258FB17AE8535221E346
310
4A10F29A0BE5EEECEFC5675926A89F49EB14E5711894F6586DB5754EB4D5DA9C6437EBA57DB97A24F8B8A8DB295FFD73266CF57E82694DF5166DDF93573AFE9C9C5EB05F8FEF8E89E0A8917B0B3724DB7BEBB53252581EFC3E38166BA131A3A5B42FE2AD00A769BBFA4458D2DE7822F8C4F63D0B8E21B285AE13325F3410A4
310
35C648C9D91FDEB109E73CEDA7BC796961AF79175E1A3CE4C5E8B0D009B0C9E29EFD98BC8E97554E3D8D838424E270F7685226E5AC268E021EDE3522D583E8F20C0BDE2959EF5BBFEEDAB32FE9A3ED0E39F211A86AA9DEBFC68182EDED132AB8BB794442D2D7EA9F4D8BFF52BC4D55BB165124EE90A42D101E67BBBB292FFB
310
4F66DE5BF2300E44546757DA7CEF8932BFC9F92A0707953491A55C5A5ACEDABD9FA1AEA01BAC3DC5A24E22E7C47213493996EFBC369D086ED9397C9BA6C7F9855C7BD5E15BFC8C53DB3D2A4C5901A57ACD2FBDF4D1676E95338B2C2BCE65FDA4C64F5FEFDC7D9CA5AA1FCF11E193F2FDABF0F4916BF13FB916A224380E6462
310
A9815F2300DC49CC4DF8D055CEF76462F4B7A7ACA7365C2707891370BC1D0AA6203C44CCAB47084FEC057F27FFCD57F89B8B9852459798A675C66BD7CE572CAF71FF7E6D7ECF7BF62CAB7B3F1107DCD04DC55A3F9961700286141C94A4F771FEB2BCDA2DDEE0CB0BAE402FF1DB0100F8E475DFFFC074DDB4498AB7D186A765
310
4DDB1CB680D703D47CEB4E72F8CB13D86A4AA68116E26387B93FD6738779B34FEDB8E517EDF2BAF28D9BE93A1D3A164320E07D42E514725C29515FF361754213EDE06B079A2E99EB1CA82A02019EADEEB87B9AF005BD04BBCECB14AACD6B24EFBE482194A97DD32400685FF1FEF1544D1B14EFB1E7F08E6D2CD2AF52DE757F
310
35F5E62332EE88EA26417AD5C3E0E319D68F25414E6D672BD4522B278C57D18F0113921C71D96527E091F00CEB15AE23D24667369BD3CEFA10C7549D930890BA4366F4EBC55F01F746109F98ABCDD5A3EE06619C6AD78AB33E48E4C9BD21BF7478B385EC05C4F8987E2C1BFA0A60EBEDAA0AE0B015C2720ECE180FB6F2DEFB
310
EB822D96338C9B63822183BBF52FB664A7AE57003AABCE512BF77E7E31BDA2E739AC4C131657DDFE5225E900FB56CC01CDE808FA4A9C9DA16AC679656BB64796283D89812B8F91136AE18EE5EBBAF47A73BE3C153EB5D4CD491B4BFB4FE690A4CF9ABA08C0D8AA64220C438C96EA6CA80B58FE5761E697B3A292EB9FBDA502
310
FA863E49FE694ADDFFF9D62C520BDD1A22014147A0903A05B9B729F54272EF83931FEEC057BFF8C8055C279EAC5C0011804828734024F6CFA319C9CC6867C727184465CD9BB7ED386AFFD96B294A85E3802FAE47244602D8273615952B98C4F23F7EAE4463D9D638EEE374A20959E0FE519C4CFB0FBFE5DD80C2AA3F9DB961
310
D1BDE57E67C9BB47B77FDD74EE3094F5DBBE3EBC1FBDB7393F5116263009E2EFE1AF9A221B2AE234C902BF70E9F280ED23E73908361565964333A3F01D0B006AF32FB21AA1316744B489D5A198E85299241735BE559675130955C902A8ED761FC0DBE337A9F91919AF5CE32AF902ADF9AB2615E00E8A94586BA1A90839B618
310
32FF1BFB76D2EFADE6DB1BA04CCAD3DA649E7E2A0219F592E22F2AD54847EEA8E42271011E9074F8F3DD9FBA6CDF88FFC9FC7E811AD1CA8F4557CE4AFC7BBEDCF0114A48689F20A584520C74DA8127124B767E2FB91A6B186246727BE63C9445BAE02088D58B8EFDC0F1072407CD9B89A13F6303B4A928F593AD489B58E686
310
9325790ADC406036C591729FE14021F94B7796BB11848D463536A092A26F077F94639F7CEEE2A724C66EC885F4A24F8B8A0AC321F8FD149BA529460FAA34E4663C02D41FDF80BCA222D42F0ABFF8490F4FA74C673807C2051D8E467B47B616072860069A9A303ABA9B319D58404461401B0A0F9BE5E1E151C14BC33B32ABE0
310
3DDE91708DFAEB15E7C0D593C86BB7D7EC17BE56E57975F077BFD5525F3A1A361D584A75E08CF29FC7B44B2B3085014F3A5A14517377C3F6B8F37E59514C3B12F8AACDEDDA4DFC49BE5710101534CD6FB6DE15B50F11A09472AABA727F0C49D9CB906B158030065F48EB3625E010CEC1D511D0053474B11E6A4F01C0D6EF1B
310
ED3A944FDEC70E0DDCDC756C86545910E0DAE3BE3AA9A404574C2995CD5CAF9549226BC94B4F4F0F5F9086F418F6B32346464610D8BC7391D3C3A3CCF04CFC1FB2A3A3170E369511868F14EEA4E5E438CC73DB1F3248AA94B6B2FF33B222FF3D1E7BF146CAD229770158063BCE4F5391964DF62F7E52A7BE0EEA829C9E13C4
310
C147D6F93FE59E111DAB5E4594D6F3CD1AD375EE039930EFE5AF2BB2D41C83C7DABD8C659BAFBE8FAB392CA634F3D15C1D945DB4588D2B0824A4EC928AAC565557CA2F0DAA588CA5BE30B3A8004F7BF005E96CBF891D7F18112A3619FDF530DC8AA64954258E1811789B5189B49B4EB53F5F89F7D37523894F3EB57B373763
310
C91E502F52CC99EB7BDDF933FC324C4FFC2561DFFA7339FAFDD0A4BFBE6D3A8FF9ED1FC49898139864602458968913181918F719CCF5A68B2EE9C1FF050E34E63107003B8120FA982C21B30A874E4F5E4B38D5A8290C4B8D9BE48A0BE31EA995BDC37AC6DE90BA17D259DEF53605D55922FEB1855D915B659FBEB350EE0DFB
310
2F9F766E1C84CC8964B75D08667445EAB966015F63A18A9E0A325C1B3DC628C0D3CB60F767FA93CC65F25458BD23C3B312716E5F40E5858AC06EBA9AB14F95DB99147B832069201541D09A0D856E12C629CF32683760EE855537D1901988D5EBC156676C7DD51D7207CF3267AF1D76C2AD867315E44618015313A98B19941C
310
696FED3461CAA9B5415F918556D7802EDACEFD6B2E45853A9735DFC9DBF7E440F9319F8B6805A973BCCDC76C069A9144E51F187EDCC12FC31B5DEAAF0A76137199B106EC84ADA6B6EE697D4E6A96E007417F4E880E8B1E89B4BCE9D81EF611E2ED8F0C1A6C25F620FAFAAB656A7C42D464880E8AFAB0E0FC8EA38CA9A8AEEA
310
EE3E4648BA4680270A89743CDD3E6C6CBF34B7B640EFA285ABC7EA0A1E28F3CC963D114A80123EE66D0AF7D5380EB41909B605AB4765B709B808590458157E69BA1378FEC4B48CAF6A730E3BE3C5EF2DD1A5EAF94B1DDE50CEB55DDFD7EE9A16747FA4B223359FB1FCC69E1194892BABB93A1D5C4E807AC0EA2E30180811E7
310
7A2291F6E7F7FAA5E0F60215BC6024E48DE436C511F0628B8CA189982D4D83CCA17D305A7E923C37941CFDFDCD93ACAF735EF5F0E61BBD3E6C41A59B242790D3A3BAC7064DCD89AA2E37214EC839820949D5CAA31E240D2948E48F690298974A96BA9A8432BC90F5071D6537C9666EA4564796B7AFFFA548077BEEA75F6308
310
3435074BA182F3699557397F71548383FDA8CA34D99B981E72835ECDA5DDDC151315173D05A21F651AAF8524E88209E2E7A737ED1045800CE3390050BCFB8BE588DF111617874C62575039CA588EEFDEFEFE319B739DE2EDC147092A262611E159650E787917885EF08F1F51B8F2D8A71D60B58B190FEF9541A1BE94BC19FE
310
A50784DA1419FE4B0FB51B8D36B5FF8E1286FD8AF42B91E59A5F1CC4D60174E764045FD8C57B18209B217F89A62252BD20BE0E63E12B8E8F029FE19E0E8D0870F58721A557082250D5424F7909369376E41666C0EE77CD87CB283F661D5FB6D0DA023CB67320A20DC7BE661E9E1BFE5463085C557DA1FF9BE835733766C3D1
310
39F2CF9E2208873AD0EB4814DE9E6BF2CAF81614D4D43906ED1C05A3265CABBFE192770FC2F64F940CB6B17B5F166F133C9AEEAD2641807C3E69515171DD74C4A85311513D6EC9530B3B601B6BA3EBFF3B5C3D2F7D69765141E345F75433953D013ADDF8F6AA7DC3F4A7563FE5C7D367937E2900D7EAD0F9FC9A4A1A9B5BDF
310
1FEF08532660C01C5D6DE22199AA774383E306DAB87E301ABB7D213887F9869D4942D0D71E94B27EDF216A318BD488D45DF84529EF575AF3C3938C0AAA0215B01994153E2054A0B894DA5C784980633AAD48576957CF4AEAEAFADC7C587368551C73DBE1E57C58AC713303A8BFC258BD04B51724459FF9E24C03A81E0E0679
310
CEB9B348C0DC998FEB9C6D6EFA77D247CC8F92D3848599ED89A23218D0636465AD1CEEB7DC140D7426F83491C4E8E8281C2FB35240918FFECE880CA2A42D70E8B20B34DF5221C7DB0CF90ECCB9C745B37A47E9B716FF7A97B7A252C1F3814DC7B1E1A7F72B8751D524EF7CAE45B0C73B3BE7D08ED39781B380DDFC9AA4A474
310
9C9493DB5BAD07A6EA6C092FBD0E85DB004DF06B8C9D3089C5320187E4CE1846158C7EA7DDAE8AD9AFFF21AA3A1026BB06A259845E8232DEE62811A4DA9CEAB3A4887320B76E2AE5615EAB7BDF738CBDD01F1E64064BC13D9EC53576751CA8CACD58B3CEB0E6CA585BD089B2A59B9FC101403387AADBDBE70586B93D64BF3A
310
D4453EF9C3B6A93817E8346991798601344F79A83C51F3D50F7BF2683A3605F51A72449489E0EE6169C749C60B1035651103AEE24D24E51A759C840DD3FC6504DA6FE107510E447B43461C79D22970B75DE5E1BD3007D1AFC619A4A4A69B5626AF5E9B8374E20677F77E2F8E73DF868E8BEC7EBA7B6A75EEF7205E1AB9486C
310
B642741D6E03FF13FCCEDB1C4AC129886268B01CDF4B124AF797CF784F3C6DEC97A17D4B558070A0F1C04DA4FF9BDBF34159AEFE958479824B3F58EBD1E19088A2AFDE501B6F2052368A3FD0E650A179EFAB1561E1D27527077136E652676C3670F42DCB3352F48F6BC86D2C3B0051727E41A0A4DC6CE2BE9D47F5CAA2935A
310
3C0539AF080665997194ABECD723B08129CC5B6B21D2E7D54CD4D12610E7E9FB8306771A89576C7A982002775ED44F3F744CF21EEBB27A631671D921938AAEE3EB0D19CD1E083727F607823E817BF599DCED5394E37EEBC2E88782E638920CA641EF74D4CDFCDEF06F4278ECB18E31E7E9876F2D783C8BF429C75395F57E98
310
C2B495A3DA077EB3AC3C158608B6B57FE3EA48484D9A480096FCEE0DE880950E7E5A5714131C5C41AAA29FD19AE81AC145FA1B9E85C7169A5AB837B213493DF7E9AA4B5FBF9CDEB36EBD21EF1181B7CF7366AB2A951D01E37AF4EB835D1BE8C117CFBE7625D2EBCDB0B20C5A4B45CED0BCDE3EE8DA9DA78C2E21DEAAFFD119
310
7E463C33CC6A80FB785669B856EFF7A8CCCA2841B5A5369173320B1170C368B2748D81062EA0296E5E2D95D7667A4A46D98A6FF475C76AAB0A8C8D45E226FAFC9FE0133EA9F60111F99CA81ACE03A1D14C89E8B0D69079C91464FA1D99E651D0EAF606F345C42A8A1AA9BA391031582B96D5B4176A77AADB01F12FD298A75D
310
EEBB2C82F0B8650E880722F8DDD90C56A7A058E5FDEF1AC93545BA27367C76F5D8F9690CB6F8DAE141EDD7971F0FB548A2AE435F224D6E5954CA155512F7332029D5A1230854B79F258EC5FFDB09F5F6343A8EB193229B7F7E79B3E48F8E183860B38C8269D1B53738FF1E0BACF6AADA6D4869E9DE708E79B5DADCC09B1BC7
310
6F649731CFAF59A83FD8BAE4C749D66FA87A3810D4D62FFE826FA400C0F325D2BC0F3CA35F5847B82A2ACC7961745C823E4D863D54460AF792CE6F79B5C7A33B25C3AEA6CDE15A919B6367D781E9D44F61BF828672594A3E1D9EDD6DF179A81F27EAC05B936575D73E05C209DDD2115CFB705DF9BBF3C911589B3640735E9E
310
618FC9C36A7326C82B2205E244C55D56FDB9D5DC93CE958D4BF8174D2B3DA54CB3C09F2C2A6DFF73D23B2197355761AD421EC581284A7EF8DE2CE3497C0C804D49B41DFD6A7360844E5BEFFB495CFCDB97A4595911CDBA623274CE852B5E278AF0BEB1770E9D37CD977B2766A7DED0E94B840E1E95E8C77DE5CB6354AF7871
310
427C28ADBEEF7BA0A28E19DE9ACD75F379FE373EAE6DDDAE3834692F9C2B03B4FCA8FCA9ABE8EEEBEBB725B88A7C90941E850682CA04061A7DF0CE82ED49BFAFFD42C309818FAE14755CAAE78B0F73243ECCCAD7DF58FCB9CDFAE7A4D3E6671A613639130D056C8383C8F4FCF4808C331E544DD26E4755D09EA05253B3049A
310
1E32587CC25D72E073E2CD96D04A71BBCB0038FEC3F53D254199C3CDC67CD66640269431860225392B2CB3ECD0B4498AAE78BA1994246AE1EE78F2EDFB79F6C6CB6B5E279C4D373FBC21CB2698C9ACBBEB6A4BB6B39E16AB0E421CCBFC7654D81ED86022F9BB522146F9F4772E2D0E4FA70120C95A85A417BF5078B232F475
310
4363EB1750B2AC2148EB46B1EA72AD9B4D23ADCBC589D70106C3EC2ABEEED84DFE28E718C6C83502C28E9FDD3B09DA0A6F6F7B72B706A31C9E2A331EE70DA56A083D2177BFD63C55B11D8D949FAFCF90B23A1E24B9B5018B9A17E99F2890EC302F330FE7936E2C23F0D237EC8916F5166AB84B62A21BB0B950146962D754F9
310
2CC2C8877BED8FC7B7B25726DD19545392570B3A2C66B58F027BEF412E552D12A588C4A3CC5C3193FCB3485EFFF700D0B9EEC077754A33DC1FB9E25AF814628F91DDFECB667D3F7690803F38D13F8AE39353523BB08FC6760144AFA2CE28236F65EDBB3D5F59A57D612B99E3D7E5F8A851666BF9B5A6658EFC96EEB37A378A
310
BB0EB3FDDF1303AF32C41BD1C8560745D7BD81066B0D6313359CF488563D3BA3F8E2185D1FAA3EBA1397C9D0E3DD232180A4DCADB6AF25DB3AC3CC26589C8239E66E81547BC7E2F328F9884764CA37EB5DBE390DFC03A5246B456A7C3684C4377D0EEF9A350680FA9A077E8B2957B489E09AB1AD41316944C2254B5984830F
310
691C93CAA767EECF976FA5647538830B5E63236A6F0365C1E0F3E327F24FE35EDDBD7360B0F7374837409F7A6311BECC12B7026D4FA1AE204FA3F5FE904B1F420C7A9044AE58E403E7C4848E7DA25DC9EDAC79DD756FAA26B9EA83ACE8A214A2612A22AFA19DAE7DBAC5F8CDE1292A485F98DAC731A29FE01A3966E96BCB9F
310
B5A4C8830E1B9AF0C54B87FBE221A097036E5D28D1F869F810C06A9BB0AC0612F69AEBAF893C6E7AD59460208BAB3A6B09CA4F6BDDAB8CF0D1F84B72487498395A70DCD754796E271099A567A55CF242BBED64696378BB6CF25EF0FCDB589F3A82F1116D010A9AB9FA4358809EE0C973A2B4229BAA876A70B03AB49CBA7FBE
310
71DB1832FFD32F9BF2C8E98075CACAFB36921235D0F552B6A67E94E094097A5D7DF681B40623DA535ADA7A9AD8E9A62407D7C9A5AE51D62A17A83A23728DE86BB56115804D3F2675F2C6B87541A0FC497BF0CA86420F558C9859EBE9FAD62747E323E3AADC03FDCDDFE7407B09DA90B44E3185723C5381EAEF589765E2F7A0
310
99BA46695BAD60CEF3491B8A171F5F56444F7CE9455312C3498C74173AEA0214EC029833B34B650CBB5A5508D5091665309642791708ECF27CF11DB3D797D6CFE474453BD4BFADB768094B2147814D81C7CBAF8228DCAF5564B5891F5EF6A860EB2E323CB82AB868D8EA048880D63B0DE5341F1B3D53297B928A11E15F25E5
310
148990F710747C3509ED14909C552EBE3973246FCE55D00564D8310BC3EBC5085D08D806799B77D6C57FDF5E55837F9E934F09C03C729271B64F12D0A9F9E938107CAF7BF1EC8CF1BB9B42363D33070F4CACB425E605DDB0A34A12BB936DE286B9887A4E2E558F0886498BFF49C311D96C277CF6A9FC0D75AD0ECC5226D7E0
310
E3572012E56D7FDE4410CEC7A6D0F997F225A2055B8B92E3956E875AE4993CB3D4C9063AF98FD45E1BAB165640A43439A2C9181A7C355B297C0A0CCFFAE19B6FA3C2BA238A885FBC98B8F6DAF4B94B97304878DF4D8BFF6A4AEDF79E90ED4E68F00CD7299F4E0D83E35601AF0CBEF18C1E870E74758FA91F5131075004DB3C
310
FCF09AE1DABC11957FD9808C92E8A678CE9DBE40DDA0E0D1D505AAFBCBA208232BFB6FB3704E8985E61ADE53DE74152F5C7DE74B1DEDCD37DC3E8FB30D7EBA8B9EFFC3606BF90B8D438279CB7709FC7C00D327F41817EEA71CD9E49FE9C8C9A81C70915D9F0F15958EC5AA4C3BBFAF46986B90F188BDB24B89DE3C6F29EC3E
310
6F66D84856EE96A35E657CA41B41EFD8DBFA16AD6E91439EA92B40B21C053249F51AE50EB0B24C770FFAF40DF12C8436366819C48E36547D4E7B72FE2BBF10828583057814A668BDF183F6B2E58DFB151103E56303E63D00F39C27C4661605DB644D19175D02E3F0241E8FC3458D17AAAADB117CE9EEA690D0DB01E634878C
310
04C2C9310B69FCAB831151E3AD293BEF6E46B0ABCECB50F5939B39C613D41E81FAE8D34CAE3C4566B761D37185FE864AC32FCB71AEF39DAA5BAB88609BB980CD2F07A8F941653B529567726E2B2A58D079DD57E1E5E31426CF184A04D7B03B985F276D47406AF276FE32E3328BA866EB1FD39BEF57863A317634AA5FE46740
310
9B3873F5069EF0D71AF00AD189D17BA1974ECDB2D623E9E14086386A6AAB5807825C37B015BFE892AFD154920EC437EB945D958E18622E1E0FE2FA06557CE4BB9BBD05A2D40E774DA2B65473791E314B7D6C886820B2FCFE4AA272B3B8B15E7344A145E8AF919B5454D89D36D413E87211186BF6F645E5EC94DCCE8E1C7990
310
22E4EC9BC86D7A0F2AFB1FC4B2CE48F84B3F49ECE65BAD24CADCC07EFF39AB06BE9E6B27A059938EA7208838455383DDBCFCD967DDE4650EF92A14FF933C975DB20BD7FEEBC4487576485963D757D16340D9599FEB362F775F38CA4185A86F74B629C81B133644A3B18FD056E997E0734F9BE26D11C0AAFC669E2AC9FC41D2
310
81F8B2E1C35AE27BCE05F3DA295488096688719D974DF1B5D182DB7792288697F8763CFB43562C1CDEE11C4AABD5C22B6E33F6F389CFC3477C5919DC0D533F8A7A1846B7ADB60ABDC26C43D0CFC8910B7C15EE22675BD02702ED39DB77A87A192CA7A543E6205B979B9F5A6B512A3CA799E198B2D5797C0AF8D1D872CA455D
310
4D431A7879D4DD76110B5FF7F4176B54477A9EB5E4A5D11214FDA585F0382751D8E2582BA5D2075053298FEB8F1537304E32CB22C2E2B693DC0A760B1DFCA751BDC445AFDCBB12820ED85F6D5298933C7EF1211E9E057684056CDA3FEF3BB6052355E162DF27C59E965A8DDB7F9437EB72CDDA3A090DE65A5B2F50326247B7
310
EC67B73ACC7047FC9B353D6EE990F772207C6EC52B39DC2F3C0754821DAB559F7C1809C7D0DD5B0499D0442E0A6E391B3D5DB46D11E731E6794EC77523FBDAA242ED67F9FA1FB684255671F63C9BCFE6E7E896D51001A6113EF2298BA494E0B0980D1FA5B9D60796554C02256B1E0345FB7C6186B6A19D2DCA270416262845
310
FA4F42DB5D9B0A0B6F07FCA2E56C242522E001E0CEB734AF310FC8BFB57E38E03AACE93B3326A2197891E68452B26A6307FDABFEE0223D3C03C3C73D2D5BC054C8311F12004CAE488E5C29287F8156A2CAA4AD0D7BE6B97264E4139F437CE73ADF52E5134C52B819777C18B323A5924E4F67AFD13B1CDC3A61793A79FAF5C0
310
CEB718E441071E797C6DCCB9EFCF7E4A1E9F3DF3C2F9C9E8294E9586868788C972857FB0556D7A26941A7EEB9B580AD78EC40B85DC906B4120A563CA3B87797ED612D3B035962BB75F6515A393F4CB057F564CDF54F2E5A024514E6A1F901DB80C7E70B1FC05E356A7E72FABF4775B3E3FB8F70A2A8E7B6A94542BB3041579
310
78CCC999E707A29CC795E67A59CC546A5D47B368954CA7B6E75EC9E1F6FC73CE3B4F71F8CB1A6B15923D61EAAEB14626AAA9D04A26EB9C66CD1BE86CA31A5D8703DE04CD1EBCE4F5CCB62F93909AD11E55799A781A956ED27D3E738F4538CB04ADABC7DAEF20BC35BA6A90BCC1DC61BA05F20D8832FFB9BC9B15E2DB838A0A
310
FBB7E0C82A562127E0446894F427794C3037186F622BF24DE1B00AA10A23BFA47B2A180D6DA5AD6F7326FEB8C100C2D7142EB2A0B2A9D1008A09BA343D70E054AB69E2A7EDB783CBD92537FAF4A44D1296AC2792729104B3276C276C951D0CF3CF3F1E6B017720A7B8505A5FF9589365979678C36F1BAF759EAF57C60F1FF5
310
FE9DCF5F8E764FF25A2D06CF25117A8FED51884C13B2B750DB0E4F5E3D64124FCF11F0AD8F1CC3B3DA4B38ED22BF1CB2585EE6BFEBBA63FBFD44F9537B9B37BDD6B358720F98A8125AED4349CCFEB0E135F19E208A04CA7E2B10711185D72E381F448036EF57C9F874E54A971CA37A639E986AC0226DC5AA00D5B14FEA9192
310
234B3DE617814FC221C92F33F1D392F297731B567FD98FD91D989379AF567A65B8ADF177591DB90FBEA99BF4ED11B16E50A0AB1DBF1156D034BBE04D69D08F939D8E92BF525A1DDAFF80ECBC95D8F45D3FDD289FD23F7D8B452F8EBB34EC082DEEE68E18EDDF072060FAD2AB1504DD4879BF67099FC58F6E9DEFBF645D1633
310
4A3E9A127C6F1AF6132CF287E433B43A0EE93812B4AA0B194E03EE3FF91EF9C6ED0074A2F6EB18A96A7C9890B1FCDA1F2095E944DB911ED54C60DF16FB74C8CE9BDC7C54C4F14078CF73C2FFF1F1BBCCD7CF64F71407EA1683DBC410D226627F66E509060D5C0AFD611DE681D509DB8DD12FB1265B03C6F5C55FF4C30BD941
310
87FF692B4F152982502F193098A789526A038AB529A52BC0DC4FB6285CBAC10A8B8DB75DCD9BDABBB221E27D1F8DA9F5EE5926A1C8AA9BA9BC09239C6A7F12914EA3B59EFF7AAEC3FFCCE56F1C5C2980AD072793527565E774F4631DB178CEEC691B1F367BEA0CF2907E1D6B854D527065979DDEF002D8B2ACEA7CE21AE297
310
737EDE1D45B31233B73FEA35BCFDD0B09721FDBAF6432681F2FD10C3E9EFB246FD6E854B344ACC9D8A0EEF876A7314B49B6A499FC650B099D650DBFEC7638ADFD245E2B7839DA5AC5F7D5623FC0ECEEC8653FC9B2BDD1AD4D00A566FBA7186DD3C9CD26512551637498CADB950FEC71ADB9A5524285DE328B8EC7EC75D2345
310
AEC6A27C42AF6D9B92155315C80DBFCABBB7DA0FAE425C4FB896B15C9BFAC4FE67DF5A23D30C93DA4D8F36FB15D100050DA6062E22AEC5F4DAC4F6FEEF97AE05DE63C6D38F9E068A20BC5E3B6BCD75320C5090924E7F93640A7735B1A43451C2D91EE62C6238B797349E59890AF3A520DF4A87095F3ABEC2E61F0593416CE4
310
6CDCBE0E00E2523FCCD04408588B5B6C9DB6459C786CE378770B54F51DA3A5E1DF2A3349BEAAC234A6CF8993B598B3B25B4B113E353A4D750FA7534749430F3EBF2512E7EA3FD43C6AB9A1F765A58463B306721A15D224FAFE8C6F5E3432D57EE697DA0DD5A9D4866A8BCCAAA9DFF1F06047851408FEC060471D0E3EB86BFA
310
F46E4B5E60311DC3E3CEA147C75CF971BE74689507154FF2D2E92F15CDB2B9182B11459FD8ACAC5A85F174BC94A7F4EE4C4F5CAFA7C02E37BF0BC77B7DCD0C047BC316F562A01A441AFA7931CC84A28CB9F4AA367EB515778F29BFE61195FA671F4352E5E46E3A64773F1F76EE5EB36D7BCE9BCEAD837A4D77F8DB8C92AEEF
310
6711920D7C7D0F76B0FD0EB7AB83724CD35BCA7D36DDDF5FBB7FF6F04A91F3E2BB3B8F1A43CD659639507FF6331C5F697BCC782AE57D757A27D97F1AB9E0AEDB43F92F1B2AACDF5FEC8ADBAF9F814E2027003BA2F9E144B1938A7A04050AE5D953B82C45619165C813A10E76DD6906B3C16438064D14CDA713AEC420034613
310
E1AC7241904A49FBF87409AFB1FCB9B72FE7933A87D8FBEDACECE4EDCF6A4FE9FB94D5DEB74FAB7CFEAE17EE965DF980DCCA2D04134994F9A2E94D2265DA4FE6AA7B7AC15FACAC2B5ABBCD7DFF542C5314FDAB2E1B9D8B65220B8E2B638BE008E8DCA22678C820C5053664D15E89F2D735B51A84955E81A443545E9FF787BE
310
0FA700A76D136C27DA179A7C6E8939E01BE756E19CB292798063D8B97F44E8A27BCF3A614FEB8BE974A718E86F7EC99B53CA35FA24F61F2B07266684623A3D4CF073E511F3A10A8FDAFAF0078C577F4DF9D339FE7862E5FA47CF4344209E5BF76D783B1B48E152AD281B15FCB934DCDA49CEC5706B1EE8B460F435324A5CAD
310
154725E21AB8044B75A557A79F6C807B9340AA3D92503E866F4274412926C8C504E4D5EF8C0E68DD0B028781A6B4054F11CF18941F101C57CCC796773ABC8DED9CD91FE5788806C05E548895354AEAC96546D55B0E94A59F148D061F42AA398D822CDECA4CDE79E13469BDCC44FDC990F366BA5978C15F97ED80CBFD73B0CD
310
9B8B83A4F6845BDFBFAF034019473FB9A63BD55D3A4A7284757071574029A4D016DCCBE95DD679EF3C4880BF169422F8C89B68A988D2B13793CAED4F74DE7486C72DC94DF46B8E93D8E02EFCB1FF9B3BA10C8AE7F653DF94F4AF466CDDCEF5776687F7C4C14B63E4EED1719DC2EC482D7DBCC7AE518CDE3D5FF86D39000EC3
310
673C0044E1D308BF05F74D1B5F033A7D1BE7F74BC55BBE3E4A20F920946CA0271EB17BD2B80E5660ACB8A29A79F5E4BBA49D4D945B6EEF4A7EFEAA65E5555BBB57A7E15D2F83C69F30BBB978D2B39F1F26FC097424D39BB33CA3D87ABF64E307938B685BAD44F71556A30B7E712CA4FE600613C3E554B69ADE949A7CFE214D
310
F1FFF05CB82151EC6FC31950239F94CF7AD39DC473F6EA356E5EC2C4EFA04383CEFE985A127484366FBEE3C0EC4FEA363E4F6632AE781392FD45D67B63FB8DF70E82734F431FD3443172A0E30A83D60982D55FA6A2CF86DBA8382502ACC6CDEF3B907982EED1160E14863FA242F9757347E1544275CCDCF71ECD5F8621CBEA
310
326B8BA884AD7F825781923E66971F04010D574C541D8427A438A37EEF8AF88240EED7362C953F5A81DE2D56109CDE2524EA0F5D2F87308C0C47BD97AD605878AB8589E17CA83930CB5E0DCCD75853D68B1AB136594926DE426C367428E9334AFAFF90ECE221BB5DC9E5BB53D2CDEF954EAA9CD814F0E5725F1965DD458E5F
310
8487683AD86B9D0076BE3EE91EB1CECC5331A67A3F79D8B27587C12EC2A6A70474749F27B4C0BBAFB94B34189E88DC18964BE4121B9137FD516C7755356E50D6714E31ACD222621EBBCD1CFF81D87479056A9DA0E0B8EA19D24CF937DA89F78E8650CCBDC110AAB6C4E46DCBFD0446BA9E2060E81F314AC2031E88135E5476
310
AC0160EF5C0DD2EEF1B8B5CB2D198BE9A554A9093B5F7D7E4B5407DDFCA1D9C152FD97F55BFFFDFE802954DFEC8995B983E28AC92F1971E28F531DC407A1280EB125F64A72E617EFB27DFBCEDCDA2D6F2BDADA36873EE46B9BE1782998C63DA7182BC383FB6FD15DA472B175D7E8B4FC88F38D6E07FEAA3FA3CBB8F6B449EC
310
F14D2175E5C5CCA3A42ABF24CA6C9395AF74535F4DDB38CB84F56614B0FD32D7E19CA5CF988DB4449C40E23DF2B16772594554579094450F56F253CD25EA7F77366FB1CFE79696C428BB64D5A41E986189427E5E4D7E2DAE3D5BB4972B3DC44EAABDDDD63A2264ECFA5C786EB0EE1FDC5BE34FA0F08376869FD1E61EA06CAE
310
15191135445EE8F0394161C3266A596AA035572BB0C8876180D8B9C77D307DF9DCDF7365ABDA6F3A2366436457A4DFC1F259666569A9E4A79C817BDD5610E5200FCE894A358EC72858D50EF67545DA81C6FACE3D457BAF70367E1E6BDD9A952FB4F56247F58F523B97E640246051A72F79BE42FFA0B3187F63097F91C48B86
310
8586F714B0EBD5A00A8412C1236E1298F60C72BE6C96B82B404CADAA304AE9F303176B14BA53FBC2D5E86377E35542019E24D97B96A49B2C0E5006E7795954DEAF5DA58958839043C6C70BD3B1B33B6DC5C31316D8A6923F142E26F6711A2258AF977DDF1F970ECC4F1F2B434B96D81BEB6E89BF3BBB3C7C8CC80505070723
310
D6D7D7D3C8CA27CA164A26024FED94B12A86031867241DA53D929636DA600F050BC40CE48B8BA03D69224720DEE2ED2127390BDF5E6EA64527BBD4C4C63FA76BB801FEEC0E61218EC98A8A86CD8313781617877E66692839B9468CF4DB8E50A73986E558E309C0D6F676F921BE02F1185454DC75B111572FF9D27D85EA14C0
310
5AD7271225B391C4275659CA4A43759D0BA44639BE4C30A84DB7F67A41399FB95CBF923B1B1672ABC807C1590557FB18D811983FA97F5E609516D62281D38B1281F68FC75528C35E4CD7DF0F7DBB5E5DD69C414EBEA2F4A5B241B996BA77AE6C772E367408C633EA3E438B68563EA8BE7667F3A4C4FDEEA52ABD78A2820F44
310
3B7914A15F180018D231E64519C56A12F6CA7C8DAE18F06F6B769DBF92329EF6A5D18FBCE600F36BD8E8198DE5CDAA96181F3A756EBA5501CEE58F497EA4F418A2B82565B9BCC611713C0B708CCA1F398B78C5F7D03B3437CC18F13061F55C7BEDADD5ACB1DB0E36D3CE47FF6EA1A563A57E9649EA5D14D1A50EAA45746338
310
1C073777EF1600607BAF6428A7DDC079D47A204EF1E1F1F0589FB054D45E02CE623B3823C317C601E589E22B1E88B448524B86A82828E32345EC18AE17214B42F8C41C6D428016D9BA31DDCB47572561E5A402E5BA4FCE55F78AF7268524AA04130F3A20BA5D1E9F9948EA48FC8F5314FDB35E21898198060034ACE5E3E2BB
310
CA34092518F275190AF65F45867FF0900AA4B81F25427414C372BF51DC29AA855C5428EE1EEDD6B849AD60F6E73475C2D2523F8A2772C840A478DED18A8C5C91B085F255DC4F54EA7AA8947354FD17ECF8FB3B4A0DE7B483CAF3A1165EE05BBA413E5C1FEF3DE1D6B8F2F3F3251C17D9FCAB48A9AAF63AC773A0E413BBC46A
310
9ADF84A566FC920E4D8C52C9769EE3301CADEEEDD92B312E02E2A7E35B7F1E7D203FE5A7D75578B06E99D0E46FFADB8FDA17ED8880390DA29094202D6F645F76F6F96409CDA05495A96E84B04A00D1A6C6C81D7F3DE9376E828CCF144EE50E364ACCE7237EA0BFB5607ED1AC3CFE73794E5B61739D14DF1743441B1AC98F00
310
ECEDE9E7301FA29755FBEFA68C91EF2B314CF510537EF1ABFC9A762496280B546F5EDAAF8A5B387D469FC9A878A92828C88608453ACEC6094DCA54111E7AD5B2663DFE2DD151B7F123B9F4FEF8EE36AB125FD7AD52A59B1B765B3E3F73E3F73DEA93875004D2AFFE3CDE9493B87A9904DD052028949041A91DC0E1BA47BA71
310
4343FD5B25E0A6A09503AFC17C790058A836A324FE31D7893512E28230332F153181C1E018E1124EBE1BA262AA428A518237D1EA7275E48C5C561BD19ED6912EDD8367DA0F31E40EEAE9683DA9257525AEA7B632B97119E17145A90231768A4F3B9120FF32E8319B015E3CBE26F1A754177D8185345817C096B0CE443A955D
310
13AC15E1FB5DEEA0239EC32A3C92241A237B0B02FFCB4F93CF2B02570C8D192E2F2A68CEEB42F12E6F8CEEFF46C251E22B4341C56FB08CCE550E7A9D6F4D6564B9EA52A83D5BF2C6E03FA19D2775E15A8A7ACF30A13C259EE7F5EF2AC3BA354F1500E1A07FC63FB4686E2F12EC69719F9ECF5FE3F35598DF2CE944008CE78F
310
0911BA5BE5D0A34E0098FF038669C26030BA9B300303039852A8F6F496341737CA7E0D2E3AAA36DE0A70AA7D9CA0D54D9AD84B18A44C9E625475E1C97B93BEBB38DCE7D227E67A2D00F531436136355F243D1FC0D712C5765754FA22FCFFAE97919161F46D6E61ACB37D83777B385889770B50765B127768443A5C4D3A4E35
310
A3151111F146B7CA116F918A049F1C272F2CD7976C69A0068773451659A97E0F4A08FE604C3FF6CE7385DB19F4D3ABC8A0D80DA8A42096AC377DB49382B36E270B6FA7570188B4B7D1DDDDA82ACA487CCA5D38BD3BD039ADBAFA4ACFF27809239B722081E2EB9F145320553D183F28471C388BC8814E5045676767AB58A8E7
310
2D1CED2CA731379515D2E533E4CF0B39DFC625F97AC4836831A4DE330E87A8126FA17EBE583D614E71E22A8DBF2825599743E0640037303E8E1B1E8EA4E1ABFA4F62907B5E4E0E5DCFDAB417C36C6848A2B8D15F1E505434C0707E16B1CFC2A1C36A42BBF55734F8F4301DDC2A5110CEE8C0747F69519265012A2174BF4E95
310
5ECD4FDE095A3ABC70536B7AD0B9D7892F81287D667C108703C9B66A221E9A0929D030008F77FF6F5D2108EF5706FC87A3069B976F7C9FC3239D13D283CDEA83597461079FEEE049B0F392889898B7D87D31F8D60ED7B56B91823A8E4EDDB36C6172ECEE42BD42B12CD67994FA0F0DFAE9389356F4CD4425A4B8AA55CBF7EC
310
D585C6A2C2316791E43D5C06841ADBB226A87FD61515FFBB0167B74E56BD7F3E90A57A97FEDCBDF483A0D6699A8C0849CAEB4947FAA90D8E332D9DEBD9F4738C37DA0CAF9CF3DAA68BCB67C420459C7A64498D6E848E5CADE92BB6901F607AA331104A67F7CD650EE169B1DAE94D2C31C2F993632259B6957E246EFE4C5481
310
107B07118607700040E5812A2A2A38DA0076875258C753F60E0F2662C748EDD5F3F3686B8FC3BD6FE631ECCAA1E8B1C1E565AD117E54893E79F4672E32F9E46B2A183DFDCF3EECB4D4D077DBEA0DA254D256045109670050129E9B9B1A9E4A11344D61497A992778095151510C4BB7EF2009B63AA4360635312E4CF668B7E0
310
D3D85A8688E2BD83B569439892ADB63461930D428E0DE42E4AC57CE48DA5CC1449530D8BD3D6A0F08DF20C8E8F570F2CFFFCEA286E30969B4654D498A58D9DA782E19FE3F002181838925592C4A1EF0B332D88B61A92C644547BED490D3A42CFFAB70E36D961F694F6307F72FF15A1C79D5B1B5CEFD353D9E2B52566DEC8F8
310
F09CB3E8359C0F68EBBB7898243E34E12A015B2685AB303C04D3A9E00671FF3DFF0A184E4A2ABEB2B666AF5B3A209C73D8EF29DCDB069C9F391EEE9DD0F74C7BCDE16F8F02E3B8816122BBEB50665775B600549D8BB33A54A6BF940C028118BC6878C79958D6784F9DEAA6E26748386FFAF8D0D0101E2847B6563F5D8DC1D7
310
8F787BE00E2C941AE12148D4A81599FE8F68D4DA5CDED75530ADE138240300EE13B0FC13A1687FED6774662C05A2B7DFB186732F0D7A93545D8B0A6390AE5054D9CB582DA846D7A061B3358B45E2B52DDE63E114397EDB7E09233A579155D795BE76102CF277F4DF8B188C4F2879BEAE3C08347124BF9ED23B128259FE107D
310
31E34A652F090B30B39E0D9AF917B76A2806135621A8A60681F16AF216514BBD02711585B5B1AE823F4B2D0369EA5B6BCB863072727FFC871CA6C9AB79A814D989057E9470A3D238BC87CBB4A0EA49AFE2B86F22E499793CAA9047080450166BDC357524561E258C77CB697F1ABB32562CF87C3B7AA12F911EF19FB3E5C022
310
22E887D08202A60A17151F5E053A86B437771088B4FEE14D652C43E8D939995D34545E12E2FF93D4E366EAD25F10CB7DED141563C3D0C447AF06078A91135FD4B9611583CB4BF3BD167F2399CEAB0E0100F8FFC305F00F1711717173138B4B48C83022295DE657EFEDD97F238ECA80F528AFB4F8D67AD4E2594B9A3AA86D74
310
87EFC313BA95745C186F0CDD84CC12DC9CB0424B42203D351FD9C0A3AF10CC7F388E0329279087386421F194F4A29464C1DEF7EF8BE515E4A199DCD5B909342598D8FE6A231F71336248D5CEC5454455C7BE383B3BC7B260FED27F703FDC39A170F3827239102F59D4DEE7FEF82EAA1A5E4BA94DCC4CC44E7E2EDE20F24244
310
E4454369D2E87C3F823F193FD4FD27E1C23984B01898D15ABC20711A8A558054951A6AE280096BA36CBA439603B7B0B4C45F248C14B2383B4B5CD8ECECE4FF859AD4A6CA2326D020EF090F4041D28DB66E5256B56232CC52829DE8060BAE6BBF37D4B7469B822454FE93210A3E8D15E69FFCF01123222611C51C4FD0A041A0
310
CFA2471CF6BE38D2B20FA4C3525B5B8B586759475CF80ADFE67A284AC24651E52B8E683D24C2622642F27E7C3C22783BCF63648BC398BD6CD0D9C97E7E7E3EACB6126DB7A6C1FD9F1031302EE67ED96F22B77C7CA0239BB324207559B105E4693EB26EC46182A92C9C0DBD24F29B31C5C5AC1F84300E0E17CEEAC15F5736FA
310
4A98971E2F1423BFCD68D4BBD5F86E74B40A369F39507C88FCDB35D2DD8DEBEA4AF999E23CF2816D204200DF6E611781B9884C1AC8888B4DE397320472959434323A5A36B22A8E1F721A270DF3BD65E4A31C11FF048AFB0D8B7B6881423793963A23CFCE935FC189ED36FAE35C46DA3574C979E4394BE52084F3081837BE03
310
3396D2EBD80F1F691B273F660D2B32FA27A33B1DE4ADA5F0FA4651511102DFA410DDA86E065272CA314D5249DF91B06BB92807B28EFD54F08F7B525252782CD276DD02E6B0319B13DF87B1F6361AD6B28FC0D711CF445429B9E5A433CD493051C49A9E03DDB1B147D880253514A5DED88009018620EE229101C041950E2D8A
310
A8E1F5F5438E0C0C0C60EEDEE9E3E0C051948C69F84BB7B2A48A1F3C8EB9E6864687F4F4F6F6E2FA87608ADAF9C5E117B7C1A737E710769DA1D15ECE6A84502AA855398712D5FB51BE92E4EF824969CE18278798AC303C2C7980DD2500ADF8FB1E6D6C2FAAFF9987178923334A244758BAA01A9A1B70FA5097D01E1CC2A58D
310
AD0EC94CE6430AA9B0C10D75E3C6BAC670EFBADEE1607739CE0FC18A2587E3EC3058562014C64219C69BC269082D5C2F4A659278D585755912176D78A1B641719C2A394CED495A1AC5D583FD2F5EDD93308EA7EAE8A6DD396598BDBD3D4CFED62D18A5BDFDE0DD5C80D1A89BA62697B131AE7CE9A6594138582F1B37D68F17
310
49AC7CB67A70695D48A4A056AC1FBD4E82358CEAE38F54B95A9016F9000F9879C0D9D131768635CA798895F27D6F1614F11F2838A83611AA51C9A3DDB539D42979C29F10465655C17BEC3E2760B80DCBF609198C7B171A531905F3EC218D696025975E986C6B4C666666787271F202805577DD5A3EF0CAFAF91B62DC4B2DB4
310
217A7606282F31D8DDBC290593BAA93EA6353AFA9939B877978481E15CFC9F2755CDC00C538F63A4BA3E80AE009B73CA0185687D339A507D165B74290D6EE46D5C58148F020C3668ABE9EF2F7549170DC80DB41FFC1D678FF19AEB10C7133832B104B80F691B3138F97A92D26E551F1F110400D45AC71A9B9AC41A1A1B1DAE
310
ED0B0810638EFFB511D46B121C6FEA0F38CD00E03CFFEB9713FE1F9C263E4DDEC160D0497FA9A132BA608584057FB15380825DE6C7FC3C667EE947D488A09898D8E939C4953BF4EC9836344D2CC6B2971B2A21A572B06096F4982D2CC7232D46E8EA69DC83722E267754D777F97F96D5DA74E1E75178084D0E70F12AD33E5F
310
71EF2AFA599B2BEBF60A5BE475F444F240CBFE8143C334E7ED9150FEEFEF7EB020C4DBED388DD1D6A167A76F3CBF119B578AE8CFA7736ACAFA4440A1C47185638A0D2F3EB5BDDEFDA958FB13CE4AA4923D5BF840392D45544329525749734866684BF7F8D9D54D892E19BCA9F829A0F8BFCBEEA6CFDFC61D74EA1A645ED7A1
310
FF241739F15694BD835B66FEC5677E40FE69BD3F91AE402F036537218A401CB0828604AD189E575015C6F3F6BBC8AC79CF6C70653847254B31551EFCBEB5978B9DB85D58D0FA41A9DFE9C624834AA04949D24B5AE6D299E072D152D12097920F14AA92C31C3B97E28B6C2E6E9C23D63043ECBBC0A60FDF5BD0C33C127EA8A3
310
308B8B6AFFEB28B4455BF6E7AF4FC6222728357EB8E46E85053E6A8843AB23295BF838ABDA94658FEF3F832F147046B4ACD6F7D48E8FCC9618582961C898D1C7A253C91BFECBDA6BA18A1FCF70755DCCEE2222F41B76D23CA98D0CB3D95F0CF66D57FFF65E2A90F5DF40FC3187621E981BD0BC1D992787212688976B94A8F0
310
C6EF646624B570B78E068826F87CE27041A95C9A4871FF65CC17FCB1639629AD6A9517000D63AC231F3D741CB8430777E7ECF80CE7A3F73C0F162F7E56AA71F4DA80A33CD6ACEE78E2C11FAC03DAFCE929B106F8F6B3ED2DC71FF994BD9CEF4E9A94896EF1B6E2B7B4978168BCF0847A3D2A4F1B0500B926E634B174548E9F
310
BAD27153FB5FC36799B1E6C7C38A94E1F9E996796D7B485E635D5287A2AE76FBD11A341DB3F8F810385BB7296391973DC6C37C452A9305AEBBE0CDB6C566DB59FE60C8E94B1FD090354BF51439FFD1B48D725228FFA88C84F686F547107A7A235665A4593B7C34D748C1AC8D56DD5DA861EEFBADDECBBD65117E65851F9035
310
1AEB65F0EFCFF4BCFEF24CB7A5879699FAC437A7AF9099186CF006BB923A59E37D7A36A29FD8D2CBB914A5E9D0A8FD212FBF796AE9A67958FF1D5D8B85F78F96219D4714EB919929241B6C018AAE0C02069F8D919961EC5DDFBFB7573E3AC8E08BFB7C8534BE6DE045B3CD63DBD71F7638BA2309CAE398EA3A7D8F98BBBC7A
310
EB367EFA5CFA27A9F8F2F52FE878058E6209C026453F8E7E8A237DFC389E9590F6059B397CFD65183BBF936E86896612A5B5FEE49DAC8455D026218AFEBEC12B3523A45B57B82C9C97E02ACFA1184DB18E48CF615DBF39C3CC6F0B4AE6BBEEA2E39D944E290302FA3DE33FA7E40296E2EF7BF1CD855BBECFAD0FD622BEE974
310
6FC4FDFDE545AE6E3BC234CADF83A0FB76DFB145BF3828AE3436368AC24989454F8FF70A177672C711CAA1A76107218CF948CA01F873520E7A2B118EBB161ABAD432932029628B6761590C98AB590C8C8C79798CE9F715BA696E839E9131A4BB68BE923F1747FBFF165331FFDD4D05997ACD168F12CA75348DAC04C7F509FE
310
83898A8B421181AF492861CE81E4A2DD0A30850CFA95E05F097FF70F9E777310D584A75BA7018922E271DAB1D785671157685B7D383D3E074DDB4F1E44EF04B07BAAC75A062077C54B9752C738C9D804D402E02851F3F89605AF189738C18C021D2139EAF72513824E10DDD3047BACC8521ED7E98B257D1166903B1B08FA6F
310
918FD7E162913FEC7D0EF4787E29C35FBA8C6E2C9C20E9AB30AE42CA2A01A090E7D010C1B5BF9CEE2A304BF3A987FB40D836979B79E18D70F257DA61E808472DD85B82761825779D6B90CAEB0F23360C6F80A7D7D77545E95B3DFF0CF96A827F9B5BCECD2C9698718417EF80FEEDEE938AFF55859D0D540B7FE09435583A6F
310
04874A0C7E8CF234DF4879722000167F5872CEC6BF3EF7E5A8CC8121E6A359227C8A29C95212F9F735BC72A887D56B8F309FC525BFB4FD767AAEC4AEFF249CFBBD2DE1AB9969A6155C7D8DABC307E47324C1F916C7BCFF40ABA5644E9FFB9238D19ADADA49D9610F01ABBA57E4DFCBDCCBB2B93C8953206C91DE01B0E2651A
310
6D6C31721915B31F7B7CBCE55466F6D70402788FA91D73BE4ADCBA99A35F17D6B83383704917D6833F0FA3CD45C926ADB8BC17999A4A0AFBCE2541F7B8CF4C2F5FBA611B3E626D64407CB32C122DFF4EF8674D6EDBB86C8F7C6A16D50FA685E2CCA34F8F7D1D8265BB0042E9D7F1F666F7BE5FAA5184DF58E12122A42EF02F
310
461B3F369AC746F96528AD208512AB56844CF75B97F352DF7995024FB02855385854F3798670D01CAC771AC3E1889EC25F61A20C1F8CAB46898817F9C47E2CDA1F286BF2F358298709FE567C91133E2638C8B53975E753EA8BFD3578B5F7186B7BF084EBA3F77BAC3132A5779902EC22AF2D2E79F42D324E083386DAEE9810
310
D1B44A5DAA54513C7A71E52A4AB9257D975B621308FE4D2141CC3DCFE946C154A3C1DFCCA7629EC69ACFA831634ADDA93C0388D2A9A2DDAFCF957C6995BCE7FBB6DC4EBAE79E63EB08E9A25F52F67076F7093CA545CA3053B5BF576DEAD4E0017143C5F759F32B2D6F145B52B67B48909B7C7FCA6586EE385A2189C16932CB
310
6DDFD9152AE317C430492A578ED27B72D85D40C7C93C097939E1B50F4D67F05334FE9DC362C30B7FF561B95259138ECFD9274C8D695C31B14D4EAA9F3D7FA8DDF652F8C5DEFA23284C799B7D94416DEE81E05A866302DC70192A5368EA65E1CED8BF107A1E2D3119A71E85DC1A7B0C1E93274CE04DD0F2ABC8AC7C987FDB00
310
2B6F81757B43502EF7A0D92E416494FAEEA4C9C090CD9557AA4D532F4996A272B94355C5A0E4974EEA9627476F30809B94D8D8D860062E02204643BEC7D0438AF800FC7E2B26955D595421E83C69E1A07E0E3122285835F014AD538188CF9737CE76D464A353FA55A001AB2526B84E985083693BC76FE211CA1D000679C889
310
E3C009832C87E1AC2EDD05C302557422DF0800E316FCAC86978A371F025A6C7DAA9F333E7BD160403A1A06EA75AA9888FF01504B03041400060808001C8F295051464CB48900000043010000360000006662782F30363331343937312D384235352D343938422D414236432D3745334537323330444245452F646972656374
310
6F72792E786D6C9D8F310EC2300C45AF127987122606C71DD918B841D4B851A43646695A717C52A85029031293A5A76FBF6FACEF7DA7264E43906840EF0FA03836E242F406C6DCEE4EA06AC22492573150D1F66C60C640E8938CB705396EEDD86DE9B5042FE27813D640EA63BB001C722AF6E55CB61E4863F58284D5D3F53D
310
D715CE1C3985E63FD7F1B7EBDD617E9F1E504B03041400060808001C8F2950A35792633F070000541C0000340000006662782F30363331343937312D384235352D343938422D414236432D3745334537323330444245452F6F626A656374732E786D6CDD59DB6EDB3810FD1542FBB2FBA09BEF2E1417F1258551A42D6A74B1
310
6F022D530A37BA81921267BF7E8714294B8A6C2BDD162836051A87A686336766CE0C47CEFB6314A227C2329AC4379A6D581A22B1971C681CDC6845EEEB330DBD5F208725495EDBA7A11847E446E3CBDAC2095852A472E9407C5C84EDD5BBE55F28F3484C34E48538CB6EB4CC7B20113670912707923D1A079C6323F08F866D
310
941B9B620386D387D651296624CE4155588F418AD4C06EFE0926990BC7E41B1ADB06FDB60D2F6C3385E14D45699CE538F65E69D59233E8A7D5D01EAD3783F15C1F8F46437D3419D8FAF26EB9D6EDE9D05A4D56ABF9ED66AEA185B34F92B072404AE20378F1455BD88EC9BFA9CC972874E9ED25714C3C8966D78603917229C9
310
DA983480B58569358794B6D616863D8D3FB3AD17280D951A682BE3D4EF7AF426FBBF0184AC4F94B28CF028CF7206BE96D897F9603966B9DAF00BCD508473C2280E5148F70C3370106C2D1DD410C3B3858B421C33E14525AFAE2B04F6F55CEAD2D22FC290E7AFB61099E6423E923C139AD17F083B695F3F0D74026B0B1AE733
310
696CFE928288B9638AC5F2BBE1407E590289FC1007102D6026DF341CB4F05A712ED8AEB5C5C7BBFD71C7F9A1FBF094252961398F3C91CC32EF94076BA105C1D7039412D7A6EF4EA87C05E83F01F2952EC801CF317A1C1D47CA7686E3CC4F5804DE4116D22DF8CF42FCE3AB4F8E593DBC40A8C195E73085B4FD419836CC689C
310
5D8374E13C41D0276C288DDB79388498BEA731CF7308141426B0047CEFEF8FDA620B640A8BF0140EC17AF8E798FC23825FA51CE09B9687BAE8B787A354C2B4F3ECE4AB0F10338C7A95AB1A369EC377FC43F0BD5DEF3EEE0AE6638FDCCBC45E139FC6348762DAAD5003F446CA7FDB7E1219F9CA9EC62E0FCE09124E1C1D7ED9
310
49BF20E1185085D7E1D23562E59E42BA87218E49526472BD8BA8BC244C98BB7F71CB1CEE3CEB4F1504E56190DF3C023AC90CAABBC768CA41D116D2BC8A098D134E9C07650006A553DD3DF61E39BCAE078CF53D7A40D462D6165A44A98BA3A488397DBF0EEFB669C6D0123FB63D1F58F3C16C3E1ECB8007DDC5012A7F143954
310
EAF393229C9E3966D5F097E40D0564994923E0CB2E1B3CE89A8ADC4D52ECD1BC3B1A5A66F454F9407DBFC880D63B8169696C0CED71898DFA7F3040D61B562BA52E5B2B9572698403E2FA98D7C44EFD1A8056C295933A910CC224CB684C32D1D3BCE2BA168A9601D45146BA92DA11B634732392E3EF895851245B01CB881FBA
310
D07DE5BCFFBD1EAF4A41596FCF49E4BD5E12BBC2FE1737C3511A967DDD350CEC41EB844E5CB9D2FC8827884F17E7AE7520A24DBF26BD6212856F2FE9F3EF167F061E867F3A3CEA080ACD3A54D5EB9EB58DB13DE73F33A0A1C9D81E4EA6952BAEA1A50ECB79DF1216D069792FEE33A1C1433F12542EBF784E4642DFA5615844
310
6E5943721241DB86F382F5CAD809B049FB20C90CAD94A89DE4D3109AEADE342BFA15D5B1C061A2613947B3B563C0281AC3BDAE9721AFACE80C62E10B7187E557B5EBFE7FBBD4FFCC98F5BBCD2379794ED8A153D366EBA1BA36D56470C29435B172AF90BC70EAE91789CBCE751C464A8864B8F2662123849127CA8719E2D6D4
310
79E7C89E71EE0195EEC46F7D0919712087531FD210274723DA020E55D2546F5BBF1D01DDF102D268D6B69C5223985060CEB4F7FC43F81583ABA15BCC4CD90999E5FA969736038631273D2EC8FAFC61D792022BBD9FFEC23122CF2D097275C59BBF0BA2BE6D4F3D6E4B82B4E8DBF6C2E3F94311ED634C796DE461810FE9BBF7
310
E2FE7963C2E5C2B42670B99F4F6D7DB61C8FF5D17CB6D46F9793953EDD0C37D3C1D05A2F371B93912C2998473273605AAEEAB6D23850815142D7E716029388EBD74515CF6D07FF8F6F2161B2C7E762F157BD84540D1F6FC95AB9D8F712D249D4FBB7DD18EC5744DD5DC4DED46B97F30515E097CB169091AAF7FD9B0B255A55
310
F86E9D6B15F18D85F7ECFDE6A7D79806A177D687C68E2ECA6F7231CCAB3AAA94BA110B5E1BADADF574BCBED3C7D3E5461F8D561360B4D948BF1BCEC6E3F57433B02655196BB3D5B5BAF24B70A82A82B5D11B4C90B324A430C82707149004EE4030A9E8C1AF2C2299B8DB400320CBB87A8BD0E3E9A7720E9BE37DA89EF61E30
310
0CB34359910B0F06A970EFB8D1E43AFA0D46A77C7A29065AC623141E19ED1A2A18BDD12004720AF5C5D8C3084C0C1C85F4D688130217C701BF35954F557F9F1EE3E840AC9CECAAF6F4C1455AD6884E1827A4E2DD02B09D6A48BEDF74A50EC2397CDC177965CC69E1648D0441BD44288D8349E1A384F708C473D92EDB107B1A
310
90F49AE65F8C8352AA9E631688917C0DEFDBF517934FD3B79F511A160177E7A57ADF90A4F33E232CCAC195038121CD4C31BF89AFDE995F5802AFA52274472108D0EFC7D9E40F7395445112974BE6AD7CB985760FF0AAEA60AA3121342E963D3345DF235F05C0AC2B23063E648FB000AE6594CF534B881B0150D1532D009447
310
B82FE0B1C6FEED1AC922506B61EB14C3E111EF011024127FFFC3D3A6BEA136B4845C00ADC497A70F6AC131190CCE17FF02504B03041400060808001C8F2950B4E015B4DF000000550100003C0000006662782F30363331343937312D384235352D343938422D414236432D3745334537323330444245452F7265736F757263
310
65732F322F636E782E786D6C4D90DB6A042110447F45843C8E3A03B9E2B83F91A7BC2C467B8DEC8C3D7809C9DFA7DD1808082D5587A6BAF4E96BDFD827E41231AD7C168A33480E7D4C61E5AD5EA627CE4E4667C4FA0FE32CD91D56DE656E74C8D88E2179B8D8B675758BE93A44750E902047773E52E0CC6DB6949517F701BB
310
15B655F450AEC2DB6AC52C32146CD901ADA87187B1C265B0153C378B5AD4A4E6493DBFCE8F2FF70FF4DEB4ECA4D1EF88DBE063AA90F1B85B9443FA264AA4B4EC80D12DC741F533C8F88B27289E96641B5D6AA60E0656BF0FC2E26E03C81BF2EB1A2DFB91346E0DD0EC85981F504B03041400060808001C8F2950FF15A4A45D
310
000000800000003A0000006662782F30363331343937312D384235352D343938422D414236432D3745334537323330444245452F7265736F75726365732F636E782E786D6C4D8B3B0E80201005AF42B6F75B59F0390B113044D83508C6E30BC6C26AF226F3B8BA6360974DA7271430F523308B2B198F9B80925DB700539227
310
A2FCCB80A18E5640D320F996A81C9F32D6E9129A0D1EF74FCE750E6D57BC7165FBCA07504B03041400060808001C8F29504BFEA0494201000056050000300000006662782F30363331343937312D384235352D343938422D414236432D3745334537323330444245452F636E782E786D6CCD944D6AC3301085AF62045DDA96
310
03FD4556A08B9EA08BD29D2C4F5D35B264A451696EDF51EA242D25B48B40025A88D127786FF43462F931DAE21D4234DEB5ACA9382BC069DF1B37B42CE14B79C38AA514C17BFC86B1C2A9115A96CB4C8A21F834CDA51E5E54B2B96A8D5BCD4585184C9710222BB45531B62CEA571855A512FA1EE2AAEA15AAAAA902449F8206
310
BA8F6684F9BE0EA0107A26177CC14BDE94FCF6B1B9BEBBBCA2F52CEA4C4AD1796F67DE3884E0A78B05D79EB68EE4705167408A14CC4C650F4CEEB5559D71A2A6732922E975C3CCE17ACADC3459A31552A36AAF11B02408D428EA2F588A3A3BFEE1FBE1FE69AF8176BD09A0D187F5C9DAD01C6AC34E5A4589F85F1736E05FE6
310
7DF746964FF7EE070DCFC28E66779BDC48D1FD9D04CA9372833DC70FB09376FCFCD36041A3CFD1F456D9913CD79B11480F9F27A2FC04504B03041400060808001C8F29509439A5A57F000000A30000000B0000006662782F636E782E786D6C4D8C4D0EC2201805AF42BE3D5AA43F34011A510ED258DA905230588CC7174C17
310
AE5E3279337CF86C0EBD4D7CD9E005905305C8F84798AC5F04A47DC60CD020790C61FFBB01F2E36604140C922F31A4E78126338FC915EAAC5F0F58B594D47D4730534D83EB9E297C55ED0D779AEAEE42ABBBD23A1BE7A2E4F9F5F296BCFC02504B03041400060808001C8F2950A6D797065F0000008200000007000000636E
310
782E786D6C4DCB3B0E80201045D1AD90E9FD7516806B51190811670C8A61F982B1B0BAC9C97B72CA7B1037C6D3332918DA1E04D2CAC69353902EDB8C20262D23F3F59B81A079470595414B17391D1F19B4730A5583A7ED43BBE4025D9592775E5ADFFA01504B03041400060808001C8F2950ECFD112DA80000002601000013
310
0000005B436F6E74656E745F54797065735D2E786D6C7D4F4B0EC22010BD0A61DF525D18634ABB506FE00510A79458060253536F2FD89D5197F3FED3F68B9BD80362B21E25DFD40D6780DADF2C1AC9671AAA3D677DD75E9E0112CB5A4C928F44E12044D22338956A1F003333F8E814E5331A1194BE2B0362DB343BA13D1220
310
55543278D79E6050F344ECBC6478EDCD76CE8EABAE5449AE4298AC56946789C28AAFBEABC53F3EAF09A84A1441B91F0101CD4780756578C173A578FFDDBD00504B03041400060808001C8F29503DEE336E64000000790000001B0000006175746F6465736B2D64657369676E2D7061636B6167652E786D6C35CBC10E83200C
310
00D05F21DCA56CA76D41FC96062B120735B69A7DBE268BB7777961F8D5AF396893C2ADB70FE7ADA196782C2DF776D7A97B5933C430F15651E5469C55D70F80A4992A3ADC954792C525AE70A1E4D6AD9816CC044FEFDF01FE3FDE907802504B03041400060808001C8F2950E12796D8F30000008E0100003D0000006662782F
310
30363331343937312D384235352D343938422D414236432D3745334537323330444245452F7265736F75726365732F322F636F72652E786D6C8550CB6EC32010FC156BEFD86027A95B6122BB225FD0536F08888B1283C5A3EAE71762576A4F9556DAD53033CB0E3D7F2DF7EA53FB609C1D80D4182A6DA553C6CE03A478453D
310
546746BD73F1170D2A2B163D408181D1D9BBB4EE9074366A5B50EB94DE4111828E50C97B1E0608F2432FA216296646B8D5AB903731EB9AD41B8FD1948CDAA54665377335DA03EB79C7F9814C88F7278E0EAFC70B9ADABE4723B98C789CBA914C9C3645CC6834CBCF76E9B5885A016B718B1126083FBF91A797E329D73B6D0A
310
93D1107DBE795F5AAECB74DA6CE81FB7B4AAFFDD92B1B16B77B74D118091FCB9C703A34D4927B74774B99724D937504B03041400060808001C8F295090FBE588F9000000960100003B0000006662782F30363331343937312D384235352D343938422D414236432D3745334537323330444245452F7265736F75726365732F
310
636F72652E786D6C8550CB6E833010FC15B477038624A595710495F3053DF566990DB5126CE447D5CFAF1DA8D49E2A595A6B76667677D8F96BB9179FE8BCB6A6075AD650A05176D266EE21862BE9A03873E6AC0DBF685018B9600F1906CE6667E3BA43CA9A8026A3C64EB883D27B0C50A87BFAF4E0D5072EB294312486BF95
310
AB5437396349CB8DC7598C7ADAA57A4A6EFAAAD101EF442BC4818E447427410EAFC70B199BAE2303BD0CF530B6031D05ABB298B3A0979FE9CAA10C38016FEAA6263525F5F31B7D7A399ED27B67556672E6834B37EF43F375C01D7A1B9D42CFAAADFBC735AED3FFAE519BD036BBEBA6F0C0695AF2D1E0ACCA29A5F28830D59C
310
28FF06504B03041400060808001C8F2950331F3C26F2000000B1010000310000006662782F30363331343937312D384235352D343938422D414236432D3745334537323330444245452F636F72652E786D6C8D504B6EC32014BC8AF5F6D860C7BF0813D5AD6FD0557708131725068B4FD5E31762576A7791901E1A66987943
310
2FDFEB3DFB92D629A3072039864C6A6166A5970182BFA20EB20BA3D618FF870699E6AB1C20C1C0E8624DD80E4818EDA54EA836B33C40EE9CF490897BBC0CE0C4A75C79CE838F0C77CB372E6E7C9139C9771EA35EADBF526125F7720656E212234C10EEDF497BAE9B783E6891988C86A0E6C34ACDD15D5D95B4C070539153DF
310
12D48D758D4E7D37A297B17945ED544D6D59E1B7719A6891C48C3A6FE3CEC72769BB67E5BBF05FE6B0CD4F6456DA57E561B82B1C3012F33C1E182D5281713CDA8D3395CD7E00504B03041400060808001C8F29506B3664C653010000DD0200000C0000006662782F636F72652E786D6C8D52CB6E833010FC15E4BB01934769
310
651C4145BEA0A7DE1C70A815B091B1513EBF6B1E4A3934AD40D89ADD99DD19414FF7AE0D466106A955864818A340A84AD752351972F68A53149C18355ADB1F6D2850BC1319F23062B431DAF50B54696585F2A8D2B558403E0CC2A2A06AE192A1A1FA121D0FB9B3D031DCC29E5737DE889084731FA3CEC97AA1CA1AD4E4550A
310
83585AEECA724F0A5CA6C712EFDF0F675C24698A7372CEE3BCD8E5A42869E4C98C5AD9ADD32B23B8153562499CC43826387EFD202F6F8723BC9F34F29D8C0ED680E765A87787D8F572A7D18C6FF45C5FFFADE7A4B2BB64D19B19036204D69B0A8C463E1F38A6F0B619C260C8CFF24BBB5AB801348ACA6AB3874AADDDA334F2
310
D609908E83E9A1D15C05E549E0379DE489CE730D088AAB0656E316AE1767FDF4ED4EBD3078B4F74069D3F1F6B1DCBCE2E3FB18B4B1B4D22BDD6AF31FF66A750D33F23F26FB06504B03041400060808001C8F295033707C9F08010000B201000008000000636F72652E786D6C8D50416EC32010FC0ADA3B36D849EA4698C8AE
310
C80B7AEA8D1AE2A2D860018EDADF1712576A6F959016CDCCEECC2E3B7DCE13BA691F8CB32DD08200D27670CAD8B185355E7003E8C499772EFE9201B272D62D6418381BBD5B970D1A9C8DDA66D43AA5375086A023A0614A9F16C2F0A16759C8352645B8168B1CAE72D4052D1E3ACEA2997F5A07AF65D40A78452A8209C5E4F9
310
953E1DF787F4DE5899959CADAB519B9551C9DD5C8CF6C01B510BB1A33D16CD41E0DDCBFE8CFBAA697047CF1DE9FABAA3BD60656EE62C449F76DE86A49C110579CBBEAC7C509CBD3B376D82144A2167A72FE0849599F8137A5DD43F421B1BEB6A1BF8E808C0690A74279271BE602AF7F3A69AAFCDBF01504B01021400140006
310
0808001C8F29500000000000000000000000003700000000000000000000000000000000006662782F30363331343937312D384235352D343938422D414236432D3745334537323330444245452F617474726962757465732E62696E504B010214001400060808001C8F295000000000000000000000000035000000000000
310
00000000000000550000006662782F30363331343937312D384235352D343938422D414236432D3745334537323330444245452F76657274696365732E62696E504B010214001400060808001C8F2950F270F13306000000040000003600000000000000000000000000A80000006662782F30363331343937312D38423535
310
2D343938422D414236432D3745334537323330444245452F747269616E676C65732E62696E504B010214001400060808001C8F295088E57597CD3F0000904100004200000000000000000000000000020100006662782F30363331343937312D384235352D343938422D414236432D3745334537323330444245452F726573
310
6F75726365732F322F305F67656E657269632E706E67504B010214001400060808001C8F295051464CB4890000004301000036000000000000000000000000002F4100006662782F30363331343937312D384235352D343938422D414236432D3745334537323330444245452F6469726563746F72792E786D6C504B010214
310
001400060808001C8F2950A35792633F070000541C000034000000000000000000000000000C4200006662782F30363331343937312D384235352D343938422D414236432D3745334537323330444245452F6F626A656374732E786D6C504B010214001400060808001C8F2950B4E015B4DF000000550100003C0000000000
310
00000000000000009D4900006662782F30363331343937312D384235352D343938422D414236432D3745334537323330444245452F7265736F75726365732F322F636E782E786D6C504B010214001400060808001C8F2950FF15A4A45D000000800000003A00000000000000000000000000D64A00006662782F3036333134
310
3937312D384235352D343938422D414236432D3745334537323330444245452F7265736F75726365732F636E782E786D6C504B010214001400060808001C8F29504BFEA049420100005605000030000000000000000000000000008B4B00006662782F30363331343937312D384235352D343938422D414236432D37453345
310
37323330444245452F636E782E786D6C504B010214001400060808001C8F29509439A5A57F000000A30000000B000000000000000000000000001B4D00006662782F636E782E786D6C504B010214001400060808001C8F2950A6D797065F000000820000000700000000000000000000000000C34D0000636E782E786D6C50
310
4B010214001400060808001C8F2950ECFD112DA8000000260100001300000000000000000000000000474E00005B436F6E74656E745F54797065735D2E786D6C504B010214001400060808001C8F29503DEE336E64000000790000001B00000000000000000000000000204F00006175746F6465736B2D64657369676E2D70
310
61636B6167652E786D6C504B010214001400060808001C8F2950E12796D8F30000008E0100003D00000000000000000000000000BD4F00006662782F30363331343937312D384235352D343938422D414236432D3745334537323330444245452F7265736F75726365732F322F636F72652E786D6C504B0102140014000608
310
08001C8F295090FBE588F9000000960100003B000000000000000000000000000B5100006662782F30363331343937312D384235352D343938422D414236432D3745334537323330444245452F7265736F75726365732F636F72652E786D6C504B010214001400060808001C8F2950331F3C26F2000000B101000031000000
310
000000000000000000005D5200006662782F30363331343937312D384235352D343938422D414236432D3745334537323330444245452F636F72652E786D6C504B010214001400060808001C8F29506B3664C653010000DD0200000C000000000000000000000000009E5300006662782F636F72652E786D6C504B01021400
310
1400060808001C8F295033707C9F08010000B201000008000000000000000000000000001B550000636F72652E786D6C504B050600000000120012002D060000495600000000
  0
XRECORD
  5
DCE74
102
{ACAD_REACTORS
330
DCE73
102
}
330
DCE73
100
AcDbXrecord
280
     1
102
DISPLAYNAME
  1
Imperial24
102
FLAGS
 90
        0
  0
XRECORD
  5
DCE78
102
{ACAD_REACTORS
330
DCE77
102
}
330
DCE77
100
AcDbXrecord
280
     1
102
DISPLAYNAME
  1
Metric50
102
FLAGS
 90
        0
  0
CELLSTYLEMAP
  5
DCE71
102
{ACAD_REACTORS
330
DA44C
102
}
330
DA44C
100
AcDbCellStyleMap
 90
        3
300
CELLSTYLE
  1
TABLEFORMAT_BEGIN
 90
        5
170
     1
 91
        0
 92
    32768
 62
   257
 93
        1
300
CONTENTFORMAT
  1
CONTENTFORMAT_BEGIN
 90
        0
 91
        0
 92
      512
 93
        0
300

 40
0.0
140
1.0
 94
        5
 62
     0
340
11
144
0.25
309
CONTENTFORMAT_END
171
     1
301
MARGIN
  1
CELLMARGIN_BEGIN
 40
0.06
 40
0.06
 40
0.06
 40
0.06
 40
0.18
 40
0.18
309
CELLMARGIN_END
 94
        6
 95
        1
302
GRIDFORMAT
  1
GRIDFORMAT_BEGIN
 90
        0
 91
        1
 62
     0
 92
       -2
340
0
 93
        0
 40
0.045
309
GRIDFORMAT_END
 95
        2
302
GRIDFORMAT
  1
GRIDFORMAT_BEGIN
 90
        0
 91
        1
 62
     0
 92
       -2
340
0
 93
        0
 40
0.045
309
GRIDFORMAT_END
 95
        4
302
GRIDFORMAT
  1
GRIDFORMAT_BEGIN
 90
        0
 91
        1
 62
     0
 92
       -2
340
0
 93
        0
 40
0.045
309
GRIDFORMAT_END
 95
        8
302
GRIDFORMAT
  1
GRIDFORMAT_BEGIN
 90
        0
 91
        1
 62
     0
 92
       -2
340
0
 93
        0
 40
0.045
309
GRIDFORMAT_END
 95
       16
302
GRIDFORMAT
  1
GRIDFORMAT_BEGIN
 90
        0
 91
        1
 62
     0
 92
       -2
340
0
 93
        0
 40
0.045
309
GRIDFORMAT_END
 95
       32
302
GRIDFORMAT
  1
GRIDFORMAT_BEGIN
 90
        0
 91
        1
 62
     0
 92
       -2
340
0
 93
        0
 40
0.045
309
GRIDFORMAT_END
309
TABLEFORMAT_END
  1
CELLSTYLE_BEGIN
 90
        1
 91
        1
300
_TITLE
309
CELLSTYLE_END
300
CELLSTYLE
  1
TABLEFORMAT_BEGIN
 90
        5
170
     1
 91
        0
 92
        0
 62
   257
 93
        1
300
CONTENTFORMAT
  1
CONTENTFORMAT_BEGIN
 90
        0
 91
        0
 92
      512
 93
        0
300

 40
0.0
140
1.0
 94
        5
 62
     0
340
11
144
0.18
309
CONTENTFORMAT_END
171
     1
301
MARGIN
  1
CELLMARGIN_BEGIN
 40
0.06
 40
0.06
 40
0.06
 40
0.06
 40
0.18
 40
0.18
309
CELLMARGIN_END
 94
        6
 95
        1
302
GRIDFORMAT
  1
GRIDFORMAT_BEGIN
 90
        0
 91
        1
 62
     0
 92
       -2
340
0
 93
        0
 40
0.045
309
GRIDFORMAT_END
 95
        2
302
GRIDFORMAT
  1
GRIDFORMAT_BEGIN
 90
        0
 91
        1
 62
     0
 92
       -2
340
0
 93
        0
 40
0.045
309
GRIDFORMAT_END
 95
        4
302
GRIDFORMAT
  1
GRIDFORMAT_BEGIN
 90
        0
 91
        1
 62
     0
 92
       -2
340
0
 93
        0
 40
0.045
309
GRIDFORMAT_END
 95
        8
302
GRIDFORMAT
  1
GRIDFORMAT_BEGIN
 90
        0
 91
        1
 62
     0
 92
       -2
340
0
 93
        0
 40
0.045
309
GRIDFORMAT_END
 95
       16
302
GRIDFORMAT
  1
GRIDFORMAT_BEGIN
 90
        0
 91
        1
 62
     0
 92
       -2
340
0
 93
        0
 40
0.045
309
GRIDFORMAT_END
 95
       32
302
GRIDFORMAT
  1
GRIDFORMAT_BEGIN
 90
        0
 91
        1
 62
     0
 92
       -2
340
0
 93
        0
 40
0.045
309
GRIDFORMAT_END
309
TABLEFORMAT_END
  1
CELLSTYLE_BEGIN
 90
        2
 91
        1
300
_HEADER
309
CELLSTYLE_END
300
CELLSTYLE
  1
TABLEFORMAT_BEGIN
 90
        5
170
     1
 91
        0
 92
        0
 62
   257
 93
        1
300
CONTENTFORMAT
  1
CONTENTFORMAT_BEGIN
 90
        0
 91
        0
 92
      512
 93
        0
300

 40
0.0
140
1.0
 94
        2
 62
     0
340
11
144
0.18
309
CONTENTFORMAT_END
171
     1
301
MARGIN
  1
CELLMARGIN_BEGIN
 40
0.06
 40
0.06
 40
0.06
 40
0.06
 40
0.18
 40
0.18
309
CELLMARGIN_END
 94
        6
 95
        1
302
GRIDFORMAT
  1
GRIDFORMAT_BEGIN
 90
        0
 91
        1
 62
     0
 92
       -2
340
0
 93
        0
 40
0.045
309
GRIDFORMAT_END
 95
        2
302
GRIDFORMAT
  1
GRIDFORMAT_BEGIN
 90
        0
 91
        1
 62
     0
 92
       -2
340
0
 93
        0
 40
0.045
309
GRIDFORMAT_END
 95
        4
302
GRIDFORMAT
  1
GRIDFORMAT_BEGIN
 90
        0
 91
        1
 62
     0
 92
       -2
340
0
 93
        0
 40
0.045
309
GRIDFORMAT_END
 95
        8
302
GRIDFORMAT
  1
GRIDFORMAT_BEGIN
 90
        0
 91
        1
 62
     0
 92
       -2
340
0
 93
        0
 40
0.045
309
GRIDFORMAT_END
 95
       16
302
GRIDFORMAT
  1
GRIDFORMAT_BEGIN
 90
        0
 91
        1
 62
     0
 92
       -2
340
0
 93
        0
 40
0.045
309
GRIDFORMAT_END
 95
       32
302
GRIDFORMAT
  1
GRIDFORMAT_BEGIN
 90
        0
 91
        1
 62
     0
 92
       -2
340
0
 93
        0
 40
0.045
309
GRIDFORMAT_END
309
TABLEFORMAT_END
  1
CELLSTYLE_BEGIN
 90
        3
 91
        2
300
_DATA
309
CELLSTYLE_END
  0
ENDSEC
  0
EOF
