  0
SECTION
  2
HEADER
  9
$ACADVER
  1
AC1027
  9
$ACADMAINTVER
 70
   125
  9
$DWGCODEPAGE
  3
ANSI_932
  9
$LASTSAVEDBY
  1
NN40375
  9
$REQUIREDVERSIONS
160
                 0
  9
$INSBASE
 10
0.0
 20
0.0
 30
0.0
  9
$EXTMIN
 10
-995.0593867953427
 20
-707.5
 30
0.0
  9
$EXTMAX
 10
1683.320247735438
 20
666.061572645991
 30
0.0
  9
$LIMMIN
 10
-1183.738028243999
 20
-482.577477193845
  9
$LIMMAX
 10
1198.257431087698
 20
821.9562918286355
  9
$ORTHOMODE
 70
     0
  9
$REGENMODE
 70
     1
  9
$FILLMODE
 70
     1
  9
$QTEXTMODE
 70
     0
  9
$MIRRTEXT
 70
     0
  9
$LTSCALE
 40
100.0
  9
$ATTMODE
 70
     1
  9
$TEXTSIZE
 40
64.0
  9
$TRACEWID
 40
0.05
  9
$TEXTSTYLE
  7
STANDARD
  9
$CLAYER
  8
OUTLINE
  9
$CELTYPE
  6
BYLAYER
  9
$CECOLOR
 62
   256
  9
$CELTSCALE
 40
1.0
  9
$DISPSILH
 70
     0
  9
$DIMSCALE
 40
1.0
  9
$DIMASZ
 40
10.0
  9
$DIMEXO
 40
10.0
  9
$DIMDLI
 40
100.0
  9
$DIMRND
 40
0.0
  9
$DIMDLE
 40
0.0
  9
$DIMEXE
 40
10.0
  9
$DIMTP
 40
0.0
  9
$DIMTM
 40
0.0
  9
$DIMTXT
 40
45.0
  9
$DIMCEN
 40
0.082
  9
$DIMTSZ
 40
0.0
  9
$DIMTOL
 70
     0
  9
$DIMLIM
 70
     0
  9
$DIMTIH
 70
     0
  9
$DIMTOH
 70
     0
  9
$DIMSE1
 70
     0
  9
$DIMSE2
 70
     0
  9
$DIMTAD
 70
     1
  9
$DIMZIN
 70
     8
  9
$DIMBLK
  1
ORIGIN
  9
$DIMASO
 70
     1
  9
$DIMSHO
 70
     0
  9
$DIMPOST
  1

  9
$DIMAPOST
  1

  9
$DIMALT
 70
     0
  9
$DIMALTD
 70
     2
  9
$DIMALTF
 40
25.4
  9
$DIMLFAC
 40
1.0
  9
$DIMTOFL
 70
     1
  9
$DIMTVP
 40
0.0
  9
$DIMTIX
 70
     0
  9
$DIMSOXD
 70
     0
  9
$DIMSAH
 70
     0
  9
$DIMBLK1
  1

  9
$DIMBLK2
  1

  9
$DIMSTYLE
  2
STANDARD
  9
$DIMCLRD
 70
   256
  9
$DIMCLRE
 70
   256
  9
$DIMCLRT
 70
   256
  9
$DIMTFAC
 40
1.0
  9
$DIMGAP
 40
10.0
  9
$DIMJUST
 70
     0
  9
$DIMSD1
 70
     0
  9
$DIMSD2
 70
     0
  9
$DIMTOLJ
 70
     1
  9
$DIMTZIN
 70
     0
  9
$DIMALTZ
 70
     0
  9
$DIMALTTZ
 70
     0
  9
$DIMUPT
 70
     0
  9
$DIMDEC
 70
     2
  9
$DIMTDEC
 70
     2
  9
$DIMALTU
 70
     2
  9
$DIMALTTD
 70
     2
  9
$DIMTXSTY
  7
STANDARD
  9
$DIMAUNIT
 70
     0
  9
$DIMADEC
 70
     0
  9
$DIMALTRND
 40
0.0
  9
$DIMAZIN
 70
     0
  9
$DIMDSEP
 70
    46
  9
$DIMATFIT
 70
     3
  9
$DIMFRAC
 70
     0
  9
$DIMLDRBLK
  1
Open30
  9
$DIMLUNIT
 70
     2
  9
$DIMLWD
 70
    -1
  9
$DIMLWE
 70
    -2
  9
$DIMTMOVE
 70
     0
  9
$DIMFXL
 40
1.0
  9
$DIMFXLON
 70
     0
  9
$DIMJOGANG
 40
0.7853981633974483
  9
$DIMTFILL
 70
     0
  9
$DIMTFILLCLR
 70
     0
  9
$DIMARCSYM
 70
     0
  9
$DIMLTYPE
  6
BYLAYER
  9
$DIMLTEX1
  6

  9
$DIMLTEX2
  6

  9
$DIMTXTDIRECTION
 70
     0
  9
$LUNITS
 70
     2
  9
$LUPREC
 70
     4
  9
$SKETCHINC
 40
0.1
  9
$FILLETRAD
 40
0.0
  9
$AUNITS
 70
     1
  9
$AUPREC
 70
     3
  9
$MENU
  1
ACAD
  9
$ELEVATION
 40
0.0
  9
$PELEVATION
 40
0.0
  9
$THICKNESS
 40
0.0
  9
$LIMCHECK
 70
     0
  9
$CHAMFERA
 40
0.0
  9
$CHAMFERB
 40
0.0
  9
$CHAMFERC
 40
0.0
  9
$CHAMFERD
 40
0.0
  9
$SKPOLY
 70
     0
  9
$TDCREATE
 40
2450330.393194445
  9
$TDUCREATE
 40
2450330.018205995
  9
$TDUPDATE
 40
2460262.657511574
  9
$TDUUPDATE
 40
2460262.282511574
  9
$TDINDWG
 40
5.5540712269
  9
$TDUSRTIMER
 40
5.5540689815
  9
$USRTIMER
 70
     1
  9
$ANGBASE
 50
0.0
  9
$ANGDIR
 70
     0
  9
$PDMODE
 70
     3
  9
$PDSIZE
 40
-2.0
  9
$PLINEWID
 40
0.0
  9
$SPLFRAME
 70
     0
  9
$SPLINETYPE
 70
     6
  9
$SPLINESEGS
 70
     8
  9
$HANDSEED
  5
DCCCA
  9
$SURFTAB1
 70
     6
  9
$SURFTAB2
 70
     6
  9
$SURFTYPE
 70
     6
  9
$SURFU
 70
     6
  9
$SURFV
 70
     6
  9
$UCSBASE
  2

  9
$UCSNAME
  2

  9
$UCSORG
 10
0.0
 20
0.0
 30
0.0
  9
$UCSXDIR
 10
1.0
 20
0.0
 30
0.0
  9
$UCSYDIR
 10
0.0
 20
1.0
 30
0.0
  9
$UCSORTHOREF
  2

  9
$UCSORTHOVIEW
 70
     0
  9
$UCSORGTOP
 10
0.0
 20
0.0
 30
0.0
  9
$UCSORGBOTTOM
 10
0.0
 20
0.0
 30
0.0
  9
$UCSORGLEFT
 10
0.0
 20
0.0
 30
0.0
  9
$UCSORGRIGHT
 10
0.0
 20
0.0
 30
0.0
  9
$UCSORGFRONT
 10
0.0
 20
0.0
 30
0.0
  9
$UCSORGBACK
 10
0.0
 20
0.0
 30
0.0
  9
$PUCSBASE
  2

  9
$PUCSNAME
  2

  9
$PUCSORG
 10
0.0
 20
0.0
 30
0.0
  9
$PUCSXDIR
 10
1.0
 20
0.0
 30
0.0
  9
$PUCSYDIR
 10
0.0
 20
1.0
 30
0.0
  9
$PUCSORTHOREF
  2

  9
$PUCSORTHOVIEW
 70
     0
  9
$PUCSORGTOP
 10
0.0
 20
0.0
 30
0.0
  9
$PUCSORGBOTTOM
 10
0.0
 20
0.0
 30
0.0
  9
$PUCSORGLEFT
 10
0.0
 20
0.0
 30
0.0
  9
$PUCSORGRIGHT
 10
0.0
 20
0.0
 30
0.0
  9
$PUCSORGFRONT
 10
0.0
 20
0.0
 30
0.0
  9
$PUCSORGBACK
 10
0.0
 20
0.0
 30
0.0
  9
$USERI1
 70
     0
  9
$USERI2
 70
     0
  9
$USERI3
 70
     0
  9
$USERI4
 70
     0
  9
$USERI5
 70
     0
  9
$USERR1
 40
20.0
  9
$USERR2
 40
0.0
  9
$USERR3
 40
0.0
  9
$USERR4
 40
0.0
  9
$USERR5
 40
0.0
  9
$WORLDVIEW
 70
     1
  9
$SHADEDGE
 70
     3
  9
$SHADEDIF
 70
    70
  9
$TILEMODE
 70
     1
  9
$MAXACTVP
 70
    64
  9
$PINSBASE
 10
0.0
 20
0.0
 30
0.0
  9
$PLIMCHECK
 70
     0
  9
$PEXTMIN
 10
1.049999952316283
 20
0.7999999523162842
 30
0.0
  9
$PEXTMAX
 10
9.449999570846559
 20
7.199999570846557
 30
0.0
  9
$PLIMMIN
 10
-0.2500002402958907
 20
-0.2499999962453767
  9
$PLIMMAX
 10
10.74999951940822
 20
8.249999763458731
  9
$UNITMODE
 70
     0
  9
$VISRETAIN
 70
     1
  9
$PLINEGEN
 70
     0
  9
$PSLTSCALE
 70
     1
  9
$TREEDEPTH
 70
  3020
  9
$CMLSTYLE
  2
STANDARD
  9
$CMLJUST
 70
     0
  9
$CMLSCALE
 40
1.0
  9
$PROXYGRAPHICS
 70
     1
  9
$MEASUREMENT
 70
     0
  9
$CELWEIGHT
370
    -1
  9
$ENDCAPS
280
     0
  9
$JOINSTYLE
280
     0
  9
$LWDISPLAY
290
     0
  9
$INSUNITS
 70
     0
  9
$HYPERLINKBASE
  1

  9
$STYLESHEET
  1
MONOCHROME.CTB
  9
$XEDIT
290
     1
  9
$CEPSNTYPE
380
     0
  9
$PSTYLEMODE
290
     1
  9
$FINGERPRINTGUID
  2
{97DA8DB6-C4F0-4C3D-ABEB-53C4FBBC7EFF}
  9
$VERSIONGUID
  2
{BB989D98-3BFE-D749-A2FC-6709087AB798}
  9
$EXTNAMES
290
     1
  9
$PSVPSCALE
 40
0.0
  9
$OLESTARTUP
290
     0
  9
$SORTENTS
280
   127
  9
$INDEXCTL
280
     0
  9
$HIDETEXT
280
     0
  9
$XCLIPFRAME
280
     2
  9
$HALOGAP
280
     0
  9
$OBSCOLOR
 70
   257
  9
$OBSLTYPE
280
     0
  9
$INTERSECTIONDISPLAY
280
     0
  9
$INTERSECTIONCOLOR
 70
   257
  9
$DIMASSOC
280
     1
  9
$PROJECTNAME
  1

  9
$CAMERADISPLAY
290
     0
  9
$LENSLENGTH
 40
50.0
  9
$CAMERAHEIGHT
 40
0.0
  9
$STEPSPERSEC
 40
2.0
  9
$STEPSIZE
 40
6.0
  9
$3DDWFPREC
 40
2.0
  9
$PSOLWIDTH
 40
0.25
  9
$PSOLHEIGHT
 40
4.0
  9
$LOFTANG1
 40
1.570795999999999
  9
$LOFTANG2
 40
1.570795999999999
  9
$LOFTMAG1
 40
0.0
  9
$LOFTMAG2
 40
0.0
  9
$LOFTPARAM
 70
     7
  9
$LOFTNORMALS
280
     1
  9
$LATITUDE
 40
37.795
  9
$LONGITUDE
 40
-122.394
  9
$NORTHDIRECTION
 40
0.0
  9
$TIMEZONE
 70
 -8000
  9
$LIGHTGLYPHDISPLAY
280
     1
  9
$TILEMODELIGHTSYNCH
280
     1
  9
$CMATERIAL
347
CDFED
  9
$SOLIDHIST
280
     0
  9
$SHOWHIST
280
     1
  9
$DWFFRAME
280
     2
  9
$DGNFRAME
280
     0
  9
$REALWORLDSCALE
290
     1
  9
$INTERFERECOLOR
 62
     1
  9
$INTERFEREOBJVS
345
CE00F
  9
$INTERFEREVPVS
346
CE00C
  9
$CSHADOW
280
     0
  9
$SHADOWPLANELOCATION
 40
0.0
  0
ENDSEC
  0
SECTION
  2
CLASSES
  0
CLASS
  1
ACDBDICTIONARYWDFLT
  2
AcDbDictionaryWithDefault
  3
ObjectDBX Classes
 90
        0
 91
        1
280
     0
281
     0
  0
CLASS
  1
MATERIAL
  2
AcDbMaterial
  3
ObjectDBX Classes
 90
     1153
 91
        3
280
     0
281
     0
  0
CLASS
  1
VISUALSTYLE
  2
AcDbVisualStyle
  3
ObjectDBX Classes
 90
     4095
 91
       24
280
     0
281
     0
  0
CLASS
  1
TABLESTYLE
  2
AcDbTableStyle
  3
ObjectDBX Classes
 90
     4095
 91
        1
280
     0
281
     0
  0
CLASS
  1
SCALE
  2
AcDbScale
  3
ObjectDBX Classes
 90
     1153
 91
       17
280
     0
281
     0
  0
CLASS
  1
MLEADERSTYLE
  2
AcDbMLeaderStyle
  3
ACDB_MLEADERSTYLE_CLASS
 90
     4095
 91
        1
280
     0
281
     0
  0
CLASS
  1
ACDBSECTIONVIEWSTYLE
  2
AcDbSectionViewStyle
  3
ObjectDBX Classes
 90
     1025
 91
        2
280
     0
281
     0
  0
CLASS
  1
ACDBDETAILVIEWSTYLE
  2
AcDbDetailViewStyle
  3
ObjectDBX Classes
 90
     1025
 91
        2
280
     0
281
     0
  0
CLASS
  1
DICTIONARYVAR
  2
AcDbDictionaryVar
  3
ObjectDBX Classes
 90
        0
 91
       15
280
     0
281
     0
  0
CLASS
  1
SORTENTSTABLE
  2
AcDbSortentsTable
  3
ObjectDBX Classes
 90
        0
 91
        1
280
     0
281
     0
  0
CLASS
  1
CELLSTYLEMAP
  2
AcDbCellStyleMap
  3
ObjectDBX Classes
 90
     1152
 91
        2
280
     0
281
     0
  0
CLASS
  1
MULTILEADER
  2
AcDbMLeader
  3
ACDB_MLEADER_CLASS
 90
     1025
 91
        0
280
     0
281
     1
  0
ENDSEC
  0
SECTION
  2
TABLES
  0
TABLE
  2
VPORT
  5
8
330
0
100
AcDbSymbolTable
 70
     1
1001
ACAD
1000
DbSaveVer
1071
      224
  0
VPORT
  5
CDFC4
330
8
100
AcDbSymbolTableRecord
100
AcDbViewportTableRecord
  2
*ACTIVE
 70
     0
 10
0.0
 20
0.0
 11
1.0
 21
1.0
 12
73.18735530521507
 22
23.06948921894309
 13
0.0
 23
0.0
 14
50.0
 24
50.0
 15
100.0
 25
100.0
 16
0.0
 26
0.0
 36
1.0
 17
0.0
 27
0.0
 37
0.0
 40
2169.863848107887
 41
1.710050614605929
 42
50.0
 43
0.0
 44
0.0
 50
0.0
 51
0.0
 71
     0
 72
   500
 73
     1
 74
     0
 75
     0
 76
     0
 77
     0
 78
     0
281
     0
 65
     1
110
0.0
120
0.0
130
0.0
111
1.0
121
0.0
131
0.0
112
0.0
122
1.0
132
0.0
 79
     0
146
0.0
348
CE00B
 60
     3
 61
     5
292
     1
282
     1
141
0.0
142
0.0
 63
   250
421
  3355443
1001
ACAD_NAV_VCDISPLAY
1070
     3
  0
ENDTAB
  0
TABLE
  2
LTYPE
  5
5
330
0
100
AcDbSymbolTable
 70
     3
  0
LTYPE
  5
13
330
5
100
AcDbSymbolTableRecord
100
AcDbLinetypeTableRecord
  2
BYBLOCK
 70
     0
  3

 72
    65
 73
     0
 40
0.0
  0
LTYPE
  5
14
330
5
100
AcDbSymbolTableRecord
100
AcDbLinetypeTableRecord
  2
BYLAYER
 70
     0
  3

 72
    65
 73
     0
 40
0.0
  0
LTYPE
  5
15
330
5
100
AcDbSymbolTableRecord
100
AcDbLinetypeTableRecord
  2
CONTINUOUS
 70
     0
  3
実線
 72
    65
 73
     0
 40
0.0
  0
LTYPE
  5
889DC
330
5
100
AcDbSymbolTableRecord
100
AcDbLinetypeTableRecord
  2
PHANTOM
 70
     0
  3
_____ _ _ _____ _ _ _____ _ _ _____
 72
    65
 73
     6
 40
0.8
 49
0.45
 74
     0
 49
-0.05
 74
     0
 49
0.1
 74
     0
 49
-0.05
 74
     0
 49
0.1
 74
     0
 49
-0.05
 74
     0
  0
LTYPE
  5
D1A57
330
5
100
AcDbSymbolTableRecord
100
AcDbLinetypeTableRecord
  2
CENTER
 70
     0
  3
____ _ ____ _ ____ _ ____ _ ____ _ ____ _ ____
 72
    65
 73
     4
 40
0.6
 49
0.375
 74
     0
 49
-0.075
 74
     0
 49
0.075
 74
     0
 49
-0.075
 74
     0
  0
ENDTAB
  0
TABLE
  2
LAYER
  5
2
102
{ACAD_XDICTIONARY
360
CE08E
102
}
330
0
100
AcDbSymbolTable
 70
    11
  0
LAYER
  5
10
102
{ACAD_XDICTIONARY
360
CE03C
102
}
330
2
100
AcDbSymbolTableRecord
100
AcDbLayerTableRecord
  2
0
 70
     0
 62
     7
  6
CONTINUOUS
370
    -3
390
F
347
CDFFD
348
0
  0
LAYER
  5
22
102
{ACAD_XDICTIONARY
360
CE03E
102
}
330
2
100
AcDbSymbolTableRecord
100
AcDbLayerTableRecord
  2
SIZE
 70
     0
 62
    30
  6
CONTINUOUS
370
    -3
390
F
347
CDFFD
348
0
  0
LAYER
  5
31
102
{ACAD_XDICTIONARY
360
CE040
102
}
330
2
100
AcDbSymbolTableRecord
100
AcDbLayerTableRecord
  2
DETAIL
 70
     0
 62
     5
  6
CONTINUOUS
370
    -3
390
F
347
CDFFD
348
0
  0
LAYER
  5
32
102
{ACAD_XDICTIONARY
360
CE042
102
}
330
2
100
AcDbSymbolTableRecord
100
AcDbLayerTableRecord
  2
OUTLINE
 70
     0
 62
     3
  6
CONTINUOUS
370
    -3
390
F
347
CDFFD
348
0
  0
LAYER
  5
33
102
{ACAD_XDICTIONARY
360
CE044
102
}
330
2
100
AcDbSymbolTableRecord
100
AcDbLayerTableRecord
  2
BASIS
 70
     0
 62
     6
  6
CENTER
370
    -3
390
F
347
CDFFD
348
0
  0
LAYER
  5
34
102
{ACAD_XDICTIONARY
360
CE046
102
}
330
2
100
AcDbSymbolTableRecord
100
AcDbLayerTableRecord
  2
NOTE
 70
     0
 62
     4
  6
CONTINUOUS
370
    -3
390
F
347
CDFFD
348
0
  0
LAYER
  5
35
102
{ACAD_XDICTIONARY
360
CE048
102
}
330
2
100
AcDbSymbolTableRecord
100
AcDbLayerTableRecord
  2
ARRANGE
 70
     0
 62
     1
  6
CONTINUOUS
370
    -3
390
F
347
CDFFD
348
0
  0
LAYER
  5
37
102
{ACAD_XDICTIONARY
360
CE04A
102
}
330
2
100
AcDbSymbolTableRecord
100
AcDbLayerTableRecord
  2
ETC
 70
     0
 62
    61
  6
CONTINUOUS
370
    -3
390
F
347
CDFFD
348
0
  0
LAYER
  5
3A
330
2
100
AcDbSymbolTableRecord
100
AcDbLayerTableRecord
  2
DEFPOINTS
 70
     0
 62
     7
  6
CONTINUOUS
290
     0
370
    -3
390
F
347
CDFFD
348
0
  0
LAYER
  5
D54B4
102
{ACAD_XDICTIONARY
360
D54B5
102
}
330
2
100
AcDbSymbolTableRecord
100
AcDbLayerTableRecord
  2
SERVICE_SPACE
 70
     0
 62
     2
  6
PHANTOM
370
    18
390
F
347
CDFFD
348
0
  0
LAYER
  5
DAE48
102
{ACAD_XDICTIONARY
360
DAE49
102
}
330
2
100
AcDbSymbolTableRecord
100
AcDbLayerTableRecord
  2
FIX
 70
     0
 62
    11
  6
CONTINUOUS
370
    -3
390
F
347
CDFFD
348
0
  0
ENDTAB
  0
TABLE
  2
STYLE
  5
3
330
0
100
AcDbSymbolTable
 70
     1
  0
STYLE
  5
11
330
3
100
AcDbSymbolTableRecord
100
AcDbTextStyleTableRecord
  2
STANDARD
 70
     0
 40
0.0
 41
1.0
 50
0.0
 71
     0
 42
64.0
  3
SIMPLEX.shx
  4
BIGFONT.shx
  0
ENDTAB
  0
TABLE
  2
VIEW
  5
6
330
0
100
AcDbSymbolTable
 70
     1
  0
VIEW
  5
3C
330
6
100
AcDbSymbolTableRecord
100
AcDbViewTableRecord
  2
ALL
 70
     0
 40
4282.62
 10
0.0
 20
41.30990399999999
 41
5940.0
 11
0.0
 21
0.0
 31
1.0
 12
0.0
 22
0.0
 32
0.0
 42
50.0
 43
0.0
 44
0.0
 50
0.0
 71
     0
281
     0
 72
     0
 73
     0
348
CE00B
  0
ENDTAB
  0
TABLE
  2
UCS
  5
7
330
0
100
AcDbSymbolTable
 70
     0
  0
ENDTAB
  0
TABLE
  2
APPID
  5
9
330
0
100
AcDbSymbolTable
 70
    11
  0
APPID
  5
12
330
9
100
AcDbSymbolTableRecord
100
AcDbRegAppTableRecord
  2
ACAD
 70
     0
  0
APPID
  5
CE04C
330
9
100
AcDbSymbolTableRecord
100
AcDbRegAppTableRecord
  2
ACAD_PSEXT
 70
     0
  0
APPID
  5
CE068
330
9
100
AcDbSymbolTableRecord
100
AcDbRegAppTableRecord
  2
ACAD_NAV_VCDISPLAY
 70
     0
  0
APPID
  5
CF18C
330
9
100
AcDbSymbolTableRecord
100
AcDbRegAppTableRecord
  2
ACAD_MLEADERVER
 70
     0
  0
APPID
  5
CF3D9
330
9
100
AcDbSymbolTableRecord
100
AcDbRegAppTableRecord
  2
ACAD_EXEMPT_FROM_CAD_STANDARDS
 70
     0
  0
APPID
  5
D172E
330
9
100
AcDbSymbolTableRecord
100
AcDbRegAppTableRecord
  2
AcadAnnoMonitorAlertIconDisabled
 70
     0
  0
APPID
  5
D6C8B
330
9
100
AcDbSymbolTableRecord
100
AcDbRegAppTableRecord
  2
ACAD_DSTYLE_DIMJAG
 70
     0
  0
APPID
  5
D6C8C
330
9
100
AcDbSymbolTableRecord
100
AcDbRegAppTableRecord
  2
ACAD_DSTYLE_DIMTALN
 70
     0
  0
APPID
  5
D782E
330
9
100
AcDbSymbolTableRecord
100
AcDbRegAppTableRecord
  2
AcadAnnoPO
 70
     0
  0
APPID
  5
DA000
330
9
100
AcDbSymbolTableRecord
100
AcDbRegAppTableRecord
  2
ACAD_DSTYLE_DIM_LINETYPE
 70
     0
  0
APPID
  5
DA997
330
9
100
AcDbSymbolTableRecord
100
AcDbRegAppTableRecord
  2
ACAD_DSTYLE_DIMRADIAL_EXTENSION
 70
     0
  0
ENDTAB
  0
TABLE
  2
DIMSTYLE
  5
A
330
0
100
AcDbSymbolTable
 70
     1
100
AcDbDimStyleTable
 71
     1
340
213
  0
DIMSTYLE
105
213
102
{ACAD_REACTORS
330
D73B8
330
D73BD
330
D73BF
330
D73C2
330
D73C3
330
D73C4
330
D73C7
330
D73C8
330
D73CE
330
D7716
330
D776A
330
D7F60
330
DAA03
330
DAAC7
330
DADC2
330
DAEAF
330
DB69B
330
DB6C0
102
}
330
A
100
AcDbSymbolTableRecord
100
AcDbDimStyleTableRecord
  2
STANDARD
 70
     0
 41
10.0
 42
10.0
 43
100.0
 44
10.0
 73
     0
 74
     0
 77
     1
 78
     8
140
45.0
141
0.082
147
10.0
172
     1
176
   256
177
   256
178
   256
271
     2
272
     2
340
11
341
D78AC
342
46
345
14
371
    -1
1001
ACAD_DSTYLE_DIMJAG
1070
   388
1040
1.5
1001
ACAD_DSTYLE_DIMTALN
1070
   392
1070
     0
  0
ENDTAB
  0
TABLE
  2
BLOCK_RECORD
  5
1
330
0
100
AcDbSymbolTable
 70
    20
  0
BLOCK_RECORD
  5
1E
102
{ACAD_XDICTIONARY
360
66E76
102
}
330
1
100
AcDbSymbolTableRecord
100
AcDbBlockTableRecord
  2
*MODEL_SPACE
340
CE039
 70
     0
280
     1
281
     0
  0
BLOCK_RECORD
  5
1A
102
{ACAD_XDICTIONARY
360
66E74
102
}
330
1
100
AcDbSymbolTableRecord
100
AcDbBlockTableRecord
  2
*PAPER_SPACE
340
CE03A
 70
     0
280
     1
281
     0
  0
BLOCK_RECORD
  5
46
330
1
100
AcDbSymbolTableRecord
100
AcDbBlockTableRecord
  2
_ORIGIN
340
0
102
{BLKREFS
331
DCC15
331
DCC16
331
DCC1E
331
DCC1F
331
DCC27
331
DCC28
331
DCC30
331
DCC31
331
DCC3A
331
DCC3B
331
DCC44
331
DCC45
331
DCC4E
331
DCC4F
331
DCC57
331
DCC58
331
DCC61
331
DCC62
331
DCC6A
331
DCC6B
331
DCC75
331
DCC76
331
DCC7E
331
DCC7F
331
DCC87
331
DCC88
331
DCC91
331
DCC92
331
DCC9A
331
DCC9B
331
DCCA5
331
DCCA6
331
DCCB0
331
DCCB1
331
DCCBA
331
DCCBB
102
}
 70
     0
280
     1
281
     0
  0
BLOCK_RECORD
  5
D73DB
330
1
100
AcDbSymbolTableRecord
100
AcDbBlockTableRecord
  2
*D1
340
0
 70
     0
280
     1
281
     0
  0
BLOCK_RECORD
  5
D73E7
330
1
100
AcDbSymbolTableRecord
100
AcDbBlockTableRecord
  2
*D2
340
0
 70
     0
280
     1
281
     0
  0
BLOCK_RECORD
  5
D7400
330
1
100
AcDbSymbolTableRecord
100
AcDbBlockTableRecord
  2
*D3
340
0
 70
     0
280
     1
281
     0
  0
BLOCK_RECORD
  5
D7427
330
1
100
AcDbSymbolTableRecord
100
AcDbBlockTableRecord
  2
*D4
340
0
 70
     0
280
     1
281
     0
  0
BLOCK_RECORD
  5
D7433
330
1
100
AcDbSymbolTableRecord
100
AcDbBlockTableRecord
  2
*D5
340
0
 70
     0
280
     1
281
     0
  0
BLOCK_RECORD
  5
D7440
330
1
100
AcDbSymbolTableRecord
100
AcDbBlockTableRecord
  2
*D6
340
0
 70
     0
280
     1
281
     0
  0
BLOCK_RECORD
  5
D7466
330
1
100
AcDbSymbolTableRecord
100
AcDbBlockTableRecord
  2
*D7
340
0
 70
     0
280
     1
281
     0
  0
BLOCK_RECORD
  5
D7473
330
1
100
AcDbSymbolTableRecord
100
AcDbBlockTableRecord
  2
*D8
340
0
 70
     0
280
     1
281
     0
  0
BLOCK_RECORD
  5
D7480
330
1
100
AcDbSymbolTableRecord
100
AcDbBlockTableRecord
  2
*D9
340
0
 70
     0
280
     1
281
     0
  0
BLOCK_RECORD
  5
D7717
330
1
100
AcDbSymbolTableRecord
100
AcDbBlockTableRecord
  2
*D10
340
0
 70
     0
280
     1
281
     0
  0
BLOCK_RECORD
  5
D776B
330
1
100
AcDbSymbolTableRecord
100
AcDbBlockTableRecord
  2
*D11
340
0
 70
     0
280
     1
281
     0
  0
BLOCK_RECORD
  5
D78AC
330
1
100
AcDbSymbolTableRecord
100
AcDbBlockTableRecord
  2
_Open30
340
0
 70
     0
280
     1
281
     0
  0
BLOCK_RECORD
  5
D7F61
330
1
100
AcDbSymbolTableRecord
100
AcDbBlockTableRecord
  2
*D13
340
0
 70
     0
280
     1
281
     0
  0
BLOCK_RECORD
  5
DAA04
330
1
100
AcDbSymbolTableRecord
100
AcDbBlockTableRecord
  2
*D14
340
0
 70
     0
280
     1
281
     0
  0
BLOCK_RECORD
  5
DAAC8
330
1
100
AcDbSymbolTableRecord
100
AcDbBlockTableRecord
  2
*D15
340
0
 70
     0
280
     1
281
     0
  0
BLOCK_RECORD
  5
DADC3
330
1
100
AcDbSymbolTableRecord
100
AcDbBlockTableRecord
  2
*D16
340
0
 70
     0
280
     1
281
     0
  0
BLOCK_RECORD
  5
DAEB0
330
1
100
AcDbSymbolTableRecord
100
AcDbBlockTableRecord
  2
*D17
340
0
 70
     0
280
     1
281
     0
  0
BLOCK_RECORD
  5
DB69C
330
1
100
AcDbSymbolTableRecord
100
AcDbBlockTableRecord
  2
*D18
340
0
 70
     0
280
     1
281
     0
  0
BLOCK_RECORD
  5
DB6C1
330
1
100
AcDbSymbolTableRecord
100
AcDbBlockTableRecord
  2
*D19
340
0
 70
     0
280
     1
281
     0
  0
ENDTAB
  0
ENDSEC
  0
SECTION
  2
BLOCKS
  0
BLOCK
  5
1F
330
1E
100
AcDbEntity
  8
0
100
AcDbBlockBegin
  2
*MODEL_SPACE
 70
     0
 10
0.0
 20
0.0
 30
0.0
  3
*MODEL_SPACE
  1

  0
ENDBLK
  5
20
330
1E
100
AcDbEntity
  8
0
100
AcDbBlockEnd
  0
BLOCK
  5
1B
330
1A
100
AcDbEntity
 67
     1
  8
0
100
AcDbBlockBegin
  2
*PAPER_SPACE
 70
     0
 10
0.0
 20
0.0
 30
0.0
  3
*PAPER_SPACE
  1

  0
ENDBLK
  5
1C
330
1A
100
AcDbEntity
 67
     1
  8
0
100
AcDbBlockEnd
  0
BLOCK
  5
47
330
46
100
AcDbEntity
  8
0
100
AcDbBlockBegin
  2
_ORIGIN
 70
     0
 10
0.0
 20
0.0
 30
0.0
  3
_ORIGIN
  1

  0
CIRCLE
  5
48
330
46
100
AcDbEntity
  8
0
  6
ByBlock
 62
     0
100
AcDbCircle
 10
0.0
 20
0.0
 30
0.0
 40
0.5
  0
LINE
  5
49
330
46
100
AcDbEntity
  8
0
  6
ByBlock
 62
     0
100
AcDbLine
 10
0.0
 20
0.0
 30
0.0
 11
-1.0
 21
0.0
 31
0.0
  0
ENDBLK
  5
4A
330
46
100
AcDbEntity
  8
0
100
AcDbBlockEnd
  0
BLOCK
  5
D73DC
330
D73DB
100
AcDbEntity
  8
0
100
AcDbBlockBegin
  2
*D1
 70
     1
 10
0.0
 20
0.0
 30
0.0
  3
*D1
  1

  0
LINE
  5
DCC12
330
D73DB
100
AcDbEntity
  8
SIZE
440
 16777216
370
    -2
100
AcDbLine
 10
-400.0
 20
140.5000000951254
 30
0.0
 11
-400.0
 21
552.4999999999998
 31
0.0
  0
LINE
  5
DCC13
330
D73DB
100
AcDbEntity
  8
SIZE
440
 16777216
370
    -2
100
AcDbLine
 10
-250.0
 20
187.291754403177
 30
0.0
 11
-250.0
 21
552.4999999999998
 31
0.0
  0
LINE
  5
DCC14
330
D73DB
100
AcDbEntity
  8
SIZE
440
 16777216
100
AcDbLine
 10
-390.0
 20
542.4999999999998
 30
0.0
 11
-260.0
 21
542.4999999999998
 31
0.0
  0
INSERT
  5
DCC15
330
D73DB
100
AcDbEntity
  8
SIZE
440
 16777216
100
AcDbBlockReference
  2
_ORIGIN
 10
-400.0
 20
542.4999999999998
 30
0.0
 41
10.0
 42
10.0
 43
10.0
 50
180.0
  0
INSERT
  5
DCC16
330
D73DB
100
AcDbEntity
  8
SIZE
440
 16777216
100
AcDbBlockReference
  2
_ORIGIN
 10
-250.0
 20
542.4999999999998
 30
0.0
 41
10.0
 42
10.0
 43
10.0
  0
MTEXT
  5
DCC17
330
D73DB
100
AcDbEntity
  8
SIZE
440
 16777216
100
AcDbMText
 10
-325.0
 20
574.9999999999999
 30
0.0
 40
45.0
 41
0.0
 46
0.0
 71
     5
 72
     1
  1
\A1;150
 73
     1
 44
1.0
  0
POINT
  5
DCC18
330
D73DB
100
AcDbEntity
  8
DEFPOINTS
 62
     0
440
 16777216
100
AcDbPoint
 10
-400.0
 20
130.5000000951254
 30
0.0
  0
POINT
  5
DCC19
330
D73DB
100
AcDbEntity
  8
DEFPOINTS
 62
     0
440
 16777216
100
AcDbPoint
 10
-250.0
 20
177.291754403177
 30
0.0
  0
POINT
  5
DCC1A
330
D73DB
100
AcDbEntity
  8
DEFPOINTS
 62
     0
440
 16777216
100
AcDbPoint
 10
-250.0
 20
542.4999999999998
 30
0.0
  0
ENDBLK
  5
D73DD
330
D73DB
100
AcDbEntity
  8
0
100
AcDbBlockEnd
  0
BLOCK
  5
D73E8
330
D73E7
100
AcDbEntity
  8
0
100
AcDbBlockBegin
  2
*D2
 70
     1
 10
0.0
 20
0.0
 30
0.0
  3
*D2
  1

  0
LINE
  5
DCC1B
330
D73E7
100
AcDbEntity
  8
SIZE
440
 16777216
370
    -2
100
AcDbLine
 10
-250.0
 20
187.291754403177
 30
0.0
 11
-250.0
 21
552.4999999999998
 31
0.0
  0
LINE
  5
DCC1C
330
D73E7
100
AcDbEntity
  8
SIZE
440
 16777216
370
    -2
100
AcDbLine
 10
250.0
 20
187.291754403177
 30
0.0
 11
250.0
 21
552.4999999999998
 31
0.0
  0
LINE
  5
DCC1D
330
D73E7
100
AcDbEntity
  8
SIZE
440
 16777216
100
AcDbLine
 10
-240.0
 20
542.4999999999998
 30
0.0
 11
240.0
 21
542.4999999999998
 31
0.0
  0
INSERT
  5
DCC1E
330
D73E7
100
AcDbEntity
  8
SIZE
440
 16777216
100
AcDbBlockReference
  2
_ORIGIN
 10
-250.0
 20
542.4999999999998
 30
0.0
 41
10.0
 42
10.0
 43
10.0
 50
180.0
  0
INSERT
  5
DCC1F
330
D73E7
100
AcDbEntity
  8
SIZE
440
 16777216
100
AcDbBlockReference
  2
_ORIGIN
 10
250.0
 20
542.4999999999998
 30
0.0
 41
10.0
 42
10.0
 43
10.0
  0
MTEXT
  5
DCC20
330
D73E7
100
AcDbEntity
  8
SIZE
440
 16777216
100
AcDbMText
 10
0.0000000000000304
 20
574.9999999999999
 30
0.0
 40
45.0
 41
0.0
 46
0.0
 71
     5
 72
     1
  1
\A1;500
 73
     1
 44
1.0
  0
POINT
  5
DCC21
330
D73E7
100
AcDbEntity
  8
DEFPOINTS
 62
     0
440
 16777216
100
AcDbPoint
 10
-250.0
 20
177.291754403177
 30
0.0
  0
POINT
  5
DCC22
330
D73E7
100
AcDbEntity
  8
DEFPOINTS
 62
     0
440
 16777216
100
AcDbPoint
 10
250.0
 20
177.291754403177
 30
0.0
  0
POINT
  5
DCC23
330
D73E7
100
AcDbEntity
  8
DEFPOINTS
 62
     0
440
 16777216
100
AcDbPoint
 10
250.0
 20
542.4999999999998
 30
0.0
  0
ENDBLK
  5
D73E9
330
D73E7
100
AcDbEntity
  8
0
100
AcDbBlockEnd
  0
BLOCK
  5
D7401
330
D7400
100
AcDbEntity
  8
0
100
AcDbBlockBegin
  2
*D3
 70
     1
 10
0.0
 20
0.0
 30
0.0
  3
*D3
  1

  0
LINE
  5
DCC24
330
D7400
100
AcDbEntity
  8
SIZE
440
 16777216
370
    -2
100
AcDbLine
 10
-400.0
 20
-132.5
 30
0.0
 11
-400.0
 21
-707.5
 31
0.0
  0
LINE
  5
DCC25
330
D7400
100
AcDbEntity
  8
SIZE
440
 16777216
370
    -2
100
AcDbLine
 10
400.0
 20
-119.6384698887423
 30
0.0
 11
400.0
 21
-707.5
 31
0.0
  0
LINE
  5
DCC26
330
D7400
100
AcDbEntity
  8
SIZE
440
 16777216
100
AcDbLine
 10
-390.0000000000001
 20
-697.5
 30
0.0
 11
390.0
 21
-697.5
 31
0.0
  0
INSERT
  5
DCC27
330
D7400
100
AcDbEntity
  8
SIZE
440
 16777216
100
AcDbBlockReference
  2
_ORIGIN
 10
-400.0
 20
-697.5
 30
0.0
 41
10.0
 42
10.0
 43
10.0
 50
180.0
  0
INSERT
  5
DCC28
330
D7400
100
AcDbEntity
  8
SIZE
440
 16777216
100
AcDbBlockReference
  2
_ORIGIN
 10
400.0
 20
-697.5
 30
0.0
 41
10.0
 42
10.0
 43
10.0
  0
MTEXT
  5
DCC29
330
D7400
100
AcDbEntity
  8
SIZE
440
 16777216
100
AcDbMText
 10
-0.0000000000000549
 20
-665.0
 30
0.0
 40
45.0
 41
0.0
 46
0.0
 71
     5
 72
     1
  1
\A1;800
 73
     1
 44
1.0
  0
POINT
  5
DCC2A
330
D7400
100
AcDbEntity
  8
DEFPOINTS
 62
     0
440
 16777216
100
AcDbPoint
 10
-400.0
 20
-122.5
 30
0.0
  0
POINT
  5
DCC2B
330
D7400
100
AcDbEntity
  8
DEFPOINTS
 62
     0
440
 16777216
100
AcDbPoint
 10
400.0
 20
-109.6384698887423
 30
0.0
  0
POINT
  5
DCC2C
330
D7400
100
AcDbEntity
  8
DEFPOINTS
 62
     0
440
 16777216
100
AcDbPoint
 10
400.0
 20
-697.5
 30
0.0
  0
ENDBLK
  5
D7402
330
D7400
100
AcDbEntity
  8
0
100
AcDbBlockEnd
  0
BLOCK
  5
D7428
330
D7427
100
AcDbEntity
  8
0
100
AcDbBlockBegin
  2
*D4
 70
     1
 10
0.0
 20
0.0
 30
0.0
  3
*D4
  1

  0
LINE
  5
DCC2D
330
D7427
100
AcDbEntity
  8
SIZE
440
 16777216
370
    -2
100
AcDbLine
 10
-398.0000000000002
 20
142.5
 30
0.0
 11
-950.0593867953428
 21
142.5
 31
0.0
  0
LINE
  5
DCC2E
330
D7427
100
AcDbEntity
  8
SIZE
440
 16777216
370
    -2
100
AcDbLine
 10
-389.9997416059039
 20
-142.5
 30
0.0
 11
-950.059386795343
 21
-142.5000000000001
 31
0.0
  0
LINE
  5
DCC2F
330
D7427
100
AcDbEntity
  8
SIZE
440
 16777216
100
AcDbLine
 10
-940.0593867953428
 20
132.4999999999999
 30
0.0
 11
-940.0593867953428
 21
-132.5000000000001
 31
0.0
  0
INSERT
  5
DCC30
330
D7427
100
AcDbEntity
  8
SIZE
440
 16777216
100
AcDbBlockReference
  2
_ORIGIN
 10
-940.0593867953428
 20
142.5
 30
0.0
 41
10.0
 42
10.0
 43
10.0
 50
90.0
  0
INSERT
  5
DCC31
330
D7427
100
AcDbEntity
  8
SIZE
440
 16777216
100
AcDbBlockReference
  2
_ORIGIN
 10
-940.0593867953428
 20
-142.5000000000001
 30
0.0
 41
10.0
 42
10.0
 43
10.0
 50
270.0
  0
MTEXT
  5
DCC32
330
D7427
100
AcDbEntity
  8
SIZE
440
 16777216
100
AcDbMText
 10
-972.5593867953426
 20
0.0000000000001752
 30
0.0
 40
45.0
 41
0.0
 46
0.0
 71
     5
 72
     1
  1
\A1;285
 11
0.0000000000000001
 21
1.0
 31
0.0
 73
     1
 44
1.0
  0
POINT
  5
DCC33
330
D7427
100
AcDbEntity
  8
DEFPOINTS
 62
     0
440
 16777216
100
AcDbPoint
 10
-388.0000000000002
 20
142.5
 30
0.0
  0
POINT
  5
DCC34
330
D7427
100
AcDbEntity
  8
DEFPOINTS
 62
     0
440
 16777216
100
AcDbPoint
 10
-379.9997416059038
 20
-142.5
 30
0.0
  0
POINT
  5
DCC35
330
D7427
100
AcDbEntity
  8
DEFPOINTS
 62
     0
440
 16777216
100
AcDbPoint
 10
-940.0593867953428
 20
-142.5000000000001
 30
0.0
  0
ENDBLK
  5
D7429
330
D7427
100
AcDbEntity
  8
0
100
AcDbBlockEnd
  0
BLOCK
  5
D7434
330
D7433
100
AcDbEntity
  8
0
100
AcDbBlockBegin
  2
*D5
 70
     1
 10
0.0
 20
0.0
 30
0.0
  3
*D5
  1

  0
LINE
  5
DCC36
330
D7433
100
AcDbEntity
  8
SIZE
440
 16777216
370
    -2
100
AcDbLine
 10
-398.0000000000002
 20
142.5
 30
0.0
 11
-950.0593867953428
 21
142.5
 31
0.0
  0
LINE
  5
DCC37
330
D7433
100
AcDbEntity
  8
SIZE
440
 16777216
370
    -2
100
AcDbLine
 10
-510.0000000000002
 20
242.5000000000001
 30
0.0
 11
-950.0593867953428
 21
242.5000000000001
 31
0.0
  0
LINE
  5
DCC38
330
D7433
100
AcDbEntity
  8
SIZE
440
 16777216
100
AcDbLine
 10
-940.0593867953428
 20
152.4999999999999
 30
0.0
 11
-940.0593867953428
 21
232.5000000000001
 31
0.0
  0
LINE
  5
DCC39
330
D7433
100
AcDbEntity
  8
SIZE
440
 16777216
100
AcDbLine
 10
-940.0593867953428
 20
242.5000000000001
 30
0.0
 11
-940.059386795343
 21
488.5000000000001
 31
0.0
  0
INSERT
  5
DCC3A
330
D7433
100
AcDbEntity
  8
SIZE
440
 16777216
100
AcDbBlockReference
  2
_ORIGIN
 10
-940.0593867953428
 20
142.5
 30
0.0
 41
10.0
 42
10.0
 43
10.0
 50
270.0
  0
INSERT
  5
DCC3B
330
D7433
100
AcDbEntity
  8
SIZE
440
 16777216
100
AcDbBlockReference
  2
_ORIGIN
 10
-940.0593867953428
 20
242.5000000000001
 30
0.0
 41
10.0
 42
10.0
 43
10.0
 50
90.0
  0
MTEXT
  5
DCC3C
330
D7433
100
AcDbEntity
  8
SIZE
440
 16777216
100
AcDbMText
 10
-972.5593867953426
 20
370.5000000000003
 30
0.0
 40
45.0
 41
0.0
 46
0.0
 71
     5
 72
     1
  1
\A1;100以上
 11
0.0000000000000001
 21
1.0
 31
0.0
 73
     1
 44
1.0
  0
POINT
  5
DCC3D
330
D7433
100
AcDbEntity
  8
DEFPOINTS
 62
     0
440
 16777216
100
AcDbPoint
 10
-388.0000000000002
 20
142.5
 30
0.0
  0
POINT
  5
DCC3E
330
D7433
100
AcDbEntity
  8
DEFPOINTS
 62
     0
440
 16777216
100
AcDbPoint
 10
-500.0000000000002
 20
242.5000000000001
 30
0.0
  0
POINT
  5
DCC3F
330
D7433
100
AcDbEntity
  8
DEFPOINTS
 62
     0
440
 16777216
100
AcDbPoint
 10
-940.0593867953428
 20
242.5000000000001
 30
0.0
  0
ENDBLK
  5
D7435
330
D7433
100
AcDbEntity
  8
0
100
AcDbBlockEnd
  0
BLOCK
  5
D7441
330
D7440
100
AcDbEntity
  8
0
100
AcDbBlockBegin
  2
*D6
 70
     1
 10
0.0
 20
0.0
 30
0.0
  3
*D6
  1

  0
LINE
  5
DCC40
330
D7440
100
AcDbEntity
  8
SIZE
440
 16777216
370
    -2
100
AcDbLine
 10
-389.999741605904
 20
-142.5
 30
0.0
 11
-950.0593867953414
 21
-142.5000000000001
 31
0.0
  0
LINE
  5
DCC41
330
D7440
100
AcDbEntity
  8
SIZE
440
 16777216
370
    -2
100
AcDbLine
 10
-510.0000000000002
 20
-342.5000000000001
 30
0.0
 11
-950.0593867953412
 21
-342.5000000000002
 31
0.0
  0
LINE
  5
DCC42
330
D7440
100
AcDbEntity
  8
SIZE
440
 16777216
100
AcDbLine
 10
-940.0593867953414
 20
-152.5000000000001
 30
0.0
 11
-940.0593867953412
 21
-332.5000000000002
 31
0.0
  0
LINE
  5
DCC43
330
D7440
100
AcDbEntity
  8
SIZE
440
 16777216
100
AcDbLine
 10
-940.0593867953412
 20
-342.5000000000002
 30
0.0
 11
-940.0593867953412
 21
-597.0714285714287
 31
0.0
  0
INSERT
  5
DCC44
330
D7440
100
AcDbEntity
  8
SIZE
440
 16777216
100
AcDbBlockReference
  2
_ORIGIN
 10
-940.0593867953414
 20
-142.5000000000001
 30
0.0
 41
10.0
 42
10.0
 43
10.0
 50
90.0
  0
INSERT
  5
DCC45
330
D7440
100
AcDbEntity
  8
SIZE
440
 16777216
100
AcDbBlockReference
  2
_ORIGIN
 10
-940.0593867953412
 20
-342.5000000000002
 30
0.0
 41
10.0
 42
10.0
 43
10.0
 50
270.0
  0
MTEXT
  5
DCC46
330
D7440
100
AcDbEntity
  8
SIZE
440
 16777216
100
AcDbMText
 10
-972.5593867953412
 20
-474.7857142857141
 30
0.0
 40
45.0
 41
0.0
 46
0.0
 71
     5
 72
     1
  1
\A1;200以上
 11
0.0000000000000001
 21
1.0
 31
0.0
 73
     1
 44
1.0
  0
POINT
  5
DCC47
330
D7440
100
AcDbEntity
  8
DEFPOINTS
 62
     0
440
 16777216
100
AcDbPoint
 10
-379.999741605904
 20
-142.5
 30
0.0
  0
POINT
  5
DCC48
330
D7440
100
AcDbEntity
  8
DEFPOINTS
 62
     0
440
 16777216
100
AcDbPoint
 10
-500.0000000000002
 20
-342.5000000000001
 30
0.0
  0
POINT
  5
DCC49
330
D7440
100
AcDbEntity
  8
DEFPOINTS
 62
     0
440
 16777216
100
AcDbPoint
 10
-940.0593867953412
 20
-342.5000000000002
 30
0.0
  0
ENDBLK
  5
D7442
330
D7440
100
AcDbEntity
  8
0
100
AcDbBlockEnd
  0
BLOCK
  5
D7467
330
D7466
100
AcDbEntity
  8
0
100
AcDbBlockBegin
  2
*D7
 70
     1
 10
0.0
 20
0.0
 30
0.0
  3
*D7
  1

  0
LINE
  5
DCC4A
330
D7466
100
AcDbEntity
  8
SIZE
440
 16777216
370
    -2
100
AcDbLine
 10
-400.0
 20
-132.5
 30
0.0
 11
-400.0
 21
-707.5
 31
0.0
  0
LINE
  5
DCC4B
330
D7466
100
AcDbEntity
  8
SIZE
440
 16777216
370
    -2
100
AcDbLine
 10
-500.0
 20
-352.5
 30
0.0
 11
-500.0
 21
-707.5
 31
0.0
  0
LINE
  5
DCC4C
330
D7466
100
AcDbEntity
  8
SIZE
440
 16777216
100
AcDbLine
 10
-410.0
 20
-697.5
 30
0.0
 11
-490.0
 21
-697.5
 31
0.0
  0
LINE
  5
DCC4D
330
D7466
100
AcDbEntity
  8
SIZE
440
 16777216
100
AcDbLine
 10
-500.0
 20
-697.5
 30
0.0
 11
-746.0
 21
-697.5
 31
0.0
  0
INSERT
  5
DCC4E
330
D7466
100
AcDbEntity
  8
SIZE
440
 16777216
100
AcDbBlockReference
  2
_ORIGIN
 10
-400.0
 20
-697.5
 30
0.0
 41
10.0
 42
10.0
 43
10.0
  0
INSERT
  5
DCC4F
330
D7466
100
AcDbEntity
  8
SIZE
440
 16777216
100
AcDbBlockReference
  2
_ORIGIN
 10
-500.0
 20
-697.5
 30
0.0
 41
10.0
 42
10.0
 43
10.0
 50
180.0
  0
MTEXT
  5
DCC50
330
D7466
100
AcDbEntity
  8
SIZE
440
 16777216
100
AcDbMText
 10
-628.0
 20
-665.0
 30
0.0
 40
45.0
 41
741.358720123668
 46
0.0
 71
     5
 72
     1
  1
\A1;100以上
 73
     1
 44
1.0
  0
POINT
  5
DCC51
330
D7466
100
AcDbEntity
  8
DEFPOINTS
 62
     0
440
 16777216
100
AcDbPoint
 10
-400.0
 20
-122.5
 30
0.0
  0
POINT
  5
DCC52
330
D7466
100
AcDbEntity
  8
DEFPOINTS
 62
     0
440
 16777216
100
AcDbPoint
 10
-500.0
 20
-342.5
 30
0.0
  0
POINT
  5
DCC53
330
D7466
100
AcDbEntity
  8
DEFPOINTS
 62
     0
440
 16777216
100
AcDbPoint
 10
-500.0
 20
-697.5
 30
0.0
  0
ENDBLK
  5
D7468
330
D7466
100
AcDbEntity
  8
0
100
AcDbBlockEnd
  0
BLOCK
  5
D7474
330
D7473
100
AcDbEntity
  8
0
100
AcDbBlockBegin
  2
*D8
 70
     1
 10
0.0
 20
0.0
 30
0.0
  3
*D8
  1

  0
LINE
  5
DCC54
330
D7473
100
AcDbEntity
  8
SIZE
440
 16777216
370
    -2
100
AcDbLine
 10
400.0
 20
-119.6384698887423
 30
0.0
 11
400.0
 21
-707.5
 31
0.0
  0
LINE
  5
DCC55
330
D7473
100
AcDbEntity
  8
SIZE
440
 16777216
370
    -2
100
AcDbLine
 10
750.0
 20
-352.5
 30
0.0
 11
750.0
 21
-707.5
 31
0.0
  0
LINE
  5
DCC56
330
D7473
100
AcDbEntity
  8
SIZE
440
 16777216
100
AcDbLine
 10
409.9999999999999
 20
-697.5
 30
0.0
 11
740.0
 21
-697.5
 31
0.0
  0
INSERT
  5
DCC57
330
D7473
100
AcDbEntity
  8
SIZE
440
 16777216
100
AcDbBlockReference
  2
_ORIGIN
 10
400.0
 20
-697.5
 30
0.0
 41
10.0
 42
10.0
 43
10.0
 50
180.0
  0
INSERT
  5
DCC58
330
D7473
100
AcDbEntity
  8
SIZE
440
 16777216
100
AcDbBlockReference
  2
_ORIGIN
 10
750.0
 20
-697.5
 30
0.0
 41
10.0
 42
10.0
 43
10.0
  0
MTEXT
  5
DCC59
330
D7473
100
AcDbEntity
  8
SIZE
440
 16777216
100
AcDbMText
 10
575.0
 20
-665.0
 30
0.0
 40
45.0
 41
0.0
 46
0.0
 71
     5
 72
     1
  1
\A1;350以上
 73
     1
 44
1.0
  0
POINT
  5
DCC5A
330
D7473
100
AcDbEntity
  8
DEFPOINTS
 62
     0
440
 16777216
100
AcDbPoint
 10
400.0
 20
-109.6384698887423
 30
0.0
  0
POINT
  5
DCC5B
330
D7473
100
AcDbEntity
  8
DEFPOINTS
 62
     0
440
 16777216
100
AcDbPoint
 10
750.0
 20
-342.5
 30
0.0
  0
POINT
  5
DCC5C
330
D7473
100
AcDbEntity
  8
DEFPOINTS
 62
     0
440
 16777216
100
AcDbPoint
 10
750.0
 20
-697.5
 30
0.0
  0
ENDBLK
  5
D7475
330
D7473
100
AcDbEntity
  8
0
100
AcDbBlockEnd
  0
BLOCK
  5
D7481
330
D7480
100
AcDbEntity
  8
0
100
AcDbBlockBegin
  2
*D9
 70
     1
 10
0.0
 20
0.0
 30
0.0
  3
*D9
  1

  0
LINE
  5
DCC5D
330
D7480
100
AcDbEntity
  8
SIZE
440
 16777216
370
    -2
100
AcDbLine
 10
400.0
 20
-119.6384698887423
 30
0.0
 11
400.0
 21
-602.4999999999997
 31
0.0
  0
LINE
  5
DCC5E
330
D7480
100
AcDbEntity
  8
SIZE
440
 16777216
370
    -2
100
AcDbLine
 10
462.0
 20
-40.3427069078415
 30
0.0
 11
461.9999999999999
 21
-602.4999999999997
 31
0.0
  0
LINE
  5
DCC5F
330
D7480
100
AcDbEntity
  8
SIZE
440
 16777216
100
AcDbLine
 10
409.9999999999999
 20
-592.4999999999998
 30
0.0
 11
451.9999999999999
 21
-592.4999999999998
 31
0.0
  0
LINE
  5
DCC60
330
D7480
100
AcDbEntity
  8
SIZE
440
 16777216
100
AcDbLine
 10
461.9999999999999
 20
-592.4999999999998
 30
0.0
 11
564.8571428571427
 21
-592.4999999999998
 31
0.0
  0
INSERT
  5
DCC61
330
D7480
100
AcDbEntity
  8
SIZE
440
 16777216
100
AcDbBlockReference
  2
_ORIGIN
 10
400.0
 20
-592.4999999999998
 30
0.0
 41
10.0
 42
10.0
 43
10.0
 50
180.0
  0
INSERT
  5
DCC62
330
D7480
100
AcDbEntity
  8
SIZE
440
 16777216
100
AcDbBlockReference
  2
_ORIGIN
 10
461.9999999999999
 20
-592.4999999999998
 30
0.0
 41
10.0
 42
10.0
 43
10.0
  0
MTEXT
  5
DCC63
330
D7480
100
AcDbEntity
  8
SIZE
440
 16777216
100
AcDbMText
 10
518.4285714285713
 20
-559.9999999999997
 30
0.0
 40
45.0
 41
0.0
 46
0.0
 71
     5
 72
     1
  1
\A1;62
 73
     1
 44
1.0
  0
POINT
  5
DCC64
330
D7480
100
AcDbEntity
  8
DEFPOINTS
 62
     0
440
 16777216
100
AcDbPoint
 10
400.0
 20
-109.6384698887423
 30
0.0
  0
POINT
  5
DCC65
330
D7480
100
AcDbEntity
  8
DEFPOINTS
 62
     0
440
 16777216
100
AcDbPoint
 10
462.0
 20
-30.3427069078415
 30
0.0
  0
POINT
  5
DCC66
330
D7480
100
AcDbEntity
  8
DEFPOINTS
 62
     0
440
 16777216
100
AcDbPoint
 10
461.9999999999999
 20
-592.4999999999998
 30
0.0
  0
ENDBLK
  5
D7482
330
D7480
100
AcDbEntity
  8
0
100
AcDbBlockEnd
  0
BLOCK
  5
D7718
330
D7717
100
AcDbEntity
  8
0
100
AcDbBlockBegin
  2
*D10
 70
     1
 10
0.0
 20
0.0
 30
0.0
  3
*D10
  1

  0
LINE
  5
DCC67
330
D7717
100
AcDbEntity
  8
SIZE
440
 16777216
370
    -2
100
AcDbLine
 10
267.8224905006174
 20
-157.0
 30
0.0
 11
1060.0
 21
-156.9999999999999
 31
0.0
  0
LINE
  5
DCC68
330
D7717
100
AcDbEntity
  8
SIZE
440
 16777216
370
    -2
100
AcDbLine
 10
267.8224905006174
 20
162.5
 30
0.0
 11
1060.0
 21
162.5000000000001
 31
0.0
  0
LINE
  5
DCC69
330
D7717
100
AcDbEntity
  8
SIZE
440
 16777216
100
AcDbLine
 10
1050.0
 20
-146.9999999999999
 30
0.0
 11
1050.0
 21
152.5000000000001
 31
0.0
  0
INSERT
  5
DCC6A
330
D7717
100
AcDbEntity
  8
SIZE
440
 16777216
100
AcDbBlockReference
  2
_ORIGIN
 10
1050.0
 20
-156.9999999999999
 30
0.0
 41
10.0
 42
10.0
 43
10.0
 50
270.0
  0
INSERT
  5
DCC6B
330
D7717
100
AcDbEntity
  8
SIZE
440
 16777216
100
AcDbBlockReference
  2
_ORIGIN
 10
1050.0
 20
162.5000000000001
 30
0.0
 41
10.0
 42
10.0
 43
10.0
 50
90.0
  0
MTEXT
  5
DCC6C
330
D7717
100
AcDbEntity
  8
SIZE
440
 16777216
100
AcDbMText
 10
1017.5
 20
2.750000000000117
 30
0.0
 40
45.0
 41
0.0
 46
0.0
 71
     5
 72
     1
  1
\A1;304～325
 11
0.0000000000000001
 21
1.0
 31
0.0
 73
     1
 44
1.0
  0
POINT
  5
DCC6D
330
D7717
100
AcDbEntity
  8
DEFPOINTS
 62
     0
440
 16777216
100
AcDbPoint
 10
257.8224905006174
 20
-157.0
 30
0.0
  0
POINT
  5
DCC6E
330
D7717
100
AcDbEntity
  8
DEFPOINTS
 62
     0
440
 16777216
100
AcDbPoint
 10
257.8224905006174
 20
162.5
 30
0.0
  0
POINT
  5
DCC6F
330
D7717
100
AcDbEntity
  8
DEFPOINTS
 62
     0
440
 16777216
100
AcDbPoint
 10
1050.0
 20
162.5000000000001
 30
0.0
  0
ENDBLK
  5
D7719
330
D7717
100
AcDbEntity
  8
0
100
AcDbBlockEnd
  0
BLOCK
  5
D776C
330
D776B
100
AcDbEntity
  8
0
100
AcDbBlockBegin
  2
*D11
 70
     1
 10
0.0
 20
0.0
 30
0.0
  3
*D11
  1

  0
LINE
  5
DCC70
330
D776B
100
AcDbEntity
  8
SIZE
440
 16777216
370
    -2
100
AcDbLine
 10
260.0000000000001
 20
-175.0
 30
0.0
 11
1060.0
 21
-174.9999999999999
 31
0.0
  0
LINE
  5
DCC71
330
D776B
100
AcDbEntity
  8
SIZE
440
 16777216
370
    -2
100
AcDbLine
 10
267.8224905006174
 20
-157.0
 30
0.0
 11
1060.0
 21
-156.9999999999999
 31
0.0
  0
LINE
  5
DCC72
330
D776B
100
AcDbEntity
  8
SIZE
440
 16777216
100
AcDbLine
 10
1050.0
 20
-146.9999999999999
 30
0.0
 11
1050.0
 21
-136.9999999999999
 31
0.0
  0
LINE
  5
DCC73
330
D776B
100
AcDbEntity
  8
SIZE
440
 16777216
100
AcDbLine
 10
1050.0
 20
-184.9999999999999
 30
0.0
 11
1050.0
 21
-279.2857142857143
 31
0.0
  0
LINE
  5
DCC74
330
D776B
100
AcDbEntity
  8
SIZE
440
 16777216
100
AcDbLine
 10
1050.0
 20
-156.9999999999999
 30
0.0
 11
1050.0
 21
-174.9999999999999
 31
0.0
  0
INSERT
  5
DCC75
330
D776B
100
AcDbEntity
  8
SIZE
440
 16777216
100
AcDbBlockReference
  2
_ORIGIN
 10
1050.0
 20
-156.9999999999999
 30
0.0
 41
10.0
 42
10.0
 43
10.0
 50
270.0
  0
INSERT
  5
DCC76
330
D776B
100
AcDbEntity
  8
SIZE
440
 16777216
100
AcDbBlockReference
  2
_ORIGIN
 10
1050.0
 20
-174.9999999999999
 30
0.0
 41
10.0
 42
10.0
 43
10.0
 50
90.0
  0
MTEXT
  5
DCC77
330
D776B
100
AcDbEntity
  8
SIZE
440
 16777216
100
AcDbMText
 10
1017.5
 20
-237.1428571428573
 30
0.0
 40
45.0
 41
0.0
 46
0.0
 71
     5
 72
     1
  1
\A1;18
 11
0.0000000000000001
 21
1.0
 31
0.0
 73
     1
 44
1.0
  0
POINT
  5
DCC78
330
D776B
100
AcDbEntity
  8
DEFPOINTS
 62
     0
440
 16777216
100
AcDbPoint
 10
250.0000000000001
 20
-175.0
 30
0.0
  0
POINT
  5
DCC79
330
D776B
100
AcDbEntity
  8
DEFPOINTS
 62
     0
440
 16777216
100
AcDbPoint
 10
257.8224905006174
 20
-157.0
 30
0.0
  0
POINT
  5
DCC7A
330
D776B
100
AcDbEntity
  8
DEFPOINTS
 62
     0
440
 16777216
100
AcDbPoint
 10
1050.0
 20
-156.9999999999999
 30
0.0
  0
ENDBLK
  5
D776D
330
D776B
100
AcDbEntity
  8
0
100
AcDbBlockEnd
  0
BLOCK
  5
D78B0
330
D78AC
100
AcDbEntity
  8
0
100
AcDbBlockBegin
  2
_Open30
 70
     0
 10
0.0
 20
0.0
 30
0.0
  3
_Open30
  1

  0
LINE
  5
D78AD
330
D78AC
100
AcDbEntity
  8
0
  6
ByBlock
 62
     0
370
    -2
100
AcDbLine
 10
-1.0
 20
0.26794919
 30
0.0
 11
0.0
 21
0.0
 31
0.0
  0
LINE
  5
D78AE
330
D78AC
100
AcDbEntity
  8
0
  6
ByBlock
 62
     0
370
    -2
100
AcDbLine
 10
0.0
 20
0.0
 30
0.0
 11
-1.0
 21
-0.26794919
 31
0.0
  0
LINE
  5
D78AF
330
D78AC
100
AcDbEntity
  8
0
  6
ByBlock
 62
     0
370
    -2
100
AcDbLine
 10
0.0
 20
0.0
 30
0.0
 11
-1.0
 21
0.0
 31
0.0
  0
ENDBLK
  5
D78B1
330
D78AC
100
AcDbEntity
  8
0
100
AcDbBlockEnd
  0
BLOCK
  5
D7F62
330
D7F61
100
AcDbEntity
  8
0
100
AcDbBlockBegin
  2
*D13
 70
     1
 10
0.0
 20
0.0
 30
0.0
  3
*D13
  1

  0
LINE
  5
DCC7B
330
D7F61
100
AcDbEntity
  8
SIZE
440
 16777216
370
    -2
100
AcDbLine
 10
398.0000000000004
 20
142.5000000000001
 30
0.0
 11
909.9999999999999
 21
142.5000000000002
 31
0.0
  0
LINE
  5
DCC7C
330
D7F61
100
AcDbEntity
  8
SIZE
440
 16777216
370
    -2
100
AcDbLine
 10
482.8237542321586
 20
-28.50000000000001
 30
0.0
 11
909.9999999999999
 21
-28.49999999999995
 31
0.0
  0
LINE
  5
DCC7D
330
D7F61
100
AcDbEntity
  8
SIZE
440
 16777216
100
AcDbLine
 10
899.9999999999998
 20
132.5000000000002
 30
0.0
 11
899.9999999999998
 21
-18.49999999999994
 31
0.0
  0
INSERT
  5
DCC7E
330
D7F61
100
AcDbEntity
  8
SIZE
440
 16777216
100
AcDbBlockReference
  2
_ORIGIN
 10
899.9999999999998
 20
142.5000000000002
 30
0.0
 41
10.0
 42
10.0
 43
10.0
 50
90.0
  0
INSERT
  5
DCC7F
330
D7F61
100
AcDbEntity
  8
SIZE
440
 16777216
100
AcDbBlockReference
  2
_ORIGIN
 10
899.9999999999998
 20
-28.49999999999995
 30
0.0
 41
10.0
 42
10.0
 43
10.0
 50
270.0
  0
MTEXT
  5
DCC80
330
D7F61
100
AcDbEntity
  8
SIZE
440
 16777216
100
AcDbMText
 10
867.4999999999997
 20
57.24999999999989
 30
0.0
 40
45.0
 41
0.0
 46
0.0
 71
     5
 72
     1
  1
\A1;171
 11
0.0000000000000001
 21
1.0
 31
0.0
 73
     1
 44
1.0
  0
POINT
  5
DCC81
330
D7F61
100
AcDbEntity
  8
DEFPOINTS
 62
     0
440
 16777216
100
AcDbPoint
 10
388.0000000000004
 20
142.5000000000001
 30
0.0
  0
POINT
  5
DCC82
330
D7F61
100
AcDbEntity
  8
DEFPOINTS
 62
     0
440
 16777216
100
AcDbPoint
 10
472.8237542321585
 20
-28.50000000000001
 30
0.0
  0
POINT
  5
DCC83
330
D7F61
100
AcDbEntity
  8
DEFPOINTS
 62
     0
440
 16777216
100
AcDbPoint
 10
899.9999999999998
 20
-28.49999999999995
 30
0.0
  0
ENDBLK
  5
D7F63
330
D7F61
100
AcDbEntity
  8
0
100
AcDbBlockEnd
  0
BLOCK
  5
DAA05
330
DAA04
100
AcDbEntity
  8
0
100
AcDbBlockBegin
  2
*D14
 70
     1
 10
0.0
 20
0.0
 30
0.0
  3
*D14
  1

  0
LINE
  5
DCC84
330
DAA04
100
AcDbEntity
  8
SIZE
440
 16777216
370
    -2
100
AcDbLine
 10
272.4999999999861
 20
170.0
 30
0.0
 11
1160.000000000013
 21
170.0000000000002
 31
0.0
  0
LINE
  5
DCC85
330
DAA04
100
AcDbEntity
  8
SIZE
440
 16777216
370
    -2
100
AcDbLine
 10
260.0000000000001
 20
-175.0
 30
0.0
 11
1160.000000000013
 21
-174.9999999999999
 31
0.0
  0
LINE
  5
DCC86
330
DAA04
100
AcDbEntity
  8
SIZE
440
 16777216
100
AcDbLine
 10
1150.000000000013
 20
160.0000000000002
 30
0.0
 11
1150.000000000013
 21
-164.9999999999999
 31
0.0
  0
INSERT
  5
DCC87
330
DAA04
100
AcDbEntity
  8
SIZE
440
 16777216
100
AcDbBlockReference
  2
_ORIGIN
 10
1150.000000000013
 20
170.0000000000002
 30
0.0
 41
10.0
 42
10.0
 43
10.0
 50
90.0
  0
INSERT
  5
DCC88
330
DAA04
100
AcDbEntity
  8
SIZE
440
 16777216
100
AcDbBlockReference
  2
_ORIGIN
 10
1150.000000000013
 20
-174.9999999999999
 30
0.0
 41
10.0
 42
10.0
 43
10.0
 50
270.0
  0
MTEXT
  5
DCC89
330
DAA04
100
AcDbEntity
  8
SIZE
440
 16777216
100
AcDbMText
 10
1117.500000000013
 20
-2.50000000000018
 30
0.0
 40
45.0
 41
0.0
 46
0.0
 71
     5
 72
     1
  1
\A1;345
 11
0.0000000000000001
 21
1.0
 31
0.0
 73
     1
 44
1.0
  0
POINT
  5
DCC8A
330
DAA04
100
AcDbEntity
  8
DEFPOINTS
 62
     0
440
 16777216
100
AcDbPoint
 10
262.4999999999861
 20
170.0
 30
0.0
  0
POINT
  5
DCC8B
330
DAA04
100
AcDbEntity
  8
DEFPOINTS
 62
     0
440
 16777216
100
AcDbPoint
 10
250.0000000000001
 20
-175.0
 30
0.0
  0
POINT
  5
DCC8C
330
DAA04
100
AcDbEntity
  8
DEFPOINTS
 62
     0
440
 16777216
100
AcDbPoint
 10
1150.000000000013
 20
-174.9999999999999
 30
0.0
  0
ENDBLK
  5
DAA06
330
DAA04
100
AcDbEntity
  8
0
100
AcDbBlockEnd
  0
BLOCK
  5
DAAC9
330
DAAC8
100
AcDbEntity
  8
0
100
AcDbBlockBegin
  2
*D15
 70
     1
 10
0.0
 20
0.0
 30
0.0
  3
*D15
  1

  0
LINE
  5
DCC8D
330
DAAC8
100
AcDbEntity
  8
SIZE
440
 16777216
370
    -2
100
AcDbLine
 10
230.0
 20
-173.2752232704716
 30
0.0
 11
230.0
 21
-502.4999999999998
 31
0.0
  0
LINE
  5
DCC8E
330
DAAC8
100
AcDbEntity
  8
SIZE
440
 16777216
370
    -2
100
AcDbLine
 10
270.0
 20
-173.2752232704716
 30
0.0
 11
270.0
 21
-502.4999999999998
 31
0.0
  0
LINE
  5
DCC8F
330
DAAC8
100
AcDbEntity
  8
SIZE
440
 16777216
100
AcDbLine
 10
260.0
 20
-492.4999999999998
 30
0.0
 11
240.0
 21
-492.4999999999998
 31
0.0
  0
LINE
  5
DCC90
330
DAAC8
100
AcDbEntity
  8
SIZE
440
 16777216
100
AcDbLine
 10
230.0
 20
-492.4999999999998
 30
0.0
 11
127.142857142857
 21
-492.4999999999998
 31
0.0
  0
INSERT
  5
DCC91
330
DAAC8
100
AcDbEntity
  8
SIZE
440
 16777216
100
AcDbBlockReference
  2
_ORIGIN
 10
270.0
 20
-492.4999999999998
 30
0.0
 41
10.0
 42
10.0
 43
10.0
  0
INSERT
  5
DCC92
330
DAAC8
100
AcDbEntity
  8
SIZE
440
 16777216
100
AcDbBlockReference
  2
_ORIGIN
 10
230.0
 20
-492.4999999999998
 30
0.0
 41
10.0
 42
10.0
 43
10.0
 50
180.0
  0
MTEXT
  5
DCC93
330
DAAC8
100
AcDbEntity
  8
SIZE
440
 16777216
100
AcDbMText
 10
173.5714285714285
 20
-459.9999999999998
 30
0.0
 40
45.0
 41
0.0
 46
0.0
 71
     5
 72
     1
  1
\A1;40
 73
     1
 44
1.0
  0
POINT
  5
DCC94
330
DAAC8
100
AcDbEntity
  8
DEFPOINTS
 62
     0
440
 16777216
100
AcDbPoint
 10
230.0
 20
-163.2752232704716
 30
0.0
  0
POINT
  5
DCC95
330
DAAC8
100
AcDbEntity
  8
DEFPOINTS
 62
     0
440
 16777216
100
AcDbPoint
 10
270.0
 20
-163.2752232704716
 30
0.0
  0
POINT
  5
DCC96
330
DAAC8
100
AcDbEntity
  8
DEFPOINTS
 62
     0
440
 16777216
100
AcDbPoint
 10
270.0
 20
-492.4999999999998
 30
0.0
  0
ENDBLK
  5
DAACA
330
DAAC8
100
AcDbEntity
  8
0
100
AcDbBlockEnd
  0
BLOCK
  5
DADC4
330
DADC3
100
AcDbEntity
  8
0
100
AcDbBlockBegin
  2
*D16
 70
     1
 10
0.0
 20
0.0
 30
0.0
  3
*D16
  1

  0
LINE
  5
DCC97
330
DADC3
100
AcDbEntity
  8
SIZE
440
 16777216
370
    -2
100
AcDbLine
 10
-97.0
 20
-210.0
 30
0.0
 11
-97.00000000000002
 21
-602.4999999999997
 31
0.0
  0
LINE
  5
DCC98
330
DADC3
100
AcDbEntity
  8
SIZE
440
 16777216
370
    -2
100
AcDbLine
 10
-399.9997416059037
 20
-132.5
 30
0.0
 11
-399.9997416059038
 21
-602.4999999999997
 31
0.0
  0
LINE
  5
DCC99
330
DADC3
100
AcDbEntity
  8
SIZE
440
 16777216
100
AcDbLine
 10
-107.0
 20
-592.4999999999998
 30
0.0
 11
-389.9997416059037
 21
-592.4999999999998
 31
0.0
  0
INSERT
  5
DCC9A
330
DADC3
100
AcDbEntity
  8
SIZE
440
 16777216
100
AcDbBlockReference
  2
_ORIGIN
 10
-97.00000000000002
 20
-592.4999999999998
 30
0.0
 41
10.0
 42
10.0
 43
10.0
  0
INSERT
  5
DCC9B
330
DADC3
100
AcDbEntity
  8
SIZE
440
 16777216
100
AcDbBlockReference
  2
_ORIGIN
 10
-399.9997416059038
 20
-592.4999999999998
 30
0.0
 41
10.0
 42
10.0
 43
10.0
 50
180.0
  0
MTEXT
  5
DCC9C
330
DADC3
100
AcDbEntity
  8
SIZE
440
 16777216
100
AcDbMText
 10
-248.4998708029519
 20
-559.9999999999997
 30
0.0
 40
45.0
 41
0.0
 46
0.0
 71
     5
 72
     1
  1
\A1;303
 73
     1
 44
1.0
  0
POINT
  5
DCC9D
330
DADC3
100
AcDbEntity
  8
DEFPOINTS
 62
     0
440
 16777216
100
AcDbPoint
 10
-97.0
 20
-200.0
 30
0.0
  0
POINT
  5
DCC9E
330
DADC3
100
AcDbEntity
  8
DEFPOINTS
 62
     0
440
 16777216
100
AcDbPoint
 10
-399.9997416059037
 20
-122.5
 30
0.0
  0
POINT
  5
DCC9F
330
DADC3
100
AcDbEntity
  8
DEFPOINTS
 62
     0
440
 16777216
100
AcDbPoint
 10
-399.9997416059038
 20
-592.4999999999998
 30
0.0
  0
ENDBLK
  5
DADC5
330
DADC3
100
AcDbEntity
  8
0
100
AcDbBlockEnd
  0
BLOCK
  5
DAEB1
330
DAEB0
100
AcDbEntity
  8
0
100
AcDbBlockBegin
  2
*D17
 70
     1
 10
0.0
 20
0.0
 30
0.0
  3
*D17
  1

  0
LINE
  5
DCCA0
330
DAEB0
100
AcDbEntity
  8
SIZE
440
 16777216
370
    -2
100
AcDbLine
 10
400.0
 20
-119.6573052144613
 30
0.0
 11
400.0
 21
-502.4999999999998
 31
0.0
  0
LINE
  5
DCCA1
330
DAEB0
100
AcDbEntity
  8
SIZE
440
 16777216
370
    -2
100
AcDbLine
 10
429.0
 20
-82.32375423215856
 30
0.0
 11
429.0
 21
-502.4999999999997
 31
0.0
  0
LINE
  5
DCCA2
330
DAEB0
100
AcDbEntity
  8
SIZE
440
 16777216
100
AcDbLine
 10
390.0
 20
-492.4999999999998
 30
0.0
 11
380.0
 21
-492.4999999999998
 31
0.0
  0
LINE
  5
DCCA3
330
DAEB0
100
AcDbEntity
  8
SIZE
440
 16777216
100
AcDbLine
 10
439.0
 20
-492.4999999999998
 30
0.0
 11
558.3864950767399
 21
-492.4999999999998
 31
0.0
  0
LINE
  5
DCCA4
330
DAEB0
100
AcDbEntity
  8
SIZE
440
 16777216
100
AcDbLine
 10
400.0
 20
-492.4999999999998
 30
0.0
 11
429.0
 21
-492.4999999999998
 31
0.0
  0
INSERT
  5
DCCA5
330
DAEB0
100
AcDbEntity
  8
SIZE
440
 16777216
100
AcDbBlockReference
  2
_ORIGIN
 10
400.0
 20
-492.4999999999998
 30
0.0
 41
10.0
 42
10.0
 43
10.0
  0
INSERT
  5
DCCA6
330
DAEB0
100
AcDbEntity
  8
SIZE
440
 16777216
100
AcDbBlockReference
  2
_ORIGIN
 10
429.0
 20
-492.4999999999998
 30
0.0
 41
10.0
 42
10.0
 43
10.0
 50
180.0
  0
MTEXT
  5
DCCA7
330
DAEB0
100
AcDbEntity
  8
SIZE
440
 16777216
100
AcDbMText
 10
513.029352219597
 20
-459.9999999999998
 30
0.0
 40
45.0
 41
0.0
 46
0.0
 71
     5
 72
     1
  1
\A1;29
 73
     1
 44
1.0
  0
POINT
  5
DCCA8
330
DAEB0
100
AcDbEntity
  8
DEFPOINTS
 62
     0
440
 16777216
100
AcDbPoint
 10
400.0
 20
-109.6573052144613
 30
0.0
  0
POINT
  5
DCCA9
330
DAEB0
100
AcDbEntity
  8
DEFPOINTS
 62
     0
440
 16777216
100
AcDbPoint
 10
429.0
 20
-72.32375423215856
 30
0.0
  0
POINT
  5
DCCAA
330
DAEB0
100
AcDbEntity
  8
DEFPOINTS
 62
     0
440
 16777216
100
AcDbPoint
 10
429.0
 20
-492.4999999999998
 30
0.0
  0
ENDBLK
  5
DAEB2
330
DAEB0
100
AcDbEntity
  8
0
100
AcDbBlockEnd
  0
BLOCK
  5
DB69D
330
DB69C
100
AcDbEntity
  8
0
100
AcDbBlockBegin
  2
*D18
 70
     1
 10
0.0
 20
0.0
 30
0.0
  3
*D18
  1

  0
LINE
  5
DCCAB
330
DB69C
100
AcDbEntity
  8
SIZE
440
 16777216
370
    -2
100
AcDbLine
 10
-328.8389091140957
 20
-157.5000000000001
 30
0.0
 11
-790.9156058372119
 21
-157.5000000000001
 31
0.0
  0
LINE
  5
DCCAC
330
DB69C
100
AcDbEntity
  8
SIZE
440
 16777216
370
    -2
100
AcDbLine
 10
-389.999741605904
 20
-142.5
 30
0.0
 11
-790.9156058372119
 21
-142.5000000000001
 31
0.0
  0
LINE
  5
DCCAD
330
DB69C
100
AcDbEntity
  8
SIZE
440
 16777216
100
AcDbLine
 10
-780.9156058372119
 20
-132.5000000000001
 30
0.0
 11
-780.9156058372119
 21
-122.5000000000001
 31
0.0
  0
LINE
  5
DCCAE
330
DB69C
100
AcDbEntity
  8
SIZE
440
 16777216
100
AcDbLine
 10
-780.9156058372119
 20
-167.5000000000001
 30
0.0
 11
-780.9156058372118
 21
-261.7857142857145
 31
0.0
  0
LINE
  5
DCCAF
330
DB69C
100
AcDbEntity
  8
SIZE
440
 16777216
100
AcDbLine
 10
-780.9156058372119
 20
-142.5000000000001
 30
0.0
 11
-780.9156058372119
 21
-157.5000000000001
 31
0.0
  0
INSERT
  5
DCCB0
330
DB69C
100
AcDbEntity
  8
SIZE
440
 16777216
100
AcDbBlockReference
  2
_ORIGIN
 10
-780.9156058372119
 20
-142.5000000000001
 30
0.0
 41
10.0
 42
10.0
 43
10.0
 50
270.0
  0
INSERT
  5
DCCB1
330
DB69C
100
AcDbEntity
  8
SIZE
440
 16777216
100
AcDbBlockReference
  2
_ORIGIN
 10
-780.9156058372119
 20
-157.5000000000001
 30
0.0
 41
10.0
 42
10.0
 43
10.0
 50
90.0
  0
MTEXT
  5
DCCB2
330
DB69C
100
AcDbEntity
  8
SIZE
440
 16777216
100
AcDbMText
 10
-813.4156058372116
 20
-219.642857142857
 30
0.0
 40
45.0
 41
0.0
 46
0.0
 71
     5
 72
     1
  1
\A1;15
 11
0.0000000000000001
 21
1.0
 31
0.0
 73
     1
 44
1.0
  0
POINT
  5
DCCB3
330
DB69C
100
AcDbEntity
  8
DEFPOINTS
 62
     0
440
 16777216
100
AcDbPoint
 10
-318.8389091140957
 20
-157.5
 30
0.0
  0
POINT
  5
DCCB4
330
DB69C
100
AcDbEntity
  8
DEFPOINTS
 62
     0
440
 16777216
100
AcDbPoint
 10
-379.999741605904
 20
-142.5
 30
0.0
  0
POINT
  5
DCCB5
330
DB69C
100
AcDbEntity
  8
DEFPOINTS
 62
     0
440
 16777216
100
AcDbPoint
 10
-780.9156058372119
 20
-142.5000000000001
 30
0.0
  0
ENDBLK
  5
DB69E
330
DB69C
100
AcDbEntity
  8
0
100
AcDbBlockEnd
  0
BLOCK
  5
DB6C2
330
DB6C1
100
AcDbEntity
  8
0
100
AcDbBlockBegin
  2
*D19
 70
     1
 10
0.0
 20
0.0
 30
0.0
  3
*D19
  1

  0
LINE
  5
DCCB6
330
DB6C1
100
AcDbEntity
  8
SIZE
440
 16777216
370
    -2
100
AcDbLine
 10
-43.36211539692341
 20
94.50000000000002
 30
0.0
 11
-790.9156058372115
 21
94.49999999999992
 31
0.0
  0
LINE
  5
DCCB7
330
DB6C1
100
AcDbEntity
  8
SIZE
440
 16777216
370
    -2
100
AcDbLine
 10
-398.0000000000001
 20
142.5
 30
0.0
 11
-790.9156058372115
 21
142.5
 31
0.0
  0
LINE
  5
DCCB8
330
DB6C1
100
AcDbEntity
  8
SIZE
440
 16777216
100
AcDbLine
 10
-780.9156058372114
 20
132.5
 30
0.0
 11
-780.9156058372114
 21
104.4999999999999
 31
0.0
  0
LINE
  5
DCCB9
330
DB6C1
100
AcDbEntity
  8
SIZE
440
 16777216
100
AcDbLine
 10
-780.9156058372114
 20
94.49999999999992
 30
0.0
 11
-780.9156058372114
 21
-8.357142857142951
 31
0.0
  0
INSERT
  5
DCCBA
330
DB6C1
100
AcDbEntity
  8
SIZE
440
 16777216
100
AcDbBlockReference
  2
_ORIGIN
 10
-780.9156058372114
 20
142.5
 30
0.0
 41
10.0
 42
10.0
 43
10.0
 50
90.0
  0
INSERT
  5
DCCBB
330
DB6C1
100
AcDbEntity
  8
SIZE
440
 16777216
100
AcDbBlockReference
  2
_ORIGIN
 10
-780.9156058372114
 20
94.49999999999992
 30
0.0
 41
10.0
 42
10.0
 43
10.0
 50
270.0
  0
MTEXT
  5
DCCBC
330
DB6C1
100
AcDbEntity
  8
SIZE
440
 16777216
100
AcDbMText
 10
-813.4156058372113
 20
38.0714285714287
 30
0.0
 40
45.0
 41
0.0
 46
0.0
 71
     5
 72
     1
  1
\A1;48
 11
0.0000000000000001
 21
1.0
 31
0.0
 73
     1
 44
1.0
  0
POINT
  5
DCCBD
330
DB6C1
100
AcDbEntity
  8
DEFPOINTS
 62
     0
440
 16777216
100
AcDbPoint
 10
-33.36211539692341
 20
94.50000000000002
 30
0.0
  0
POINT
  5
DCCBE
330
DB6C1
100
AcDbEntity
  8
DEFPOINTS
 62
     0
440
 16777216
100
AcDbPoint
 10
-388.0000000000001
 20
142.5
 30
0.0
  0
POINT
  5
DCCBF
330
DB6C1
100
AcDbEntity
  8
DEFPOINTS
 62
     0
440
 16777216
100
AcDbPoint
 10
-780.9156058372114
 20
142.5
 30
0.0
  0
ENDBLK
  5
DB6C3
330
DB6C1
100
AcDbEntity
  8
0
100
AcDbBlockEnd
  0
ENDSEC
  0
SECTION
  2
ENTITIES
  0
MTEXT
  5
38341
330
1E
100
AcDbEntity
  8
0
100
AcDbMText
 10
383.9605305094082
 20
4023.282340837186
 30
0.0
 40
64.0
 41
187.9848
 46
0.0
 71
     1
 72
     5
  1

 73
     1
 44
1.0
  0
CIRCLE
  5
D70EC
102
{ACAD_REACTORS
330
D85DC
102
}
330
1E
100
AcDbEntity
  8
ARRANGE
100
AcDbCircle
 10
0.0
 20
0.0
 30
0.0
 40
40.0
  0
POINT
  5
D70ED
102
{ACAD_REACTORS
330
D85DC
102
}
330
1E
100
AcDbEntity
  8
ARRANGE
100
AcDbPoint
 10
0.0
 20
0.0
 30
0.0
  0
LINE
  5
D7274
330
1E
100
AcDbEntity
  8
BASIS
100
AcDbLine
 10
-250.0
 20
-144.821957182012
 30
0.0
 11
-250.0
 21
-170.1780428179879
 31
0.0
  0
LINE
  5
D7275
330
1E
100
AcDbEntity
  8
BASIS
100
AcDbLine
 10
-257.8224905006173
 20
-157.0
 30
0.0
 11
-242.1775094993828
 21
-157.0
 31
0.0
  0
LINE
  5
D7276
330
1E
100
AcDbEntity
  8
BASIS
100
AcDbLine
 10
-250.0
 20
147.7082455968229
 30
0.0
 11
-250.0
 21
177.291754403177
 31
0.0
  0
LINE
  5
D72FB
330
1E
100
AcDbEntity
  8
NOTE
100
AcDbLine
 10
-199.2290144822047
 20
-178.8247892590098
 30
0.0
 11
-229.5305621393247
 21
-178.8247892590098
 31
0.0
  0
LINE
  5
D72FC
330
1E
100
AcDbEntity
  8
NOTE
100
AcDbLine
 10
-214.3797883107663
 20
-259.9981528772751
 30
0.0
 11
-174.1784071947559
 21
-219.8803658946764
 31
0.0
  0
LINE
  5
D72FD
330
1E
100
AcDbEntity
  8
NOTE
100
AcDbLine
 10
-229.5305621393245
 20
-219.8803658946764
 30
0.0
 11
-229.5305621393245
 21
-179.1119130762403
 31
0.0
  0
LINE
  5
D72FE
330
1E
100
AcDbEntity
  8
NOTE
100
AcDbLine
 10
-254.5811694267741
 20
-219.8803658946764
 30
0.0
 11
-229.5305621393245
 21
-219.8803658946764
 31
0.0
  0
LINE
  5
D72FF
330
1E
100
AcDbEntity
  8
NOTE
100
AcDbLine
 10
-254.5811694267741
 20
-219.8803658946764
 30
0.0
 11
-214.3797883107663
 21
-259.9981528772751
 31
0.0
  0
LINE
  5
D7300
330
1E
100
AcDbEntity
  8
NOTE
100
AcDbLine
 10
-199.2290144822045
 20
-219.8803658946764
 30
0.0
 11
-199.2290144822045
 21
-179.1119130762403
 31
0.0
  0
LINE
  5
D7301
330
1E
100
AcDbEntity
  8
NOTE
100
AcDbLine
 10
-199.2290144822045
 20
-219.8803658946764
 30
0.0
 11
-174.1784071947559
 21
-219.8803658946764
 31
0.0
  0
LINE
  5
D7302
330
1E
100
AcDbEntity
  8
NOTE
100
AcDbLine
 10
-14.33490599153356
 20
306.815551369783
 30
0.0
 11
10.71570129591509
 21
306.815551369783
 31
0.0
  0
LINE
  5
D7303
330
1E
100
AcDbEntity
  8
NOTE
100
AcDbLine
 10
-29.48567982009535
 20
266.6977643871837
 30
0.0
 11
10.71570129591509
 21
306.815551369783
 31
0.0
  0
LINE
  5
D7304
330
1E
100
AcDbEntity
  8
NOTE
100
AcDbLine
 10
-14.33490599153356
 20
306.815551369783
 30
0.0
 11
-14.33490599153356
 21
347.5840041882184
 31
0.0
  0
LINE
  5
D7305
330
1E
100
AcDbEntity
  8
NOTE
100
AcDbLine
 10
-44.63645364865345
 20
306.815551369783
 30
0.0
 11
-44.63645364865345
 21
347.5840041882184
 31
0.0
  0
LINE
  5
D7306
330
1E
100
AcDbEntity
  8
NOTE
100
AcDbLine
 10
-69.68706093610217
 20
306.815551369783
 30
0.0
 11
-29.48567982009535
 21
266.6977643871837
 31
0.0
  0
LINE
  5
D7307
330
1E
100
AcDbEntity
  8
NOTE
100
AcDbLine
 10
-69.68706093610217
 20
306.815551369783
 30
0.0
 11
-44.63645364865345
 21
306.815551369783
 31
0.0
  0
LINE
  5
D7308
330
1E
100
AcDbEntity
  8
NOTE
100
AcDbLine
 10
-14.33490599153356
 20
347.5840041882184
 30
0.0
 11
-44.63645364865345
 21
347.5840041882184
 31
0.0
  0
LINE
  5
D730A
330
1E
100
AcDbEntity
  8
NOTE
100
AcDbLine
 10
-620.3993111686562
 20
-76.8445027880025
 30
0.0
 11
-620.3993111686562
 21
-101.8951100754516
 31
0.0
  0
LINE
  5
D730B
330
1E
100
AcDbEntity
  8
NOTE
100
AcDbLine
 10
-580.281524186057
 20
-61.69372895944071
 30
0.0
 11
-620.3993111686562
 21
-101.8951100754516
 31
0.0
  0
LINE
  5
D730C
330
1E
100
AcDbEntity
  8
NOTE
100
AcDbLine
 10
-620.3993111686562
 20
-76.8445027880025
 30
0.0
 11
-661.1677639870922
 21
-76.8445027880025
 31
0.0
  0
LINE
  5
D730D
330
1E
100
AcDbEntity
  8
NOTE
100
AcDbLine
 10
-620.3993111686562
 20
-46.54295513088253
 30
0.0
 11
-661.1677639870922
 21
-46.54295513088253
 31
0.0
  0
LINE
  5
D730E
330
1E
100
AcDbEntity
  8
NOTE
100
AcDbLine
 10
-620.3993111686562
 20
-21.49234784343388
 30
0.0
 11
-580.281524186057
 21
-61.69372895944071
 31
0.0
  0
LINE
  5
D730F
330
1E
100
AcDbEntity
  8
NOTE
100
AcDbLine
 10
-620.3993111686562
 20
-21.49234784343388
 30
0.0
 11
-620.3993111686562
 21
-46.54295513088253
 31
0.0
  0
LINE
  5
D7310
330
1E
100
AcDbEntity
  8
NOTE
100
AcDbLine
 10
-661.1677639870922
 20
-76.8445027880025
 30
0.0
 11
-661.1677639870922
 21
-46.54295513088253
 31
0.0
  0
LINE
  5
D7312
330
1E
100
AcDbEntity
  8
BASIS
100
AcDbLine
 10
-0.0000000000000568
 20
200.0
 30
0.0
 11
-0.0000000000000568
 21
-200.0
 31
0.0
  0
LINE
  5
D7313
330
1E
100
AcDbEntity
  8
BASIS
100
AcDbLine
 10
500.0
 20
0.0
 30
0.0
 11
-500.0
 21
0.0
 31
0.0
  0
LINE
  5
D73B3
330
1E
100
AcDbEntity
  8
SERVICE_SPACE
100
AcDbLine
 10
-500.0
 20
242.5
 30
0.0
 11
750.0
 21
242.5
 31
0.0
  0
LINE
  5
D73B4
330
1E
100
AcDbEntity
  8
SERVICE_SPACE
100
AcDbLine
 10
750.0
 20
242.5
 30
0.0
 11
750.0
 21
-342.5
 31
0.0
  0
LINE
  5
D73B5
330
1E
100
AcDbEntity
  8
SERVICE_SPACE
100
AcDbLine
 10
-500.0
 20
242.5
 30
0.0
 11
-500.0
 21
-342.5
 31
0.0
  0
LINE
  5
D73B6
330
1E
100
AcDbEntity
  8
SERVICE_SPACE
100
AcDbLine
 10
-500.0
 20
-342.5
 30
0.0
 11
750.0
 21
-342.5
 31
0.0
  0
DIMENSION
  5
D73B8
330
1E
100
AcDbEntity
  8
SIZE
100
AcDbDimension
280
     0
  2
*D1
 10
-250.0
 20
542.4999999999998
 30
0.0
 11
-325.0
 21
574.9999999999999
 31
0.0
 70
    32
 71
     5
 42
150.0
 73
     0
 74
     0
 75
     0
  3
STANDARD
100
AcDbAlignedDimension
 13
-400.0
 23
130.5000000951254
 33
0.0
 14
-250.0
 24
177.291754403177
 34
0.0
100
AcDbRotatedDimension
1001
ACAD
1000
DSTYLE
1002
{
1070
    43
1040
200.0
1070
   271
1070
     8
1070
   272
1070
     3
1070
   341
1005
46
1002
}
  0
LINE
  5
D73B9
330
1E
100
AcDbEntity
  8
BASIS
100
AcDbLine
 10
250.0
 20
-143.7272659359783
 30
0.0
 11
250.0
 21
-176.4791794991543
 31
0.0
  0
LINE
  5
D73BA
330
1E
100
AcDbEntity
  8
BASIS
100
AcDbLine
 10
242.1775094993827
 20
-157.0
 30
0.0
 11
257.8224905006173
 21
-157.0
 31
0.0
  0
LINE
  5
D73BB
330
1E
100
AcDbEntity
  8
BASIS
100
AcDbLine
 10
250.0
 20
147.7082455968229
 30
0.0
 11
250.0
 21
177.291754403177
 31
0.0
  0
DIMENSION
  5
D73BD
330
1E
100
AcDbEntity
  8
SIZE
100
AcDbDimension
280
     0
  2
*D2
 10
250.0
 20
542.4999999999998
 30
0.0
 11
0.0000000000000304
 21
574.9999999999999
 31
0.0
 70
    32
 71
     5
 42
500.0
 73
     0
 74
     0
 75
     0
  3
STANDARD
100
AcDbAlignedDimension
 13
-250.0
 23
177.291754403177
 33
0.0
 14
250.0
 24
177.291754403177
 34
0.0
100
AcDbRotatedDimension
1001
ACAD
1000
DSTYLE
1002
{
1070
    43
1040
200.0
1070
   271
1070
     8
1070
   272
1070
     3
1070
   341
1005
46
1002
}
  0
DIMENSION
  5
D73BF
330
1E
100
AcDbEntity
  8
SIZE
100
AcDbDimension
280
     0
  2
*D3
 10
400.0
 20
-697.5
 30
0.0
 11
-0.0000000000000549
 21
-665.0
 31
0.0
 70
    32
 71
     5
 42
800.0
 73
     0
 74
     0
 75
     0
  3
STANDARD
100
AcDbAlignedDimension
 13
-400.0
 23
-122.5
 33
0.0
 14
400.0
 24
-109.6384698887423
 34
0.0
100
AcDbRotatedDimension
1001
ACAD
1000
DSTYLE
1002
{
1070
   271
1070
     8
1002
}
  0
DIMENSION
  5
D73C2
330
1E
100
AcDbEntity
  8
SIZE
100
AcDbDimension
280
     0
  2
*D4
 10
-940.0593867953428
 20
-142.5000000000001
 30
0.0
 11
-972.5593867953426
 21
0.0000000000001752
 31
0.0
 70
    32
 71
     5
 42
285.0000000000001
 73
     0
 74
     0
 75
     0
  3
STANDARD
100
AcDbAlignedDimension
 13
-388.0
 23
142.5
 33
0.0
 14
-379.9997416059037
 24
-142.5
 34
0.0
 50
90.0
100
AcDbRotatedDimension
1001
ACAD
1000
DSTYLE
1002
{
1070
    41
1040
10.0
1070
    42
1040
10.0
1070
    43
1040
200.0
1070
    44
1040
10.0
1070
    73
1070
     0
1070
    74
1070
     0
1070
    77
1070
     1
1070
    78
1070
     8
1070
   140
1040
45.0
1070
   141
1040
0.082
1070
   147
1040
10.0
1070
   172
1070
     1
1070
   271
1070
     8
1070
   272
1070
     3
1070
   341
1005
46
1070
   342
1005
46
1002
}
  0
DIMENSION
  5
D73C3
330
1E
100
AcDbEntity
  8
SIZE
100
AcDbDimension
280
     0
  2
*D5
 10
-940.0593867953428
 20
242.5000000000001
 30
0.0
 11
-972.5593867953426
 21
370.5000000000003
 31
0.0
 70
    32
 71
     5
 42
100.0
 73
     0
 74
     0
 75
     0
  3
STANDARD
100
AcDbAlignedDimension
 13
-388.0
 23
142.5
 33
0.0
 14
-500.0
 24
242.5
 34
0.0
 50
90.0
100
AcDbRotatedDimension
1001
ACAD
1000
DSTYLE
1002
{
1070
     3
1000
以上
1070
    41
1040
10.0
1070
    42
1040
10.0
1070
    43
1040
200.0
1070
    44
1040
10.0
1070
    73
1070
     0
1070
    74
1070
     0
1070
    77
1070
     1
1070
    78
1070
     8
1070
   140
1040
45.0
1070
   141
1040
0.082
1070
   147
1040
10.0
1070
   172
1070
     1
1070
   271
1070
     8
1070
   272
1070
     3
1070
   341
1005
46
1070
   342
1005
46
1002
}
  0
DIMENSION
  5
D73C4
330
1E
100
AcDbEntity
  8
SIZE
100
AcDbDimension
280
     0
  2
*D6
 10
-940.0593867953412
 20
-342.5000000000002
 30
0.0
 11
-972.5593867953412
 21
-474.7857142857141
 31
0.0
 70
    32
 71
     5
 42
200.0
 73
     0
 74
     0
 75
     0
  3
STANDARD
100
AcDbAlignedDimension
 13
-379.9997416059039
 23
-142.5
 33
0.0
 14
-500.0
 24
-342.5
 34
0.0
 50
90.0
100
AcDbRotatedDimension
1001
ACAD
1000
DSTYLE
1002
{
1070
     3
1000
以上
1070
    41
1040
10.0
1070
    42
1040
10.0
1070
    43
1040
200.0
1070
    44
1040
10.0
1070
    73
1070
     0
1070
    74
1070
     0
1070
    77
1070
     1
1070
    78
1070
     8
1070
   140
1040
45.0
1070
   141
1040
0.082
1070
   147
1040
10.0
1070
   172
1070
     1
1070
   271
1070
     8
1070
   272
1070
     3
1070
   341
1005
46
1070
   342
1005
46
1002
}
  0
DIMENSION
  5
D73C7
330
1E
100
AcDbEntity
  8
SIZE
100
AcDbDimension
280
     0
  2
*D7
 10
-500.0
 20
-697.5
 30
0.0
 11
-628.0
 21
-665.0
 31
0.0
 70
    32
 71
     5
 42
100.0
 73
     0
 74
     0
 75
     0
  3
STANDARD
100
AcDbAlignedDimension
 13
-400.0
 23
-122.5
 33
0.0
 14
-500.0
 24
-342.5
 34
0.0
100
AcDbRotatedDimension
1001
ACAD
1000
DSTYLE
1002
{
1070
     3
1000
以上
1070
   271
1070
     8
1002
}
  0
DIMENSION
  5
D73C8
330
1E
100
AcDbEntity
  8
SIZE
100
AcDbDimension
280
     0
  2
*D8
 10
750.0
 20
-697.5
 30
0.0
 11
575.0
 21
-665.0
 31
0.0
 70
    32
 71
     5
 42
350.0
 73
     0
 74
     0
 75
     0
  3
STANDARD
100
AcDbAlignedDimension
 13
400.0
 23
-109.6384698887423
 33
0.0
 14
750.0
 24
-342.5
 34
0.0
100
AcDbRotatedDimension
1001
ACAD
1000
DSTYLE
1002
{
1070
     3
1000
以上
1070
   271
1070
     8
1002
}
  0
DIMENSION
  5
D73CE
330
1E
100
AcDbEntity
  8
SIZE
100
AcDbDimension
280
     0
  2
*D9
 10
461.9999999999999
 20
-592.4999999999998
 30
0.0
 11
518.4285714285713
 21
-559.9999999999997
 31
0.0
 70
    32
 71
     5
 42
62.0
 73
     0
 74
     0
 75
     0
  3
STANDARD
100
AcDbAlignedDimension
 13
400.0
 23
-109.6384698887423
 33
0.0
 14
462.0
 24
-30.3427069078415
 34
0.0
100
AcDbRotatedDimension
1001
ACAD
1000
DSTYLE
1002
{
1070
    43
1040
200.0
1070
   271
1070
     5
1070
   272
1070
     3
1070
   341
1005
46
1002
}
  0
LINE
  5
D7714
330
1E
100
AcDbEntity
  8
BASIS
100
AcDbLine
 10
242.1775094993827
 20
162.5
 30
0.0
 11
257.8224905006173
 21
162.5
 31
0.0
  0
LINE
  5
D7715
330
1E
100
AcDbEntity
  8
BASIS
100
AcDbLine
 10
-257.8224905006173
 20
162.5
 30
0.0
 11
-242.1775094993827
 21
162.5
 31
0.0
  0
DIMENSION
  5
D7716
330
1E
100
AcDbEntity
  8
SIZE
100
AcDbDimension
280
     0
  2
*D10
 10
1050.0
 20
162.5000000000001
 30
0.0
 11
1050.0
 21
2.750000000000113
 31
0.0
 70
   160
  1
304～325
 71
     5
 42
319.5000000000001
 73
     0
 74
     0
 75
     0
  3
STANDARD
100
AcDbAlignedDimension
 13
257.8224905006173
 23
-157.0
 33
0.0
 14
257.8224905006173
 24
162.5
 34
0.0
 50
90.0
100
AcDbRotatedDimension
1001
ACAD
1000
DSTYLE
1002
{
1070
   271
1070
     8
1002
}
  0
DIMENSION
  5
D776A
330
1E
100
AcDbEntity
  8
SIZE
100
AcDbDimension
280
     0
  2
*D11
 10
1050.0
 20
-156.9999999999999
 30
0.0
 11
1050.0
 21
-237.1428571428573
 31
0.0
 70
   160
 71
     5
 42
18.0
 73
     0
 74
     0
 75
     0
  3
STANDARD
100
AcDbAlignedDimension
 13
250.0
 23
-175.0
 33
0.0
 14
257.8224905006173
 24
-157.0
 34
0.0
 50
90.0
100
AcDbRotatedDimension
1001
ACAD
1000
DSTYLE
1002
{
1070
   271
1070
     8
1002
}
  0
MTEXT
  5
D79DF
330
1E
100
AcDbEntity
  8
NOTE
100
AcDbMText
 10
44.09783814708208
 20
-649.8802610801442
 30
0.0
 40
45.0
 41
0.0
 46
0.0
 71
     3
 72
     5
  1

 73
     1
 44
1.0
  0
LINE
  5
D7F5E
330
1E
100
AcDbEntity
  8
NOTE
100
AcDbLine
 10
385.1762457678415
 20
-28.5
 30
0.0
 11
472.8237542321584
 21
-28.5
 31
0.0
  0
LINE
  5
D7F5F
330
1E
100
AcDbEntity
  8
NOTE
100
AcDbLine
 10
429.0
 20
-72.32375423215856
 30
0.0
 11
429.0
 21
15.32375423215856
 31
0.0
  0
DIMENSION
  5
D7F60
330
1E
100
AcDbEntity
  8
SIZE
100
AcDbDimension
280
     0
  2
*D13
 10
899.9999999999998
 20
-28.49999999999995
 30
0.0
 11
899.9999999999996
 21
57.24999999999988
 31
0.0
 70
   160
 71
     5
 42
171.0000000000001
 73
     0
 74
     0
 75
     0
  3
STANDARD
100
AcDbAlignedDimension
 13
388.0000000000002
 23
142.5000000000001
 33
0.0
 14
472.8237542321584
 24
-28.5
 34
0.0
 50
90.0
100
AcDbRotatedDimension
1001
ACAD
1000
DSTYLE
1002
{
1070
   271
1070
     8
1002
}
  0
TEXT
  5
D7FFF
330
1E
100
AcDbEntity
  8
NOTE
100
AcDbText
 10
719.2935876014957
 20
367.8571840788332
 30
0.0
 40
45.0
  1
RGφ9.52
100
AcDbText
  0
TEXT
  5
D8001
330
1E
100
AcDbEntity
  8
NOTE
100
AcDbText
 10
718.6962040925277
 20
429.8055206944146
 30
0.0
 40
45.0
  1
RLφ6.35
100
AcDbText
  0
MTEXT
  5
D802B
330
1E
100
AcDbEntity
  8
NOTE
100
AcDbMText
 10
778.48930949606
 20
583.3389536592367
 30
0.0
 40
45.0
 41
0.0
 46
0.0
 71
     1
 72
     5
  1

 73
     1
 44
1.0
  0
TEXT
  5
D8A5B
330
1E
100
AcDbEntity
  8
ETC
100
AcDbText
 10
1256.653577735439
 20
487.307320181211
 30
0.0
 40
64.0
  1
SMUZ7396
 41
0.880503151533019
 72
     5
 11
1683.320247735439
 21
487.307320181211
 31
0.0
100
AcDbText
  0
TEXT
  5
D8A5C
330
1E
100
AcDbEntity
  8
ETC
100
AcDbText
 10
1258.84351773544
 20
576.2435901812112
 30
0.0
 40
64.0
  1
室外機
100
AcDbText
  0
LINE
  5
D951E
330
1E
100
AcDbEntity
  8
DETAIL
100
AcDbLine
 10
271.0566279999993
 20
143.3142211112576
 30
0.0
 11
271.0152859999993
 21
141.0094521112578
 31
0.0
  0
LINE
  5
D951F
330
1E
100
AcDbEntity
  8
DETAIL
100
AcDbLine
 10
305.9830059999989
 20
141.0094521112578
 30
0.0
 11
305.941663999999
 21
143.3142211112576
 31
0.0
  0
SPLINE
  5
D9525
330
1E
100
AcDbEntity
  8
DETAIL
100
AcDbSpline
210
0.0
220
0.0
230
1.0
 70
     8
 71
     3
 72
     8
 73
     4
 74
     0
 42
0.00000001
 43
0.0000000001
 40
0.0
 40
0.0
 40
0.0
 40
0.0
 40
1.0
 40
1.0
 40
1.0
 40
1.0
 10
302.5792512517349
 20
148.598997377534
 30
0.0
 10
294.8346765989576
 20
156.3745778896863
 30
0.0
 10
282.2531878836798
 20
156.3986935580896
 30
0.0
 10
274.4741622760405
 20
148.6541189053113
 30
0.0
  0
SPLINE
  5
D9526
330
1E
100
AcDbEntity
  8
DETAIL
100
AcDbSpline
210
0.0
220
0.0
230
1.0
 70
     8
 71
     3
 72
     8
 73
     4
 74
     0
 42
0.00000001
 43
0.0000000001
 40
1.0
 40
1.0
 40
1.0
 40
1.0
 40
2.0
 40
2.0
 40
2.0
 40
2.0
 10
274.4741622760405
 20
148.6541189053113
 30
0.0
 10
274.45693679861
 20
148.6368934278806
 30
0.0
 10
274.4397113211797
 20
148.6162228549646
 30
0.0
 10
274.4190407482633
 20
148.598997377534
 30
0.0
  0
SPLINE
  5
D9527
330
1E
100
AcDbEntity
  8
DETAIL
100
AcDbSpline
210
0.0
220
0.0
230
1.0
 70
     8
 71
     3
 72
     8
 73
     4
 74
     0
 42
0.00000001
 43
0.0000000001
 40
0.0
 40
0.0
 40
0.0
 40
0.0
 40
1.0
 40
1.0
 40
1.0
 40
1.0
 10
305.9416644461796
 20
143.3142209018396
 30
0.0
 10
305.2388649670133
 20
144.6061317091306
 30
0.0
 10
304.3913714774296
 20
145.8153602247556
 30
0.0
 10
303.4198545503463
 20
146.9177907803113
 30
0.0
  0
SPLINE
  5
D9528
330
1E
100
AcDbEntity
  8
DETAIL
100
AcDbSpline
210
0.0
220
0.0
230
1.0
 70
     8
 71
     3
 72
     8
 73
     4
 74
     0
 42
0.00000001
 43
0.0000000001
 40
0.0
 40
0.0
 40
0.0
 40
0.0
 40
1.0
 40
1.0
 40
1.0
 40
1.0
 10
303.4543055052076
 20
146.5353851813533
 30
0.0
 10
303.4474153142349
 20
146.9177907803113
 30
0.0
 10
303.3647330225683
 20
147.296751283784
 30
0.0
 10
303.2165939166655
 20
147.6515961188533
 30
0.0
  0
SPLINE
  5
D9529
330
1E
100
AcDbEntity
  8
DETAIL
100
AcDbSpline
210
0.0
220
0.0
230
1.0
 70
     8
 71
     3
 72
     8
 73
     4
 74
     0
 42
0.00000001
 43
0.0000000001
 40
0.0
 40
0.0
 40
0.0
 40
0.0
 40
1.0
 40
1.0
 40
1.0
 40
1.0
 10
273.5784374496519
 20
146.9177907803113
 30
0.0
 10
272.6069205225683
 20
145.8153602247556
 30
0.0
 10
271.7594270329851
 20
144.6061317091306
 30
0.0
 10
271.0566275538183
 20
143.3142209018396
 30
0.0
  0
SPLINE
  5
D952B
330
1E
100
AcDbEntity
  8
DETAIL
100
AcDbSpline
210
0.0
220
0.0
230
1.0
 70
     8
 71
     3
 72
     8
 73
     4
 74
     0
 42
0.00000001
 43
0.0000000001
 40
0.0
 40
0.0
 40
0.0
 40
0.0
 40
1.0
 40
1.0
 40
1.0
 40
1.0
 10
273.7851431788183
 20
147.6515961188533
 30
0.0
 10
273.6335589774297
 20
147.296751283784
 30
0.0
 10
273.5508766857631
 20
146.9177907803113
 30
0.0
 10
273.5439864947905
 20
146.5353851813533
 30
0.0
  0
SPLINE
  5
D952C
330
1E
100
AcDbEntity
  8
DETAIL
100
AcDbSpline
210
0.0
220
0.0
230
1.0
 70
     8
 71
     3
 72
     8
 73
     4
 74
     0
 42
0.00000001
 43
0.0000000001
 40
0.0
 40
0.0
 40
0.0
 40
0.0
 40
1.0
 40
1.0
 40
1.0
 40
1.0
 10
303.2165939166655
 20
147.6515961188533
 30
0.0
 10
303.0684548107633
 20
148.0029958584363
 30
0.0
 10
302.8514137951382
 20
148.3268348341306
 30
0.0
 10
302.5792512517349
 20
148.598997377534
 30
0.0
  0
SPLINE
  5
D952D
330
1E
100
AcDbEntity
  8
DETAIL
100
AcDbSpline
210
0.0
220
0.0
230
1.0
 70
     8
 71
     3
 72
     8
 73
     4
 74
     0
 42
0.00000001
 43
0.0000000001
 40
0.0
 40
0.0
 40
0.0
 40
0.0
 40
1.0
 40
1.0
 40
1.0
 40
1.0
 10
274.4190407482633
 20
148.598997377534
 30
0.0
 10
274.1503233003462
 20
148.3268348341306
 30
0.0
 10
273.9332822847213
 20
148.0029958584363
 30
0.0
 10
273.7851431788183
 20
147.6515961188533
 30
0.0
  0
LINE
  5
D953D
330
1E
100
AcDbEntity
  8
DETAIL
100
AcDbLine
 10
-195.2025960000016
 20
-147.1405990715116
 30
0.0
 11
-205.0004470000011
 21
-147.1405990715116
 31
0.0
  0
LINE
  5
D953E
330
1E
100
AcDbEntity
  8
DETAIL
100
AcDbLine
 10
-206.5989720000005
 20
-147.1405990715116
 30
0.0
 11
-216.4002680000011
 21
-147.1405990715116
 31
0.0
  0
LINE
  5
D953F
330
1E
100
AcDbEntity
  8
DETAIL
100
AcDbLine
 10
-218.0022380000018
 20
-147.1405990715116
 30
0.0
 11
-227.8000890000011
 21
-147.1405990715116
 31
0.0
  0
LINE
  5
D9540
330
1E
100
AcDbEntity
  8
DETAIL
100
AcDbLine
 10
-247.5514883482729
 20
-147.1405990715116
 30
0.0
 11
-250.5997310000011
 21
-147.1405990715116
 31
0.0
  0
LINE
  5
D9541
330
1E
100
AcDbEntity
  8
DETAIL
100
AcDbLine
 10
-183.7993300000006
 20
-147.1405990715116
 30
0.0
 11
-193.6006260000011
 21
-147.1405990715116
 31
0.0
  0
LINE
  5
D9542
330
1E
100
AcDbEntity
  8
DETAIL
100
AcDbLine
 10
-149.5998670000015
 20
-147.1405990715116
 30
0.0
 11
-159.4011640000015
 21
-147.1405990715116
 31
0.0
  0
LINE
  5
D9543
330
1E
100
AcDbEntity
  8
DETAIL
100
AcDbLine
 10
-160.9996880000005
 20
-147.1405990715116
 30
0.0
 11
-170.8009850000005
 21
-147.1405990715116
 31
0.0
  0
LINE
  5
D9544
330
1E
100
AcDbEntity
  8
DETAIL
100
AcDbLine
 10
-172.3995090000014
 20
-147.1405990715116
 30
0.0
 11
-182.2008060000015
 21
-147.1405990715116
 31
0.0
  0
LINE
  5
D9545
330
1E
100
AcDbEntity
  8
DETAIL
100
AcDbLine
 10
-229.3986140000014
 20
-147.1405990715116
 30
0.0
 11
-229.9999999870825
 21
-147.1405990715116
 31
0.0
  0
LINE
  5
D9546
330
1E
100
AcDbEntity
  8
DETAIL
100
AcDbLine
 10
-195.2025960000016
 20
-144.8392750715117
 30
0.0
 11
-205.0004470000011
 21
-144.8392750715117
 31
0.0
  0
LINE
  5
D9547
330
1E
100
AcDbEntity
  8
DETAIL
100
AcDbLine
 10
-206.5989720000005
 20
-144.8392750715117
 30
0.0
 11
-216.4002680000011
 21
-144.8392750715117
 31
0.0
  0
LINE
  5
D9548
330
1E
100
AcDbEntity
  8
DETAIL
100
AcDbLine
 10
-218.0022380000018
 20
-144.8392750715117
 30
0.0
 11
-227.8000890000011
 21
-144.8392750715117
 31
0.0
  0
LINE
  5
D9549
330
1E
100
AcDbEntity
  8
DETAIL
100
AcDbLine
 10
-229.3986140000014
 20
-144.8392750715117
 30
0.0
 11
-229.9999999852067
 21
-144.8392750715117
 31
0.0
  0
LINE
  5
D954B
330
1E
100
AcDbEntity
  8
DETAIL
100
AcDbLine
 10
-149.5998670000015
 20
-144.8392750715117
 30
0.0
 11
-159.4011640000015
 21
-144.8392750715117
 31
0.0
  0
LINE
  5
D954C
330
1E
100
AcDbEntity
  8
DETAIL
100
AcDbLine
 10
-183.7993300000006
 20
-144.8392750715117
 30
0.0
 11
-193.6006260000011
 21
-144.8392750715117
 31
0.0
  0
LINE
  5
D954D
330
1E
100
AcDbEntity
  8
DETAIL
100
AcDbLine
 10
-160.9996880000005
 20
-144.8392750715117
 30
0.0
 11
-170.8009850000005
 21
-144.8392750715117
 31
0.0
  0
LINE
  5
D954E
330
1E
100
AcDbEntity
  8
DETAIL
100
AcDbLine
 10
-172.3995090000014
 20
-144.8392750715117
 30
0.0
 11
-182.2008060000015
 21
-144.8392750715117
 31
0.0
  0
LINE
  5
D954F
330
1E
100
AcDbEntity
  8
DETAIL
100
AcDbLine
 10
-324.200751000001
 20
-147.1405990715116
 30
0.0
 11
-324.200751000001
 21
-144.8392750715117
 31
0.0
  0
LINE
  5
D9550
330
1E
100
AcDbEntity
  8
DETAIL
100
AcDbLine
 10
-35.59821200000107
 20
-147.1405990715116
 30
0.0
 11
-45.39950900000103
 21
-147.1405990715116
 31
0.0
  0
LINE
  5
D9551
330
1E
100
AcDbEntity
  8
DETAIL
100
AcDbLine
 10
-58.39785400000102
 20
-147.1405990715116
 30
0.0
 11
-68.20259600000127
 21
-147.1405990715116
 31
0.0
  0
LINE
  5
D9552
330
1E
100
AcDbEntity
  8
DETAIL
100
AcDbLine
 10
-12.79857000000112
 20
-147.1405990715116
 30
0.0
 11
-22.5998670000011
 21
-147.1405990715116
 31
0.0
  0
LINE
  5
D9553
330
1E
100
AcDbEntity
  8
DETAIL
100
AcDbLine
 10
-1.40219400000097
 20
-147.1405990715116
 30
0.0
 11
-11.20004600000112
 21
-147.1405990715116
 31
0.0
  0
LINE
  5
D9554
330
1E
100
AcDbEntity
  8
DETAIL
100
AcDbLine
 10
-47.00147800000086
 20
-147.1405990715116
 30
0.0
 11
-56.79933000000102
 21
-147.1405990715116
 31
0.0
  0
LINE
  5
D9555
330
1E
100
AcDbEntity
  8
DETAIL
100
AcDbLine
 10
-24.20183600000094
 20
-147.1405990715116
 30
0.0
 11
-33.99968800000106
 21
-147.1405990715116
 31
0.0
  0
LINE
  5
D9556
330
1E
100
AcDbEntity
  8
DETAIL
100
AcDbLine
 10
-58.39785400000102
 20
-144.8392750715117
 30
0.0
 11
-68.20259600000127
 21
-144.8392750715117
 31
0.0
  0
LINE
  5
D9557
330
1E
100
AcDbEntity
  8
DETAIL
100
AcDbLine
 10
-47.00147800000086
 20
-144.8392750715117
 30
0.0
 11
-56.79933000000102
 21
-144.8392750715117
 31
0.0
  0
LINE
  5
D9558
330
1E
100
AcDbEntity
  8
DETAIL
100
AcDbLine
 10
-1.40219400000097
 20
-144.8392750715117
 30
0.0
 11
-11.20004600000112
 21
-144.8392750715117
 31
0.0
  0
LINE
  5
D9559
330
1E
100
AcDbEntity
  8
DETAIL
100
AcDbLine
 10
-24.20183600000094
 20
-144.8392750715117
 30
0.0
 11
-33.99968800000106
 21
-144.8392750715117
 31
0.0
  0
LINE
  5
D955A
330
1E
100
AcDbEntity
  8
DETAIL
100
AcDbLine
 10
-35.59821200000107
 20
-144.8392750715117
 30
0.0
 11
-45.39950900000103
 21
-144.8392750715117
 31
0.0
  0
LINE
  5
D955B
330
1E
100
AcDbEntity
  8
DETAIL
100
AcDbLine
 10
-12.79857000000112
 20
-144.8392750715117
 30
0.0
 11
-22.5998670000011
 21
-144.8392750715117
 31
0.0
  0
LINE
  5
D955C
330
1E
100
AcDbEntity
  8
DETAIL
100
AcDbLine
 10
-69.80112000000127
 20
-144.8392750715117
 30
0.0
 11
-79.59897200000097
 21
-144.8392750715117
 31
0.0
  0
LINE
  5
D955D
330
1E
100
AcDbEntity
  8
DETAIL
100
AcDbLine
 10
-69.80112000000127
 20
-147.1405990715116
 30
0.0
 11
-79.59897200000097
 21
-147.1405990715116
 31
0.0
  0
LINE
  5
D955E
330
1E
100
AcDbEntity
  8
DETAIL
100
AcDbLine
 10
-274.9978980000013
 20
-147.1405990715116
 30
0.0
 11
-284.8026390000011
 21
-147.1405990715116
 31
0.0
  0
LINE
  5
D955F
330
1E
100
AcDbEntity
  8
DETAIL
100
AcDbLine
 10
-81.20094100000121
 20
-147.1405990715116
 30
0.0
 11
-91.00223800000124
 21
-147.1405990715116
 31
0.0
  0
LINE
  5
D9560
330
1E
100
AcDbEntity
  8
DETAIL
100
AcDbLine
 10
-126.8002250000016
 20
-147.1405990715116
 30
0.0
 11
-136.6015220000015
 21
-147.1405990715116
 31
0.0
  0
LINE
  5
D9561
330
1E
100
AcDbEntity
  8
DETAIL
100
AcDbLine
 10
-92.60076200000122
 20
-147.1405990715116
 30
0.0
 11
-102.3986140000012
 21
-147.1405990715116
 31
0.0
  0
LINE
  5
D9562
330
1E
100
AcDbEntity
  8
DETAIL
100
AcDbLine
 10
-138.2000460000004
 20
-147.1405990715116
 30
0.0
 11
-147.9978980000011
 21
-147.1405990715116
 31
0.0
  0
LINE
  5
D9563
330
1E
100
AcDbEntity
  8
DETAIL
100
AcDbLine
 10
-115.4004040000006
 20
-147.1405990715116
 30
0.0
 11
-125.198256000001
 21
-147.1405990715116
 31
0.0
  0
LINE
  5
D9564
330
1E
100
AcDbEntity
  8
DETAIL
100
AcDbLine
 10
-104.0005830000016
 20
-147.1405990715116
 30
0.0
 11
-113.8018800000016
 21
-147.1405990715116
 31
0.0
  0
LINE
  5
D9565
330
1E
100
AcDbEntity
  8
DETAIL
100
AcDbLine
 10
-115.4004040000006
 20
-144.8392750715117
 30
0.0
 11
-125.198256000001
 21
-144.8392750715117
 31
0.0
  0
LINE
  5
D9566
330
1E
100
AcDbEntity
  8
DETAIL
100
AcDbLine
 10
-104.0005830000016
 20
-144.8392750715117
 30
0.0
 11
-113.8018800000016
 21
-144.8392750715117
 31
0.0
  0
LINE
  5
D9567
330
1E
100
AcDbEntity
  8
DETAIL
100
AcDbLine
 10
-126.8002250000016
 20
-144.8392750715117
 30
0.0
 11
-136.6015220000015
 21
-144.8392750715117
 31
0.0
  0
LINE
  5
D9568
330
1E
100
AcDbEntity
  8
DETAIL
100
AcDbLine
 10
-92.60076200000122
 20
-144.8392750715117
 30
0.0
 11
-102.3986140000012
 21
-144.8392750715117
 31
0.0
  0
LINE
  5
D9569
330
1E
100
AcDbEntity
  8
DETAIL
100
AcDbLine
 10
-138.2000460000004
 20
-144.8392750715117
 30
0.0
 11
-147.9978980000011
 21
-144.8392750715117
 31
0.0
  0
LINE
  5
D956A
330
1E
100
AcDbEntity
  8
DETAIL
100
AcDbLine
 10
-270.0000000000002
 20
-147.1405990715116
 30
0.0
 11
-273.3993730000009
 21
-147.1405990715116
 31
0.0
  0
LINE
  5
D956B
330
1E
100
AcDbEntity
  8
DETAIL
100
AcDbLine
 10
-319.9873990000013
 20
-147.1405990715116
 30
0.0
 11
-324.200751000001
 21
-147.1405990715116
 31
0.0
  0
LINE
  5
D956C
330
1E
100
AcDbEntity
  8
DETAIL
100
AcDbLine
 10
-286.4011640000015
 20
-147.1405990715116
 30
0.0
 11
-296.1990150000009
 21
-147.1405990715116
 31
0.0
  0
LINE
  5
D956D
330
1E
100
AcDbEntity
  8
DETAIL
100
AcDbLine
 10
-252.1982560000012
 20
-147.1405990715116
 30
0.0
 11
-252.4485116517265
 21
-147.1405990715116
 31
0.0
  0
LINE
  5
D956E
330
1E
100
AcDbEntity
  8
DETAIL
100
AcDbLine
 10
-297.8009850000006
 20
-147.1405990715116
 30
0.0
 11
-307.5953910000015
 21
-147.1405990715116
 31
0.0
  0
LINE
  5
D956F
330
1E
100
AcDbEntity
  8
DETAIL
100
AcDbLine
 10
-309.1939150000006
 20
-147.1405990715116
 30
0.0
 11
-317.689521000001
 21
-147.1405990715116
 31
0.0
  0
LINE
  5
D9570
330
1E
100
AcDbEntity
  8
DETAIL
100
AcDbLine
 10
-274.9978980000013
 20
-144.8392750715117
 30
0.0
 11
-284.8026390000011
 21
-144.8392750715117
 31
0.0
  0
LINE
  5
D9571
330
1E
100
AcDbEntity
  8
DETAIL
100
AcDbLine
 10
-319.9873990000013
 20
-144.8392750715117
 30
0.0
 11
-324.200751000001
 21
-144.8392750715117
 31
0.0
  0
LINE
  5
D9572
330
1E
100
AcDbEntity
  8
DETAIL
100
AcDbLine
 10
-309.1939150000006
 20
-144.8392750715117
 30
0.0
 11
-317.689521000001
 21
-144.8392750715117
 31
0.0
  0
LINE
  5
D9573
330
1E
100
AcDbEntity
  8
DETAIL
100
AcDbLine
 10
-297.8009850000006
 20
-144.8392750715117
 30
0.0
 11
-307.5953910000015
 21
-144.8392750715117
 31
0.0
  0
LINE
  5
D9574
330
1E
100
AcDbEntity
  8
DETAIL
100
AcDbLine
 10
-286.4011640000015
 20
-144.8392750715117
 30
0.0
 11
-296.1990150000009
 21
-144.8392750715117
 31
0.0
  0
LINE
  5
D9576
330
1E
100
AcDbEntity
  8
DETAIL
100
AcDbLine
 10
-270.0000000000002
 20
-144.8392750715117
 30
0.0
 11
-273.3993730000009
 21
-144.8392750715117
 31
0.0
  0
LINE
  5
D9577
330
1E
100
AcDbEntity
  8
DETAIL
100
AcDbLine
 10
10.00107199999883
 20
-144.8392750715117
 30
0.0
 11
0.1997749999988514
 21
-144.8392750715117
 31
0.0
  0
LINE
  5
D9578
330
1E
100
AcDbEntity
  8
DETAIL
100
AcDbLine
 10
-81.20094100000121
 20
-144.8392750715117
 30
0.0
 11
-91.00223800000124
 21
-144.8392750715117
 31
0.0
  0
LINE
  5
D9579
330
1E
100
AcDbEntity
  8
DETAIL
100
AcDbLine
 10
78.39999699999878
 20
-144.8392750715117
 30
0.0
 11
68.60214599999898
 21
-144.8392750715117
 31
0.0
  0
LINE
  5
D957A
330
1E
100
AcDbEntity
  8
DETAIL
100
AcDbLine
 10
129.1944849999987
 20
-144.8392750715117
 30
0.0
 11
124.9880239999984
 21
-144.8392750715117
 31
0.0
  0
LINE
  5
D957B
330
1E
100
AcDbEntity
  8
DETAIL
100
AcDbLine
 10
122.6901449999988
 20
-144.8392750715117
 30
0.0
 11
114.2014299999988
 21
-144.8392750715117
 31
0.0
  0
LINE
  5
D957C
330
1E
100
AcDbEntity
  8
DETAIL
100
AcDbLine
 10
112.5994599999987
 20
-144.8392750715117
 30
0.0
 11
102.7981639999989
 21
-144.8392750715117
 31
0.0
  0
LINE
  5
D957D
330
1E
100
AcDbEntity
  8
DETAIL
100
AcDbLine
 10
10.00107199999883
 20
-147.1405990715116
 30
0.0
 11
0.1997749999988514
 21
-147.1405990715116
 31
0.0
  0
LINE
  5
D957E
330
1E
100
AcDbEntity
  8
DETAIL
100
AcDbLine
 10
78.39999699999878
 20
-147.1405990715116
 30
0.0
 11
68.60214599999898
 21
-147.1405990715116
 31
0.0
  0
LINE
  5
D957F
330
1E
100
AcDbEntity
  8
DETAIL
100
AcDbLine
 10
129.1944849999987
 20
-147.1405990715116
 30
0.0
 11
124.9880239999984
 21
-147.1405990715116
 31
0.0
  0
LINE
  5
D9580
330
1E
100
AcDbEntity
  8
DETAIL
100
AcDbLine
 10
122.6901449999988
 20
-147.1405990715116
 30
0.0
 11
114.2014299999988
 21
-147.1405990715116
 31
0.0
  0
LINE
  5
D9581
330
1E
100
AcDbEntity
  8
DETAIL
100
AcDbLine
 10
112.5994599999987
 20
-147.1405990715116
 30
0.0
 11
102.7981639999989
 21
-147.1405990715116
 31
0.0
  0
LINE
  5
D9582
330
1E
100
AcDbEntity
  8
DETAIL
100
AcDbLine
 10
89.79981799999876
 20
-147.1405990715116
 30
0.0
 11
79.99852199999913
 21
-147.1405990715116
 31
0.0
  0
LINE
  5
D9583
330
1E
100
AcDbEntity
  8
DETAIL
100
AcDbLine
 10
101.1996389999987
 20
-147.1405990715116
 30
0.0
 11
91.40178799999892
 21
-147.1405990715116
 31
0.0
  0
LINE
  5
D9584
330
1E
100
AcDbEntity
  8
DETAIL
100
AcDbLine
 10
89.79981799999876
 20
-144.8392750715117
 30
0.0
 11
79.99852199999913
 21
-144.8392750715117
 31
0.0
  0
LINE
  5
D9585
330
1E
100
AcDbEntity
  8
DETAIL
100
AcDbLine
 10
101.1996389999987
 20
-144.8392750715117
 30
0.0
 11
91.40178799999892
 21
-144.8392750715117
 31
0.0
  0
LINE
  5
D9586
330
1E
100
AcDbEntity
  8
DETAIL
100
AcDbLine
 10
129.1944849999987
 20
-147.1405990715116
 30
0.0
 11
129.1944849999987
 21
-144.8392750715117
 31
0.0
  0
LINE
  5
D9587
330
1E
100
AcDbEntity
  8
DETAIL
100
AcDbLine
 10
21.39744799999898
 20
-144.8392750715117
 30
0.0
 11
11.59959599999882
 21
-144.8392750715117
 31
0.0
  0
LINE
  5
D9588
330
1E
100
AcDbEntity
  8
DETAIL
100
AcDbLine
 10
21.39744799999898
 20
-147.1405990715116
 30
0.0
 11
11.59959599999882
 21
-147.1405990715116
 31
0.0
  0
LINE
  5
D9589
330
1E
100
AcDbEntity
  8
DETAIL
100
AcDbLine
 10
55.60035499999885
 20
-147.1405990715116
 30
0.0
 11
45.79905899999874
 21
-147.1405990715116
 31
0.0
  0
LINE
  5
D958A
330
1E
100
AcDbEntity
  8
DETAIL
100
AcDbLine
 10
55.60035499999885
 20
-144.8392750715117
 30
0.0
 11
45.79905899999874
 21
-144.8392750715117
 31
0.0
  0
LINE
  5
D958B
330
1E
100
AcDbEntity
  8
DETAIL
100
AcDbLine
 10
32.80071399999878
 20
-144.8392750715117
 30
0.0
 11
22.9994169999988
 21
-144.8392750715117
 31
0.0
  0
LINE
  5
D958C
330
1E
100
AcDbEntity
  8
DETAIL
100
AcDbLine
 10
44.20053499999875
 20
-144.8392750715117
 30
0.0
 11
34.39923799999878
 21
-144.8392750715117
 31
0.0
  0
LINE
  5
D958D
330
1E
100
AcDbEntity
  8
DETAIL
100
AcDbLine
 10
67.0001759999988
 20
-144.8392750715117
 30
0.0
 11
57.19887999999873
 21
-144.8392750715117
 31
0.0
  0
LINE
  5
D958E
330
1E
100
AcDbEntity
  8
DETAIL
100
AcDbLine
 10
32.80071399999878
 20
-147.1405990715116
 30
0.0
 11
22.9994169999988
 21
-147.1405990715116
 31
0.0
  0
LINE
  5
D958F
330
1E
100
AcDbEntity
  8
DETAIL
100
AcDbLine
 10
44.20053499999875
 20
-147.1405990715116
 30
0.0
 11
34.39923799999878
 21
-147.1405990715116
 31
0.0
  0
LINE
  5
D9590
330
1E
100
AcDbEntity
  8
DETAIL
100
AcDbLine
 10
67.0001759999988
 20
-147.1405990715116
 30
0.0
 11
57.19887999999873
 21
-147.1405990715116
 31
0.0
  0
LINE
  5
D959F
330
1E
100
AcDbEntity
  8
DETAIL
100
AcDbLine
 10
-138.2000450000011
 20
-155.501846071512
 30
0.0
 11
-147.9978970000018
 21
-155.501846071512
 31
0.0
  0
LINE
  5
D95A5
330
1E
100
AcDbEntity
  8
DETAIL
100
AcDbLine
 10
-69.80112000000127
 20
-155.501846071512
 30
0.0
 11
-79.59897100000104
 21
-155.501846071512
 31
0.0
  0
LINE
  5
D95A7
330
1E
100
AcDbEntity
  8
DETAIL
100
AcDbLine
 10
-24.20183600000138
 20
-155.501846071512
 30
0.0
 11
-33.99968700000119
 21
-155.501846071512
 31
0.0
  0
LINE
  5
D95A9
330
1E
100
AcDbEntity
  8
DETAIL
100
AcDbLine
 10
-195.2025950000013
 20
-155.501846071512
 30
0.0
 11
-205.0004470000011
 21
-155.501846071512
 31
0.0
  0
LINE
  5
D95BC
330
1E
100
AcDbEntity
  8
DETAIL
100
AcDbLine
 10
141.6381709999987
 20
-145.6316470715115
 30
0.0
 11
130.8418237121977
 21
-154.385596632603
 31
0.0
  0
LINE
  5
D95BF
330
1E
100
AcDbEntity
  8
DETAIL
100
AcDbLine
 10
-245.0000000000001
 20
-155.5018450715121
 30
0.0
 11
-250.5997310000011
 21
-155.5018450715121
 31
0.0
  0
LINE
  5
D95C4
330
1E
100
AcDbEntity
  8
DETAIL
100
AcDbLine
 10
-309.1939150000006
 20
-155.5018450715121
 30
0.0
 11
-317.6895200000005
 21
-155.5018450715121
 31
0.0
  0
LINE
  5
D95D3
330
1E
100
AcDbEntity
  8
DETAIL
100
AcDbLine
 10
-58.39785400000102
 20
-155.5018450715121
 30
0.0
 11
-68.2025950000014
 21
-155.5018450715121
 31
0.0
  0
LINE
  5
D95D7
330
1E
100
AcDbEntity
  8
DETAIL
100
AcDbLine
 10
122.6901449999988
 20
-155.5018450715121
 30
0.0
 11
114.2014299999988
 21
-155.5018450715121
 31
0.0
  0
LINE
  5
D95E9
330
1E
100
AcDbEntity
  8
DETAIL
100
AcDbLine
 10
-183.7993290000011
 20
-155.5018450715121
 30
0.0
 11
-193.6006260000011
 21
-155.5018450715121
 31
0.0
  0
LINE
  5
D95EF
330
1E
100
AcDbEntity
  8
DETAIL
100
AcDbLine
 10
-218.0022370000013
 20
-155.5018450715121
 30
0.0
 11
-227.8000890000011
 21
-155.5018450715121
 31
0.0
  0
LINE
  5
D95F4
330
1E
100
AcDbEntity
  8
DETAIL
100
AcDbLine
 10
-286.4011630000012
 20
-155.5018450715121
 30
0.0
 11
-296.1990150000009
 21
-155.5018450715121
 31
0.0
  0
LINE
  5
D95F5
330
1E
100
AcDbEntity
  8
DETAIL
100
AcDbLine
 10
-297.8009840000013
 20
-155.5018450715121
 30
0.0
 11
-307.5953910000015
 21
-155.5018450715121
 31
0.0
  0
LINE
  5
D95FA
330
1E
100
AcDbEntity
  8
DETAIL
100
AcDbLine
 10
-319.9873990000013
 20
-155.5018450715121
 30
0.0
 11
-322.9880770000008
 21
-155.5018450715121
 31
0.0
  0
LINE
  5
D95FC
330
1E
100
AcDbEntity
  8
DETAIL
100
AcDbLine
 10
-35.59821200000107
 20
-155.5018450715121
 30
0.0
 11
-45.39950800000116
 21
-155.5018450715121
 31
0.0
  0
LINE
  5
D9603
330
1E
100
AcDbEntity
  8
DETAIL
100
AcDbLine
 10
-81.20094100000121
 20
-155.5018450715121
 30
0.0
 11
-91.00223700000135
 21
-155.5018450715121
 31
0.0
  0
LINE
  5
D960E
330
1E
100
AcDbEntity
  8
DETAIL
100
AcDbLine
 10
55.60035599999872
 20
-155.5018450715121
 30
0.0
 11
45.79905899999874
 21
-155.5018450715121
 31
0.0
  0
LINE
  5
D9618
330
1E
100
AcDbEntity
  8
DETAIL
100
AcDbLine
 10
-172.3995080000011
 20
-155.5018450715121
 30
0.0
 11
-182.2008050000011
 21
-155.5018450715121
 31
0.0
  0
LINE
  5
D9619
330
1E
100
AcDbEntity
  8
DETAIL
100
AcDbLine
 10
-160.999687000001
 20
-155.5018450715121
 30
0.0
 11
-170.800984000001
 21
-155.5018450715121
 31
0.0
  0
LINE
  5
D9624
330
1E
100
AcDbEntity
  8
DETAIL
100
AcDbLine
 10
-229.398613000001
 20
-155.5018450715121
 30
0.0
 11
-229.9999999938973
 21
-155.5018450715121
 31
0.0
  0
LINE
  5
D962F
330
1E
100
AcDbEntity
  8
DETAIL
100
AcDbLine
 10
-47.00147800000086
 20
-155.5018450715121
 30
0.0
 11
-56.79932900000114
 21
-155.5018450715121
 31
0.0
  0
LINE
  5
D9639
330
1E
100
AcDbEntity
  8
DETAIL
100
AcDbLine
 10
-12.79857000000112
 20
-155.5018450715121
 30
0.0
 11
-22.59986600000121
 21
-155.5018450715121
 31
0.0
  0
LINE
  5
D963C
330
1E
100
AcDbEntity
  8
DETAIL
100
AcDbLine
 10
67.0001769999987
 20
-155.5018450715121
 30
0.0
 11
57.19887999999873
 21
-155.5018450715121
 31
0.0
  0
LINE
  5
D9641
330
1E
100
AcDbEntity
  8
DETAIL
100
AcDbLine
 10
78.39999799999913
 20
-155.5018450715121
 30
0.0
 11
68.60214599999898
 21
-155.5018450715121
 31
0.0
  0
LINE
  5
D9642
330
1E
100
AcDbEntity
  8
DETAIL
100
AcDbLine
 10
21.39744799999898
 20
-155.5018450715121
 30
0.0
 11
17.92134699999877
 21
-155.5018450715121
 31
0.0
  0
LINE
  5
D964C
330
1E
100
AcDbEntity
  8
DETAIL
100
AcDbLine
 10
-149.5998660000011
 20
-155.5018450715121
 30
0.0
 11
-159.4011630000011
 21
-155.5018450715121
 31
0.0
  0
SPLINE
  5
D964E
330
1E
100
AcDbEntity
  8
DETAIL
100
AcDbSpline
210
0.0
220
0.0
230
1.0
 70
     8
 71
     3
 72
     8
 73
     4
 74
     0
 42
0.00000001
 43
0.0000000001
 40
0.0
 40
0.0
 40
0.0
 40
0.0
 40
1.0
 40
1.0
 40
1.0
 40
1.0
 10
-325.5994595876753
 20
-154.5751146696022
 30
0.0
 10
-324.8622091536471
 20
-155.1745612841857
 30
0.0
 10
-323.9389235633687
 20
-155.5018453553663
 30
0.0
 10
-322.9880772092028
 20
-155.5018453553663
 30
0.0
  0
LINE
  5
D9654
330
1E
100
AcDbEntity
  8
DETAIL
100
AcDbLine
 10
-274.9978970000009
 20
-155.5018450715121
 30
0.0
 11
-284.8026390000011
 21
-155.5018450715121
 31
0.0
  0
LINE
  5
D965D
330
1E
100
AcDbEntity
  8
DETAIL
100
AcDbLine
 10
-252.1982550000011
 20
-155.5018450715121
 30
0.0
 11
-255.0
 21
-155.5018450715121
 31
0.0
  0
LINE
  5
D9664
330
1E
100
AcDbEntity
  8
DETAIL
100
AcDbLine
 10
-92.60076200000122
 20
-155.5018450715121
 30
0.0
 11
-102.3986130000009
 21
-155.5018450715121
 31
0.0
  0
LINE
  5
D9676
330
1E
100
AcDbEntity
  8
DETAIL
100
AcDbLine
 10
101.1996399999989
 20
-155.5018450715121
 30
0.0
 11
91.40178799999892
 21
-155.5018450715121
 31
0.0
  0
LINE
  5
D9677
330
1E
100
AcDbEntity
  8
DETAIL
100
AcDbLine
 10
112.5994609999989
 20
-155.5018450715121
 30
0.0
 11
102.7981639999989
 21
-155.5018450715121
 31
0.0
  0
LINE
  5
D967A
330
1E
100
AcDbEntity
  8
DETAIL
100
AcDbLine
 10
3.67587699999893
 20
-155.5018450715121
 30
0.0
 11
0.1997749999988514
 21
-155.5018450715121
 31
0.0
  0
LINE
  5
D9682
330
1E
100
AcDbEntity
  8
DETAIL
100
AcDbLine
 10
-336.6409910000009
 20
-145.6316470715115
 30
0.0
 11
-325.60165503049
 21
-154.5778237856421
 31
0.0
  0
LINE
  5
D9689
330
1E
100
AcDbEntity
  8
DETAIL
100
AcDbLine
 10
-206.5989710000002
 20
-155.5018450715121
 30
0.0
 11
-216.4002680000011
 21
-155.5018450715121
 31
0.0
  0
LINE
  5
D968E
330
1E
100
AcDbEntity
  8
DETAIL
100
AcDbLine
 10
-270.0000000000002
 20
-155.5018450715121
 30
0.0
 11
-273.3993730000009
 21
-155.5018450715121
 31
0.0
  0
LINE
  5
D9695
330
1E
100
AcDbEntity
  8
DETAIL
100
AcDbLine
 10
-104.0005830000016
 20
-155.5018450715121
 30
0.0
 11
-113.8018790000012
 21
-155.5018450715121
 31
0.0
  0
LINE
  5
D9697
330
1E
100
AcDbEntity
  8
DETAIL
100
AcDbLine
 10
-126.8002250000016
 20
-155.5018450715121
 30
0.0
 11
-136.6015210000011
 21
-155.5018450715121
 31
0.0
  0
LINE
  5
D9698
330
1E
100
AcDbEntity
  8
DETAIL
100
AcDbLine
 10
-115.4004040000006
 20
-155.5018450715121
 30
0.0
 11
-125.1982550000009
 21
-155.5018450715121
 31
0.0
  0
LINE
  5
D96A1
330
1E
100
AcDbEntity
  8
DETAIL
100
AcDbLine
 10
44.20053499999875
 20
-155.5018450715121
 30
0.0
 11
34.39923799999878
 21
-155.5018450715121
 31
0.0
  0
LINE
  5
D96A2
330
1E
100
AcDbEntity
  8
DETAIL
100
AcDbLine
 10
89.79981899999909
 20
-155.5018450715121
 30
0.0
 11
79.99852199999913
 21
-155.5018450715121
 31
0.0
  0
LINE
  5
D96A3
330
1E
100
AcDbEntity
  8
DETAIL
100
AcDbLine
 10
32.80071399999878
 20
-155.5018450715121
 30
0.0
 11
22.9994169999988
 21
-155.5018450715121
 31
0.0
  0
LINE
  5
D96AA
330
1E
100
AcDbEntity
  8
DETAIL
100
AcDbLine
 10
127.6927803952959
 20
-155.5018450715121
 30
0.0
 11
124.9880239999984
 21
-155.5018450715121
 31
0.0
  0
LINE
  5
D96AC
330
1E
100
AcDbEntity
  8
DETAIL
100
AcDbLine
 10
-1.40219400000097
 20
-155.5018450715121
 30
0.0
 11
-11.20004600000112
 21
-155.5018450715121
 31
0.0
  0
LINE
  5
D96B5
330
1E
100
AcDbEntity
  8
DETAIL
100
AcDbLine
 10
-309.1939150000006
 20
-156.0018858206261
 30
0.0
 11
-309.1939150000006
 21
-143.2200800715115
 31
0.0
  0
LINE
  5
D96B8
330
1E
100
AcDbEntity
  8
DETAIL
100
AcDbLine
 10
-307.5953910000015
 20
-143.2200800715115
 30
0.0
 11
-307.5953910000015
 21
-156.0013850715119
 31
0.0
  0
LINE
  5
D97FC
330
1E
100
AcDbEntity
  8
DETAIL
100
AcDbLine
 10
-317.689521000001
 20
-156.353683838941
 30
0.0
 11
-317.689521000001
 21
-142.5
 31
0.0
  0
LINE
  5
D97FD
330
1E
100
AcDbEntity
  8
DETAIL
100
AcDbLine
 10
-319.9873993446189
 20
-156.3527842538039
 30
0.0
 11
-319.9873990072162
 21
-142.5
 31
0.0
  0
LINE
  5
D9813
330
1E
100
AcDbEntity
  8
DETAIL
100
AcDbLine
 10
326.2505019999992
 20
141.6157881112576
 30
0.0
 11
325.7413650033212
 21
141.0094521112577
 31
0.0
  0
LINE
  5
D9815
330
1E
100
AcDbEntity
  8
DETAIL
100
AcDbLine
 10
388.0000000000002
 20
142.5000000000001
 30
0.0
 11
328.1659749999989
 21
142.5
 31
0.0
  0
SPLINE
  5
D981F
330
1E
100
AcDbEntity
  8
DETAIL
100
AcDbSpline
210
0.0
220
0.0
230
1.0
 70
     8
 71
     3
 72
     8
 73
     4
 74
     0
 42
0.00000001
 43
0.0000000001
 40
0.0
 40
0.0
 40
0.0
 40
0.0
 40
1.0
 40
1.0
 40
1.0
 40
1.0
 10
328.1659749999989
 20
142.5
 30
0.0
 10
327.4252794704854
 20
142.5
 30
0.0
 10
326.7259250868047
 20
142.1727159288194
 30
0.0
 10
326.2505019097217
 20
141.6077202690977
 30
0.0
  0
SPLINE
  5
D9825
330
1E
100
AcDbEntity
  8
DETAIL
100
AcDbSpline
210
0.0
220
0.0
230
1.0
 70
     8
 71
     3
 72
    11
 73
     7
 74
     0
 42
0.00000001
 43
0.0000000001
 40
0.0
 40
0.0
 40
0.0
 40
0.0
 40
1.0
 40
1.0
 40
1.0
 40
2.0
 40
2.0
 40
2.0
 40
2.0
 10
399.9996610772562
 20
-92.99176902849927
 30
0.0
 10
401.1020916328114
 20
-92.99176902849927
 30
0.0
 10
401.9978164592003
 20
-92.09604420211055
 30
0.0
 10
401.9978164592003
 20
-90.99016855106858
 30
0.0
 10
401.9978164592003
 20
-90.99016855106858
 30
0.0
 10
401.9978164592003
 20
-90.99016855106858
 30
0.0
 10
401.9978164592003
 20
-90.99016855106858
 30
0.0
  0
LINE
  5
D982D
330
1E
100
AcDbEntity
  8
DETAIL
100
AcDbLine
 10
-287.6999640000009
 20
142.0085301112576
 30
0.0
 11
-270.0
 21
142.0085301112576
 31
0.0
  0
SPLINE
  5
D9831
330
1E
100
AcDbEntity
  8
DETAIL
100
AcDbSpline
210
0.0
220
0.0
230
1.0
 70
     8
 71
     3
 72
     8
 73
     4
 74
     0
 42
0.00000001
 43
0.0000000001
 40
0.0
 40
0.0
 40
0.0
 40
0.0
 40
1.0
 40
1.0
 40
1.0
 40
1.0
 10
-287.6999640451401
 20
142.008530012299
 30
0.0
 10
-288.3510870920151
 20
142.008530012299
 30
0.0
 10
-288.9367533246538
 20
141.6123440313967
 30
0.0
 10
-289.1848001996537
 20
141.0094523213269
 30
0.0
  0
LINE
  5
D983C
330
1E
100
AcDbEntity
  8
DETAIL
100
AcDbLine
 10
401.9978164592003
 20
-82.42930336591291
 30
0.0
 11
412.9933418655507
 21
-82.07324577925602
 31
0.0
  0
LINE
  5
D983D
330
1E
100
AcDbEntity
  8
DETAIL
100
AcDbLine
 10
456.9616002611737
 20
27.50385870286463
 30
0.0
 11
400.0
 21
28.54712981659582
 31
0.0
  0
LINE
  5
D983E
330
1E
100
AcDbEntity
  8
DETAIL
100
AcDbLine
 10
459.106261627806
 20
22.9528628905037
 30
0.0
 11
457.9347637286987
 21
22.99438403644481
 31
0.0
  0
LINE
  5
D9840
330
1E
100
AcDbEntity
  8
DETAIL
100
AcDbLine
 10
457.4524739999998
 20
23.49407028429484
 30
0.0
 11
457.4524739999998
 21
27.00394199844579
 31
0.0
  0
LINE
  5
D9841
330
1E
100
AcDbEntity
  8
DETAIL
100
AcDbLine
 10
462.0
 20
19.9547454034035
 30
0.0
 11
462.0
 21
-30.34270688874227
 31
0.0
  0
LINE
  5
D9851
330
1E
100
AcDbEntity
  8
DETAIL
100
AcDbLine
 10
245.0000000000002
 20
-151.4999524967316
 30
0.0
 11
245.0000000000002
 21
-162.5000475104036
 31
0.0
  0
LINE
  5
D9853
330
1E
100
AcDbEntity
  8
DETAIL
100
AcDbLine
 10
255.0000000000002
 20
-162.5000475032684
 30
0.0
 11
255.0000000000002
 21
-151.4999524967316
 31
0.0
  0
LINE
  5
D9854
330
1E
100
AcDbEntity
  8
DETAIL
100
AcDbLine
 10
230.0
 20
162.5000000000281
 30
0.0
 11
230.0
 21
-163.2752232704716
 31
0.0
  0
LINE
  5
D9855
330
1E
100
AcDbEntity
  8
DETAIL
100
AcDbLine
 10
270.0
 20
-163.2764415096467
 30
0.0
 11
270.0000000000002
 21
162.5000000000281
 31
0.0
  0
CIRCLE
  5
D9861
330
1E
100
AcDbEntity
  8
DETAIL
100
AcDbCircle
 10
262.5007329999993
 20
-161.4906018887423
 30
0.0
 40
2.25137
  0
CIRCLE
  5
D9862
330
1E
100
AcDbEntity
  8
DETAIL
100
AcDbCircle
 10
237.4979519999992
 20
-161.4906018887423
 30
0.0
 40
2.249646999999999
  0
LINE
  5
D9865
330
1E
100
AcDbEntity
  8
DETAIL
100
AcDbLine
 10
-368.2325160000006
 20
141.7777081112575
 30
0.0
 11
-367.4642600000012
 21
141.0094521112578
 31
0.0
  0
LINE
  5
D986A
330
1E
100
AcDbEntity
  8
DETAIL
100
AcDbLine
 10
-369.9998500000008
 20
142.5
 30
0.0
 11
-387.9999999999999
 21
142.5
 31
0.0
  0
LINE
  5
D9874
330
1E
100
AcDbEntity
  8
DETAIL
100
AcDbLine
 10
-400.0000000000001
 20
130.5000001213725
 30
0.0
 11
-400.0
 21
91.15202944332917
 31
0.0
  0
LINE
  5
D987B
330
1E
100
AcDbEntity
  8
DETAIL
100
AcDbLine
 10
-379.9997416059037
 20
-142.5
 30
0.0
 11
-270.0
 21
-142.5
 31
0.0
  0
SPLINE
  5
D988A
330
1E
100
AcDbEntity
  8
DETAIL
100
AcDbSpline
210
0.0
220
0.0
230
1.0
 70
     8
 71
     3
 72
     8
 73
     4
 74
     0
 42
0.00000001
 43
0.0000000001
 40
0.0
 40
0.0
 40
0.0
 40
0.0
 40
1.0
 40
1.0
 40
1.0
 40
1.0
 10
-368.2325160156258
 20
141.7696397569443
 30
0.0
 10
-368.701049001737
 20
142.2381727430556
 30
0.0
 10
-369.3383916666678
 20
142.5
 30
0.0
 10
-369.9998500000008
 20
142.5
 30
0.0
  0
SPLINE
  5
D988F
330
1E
100
AcDbEntity
  8
DETAIL
100
AcDbSpline
210
0.0
220
0.0
230
1.0
 70
     8
 71
     3
 72
     8
 73
     4
 74
     0
 42
0.00000001
 43
0.0000000001
 40
0.0
 40
0.0
 40
0.0
 40
0.0
 40
1.0
 40
1.0
 40
1.0
 40
1.0
 10
-398.5011250694448
 20
-110.5583104199923
 30
0.0
 10
-399.4278557552093
 20
-111.0923002203395
 30
0.0
 10
-399.9997416059037
 20
-112.0844877203395
 30
0.0
 10
-399.9999999999998
 20
-113.1559124165201
 30
0.0
  0
SPLINE
  5
D9891
330
1E
100
AcDbEntity
  8
DETAIL
100
AcDbSpline
210
0.0
220
0.0
230
1.0
 70
     8
 71
     3
 72
     8
 73
     4
 74
     0
 42
0.00000001
 43
0.0000000001
 40
0.0
 40
0.0
 40
0.0
 40
0.0
 40
1.0
 40
1.0
 40
1.0
 40
1.0
 10
398.497599973957
 20
-112.2395170172145
 30
0.0
 10
399.427775755207
 20
-111.702082121381
 30
0.0
 10
399.9996616059018
 20
-110.709894621381
 30
0.0
 10
400.0000000000001
 20
-109.6384699252003
 30
0.0
  0
SPLINE
  5
D9892
330
1E
100
AcDbEntity
  8
DETAIL
100
AcDbSpline
210
0.0
220
0.0
230
1.0
 70
     8
 71
     3
 72
    11
 73
     7
 74
     0
 42
0.000000001
 43
0.0000000001
 40
0.0
 40
0.0
 40
0.0
 40
0.0
 40
1.0
 40
1.0
 40
1.0
 40
1.006993629286556
 40
1.006993629286556
 40
1.006993629286556
 40
1.006993629286556
 10
399.9135342187484
 20
-127.2532431456866
 30
0.0
 10
400.2304830034711
 20
-125.9578872429093
 30
0.0
 10
399.6551520572907
 20
-124.6074098123536
 30
0.0
 10
398.497599973957
 20
-123.9425063835343
 30
0.0
 10
398.4895044838063
 20
-123.9378562954418
 30
0.0
 10
398.4813805167245
 20
-123.9332397393568
 30
0.0
 10
398.4732281096156
 20
-123.9286566718245
 30
0.0
  0
LINE
  5
D989B
330
1E
100
AcDbEntity
  8
DETAIL
100
AcDbLine
 10
-388.5011255222593
 20
141.0094521112573
 30
0.0
 11
-270.0
 21
141.0094521112574
 31
0.0
  0
LINE
  5
D98A0
330
1E
100
AcDbEntity
  8
DETAIL
100
AcDbLine
 10
398.4975999999992
 20
130.5088011112573
 30
0.0
 11
398.4975999999992
 21
130.009262111257
 31
0.0
  0
LINE
  5
D98A1
330
1E
100
AcDbEntity
  8
DETAIL
100
AcDbLine
 10
-398.5011255222593
 20
131.0094522388394
 30
0.0
 11
-398.5011260000016
 21
93.56359711125737
 31
0.0
  0
LINE
  5
D98A6
330
1E
100
AcDbEntity
  8
DETAIL
100
AcDbLine
 10
-399.1453580000012
 20
92.00641311125759
 30
0.0
 11
-401.6878390000006
 21
89.46393311125751
 31
0.0
  0
LINE
  5
D98A7
330
1E
100
AcDbEntity
  8
DETAIL
100
AcDbLine
 10
-401.8380696010793
 20
-89.29288678793666
 30
0.0
 11
-399.3783703635074
 21
-91.75591789079112
 31
0.0
  0
LINE
  5
D98A8
330
1E
100
AcDbEntity
  8
DETAIL
100
AcDbLine
 10
-403.3
 20
85.57442011125745
 30
0.0
 11
-403.3
 21
-85.75974666994822
 31
0.0
  0
LINE
  5
D98AC
330
1E
100
AcDbEntity
  8
DETAIL
100
AcDbLine
 10
380.4976000290606
 20
-140.992283789768
 30
0.0
 11
270.0000000000001
 21
-140.9922839494753
 31
0.0
  0
LINE
  5
D98B0
330
1E
100
AcDbEntity
  8
DETAIL
100
AcDbLine
 10
-398.5011260000016
 20
-93.87580196963416
 30
0.0
 11
-398.5011260000016
 21
-122.9922848896747
 31
0.0
  0
LINE
  5
D98B5
330
1E
100
AcDbEntity
  8
DETAIL
100
AcDbLine
 10
-425.3
 20
25.89827086819764
 30
0.0
 11
-425.3
 21
-25.80706174864126
 31
0.0
  0
SPLINE
  5
D98C4
330
1E
100
AcDbEntity
  8
DETAIL
100
AcDbSpline
210
0.0
220
0.0
230
1.0
 70
     8
 71
     3
 72
     8
 73
     4
 74
     0
 42
0.00000001
 43
0.0000000001
 40
0.0
 40
0.0
 40
0.0
 40
0.0
 40
1.0
 40
1.0
 40
1.0
 40
1.0
 10
-399.1453583845492
 20
92.00641346542393
 30
0.0
 10
-398.7319469262162
 20
92.4198249237574
 30
0.0
 10
-398.5011255286467
 20
92.97793039250739
 30
0.0
 10
-398.5011255286467
 20
93.56359662514654
 30
0.0
  0
SPLINE
  5
D98CB
330
1E
100
AcDbEntity
  8
DETAIL
100
AcDbSpline
210
0.0
220
0.0
230
1.0
 70
     8
 71
     3
 72
     8
 73
     4
 74
     0
 42
0.00000001
 43
0.0000000001
 40
0.0
 40
0.0
 40
0.0
 40
0.0
 40
1.0
 40
1.0
 40
1.0
 40
1.0
 10
-401.6878390000004
 20
89.46393311125753
 30
0.0
 10
-402.7212239583334
 20
88.43040426924378
 30
0.0
 10
-403.2999999999994
 20
87.03169550188244
 30
0.0
 10
-403.2999999999994
 20
85.57442011125743
 30
0.0
  0
LINE
  5
D98F0
330
1E
100
AcDbEntity
  8
DETAIL
100
AcDbLine
 10
-332.5034310000017
 20
-146.1174050715119
 30
0.0
 11
-322.9467370000008
 21
-154.1375880715119
 31
0.0
  0
LINE
  5
D98F1
330
1E
100
AcDbEntity
  8
DETAIL
100
AcDbLine
 10
-317.689521000001
 20
-154.6233460715116
 30
0.0
 11
-309.1939150000006
 21
-154.6233460715116
 31
0.0
  0
LINE
  5
D98F2
330
1E
100
AcDbEntity
  8
DETAIL
100
AcDbLine
 10
-321.6238200000016
 20
-154.6233460715116
 30
0.0
 11
-319.9874000000008
 21
-154.6233460715116
 31
0.0
  0
LINE
  5
D98F3
330
1E
100
AcDbEntity
  8
DETAIL
100
AcDbLine
 10
-345.746379000001
 20
-143.6300460715117
 30
0.0
 11
-345.7766859063867
 21
-142.5
 31
0.0
  0
LINE
  5
D98F4
330
1E
100
AcDbEntity
  8
DETAIL
100
AcDbLine
 10
-333.8297930000015
 20
-145.6316470715115
 30
0.0
 11
-343.6999920000006
 21
-145.6316470715115
 31
0.0
  0
LINE
  5
D98F5
330
1E
100
AcDbEntity
  8
DETAIL
100
AcDbLine
 10
-307.5953910000015
 20
-154.6233460715116
 30
0.0
 11
-297.8009850000006
 21
-154.6233460715116
 31
0.0
  0
LINE
  5
D98F6
330
1E
100
AcDbEntity
  8
DETAIL
100
AcDbLine
 10
-296.1990150000009
 20
-154.6233460715116
 30
0.0
 11
-286.4011640000015
 21
-154.6233460715116
 31
0.0
  0
LINE
  5
D98F7
330
1E
100
AcDbEntity
  8
DETAIL
100
AcDbLine
 10
-172.3995090000014
 20
-154.6233460715116
 30
0.0
 11
-182.2008060000015
 21
-154.6233460715116
 31
0.0
  0
LINE
  5
D98F8
330
1E
100
AcDbEntity
  8
DETAIL
100
AcDbLine
 10
-160.9996880000005
 20
-154.6233460715116
 30
0.0
 11
-170.8009850000005
 21
-154.6233460715116
 31
0.0
  0
LINE
  5
D98F9
330
1E
100
AcDbEntity
  8
DETAIL
100
AcDbLine
 10
-149.5998670000015
 20
-154.6233460715116
 30
0.0
 11
-159.4011640000015
 21
-154.6233460715116
 31
0.0
  0
LINE
  5
D98FA
330
1E
100
AcDbEntity
  8
DETAIL
100
AcDbLine
 10
-183.7993300000006
 20
-154.6233460715116
 30
0.0
 11
-193.6006270000005
 21
-154.6233460715116
 31
0.0
  0
LINE
  5
D98FB
330
1E
100
AcDbEntity
  8
DETAIL
100
AcDbLine
 10
-138.2000460000004
 20
-154.6233460715116
 30
0.0
 11
-147.9978980000011
 21
-154.6233460715116
 31
0.0
  0
LINE
  5
D98FC
330
1E
100
AcDbEntity
  8
DETAIL
100
AcDbLine
 10
-115.4004040000006
 20
-154.6233460715116
 30
0.0
 11
-125.198256000001
 21
-154.6233460715116
 31
0.0
  0
LINE
  5
D98FD
330
1E
100
AcDbEntity
  8
DETAIL
100
AcDbLine
 10
-104.0005830000016
 20
-154.6233460715116
 30
0.0
 11
-113.8018800000016
 21
-154.6233460715116
 31
0.0
  0
LINE
  5
D98FE
330
1E
100
AcDbEntity
  8
DETAIL
100
AcDbLine
 10
-126.8002250000016
 20
-154.6233460715116
 30
0.0
 11
-136.6015220000015
 21
-154.6233460715116
 31
0.0
  0
LINE
  5
D98FF
330
1E
100
AcDbEntity
  8
DETAIL
100
AcDbLine
 10
122.6901449999988
 20
-154.6233460715116
 30
0.0
 11
114.2014299999988
 21
-154.6233460715116
 31
0.0
  0
LINE
  5
D9900
330
1E
100
AcDbEntity
  8
DETAIL
100
AcDbLine
 10
112.5994599999987
 20
-154.6233460715116
 30
0.0
 11
102.7981639999989
 21
-154.6233460715116
 31
0.0
  0
LINE
  5
D9901
330
1E
100
AcDbEntity
  8
DETAIL
100
AcDbLine
 10
-92.60076200000122
 20
-154.6233460715116
 30
0.0
 11
-102.3986140000012
 21
-154.6233460715116
 31
0.0
  0
LINE
  5
D9902
330
1E
100
AcDbEntity
  8
DETAIL
100
AcDbLine
 10
-69.80112000000127
 20
-154.6233460715116
 30
0.0
 11
-79.59897200000142
 21
-154.6233460715116
 31
0.0
  0
LINE
  5
D9903
330
1E
100
AcDbEntity
  8
DETAIL
100
AcDbLine
 10
-58.39785400000102
 20
-154.6233460715116
 30
0.0
 11
-68.20259600000127
 21
-154.6233460715116
 31
0.0
  0
LINE
  5
D9904
330
1E
100
AcDbEntity
  8
DETAIL
100
AcDbLine
 10
-47.00147800000133
 20
-154.6233460715116
 30
0.0
 11
-56.79933000000102
 21
-154.6233460715116
 31
0.0
  0
LINE
  5
D9905
330
1E
100
AcDbEntity
  8
DETAIL
100
AcDbLine
 10
-24.20183600000094
 20
-154.6233460715116
 30
0.0
 11
-33.99968800000106
 21
-154.6233460715116
 31
0.0
  0
LINE
  5
D9906
330
1E
100
AcDbEntity
  8
DETAIL
100
AcDbLine
 10
137.5040549999986
 20
-146.1174050715119
 30
0.0
 11
127.9473609999987
 21
-154.1375880715119
 31
0.0
  0
LINE
  5
D9907
330
1E
100
AcDbEntity
  8
DETAIL
100
AcDbLine
 10
126.620998999999
 20
-154.6233460715116
 30
0.0
 11
124.9880239999984
 21
-154.6233460715116
 31
0.0
  0
LINE
  5
D9908
330
1E
100
AcDbEntity
  8
DETAIL
100
AcDbLine
 10
138.826971999999
 20
-145.6316470715115
 30
0.0
 11
148.7006159999988
 21
-145.6316470715115
 31
0.0
  0
LINE
  5
D9909
330
1E
100
AcDbEntity
  8
DETAIL
100
AcDbLine
 10
-284.8026390000011
 20
-154.6233460715116
 30
0.0
 11
-274.9978980000013
 21
-154.6233460715116
 31
0.0
  0
LINE
  5
D990A
330
1E
100
AcDbEntity
  8
DETAIL
100
AcDbLine
 10
-218.0022380000018
 20
-154.6233460715116
 30
0.0
 11
-227.8000890000011
 21
-154.6233460715116
 31
0.0
  0
LINE
  5
D990B
330
1E
100
AcDbEntity
  8
DETAIL
100
AcDbLine
 10
-229.3986140000014
 20
-154.6233460715116
 30
0.0
 11
-229.9999999931813
 21
-154.6233460715116
 31
0.0
  0
LINE
  5
D990C
330
1E
100
AcDbEntity
  8
DETAIL
100
AcDbLine
 10
-195.1991509999995
 20
-154.6233460715116
 30
0.0
 11
-216.4002690000013
 21
-154.6233460715116
 31
0.0
  0
LINE
  5
D990D
330
1E
100
AcDbEntity
  8
DETAIL
100
AcDbLine
 10
-245.0
 20
-154.6233460715116
 30
0.0
 11
-250.5997310000011
 21
-154.6233460715116
 31
0.0
  0
LINE
  5
D990E
330
1E
100
AcDbEntity
  8
DETAIL
100
AcDbLine
 10
-252.1982560000012
 20
-154.6233460715116
 30
0.0
 11
-255.0
 21
-154.6233460715116
 31
0.0
  0
LINE
  5
D990F
330
1E
100
AcDbEntity
  8
DETAIL
100
AcDbLine
 10
89.79981799999876
 20
-154.6233460715116
 30
0.0
 11
79.99852199999867
 21
-154.6233460715116
 31
0.0
  0
LINE
  5
D9910
330
1E
100
AcDbEntity
  8
DETAIL
100
AcDbLine
 10
57.19887999999873
 20
-154.6233460715116
 30
0.0
 11
67.0036219999999
 21
-154.6233460715116
 31
0.0
  0
LINE
  5
D9911
330
1E
100
AcDbEntity
  8
DETAIL
100
AcDbLine
 10
22.9994169999988
 20
-154.6233460715116
 30
0.0
 11
32.8007129999989
 21
-154.6233460715116
 31
0.0
  0
LINE
  5
D9912
330
1E
100
AcDbEntity
  8
DETAIL
100
AcDbLine
 10
34.39923799999878
 20
-154.6233460715116
 30
0.0
 11
44.20053399999885
 21
-154.6233460715116
 31
0.0
  0
LINE
  5
D9913
330
1E
100
AcDbEntity
  8
DETAIL
100
AcDbLine
 10
45.79905899999874
 20
-154.6233460715116
 30
0.0
 11
55.60035499999885
 21
-154.6233460715116
 31
0.0
  0
LINE
  5
D9914
330
1E
100
AcDbEntity
  8
DETAIL
100
AcDbLine
 10
101.1996389999987
 20
-154.6233460715116
 30
0.0
 11
91.40178799999892
 21
-154.6233460715116
 31
0.0
  0
LINE
  5
D9915
330
1E
100
AcDbEntity
  8
DETAIL
100
AcDbLine
 10
-35.59821200000107
 20
-154.6233460715116
 30
0.0
 11
-45.39950900000103
 21
-154.6233460715116
 31
0.0
  0
LINE
  5
D9917
330
1E
100
AcDbEntity
  8
DETAIL
100
AcDbLine
 10
1.95332799999886
 20
-154.6233460715116
 30
0.0
 11
0.1997749999988514
 21
-154.6233460715116
 31
0.0
  0
LINE
  5
D9918
330
1E
100
AcDbEntity
  8
DETAIL
100
AcDbLine
 10
-81.20094100000121
 20
-154.6233460715116
 30
0.0
 11
-91.00223800000124
 21
-154.6233460715116
 31
0.0
  0
LINE
  5
D9919
330
1E
100
AcDbEntity
  8
DETAIL
100
AcDbLine
 10
-1.40219500000131
 20
-154.6233460715116
 30
0.0
 11
-11.20004600000112
 21
-154.6233460715116
 31
0.0
  0
LINE
  5
D991A
330
1E
100
AcDbEntity
  8
DETAIL
100
AcDbLine
 10
-12.79857000000112
 20
-154.6233460715116
 30
0.0
 11
-22.5998670000011
 21
-154.6233460715116
 31
0.0
  0
LINE
  5
D991B
330
1E
100
AcDbEntity
  8
DETAIL
100
AcDbLine
 10
19.64733899999891
 20
-154.6233460715116
 30
0.0
 11
21.39744699999864
 21
-154.6233460715116
 31
0.0
  0
LINE
  5
D991C
330
1E
100
AcDbEntity
  8
DETAIL
100
AcDbLine
 10
78.39999699999878
 20
-154.6233460715116
 30
0.0
 11
68.60214599999898
 21
-154.6233460715116
 31
0.0
  0
LINE
  5
D991D
330
1E
100
AcDbEntity
  8
DETAIL
100
AcDbLine
 10
-273.3993730000009
 20
-154.6233460715116
 30
0.0
 11
-270.0000000000002
 21
-154.6233460715116
 31
0.0
  0
LINE
  5
D991E
330
1E
100
AcDbEntity
  8
DETAIL
100
AcDbLine
 10
-212.92416719903
 20
-155.5018450715121
 30
0.0
 11
-211.7872860000014
 21
-156.6387270715119
 31
0.0
  0
LINE
  5
D991F
330
1E
100
AcDbEntity
  8
DETAIL
100
AcDbLine
 10
3.393377999999016
 20
-155.2193470715116
 30
0.0
 11
4.812757999998829
 21
-156.6387270715119
 31
0.0
  0
LINE
  5
D9920
330
1E
100
AcDbEntity
  8
DETAIL
100
AcDbLine
 10
-198.6752530000014
 20
-155.501846071512
 30
0.0
 11
-199.8121340000011
 21
-156.6387270715119
 31
0.0
  0
LINE
  5
D9921
330
1E
100
AcDbEntity
  8
DETAIL
100
AcDbLine
 10
18.20728899999875
 20
-155.2193470715116
 30
0.0
 11
16.78790999999882
 21
-156.6387270715119
 31
0.0
  0
LINE
  5
D9922
330
1E
100
AcDbEntity
  8
DETAIL
100
AcDbLine
 10
6.256252999998817
 20
-157.2312830715115
 30
0.0
 11
15.34096999999855
 21
-157.2312830715115
 31
0.0
  0
LINE
  5
D9923
330
1E
100
AcDbEntity
  8
DETAIL
100
AcDbLine
 10
-201.2590740000013
 20
-157.2312830715115
 30
0.0
 11
-210.343791000001
 21
-157.2312830715115
 31
0.0
  0
LINE
  5
D9924
330
1E
100
AcDbEntity
  8
DETAIL
100
AcDbLine
 10
150.7470029999987
 20
-143.6300460715117
 30
0.0
 11
150.7773099063843
 21
-142.5
 31
0.0
  0
SPLINE
  5
D9925
330
1E
100
AcDbEntity
  8
DETAIL
100
AcDbSpline
210
0.0
220
0.0
230
1.0
 70
     8
 71
     3
 72
     8
 73
     4
 74
     0
 42
0.00000001
 43
0.0000000001
 40
0.0
 40
0.0
 40
0.0
 40
0.0
 40
1.0
 40
1.0
 40
1.0
 40
1.0
 10
-345.7463785381959
 20
-143.6300463475533
 30
0.0
 10
-345.7222628697935
 20
-144.7428121895675
 30
0.0
 10
-344.8127576614597
 20
-145.631646824984
 30
0.0
 10
-343.6999918194459
 20
-145.631646824984
 30
0.0
  0
SPLINE
  5
D9926
330
1E
100
AcDbEntity
  8
DETAIL
100
AcDbSpline
210
0.0
220
0.0
230
1.0
 70
     8
 71
     3
 72
     8
 73
     4
 74
     0
 42
0.00000001
 43
0.0000000001
 40
0.0
 40
0.0
 40
0.0
 40
0.0
 40
1.0
 40
1.0
 40
1.0
 40
1.0
 10
-322.9467366111119
 20
-154.1375875801924
 30
0.0
 10
-322.5746662986119
 20
-154.4510912694283
 30
0.0
 10
-322.1061333125007
 20
-154.623346043734
 30
0.0
 10
-321.6238199444459
 20
-154.623346043734
 30
0.0
  0
SPLINE
  5
D9927
330
1E
100
AcDbEntity
  8
DETAIL
100
AcDbSpline
210
0.0
220
0.0
230
1.0
 70
     8
 71
     3
 72
     8
 73
     4
 74
     0
 42
0.00000001
 43
0.0000000001
 40
0.0
 40
0.0
 40
0.0
 40
0.0
 40
1.0
 40
1.0
 40
1.0
 40
1.0
 10
-332.5034314895845
 20
-146.1174052885259
 30
0.0
 10
-332.8755018020845
 20
-145.8039015992896
 30
0.0
 10
-333.3440347881959
 20
-145.631646824984
 30
0.0
 10
-333.8297932517369
 20
-145.631646824984
 30
0.0
  0
SPLINE
  5
D9928
330
1E
100
AcDbEntity
  8
DETAIL
100
AcDbSpline
210
0.0
220
0.0
230
1.0
 70
     8
 71
     3
 72
     8
 73
     4
 74
     0
 42
0.00000001
 43
0.0000000001
 40
0.0
 40
0.0
 40
0.0
 40
0.0
 40
1.0
 40
1.0
 40
1.0
 40
1.0
 10
126.6209988489574
 20
-154.623346043734
 30
0.0
 10
127.1067573124989
 20
-154.623346043734
 30
0.0
 10
127.5752902986097
 20
-154.4510912694283
 30
0.0
 10
127.9473606111096
 20
-154.1375875801924
 30
0.0
  0
SPLINE
  5
D9929
330
1E
100
AcDbEntity
  8
DETAIL
100
AcDbSpline
210
0.0
220
0.0
230
1.0
 70
     8
 71
     3
 72
     8
 73
     4
 74
     0
 42
0.00000001
 43
0.0000000001
 40
0.0
 40
0.0
 40
0.0
 40
0.0
 40
1.0
 40
1.0
 40
1.0
 40
1.0
 10
138.8269721562489
 20
-145.631646824984
 30
0.0
 10
138.3446587881931
 20
-145.631646824984
 30
0.0
 10
137.8761258020818
 20
-145.8039015992896
 30
0.0
 10
137.5040554895818
 20
-146.1174052885259
 30
0.0
  0
SPLINE
  5
D992A
330
1E
100
AcDbEntity
  8
DETAIL
100
AcDbSpline
210
0.0
220
0.0
230
1.0
 70
     8
 71
     3
 72
     8
 73
     4
 74
     0
 42
0.00000001
 43
0.0000000001
 40
0.0
 40
0.0
 40
0.0
 40
0.0
 40
1.0
 40
1.0
 40
1.0
 40
1.0
 10
148.7006158194431
 20
-145.631646824984
 30
0.0
 10
149.8099365659711
 20
-145.631646824984
 30
0.0
 10
150.7194417743041
 20
-144.7428121895675
 30
0.0
 10
150.7470025381931
 20
-143.6300463475533
 30
0.0
  0
SPLINE
  5
D992B
330
1E
100
AcDbEntity
  8
DETAIL
100
AcDbSpline
210
0.0
220
0.0
230
1.0
 70
     8
 71
     3
 72
     8
 73
     4
 74
     0
 42
0.00000001
 43
0.0000000001
 40
0.0
 40
0.0
 40
0.0
 40
0.0
 40
1.0
 40
1.0
 40
1.0
 40
1.0
 10
19.6473389097211
 20
-154.623346043734
 30
0.0
 10
19.10645891840176
 20
-154.623346043734
 30
0.0
 10
18.58624949999892
 20
-154.8369419638726
 30
0.0
 10
18.20728899652675
 20
-155.2193475628311
 30
0.0
  0
SPLINE
  5
D992E
330
1E
100
AcDbEntity
  8
DETAIL
100
AcDbSpline
210
0.0
220
0.0
230
1.0
 70
     8
 71
     3
 72
     8
 73
     4
 74
     0
 42
0.00000001
 43
0.0000000001
 40
0.0
 40
0.0
 40
0.0
 40
0.0
 40
1.0
 40
1.0
 40
1.0
 40
1.0
 10
3.393378406248926
 20
-155.2193475628311
 30
0.0
 10
3.014417902776755
 20
-154.8369419638726
 30
0.0
 10
2.490763388887613
 20
-154.623346043734
 30
0.0
 10
1.953328493054129
 20
-154.623346043734
 30
0.0
  0
SPLINE
  5
D992F
330
1E
100
AcDbEntity
  8
DETAIL
100
AcDbSpline
210
0.0
220
0.0
230
1.0
 70
     8
 71
     3
 72
     8
 73
     4
 74
     0
 42
0.00000001
 43
0.0000000001
 40
0.0
 40
0.0
 40
0.0
 40
0.0
 40
1.0
 40
1.0
 40
1.0
 40
1.0
 10
4.812757746526755
 20
-156.6387269031089
 30
0.0
 10
5.198608440971097
 20
-157.0176874065811
 30
0.0
 10
5.715372763887613
 20
-157.234728422206
 30
0.0
 10
6.256252755207411
 20
-157.2312833267203
 30
0.0
  0
SPLINE
  5
D9930
330
1E
100
AcDbEntity
  8
DETAIL
100
AcDbSpline
210
0.0
220
0.0
230
1.0
 70
     8
 71
     3
 72
     8
 73
     4
 74
     0
 42
0.00000001
 43
0.0000000001
 40
0.0
 40
0.0
 40
0.0
 40
0.0
 40
1.0
 40
1.0
 40
1.0
 40
1.0
 10
-211.7872856562506
 20
-156.6387269031089
 30
0.0
 10
-211.4014349618071
 20
-157.0176874065811
 30
0.0
 10
-210.8846706388902
 20
-157.234728422206
 30
0.0
 10
-210.3437906475709
 20
-157.2312833267203
 30
0.0
  0
SPLINE
  5
D9931
330
1E
100
AcDbEntity
  8
DETAIL
100
AcDbSpline
210
0.0
220
0.0
230
1.0
 70
     8
 71
     3
 72
     8
 73
     4
 74
     0
 42
0.00000001
 43
0.0000000001
 40
0.0
 40
0.0
 40
0.0
 40
0.0
 40
1.0
 40
1.0
 40
1.0
 40
1.0
 10
15.34096955208241
 20
-157.2312833267203
 30
0.0
 10
15.88529463888761
 20
-157.234728422206
 30
0.0
 10
16.40205896180413
 20
-157.0176874065811
 30
0.0
 10
16.78790965624893
 20
-156.6387269031089
 30
0.0
  0
SPLINE
  5
D9932
330
1E
100
AcDbEntity
  8
DETAIL
100
AcDbSpline
210
0.0
220
0.0
230
1.0
 70
     8
 71
     3
 72
     8
 73
     4
 74
     0
 42
0.00000001
 43
0.0000000001
 40
0.0
 40
0.0
 40
0.0
 40
0.0
 40
1.0
 40
1.0
 40
1.0
 40
1.0
 10
-201.2590738506959
 20
-157.2312833267203
 30
0.0
 10
-200.7147487638901
 20
-157.234728422206
 30
0.0
 10
-200.1979844409732
 20
-157.0176874065811
 30
0.0
 10
-199.8121337465289
 20
-156.6387269031089
 30
0.0
  0
LINE
  5
D993B
330
1E
100
AcDbEntity
  8
DETAIL
100
AcDbLine
 10
-255.0000003542491
 20
162.5079879570035
 30
0.0
 11
-255.0
 21
152.0084895341304
 31
0.0
  0
CIRCLE
  5
D994C
330
1E
100
AcDbEntity
  8
DETAIL
100
AcDbCircle
 10
-262.5008130000011
 20
162.5102931112578
 30
0.0
 40
2.25137
  0
CIRCLE
  5
D994D
330
1E
100
AcDbEntity
  8
DETAIL
100
AcDbCircle
 10
-237.498032000001
 20
162.5102931112578
 30
0.0
 40
2.249646999999999
  0
CIRCLE
  5
D994E
330
1E
100
AcDbEntity
  8
DETAIL
100
AcDbCircle
 10
-237.498032000001
 20
-161.4906018887423
 30
0.0
 40
2.249646999999999
  0
CIRCLE
  5
D994F
330
1E
100
AcDbEntity
  8
DETAIL
100
AcDbCircle
 10
-262.5008130000011
 20
-161.4906018887423
 30
0.0
 40
2.25137
  0
LINE
  5
D9AA4
330
1E
100
AcDbEntity
  8
DETAIL
100
AcDbLine
 10
398.4975989970266
 20
131.0094521508645
 30
0.0
 11
398.4976000030443
 21
-122.9922837184759
 31
0.0
  0
LINE
  5
D9AA6
330
1E
100
AcDbEntity
  8
DETAIL
100
AcDbLine
 10
400.0
 20
130.5000000461088
 30
0.0
 11
400.0
 21
-109.6384698887423
 31
0.0
  0
LINE
  5
D9AA9
330
1E
100
AcDbEntity
  8
DETAIL
100
AcDbLine
 10
401.9978164592003
 20
-90.99016855106858
 30
0.0
 11
401.9978164592003
 21
-82.42930336591291
 31
0.0
  0
LINE
  5
D9FCE
330
1E
100
AcDbEntity
  8
DETAIL
100
AcDbLine
 10
-400.0
 20
-113.1559124165201
 30
0.0
 11
-400.0
 21
-122.5
 31
0.0
  0
ARC
  5
DA14D
330
1E
100
AcDbEntity
  8
DETAIL
100
AcDbCircle
 10
-262.5
 20
162.5102931112578
 30
0.0
 40
7.5
100
AcDbArc
 50
359.9823899184035
 51
179.9999999997848
  0
ARC
  5
DA14F
330
1E
100
AcDbEntity
  8
DETAIL
100
AcDbCircle
 10
-249.9999998672312
 20
152.0084895341304
 30
0.0
 40
5.0
100
AcDbArc
 50
180.0
 51
0.0132038526458059
  0
LINE
  5
DA158
330
1E
100
AcDbEntity
  8
DETAIL
100
AcDbLine
 10
-244.9999993802133
 20
162.5079879570035
 30
0.0
 11
-244.9999997344624
 21
152.0084895341304
 31
0.0
  0
ARC
  5
DA15A
330
1E
100
AcDbEntity
  8
DETAIL
100
AcDbCircle
 10
-237.4999997344624
 20
162.5102931112578
 30
0.0
 40
7.5
100
AcDbArc
 50
0.0000000002152218
 51
180.0176100815965
  0
LINE
  5
DA15D
330
1E
100
AcDbEntity
  8
DETAIL
100
AcDbLine
 10
244.999999645751
 20
162.4976948457458
 30
0.0
 11
245.0
 21
152.0084895341304
 31
0.0
  0
CIRCLE
  5
DA15F
330
1E
100
AcDbEntity
  8
DETAIL
100
AcDbCircle
 10
237.5
 20
162.5
 30
0.0
 40
2.25137
  0
CIRCLE
  5
DA160
330
1E
100
AcDbEntity
  8
DETAIL
100
AcDbCircle
 10
262.5
 20
162.5
 30
0.0
 40
2.249646999999999
  0
ARC
  5
DA161
330
1E
100
AcDbEntity
  8
DETAIL
100
AcDbCircle
 10
237.5
 20
162.5
 30
0.0
 40
7.5
100
AcDbArc
 50
359.9823899184035
 51
179.9999999997848
  0
ARC
  5
DA162
330
1E
100
AcDbEntity
  8
DETAIL
100
AcDbCircle
 10
250.0000000000001
 20
152.0084895341305
 30
0.0
 40
5.000000000000142
100
AcDbArc
 50
180.0000000000016
 51
359.9999999999968
  0
LINE
  5
DA163
330
1E
100
AcDbEntity
  8
DETAIL
100
AcDbLine
 10
255.0000000000002
 20
162.5
 30
0.0
 11
255.0000000000002
 21
152.0084895341304
 31
0.0
  0
ARC
  5
DA165
330
1E
100
AcDbEntity
  8
DETAIL
100
AcDbCircle
 10
262.5000000000002
 20
162.5
 30
0.0
 40
7.5
100
AcDbArc
 50
0.0000000002152218
 51
180.0
  0
ARC
  5
DA166
330
1E
100
AcDbEntity
  8
DETAIL
100
AcDbCircle
 10
-388.5011255222593
 20
131.0094521112573
 30
0.0
 40
10.0
100
AcDbArc
 50
90.00000000000005
 51
179.999999269008
  0
ARC
  5
DA167
330
1E
100
AcDbEntity
  8
DETAIL
100
AcDbCircle
 10
388.4975989970266
 20
131.0094521112578
 30
0.0
 40
10.0
100
AcDbArc
 50
0.000000226929854
 51
90.0
  0
ARC
  5
DA168
330
1E
100
AcDbEntity
  8
DETAIL
100
AcDbCircle
 10
-380.5011260000016
 20
-122.9922848896747
 30
0.0
 40
18.0
100
AcDbArc
 50
180.0
 51
270.0000000828122
  0
ARC
  5
DA169
330
1E
100
AcDbEntity
  8
DETAIL
100
AcDbCircle
 10
380.4976000030444
 20
-122.992283789768
 30
0.0
 40
18.0
100
AcDbArc
 50
270.0000000828122
 51
0.000000226929854
  0
LINE
  5
DA16A
330
1E
100
AcDbEntity
  8
DETAIL
100
AcDbLine
 10
273.5439864947905
 20
146.5353851813533
 30
0.0
 11
273.4504485638354
 21
141.0094521112577
 31
0.0
  0
LINE
  5
DA16B
330
1E
100
AcDbEntity
  8
DETAIL
100
AcDbLine
 10
303.454305999999
 20
146.5353851112574
 30
0.0
 11
303.5478434361627
 21
141.0094521112577
 31
0.0
  0
ARC
  5
DA16C
330
1E
100
AcDbEntity
  8
DETAIL
100
AcDbCircle
 10
388.0000000000002
 20
130.5000000000001
 30
0.0
 40
12.0
100
AcDbArc
 50
0.0000002201534659
 51
90.0
  0
ARC
  5
DA16D
330
1E
100
AcDbEntity
  8
DETAIL
100
AcDbCircle
 10
-388.0
 20
130.5
 30
0.0
 40
12.0
100
AcDbArc
 50
90.0
 51
179.9999994204889
  0
ARC
  5
DA16E
330
1E
100
AcDbEntity
  8
DETAIL
100
AcDbCircle
 10
-422.4505706291892
 20
-55.58321299999506
 30
0.0
 40
19.15047553703282
100
AcDbArc
 50
0.1288809556193778
 51
72.91717506179118
  0
ARC
  5
DA16F
330
1E
100
AcDbEntity
  8
DETAIL
100
AcDbCircle
 10
-422.2801347959634
 20
55.54725509590888
 30
0.0
 40
18.97910726100326
100
AcDbArc
 50
286.8506002992123
 51
357.4426034246262
  0
ARC
  5
DA170
330
1E
100
AcDbEntity
  8
DETAIL
100
AcDbCircle
 10
-401.5011260000015
 20
-93.87580196963416
 30
0.0
 40
3.0
100
AcDbArc
 50
0.0
 51
44.96122034394743
  0
ARC
  5
DA171
330
1E
100
AcDbEntity
  8
DETAIL
100
AcDbCircle
 10
-398.3009443156953
 20
-85.76028112979683
 30
0.0
 40
4.999055712874675
100
AcDbArc
 50
179.9938743843934
 51
224.9633712325321
  0
ARC
  5
DA172
330
1E
100
AcDbEntity
  8
DETAIL
100
AcDbCircle
 10
-379.9997416059037
 20
-122.5
 30
0.0
 40
20.0
100
AcDbArc
 50
180.0
 51
270.0
  0
ARC
  5
DA173
330
1E
100
AcDbEntity
  8
DETAIL
100
AcDbCircle
 10
380.4866409710921
 20
-122.4909008887426
 30
0.0
 40
20.0
100
AcDbArc
 50
270.0000000828122
 51
346.5723549908708
  0
ARC
  5
DA17F
330
1E
100
AcDbEntity
  8
DETAIL
100
AcDbCircle
 10
250.0000000000003
 20
-151.5000475104036
 30
0.0
 40
4.999999999999943
100
AcDbArc
 50
0.0000000817641731
 51
180.0
  0
ARC
  5
DA180
330
1E
100
AcDbEntity
  8
DETAIL
100
AcDbCircle
 10
250.0000000000002
 20
-162.5000475104036
 30
0.0
 40
4.999999999999971
100
AcDbArc
 50
180.0
 51
0.0000000817641731
  0
ARC
  5
DA181
330
1E
100
AcDbEntity
  8
DETAIL
100
AcDbCircle
 10
250.000000000158
 20
-134.9999974060914
 30
0.0
 40
40.0000024455105
100
AcDbArc
 50
250.5219815869062
 51
289.4710387138914
  0
ARC
  5
DA182
330
1E
100
AcDbEntity
  8
DETAIL
100
AcDbCircle
 10
240.0159190340964
 20
-163.2730278040023
 30
0.0
 40
10.01591927471684
100
AcDbArc
 50
180.0125591031952
 51
250.4372094284501
  0
ARC
  5
DA183
330
1E
100
AcDbEntity
  8
DETAIL
100
AcDbCircle
 10
259.9798626733372
 20
-163.2700403844243
 30
0.0
 40
10.02013937126565
100
AcDbArc
 50
289.5519362137431
 51
359.9633979657629
  0
LINE
  5
DA187
330
1E
100
AcDbEntity
  8
DETAIL
100
AcDbLine
 10
-230.0
 20
-163.2764415096467
 30
0.0
 11
-229.9999997344624
 21
162.510293111286
 31
0.0
  0
ARC
  5
DA189
330
1E
100
AcDbEntity
  8
DETAIL
100
AcDbCircle
 10
-249.9987650000004
 20
-162.5000475104036
 30
0.0
 40
4.999999999999971
100
AcDbArc
 50
180.0
 51
0.0000000817641731
  0
ARC
  5
DA18A
330
1E
100
AcDbEntity
  8
DETAIL
100
AcDbCircle
 10
-250.0
 20
-135.0
 30
0.0
 40
40.0
100
AcDbArc
 50
250.5221262206672
 51
289.4708941334047
  0
ARC
  5
DA18B
330
1E
100
AcDbEntity
  8
DETAIL
100
AcDbCircle
 10
-240.0201351310691
 20
-163.2700417834731
 30
0.0
 40
10.02013717477852
100
AcDbArc
 50
289.5513449563688
 51
359.9634059575914
  0
ARC
  5
DA18C
330
1E
100
AcDbEntity
  8
DETAIL
100
AcDbCircle
 10
-259.9803718012249
 20
-163.2704086749934
 30
0.0
 40
10.01962935552095
100
AcDbArc
 50
180.0275315584836
 51
250.4228207531183
  0
LINE
  5
DA18D
330
1E
100
AcDbEntity
  8
DETAIL
100
AcDbLine
 10
-270.0
 20
162.510293111286
 30
0.0
 11
-270.0
 21
-163.2752232704716
 31
0.0
  0
ARC
  5
DA191
330
1E
100
AcDbEntity
  8
DETAIL
100
AcDbCircle
 10
-308.3946530003909
 20
-143.8195270203866
 30
0.0
 40
0.9990776901940819
100
AcDbArc
 50
36.86991215180071
 51
143.130102376455
  0
ARC
  5
DA193
330
1E
100
AcDbEntity
  8
DETAIL
100
AcDbCircle
 10
-318.8384601723099
 20
-156.3532340463724
 30
0.0
 40
1.146766041504575
100
AcDbArc
 50
179.9775695570865
 51
359.9775695570837
  0
ARC
  5
DA195
330
1E
100
AcDbEntity
  8
DETAIL
100
AcDbCircle
 10
-308.394653077133
 20
-156.00163524034
 30
0.0
 40
0.7990115753689229
100
AcDbArc
 50
179.9820369403265
 51
359.9820369403265
  0
LINE
  5
DA196
330
1E
100
AcDbEntity
  8
DETAIL
100
AcDbLine
 10
-297.797539
 20
-156.0018858206261
 30
0.0
 11
-297.797539
 21
-143.2200800715115
 31
0.0
  0
LINE
  5
DA197
330
1E
100
AcDbEntity
  8
DETAIL
100
AcDbLine
 10
-296.1990150000009
 20
-143.2200800715115
 30
0.0
 11
-296.1990150000009
 21
-156.0013850715119
 31
0.0
  0
ARC
  5
DA198
330
1E
100
AcDbEntity
  8
DETAIL
100
AcDbCircle
 10
-296.9982770003901
 20
-143.8195270203866
 30
0.0
 40
0.9990776901940819
100
AcDbArc
 50
36.86991215180068
 51
143.130102376455
  0
ARC
  5
DA199
330
1E
100
AcDbEntity
  8
DETAIL
100
AcDbCircle
 10
-296.9982770771323
 20
-156.00163524034
 30
0.0
 40
0.7990115753689229
100
AcDbArc
 50
179.9820369403265
 51
359.9820369403265
  0
LINE
  5
DA19A
330
1E
100
AcDbEntity
  8
DETAIL
100
AcDbLine
 10
-286.4011630000003
 20
-156.0018858206261
 30
0.0
 11
-286.4011630000003
 21
-143.2200800715115
 31
0.0
  0
LINE
  5
DA19B
330
1E
100
AcDbEntity
  8
DETAIL
100
AcDbLine
 10
-284.8026390000011
 20
-143.2200800715115
 30
0.0
 11
-284.8026390000011
 21
-156.0013850715119
 31
0.0
  0
ARC
  5
DA19C
330
1E
100
AcDbEntity
  8
DETAIL
100
AcDbCircle
 10
-285.6019010003905
 20
-143.8195270203866
 30
0.0
 40
0.9990776901940819
100
AcDbArc
 50
36.86991215180072
 51
143.1301023764549
  0
ARC
  5
DA19D
330
1E
100
AcDbEntity
  8
DETAIL
100
AcDbCircle
 10
-285.6019010771326
 20
-156.00163524034
 30
0.0
 40
0.7990115753689229
100
AcDbArc
 50
179.9820369403265
 51
359.9820369403265
  0
LINE
  5
DA19E
330
1E
100
AcDbEntity
  8
DETAIL
100
AcDbLine
 10
-274.997897
 20
-156.0018858206261
 30
0.0
 11
-274.997897
 21
-143.2200800715115
 31
0.0
  0
LINE
  5
DA19F
330
1E
100
AcDbEntity
  8
DETAIL
100
AcDbLine
 10
-273.3993730000009
 20
-143.2200800715115
 30
0.0
 11
-273.3993730000009
 21
-156.0013850715119
 31
0.0
  0
ARC
  5
DA1A0
330
1E
100
AcDbEntity
  8
DETAIL
100
AcDbCircle
 10
-274.1986350003902
 20
-143.8195270203866
 30
0.0
 40
0.9990776901940819
100
AcDbArc
 50
36.86991215180061
 51
143.1301023764551
  0
ARC
  5
DA1A1
330
1E
100
AcDbEntity
  8
DETAIL
100
AcDbCircle
 10
-274.1986350771323
 20
-156.00163524034
 30
0.0
 40
0.7990115753689229
100
AcDbArc
 50
179.9820369403265
 51
359.9820369403265
  0
LINE
  5
DA1A6
330
1E
100
AcDbEntity
  8
DETAIL
100
AcDbLine
 10
124.9880239999983
 20
-156.353683838941
 30
0.0
 11
124.9880239999983
 21
-142.5
 31
0.0
  0
LINE
  5
DA1A7
330
1E
100
AcDbEntity
  8
DETAIL
100
AcDbLine
 10
122.6901456553805
 20
-156.3527842538039
 30
0.0
 11
122.6901459927831
 21
-142.5
 31
0.0
  0
ARC
  5
DA1A8
330
1E
100
AcDbEntity
  8
DETAIL
100
AcDbCircle
 10
123.8390848276894
 20
-156.3532340463724
 30
0.0
 40
1.146766041504575
100
AcDbArc
 50
179.9775695570865
 51
359.9775695570837
  0
LINE
  5
DA1A9
330
1E
100
AcDbEntity
  8
DETAIL
100
AcDbLine
 10
-252.1982550000001
 20
-156.0018858206261
 30
0.0
 11
-252.1982550000001
 21
-147.0092040534378
 31
0.0
  0
ARC
  5
DA1AC
330
1E
100
AcDbEntity
  8
DETAIL
100
AcDbCircle
 10
-251.3989930771326
 20
-156.00163524034
 30
0.0
 40
0.7990115753689229
100
AcDbArc
 50
179.9820369403265
 51
359.9820369403265
  0
LINE
  5
DA1B1
330
1E
100
AcDbEntity
  8
DETAIL
100
AcDbLine
 10
-229.3986130000003
 20
-156.0018858206261
 30
0.0
 11
-229.3986130000003
 21
-143.2200800715115
 31
0.0
  0
LINE
  5
DA1B2
330
1E
100
AcDbEntity
  8
DETAIL
100
AcDbLine
 10
-227.8000890000011
 20
-143.2200800715115
 30
0.0
 11
-227.8000890000011
 21
-156.0013850715119
 31
0.0
  0
ARC
  5
DA1B3
330
1E
100
AcDbEntity
  8
DETAIL
100
AcDbCircle
 10
-228.5993510003905
 20
-143.8195270203866
 30
0.0
 40
0.9990776901940819
100
AcDbArc
 50
36.86991215180055
 51
143.1301023764551
  0
ARC
  5
DA1B4
330
1E
100
AcDbEntity
  8
DETAIL
100
AcDbCircle
 10
-228.5993510771326
 20
-156.00163524034
 30
0.0
 40
0.7990115753689229
100
AcDbArc
 50
179.9820369403265
 51
359.9820369403265
  0
LINE
  5
DA1B5
330
1E
100
AcDbEntity
  8
DETAIL
100
AcDbLine
 10
-217.9987930000003
 20
-156.0018858206261
 30
0.0
 11
-217.9987930000003
 21
-143.2200800715115
 31
0.0
  0
LINE
  5
DA1B6
330
1E
100
AcDbEntity
  8
DETAIL
100
AcDbLine
 10
-216.4002690000013
 20
-143.2200800715115
 30
0.0
 11
-216.4002690000013
 21
-156.0013850715119
 31
0.0
  0
ARC
  5
DA1B7
330
1E
100
AcDbEntity
  8
DETAIL
100
AcDbCircle
 10
-217.1995310003907
 20
-143.8195270203866
 30
0.0
 40
0.9990776901940819
100
AcDbArc
 50
36.86991215180055
 51
143.1301023764551
  0
ARC
  5
DA1B8
330
1E
100
AcDbEntity
  8
DETAIL
100
AcDbCircle
 10
-217.1995310771329
 20
-156.00163524034
 30
0.0
 40
0.7990115753689229
100
AcDbArc
 50
179.9820369403265
 51
359.9820369403265
  0
LINE
  5
DA1B9
330
1E
100
AcDbEntity
  8
DETAIL
100
AcDbLine
 10
-206.5989710000002
 20
-156.0018858206261
 30
0.0
 11
-206.5989710000002
 21
-143.2200800715115
 31
0.0
  0
LINE
  5
DA1BA
330
1E
100
AcDbEntity
  8
DETAIL
100
AcDbLine
 10
-205.0004470000011
 20
-143.2200800715115
 30
0.0
 11
-205.0004470000011
 21
-156.0013850715119
 31
0.0
  0
ARC
  5
DA1BB
330
1E
100
AcDbEntity
  8
DETAIL
100
AcDbCircle
 10
-205.7997090003905
 20
-143.8195270203866
 30
0.0
 40
0.9990776901940819
100
AcDbArc
 50
36.86991215180055
 51
143.1301023764551
  0
ARC
  5
DA1BC
330
1E
100
AcDbEntity
  8
DETAIL
100
AcDbCircle
 10
-205.7997090771326
 20
-156.00163524034
 30
0.0
 40
0.7990115753689229
100
AcDbArc
 50
179.9820369403265
 51
359.9820369403265
  0
LINE
  5
DA1BD
330
1E
100
AcDbEntity
  8
DETAIL
100
AcDbLine
 10
-195.1991509999995
 20
-156.0018858206261
 30
0.0
 11
-195.1991509999995
 21
-143.2200800715115
 31
0.0
  0
LINE
  5
DA1BE
330
1E
100
AcDbEntity
  8
DETAIL
100
AcDbLine
 10
-193.6006270000005
 20
-143.2200800715115
 30
0.0
 11
-193.6006270000005
 21
-156.0013850715119
 31
0.0
  0
ARC
  5
DA1BF
330
1E
100
AcDbEntity
  8
DETAIL
100
AcDbCircle
 10
-194.3998890003896
 20
-143.8195270203866
 30
0.0
 40
0.9990776901940819
100
AcDbArc
 50
36.86991215180081
 51
143.1301023764549
  0
ARC
  5
DA1C0
330
1E
100
AcDbEntity
  8
DETAIL
100
AcDbCircle
 10
-194.399889077132
 20
-156.00163524034
 30
0.0
 40
0.7990115753689229
100
AcDbArc
 50
179.9820369403265
 51
359.9820369403265
  0
LINE
  5
DA1C1
330
1E
100
AcDbEntity
  8
DETAIL
100
AcDbLine
 10
-183.7993300000006
 20
-156.0018858206261
 30
0.0
 11
-183.7993300000006
 21
-143.2200800715115
 31
0.0
  0
LINE
  5
DA1C2
330
1E
100
AcDbEntity
  8
DETAIL
100
AcDbLine
 10
-182.2008060000015
 20
-143.2200800715115
 30
0.0
 11
-182.2008060000015
 21
-156.0013850715119
 31
0.0
  0
ARC
  5
DA1C3
330
1E
100
AcDbEntity
  8
DETAIL
100
AcDbCircle
 10
-183.0000680003907
 20
-143.8195270203866
 30
0.0
 40
0.9990776901940819
100
AcDbArc
 50
36.86991215180081
 51
143.1301023764549
  0
ARC
  5
DA1C4
330
1E
100
AcDbEntity
  8
DETAIL
100
AcDbCircle
 10
-183.0000680771329
 20
-156.00163524034
 30
0.0
 40
0.7990115753689229
100
AcDbArc
 50
179.9820369403265
 51
359.9820369403265
  0
LINE
  5
DA1C5
330
1E
100
AcDbEntity
  8
DETAIL
100
AcDbLine
 10
-172.3995089999997
 20
-156.0018858206261
 30
0.0
 11
-172.3995089999997
 21
-143.2200800715115
 31
0.0
  0
LINE
  5
DA1C6
330
1E
100
AcDbEntity
  8
DETAIL
100
AcDbLine
 10
-170.8009850000005
 20
-143.2200800715115
 30
0.0
 11
-170.8009850000005
 21
-156.0013850715119
 31
0.0
  0
ARC
  5
DA1C7
330
1E
100
AcDbEntity
  8
DETAIL
100
AcDbCircle
 10
-171.6002470003898
 20
-143.8195270203866
 30
0.0
 40
0.9990776901940819
100
AcDbArc
 50
36.86991215180081
 51
143.1301023764549
  0
ARC
  5
DA1C8
330
1E
100
AcDbEntity
  8
DETAIL
100
AcDbCircle
 10
-171.6002470771321
 20
-156.00163524034
 30
0.0
 40
0.7990115753689229
100
AcDbArc
 50
179.9820369403265
 51
359.9820369403265
  0
LINE
  5
DA1C9
330
1E
100
AcDbEntity
  8
DETAIL
100
AcDbLine
 10
-160.9996880000005
 20
-156.0018858206261
 30
0.0
 11
-160.9996880000005
 21
-143.2200800715115
 31
0.0
  0
LINE
  5
DA1CA
330
1E
100
AcDbEntity
  8
DETAIL
100
AcDbLine
 10
-159.4011640000015
 20
-143.2200800715115
 30
0.0
 11
-159.4011640000015
 21
-156.0013850715119
 31
0.0
  0
ARC
  5
DA1CB
330
1E
100
AcDbEntity
  8
DETAIL
100
AcDbCircle
 10
-160.2004260003907
 20
-143.8195270203866
 30
0.0
 40
0.9990776901940819
100
AcDbArc
 50
36.86991215180081
 51
143.1301023764549
  0
ARC
  5
DA1CC
330
1E
100
AcDbEntity
  8
DETAIL
100
AcDbCircle
 10
-160.200426077133
 20
-156.00163524034
 30
0.0
 40
0.7990115753689229
100
AcDbArc
 50
179.9820369403265
 51
359.9820369403265
  0
LINE
  5
DA1CD
330
1E
100
AcDbEntity
  8
DETAIL
100
AcDbLine
 10
-149.5964220000001
 20
-156.0018858206261
 30
0.0
 11
-149.5964220000001
 21
-143.2200800715115
 31
0.0
  0
LINE
  5
DA1CE
330
1E
100
AcDbEntity
  8
DETAIL
100
AcDbLine
 10
-147.9978980000011
 20
-143.2200800715115
 30
0.0
 11
-147.9978980000011
 21
-156.0013850715119
 31
0.0
  0
ARC
  5
DA1CF
330
1E
100
AcDbEntity
  8
DETAIL
100
AcDbCircle
 10
-148.7971600003904
 20
-143.8195270203866
 30
0.0
 40
0.9990776901940819
100
AcDbArc
 50
36.86991215180081
 51
143.1301023764549
  0
ARC
  5
DA1D0
330
1E
100
AcDbEntity
  8
DETAIL
100
AcDbCircle
 10
-148.7971600771327
 20
-156.00163524034
 30
0.0
 40
0.7990115753689229
100
AcDbArc
 50
179.9820369403265
 51
359.9820369403265
  0
LINE
  5
DA1D1
330
1E
100
AcDbEntity
  8
DETAIL
100
AcDbLine
 10
-138.2000460000005
 20
-156.0018858206261
 30
0.0
 11
-138.2000460000005
 21
-143.2200800715115
 31
0.0
  0
LINE
  5
DA1D2
330
1E
100
AcDbEntity
  8
DETAIL
100
AcDbLine
 10
-136.6015220000015
 20
-143.2200800715115
 30
0.0
 11
-136.6015220000015
 21
-156.0013850715119
 31
0.0
  0
ARC
  5
DA1D3
330
1E
100
AcDbEntity
  8
DETAIL
100
AcDbCircle
 10
-137.4007840003908
 20
-143.8195270203866
 30
0.0
 40
0.9990776901940819
100
AcDbArc
 50
36.86991215180081
 51
143.1301023764549
  0
ARC
  5
DA1D4
330
1E
100
AcDbEntity
  8
DETAIL
100
AcDbCircle
 10
-137.4007840771331
 20
-156.00163524034
 30
0.0
 40
0.7990115753689229
100
AcDbArc
 50
179.9820369403265
 51
359.9820369403265
  0
LINE
  5
DA1D5
330
1E
100
AcDbEntity
  8
DETAIL
100
AcDbLine
 10
-126.7967800000004
 20
-156.0018858206261
 30
0.0
 11
-126.7967800000004
 21
-143.2200800715115
 31
0.0
  0
LINE
  5
DA1D6
330
1E
100
AcDbEntity
  8
DETAIL
100
AcDbLine
 10
-125.198256000001
 20
-143.2200800715115
 30
0.0
 11
-125.198256000001
 21
-156.0013850715119
 31
0.0
  0
ARC
  5
DA1D7
330
1E
100
AcDbEntity
  8
DETAIL
100
AcDbCircle
 10
-125.9975180003906
 20
-143.8195270203866
 30
0.0
 40
0.9990776901940819
100
AcDbArc
 50
36.86991215180031
 51
143.1301023764554
  0
ARC
  5
DA1D8
330
1E
100
AcDbEntity
  8
DETAIL
100
AcDbCircle
 10
-125.9975180771325
 20
-156.00163524034
 30
0.0
 40
0.7990115753689229
100
AcDbArc
 50
179.9820369403265
 51
359.9820369403265
  0
LINE
  5
DA1D9
330
1E
100
AcDbEntity
  8
DETAIL
100
AcDbLine
 10
-115.4004040000006
 20
-156.0018858206261
 30
0.0
 11
-115.4004040000006
 21
-143.2200800715115
 31
0.0
  0
LINE
  5
DA1DA
330
1E
100
AcDbEntity
  8
DETAIL
100
AcDbLine
 10
-113.8018800000016
 20
-143.2200800715115
 30
0.0
 11
-113.8018800000016
 21
-156.0013850715119
 31
0.0
  0
ARC
  5
DA1DB
330
1E
100
AcDbEntity
  8
DETAIL
100
AcDbCircle
 10
-114.6011420003908
 20
-143.8195270203866
 30
0.0
 40
0.9990776901940819
100
AcDbArc
 50
36.86991215180031
 51
143.1301023764554
  0
ARC
  5
DA1DC
330
1E
100
AcDbEntity
  8
DETAIL
100
AcDbCircle
 10
-114.6011420771331
 20
-156.00163524034
 30
0.0
 40
0.7990115753689229
100
AcDbArc
 50
179.9820369403265
 51
359.9820369403265
  0
LINE
  5
DA1DD
330
1E
100
AcDbEntity
  8
DETAIL
100
AcDbLine
 10
-103.9971380000004
 20
-156.0018858206261
 30
0.0
 11
-103.9971380000004
 21
-143.2200800715115
 31
0.0
  0
LINE
  5
DA1DE
330
1E
100
AcDbEntity
  8
DETAIL
100
AcDbLine
 10
-102.3986140000012
 20
-143.2200800715115
 30
0.0
 11
-102.3986140000012
 21
-156.0013850715119
 31
0.0
  0
ARC
  5
DA1DF
330
1E
100
AcDbEntity
  8
DETAIL
100
AcDbCircle
 10
-103.1978760003906
 20
-143.8195270203866
 30
0.0
 40
0.9990776901940819
100
AcDbArc
 50
36.86991215180031
 51
143.1301023764554
  0
ARC
  5
DA1E0
330
1E
100
AcDbEntity
  8
DETAIL
100
AcDbCircle
 10
-103.1978760771327
 20
-156.00163524034
 30
0.0
 40
0.7990115753689229
100
AcDbArc
 50
179.9820369403265
 51
359.9820369403265
  0
LINE
  5
DA1E1
330
1E
100
AcDbEntity
  8
DETAIL
100
AcDbLine
 10
-92.6007620000003
 20
-156.0018858206261
 30
0.0
 11
-92.6007620000003
 21
-143.2200800715115
 31
0.0
  0
LINE
  5
DA1E2
330
1E
100
AcDbEntity
  8
DETAIL
100
AcDbLine
 10
-91.00223800000124
 20
-143.2200800715115
 30
0.0
 11
-91.00223800000124
 21
-156.0013850715119
 31
0.0
  0
ARC
  5
DA1E3
330
1E
100
AcDbEntity
  8
DETAIL
100
AcDbCircle
 10
-91.80150000039054
 20
-143.8195270203866
 30
0.0
 40
0.9990776901940819
100
AcDbArc
 50
36.86991215180031
 51
143.1301023764554
  0
ARC
  5
DA1E4
330
1E
100
AcDbEntity
  8
DETAIL
100
AcDbCircle
 10
-91.80150007713274
 20
-156.00163524034
 30
0.0
 40
0.7990115753689229
100
AcDbArc
 50
179.9820369403265
 51
359.9820369403265
  0
LINE
  5
DA1E5
330
1E
100
AcDbEntity
  8
DETAIL
100
AcDbLine
 10
-81.19749600000051
 20
-156.0018858206261
 30
0.0
 11
-81.19749600000051
 21
-143.2200800715115
 31
0.0
  0
LINE
  5
DA1E6
330
1E
100
AcDbEntity
  8
DETAIL
100
AcDbLine
 10
-79.59897200000142
 20
-143.2200800715115
 30
0.0
 11
-79.59897200000142
 21
-156.0013850715119
 31
0.0
  0
ARC
  5
DA1E7
330
1E
100
AcDbEntity
  8
DETAIL
100
AcDbCircle
 10
-80.39823400039074
 20
-143.8195270203866
 30
0.0
 40
0.9990776901940819
100
AcDbArc
 50
36.86991215180031
 51
143.1301023764554
  0
ARC
  5
DA1E8
330
1E
100
AcDbEntity
  8
DETAIL
100
AcDbCircle
 10
-80.39823407713294
 20
-156.00163524034
 30
0.0
 40
0.7990115753689229
100
AcDbArc
 50
179.9820369403265
 51
359.9820369403265
  0
LINE
  5
DA1E9
330
1E
100
AcDbEntity
  8
DETAIL
100
AcDbLine
 10
-69.80112000000037
 20
-156.0018858206261
 30
0.0
 11
-69.80112000000037
 21
-143.2200800715115
 31
0.0
  0
LINE
  5
DA1EA
330
1E
100
AcDbEntity
  8
DETAIL
100
AcDbLine
 10
-68.20259600000127
 20
-143.2200800715115
 30
0.0
 11
-68.20259600000127
 21
-156.0013850715119
 31
0.0
  0
ARC
  5
DA1EB
330
1E
100
AcDbEntity
  8
DETAIL
100
AcDbCircle
 10
-69.00185800039061
 20
-143.8195270203866
 30
0.0
 40
0.9990776901940819
100
AcDbArc
 50
36.86991215180031
 51
143.1301023764554
  0
ARC
  5
DA1EC
330
1E
100
AcDbEntity
  8
DETAIL
100
AcDbCircle
 10
-69.00185807713278
 20
-156.00163524034
 30
0.0
 40
0.7990115753689229
100
AcDbArc
 50
179.9820369403265
 51
359.9820369403265
  0
LINE
  5
DA1ED
330
1E
100
AcDbEntity
  8
DETAIL
100
AcDbLine
 10
-58.3978540000001
 20
-156.0018858206261
 30
0.0
 11
-58.3978540000001
 21
-143.2200800715115
 31
0.0
  0
LINE
  5
DA1EE
330
1E
100
AcDbEntity
  8
DETAIL
100
AcDbLine
 10
-56.79933000000102
 20
-143.2200800715115
 30
0.0
 11
-56.79933000000102
 21
-156.0013850715119
 31
0.0
  0
ARC
  5
DA1EF
330
1E
100
AcDbEntity
  8
DETAIL
100
AcDbCircle
 10
-57.59859200039032
 20
-143.8195270203866
 30
0.0
 40
0.9990776901940819
100
AcDbArc
 50
36.86991215180031
 51
143.1301023764554
  0
ARC
  5
DA1F0
330
1E
100
AcDbEntity
  8
DETAIL
100
AcDbCircle
 10
-57.59859207713254
 20
-156.00163524034
 30
0.0
 40
0.7990115753689229
100
AcDbArc
 50
179.9820369403265
 51
359.9820369403265
  0
LINE
  5
DA1F1
330
1E
100
AcDbEntity
  8
DETAIL
100
AcDbLine
 10
-46.99803300000013
 20
-156.0018858206261
 30
0.0
 11
-46.99803300000013
 21
-143.2200800715115
 31
0.0
  0
LINE
  5
DA1F2
330
1E
100
AcDbEntity
  8
DETAIL
100
AcDbLine
 10
-45.39950900000103
 20
-143.2200800715115
 30
0.0
 11
-45.39950900000103
 21
-156.0013850715119
 31
0.0
  0
ARC
  5
DA1F3
330
1E
100
AcDbEntity
  8
DETAIL
100
AcDbCircle
 10
-46.19877100039032
 20
-143.8195270203866
 30
0.0
 40
0.9990776901940819
100
AcDbArc
 50
36.86991215180031
 51
143.1301023764554
  0
ARC
  5
DA1F4
330
1E
100
AcDbEntity
  8
DETAIL
100
AcDbCircle
 10
-46.19877107713254
 20
-156.00163524034
 30
0.0
 40
0.7990115753689229
100
AcDbArc
 50
179.9820369403265
 51
359.9820369403265
  0
LINE
  5
DA1F5
330
1E
100
AcDbEntity
  8
DETAIL
100
AcDbLine
 10
-35.59821200000016
 20
-156.0018858206261
 30
0.0
 11
-35.59821200000016
 21
-143.2200800715115
 31
0.0
  0
LINE
  5
DA1F6
330
1E
100
AcDbEntity
  8
DETAIL
100
AcDbLine
 10
-33.99968800000106
 20
-143.2200800715115
 30
0.0
 11
-33.99968800000106
 21
-156.0013850715119
 31
0.0
  0
ARC
  5
DA1F7
330
1E
100
AcDbEntity
  8
DETAIL
100
AcDbCircle
 10
-34.79895000039039
 20
-143.8195270203866
 30
0.0
 40
0.9990776901940819
100
AcDbArc
 50
36.86991215180031
 51
143.1301023764554
  0
ARC
  5
DA1F8
330
1E
100
AcDbEntity
  8
DETAIL
100
AcDbCircle
 10
-34.7989500771326
 20
-156.00163524034
 30
0.0
 40
0.7990115753689229
100
AcDbArc
 50
179.9820369403265
 51
359.9820369403265
  0
LINE
  5
DA1F9
330
1E
100
AcDbEntity
  8
DETAIL
100
AcDbLine
 10
-24.19839100000019
 20
-156.0018858206261
 30
0.0
 11
-24.19839100000019
 21
-143.2200800715115
 31
0.0
  0
LINE
  5
DA1FA
330
1E
100
AcDbEntity
  8
DETAIL
100
AcDbLine
 10
-22.5998670000011
 20
-143.2200800715115
 30
0.0
 11
-22.5998670000011
 21
-156.0013850715119
 31
0.0
  0
ARC
  5
DA1FB
330
1E
100
AcDbEntity
  8
DETAIL
100
AcDbCircle
 10
-23.39912900039042
 20
-143.8195270203866
 30
0.0
 40
0.9990776901940819
100
AcDbArc
 50
36.86991215180031
 51
143.1301023764554
  0
ARC
  5
DA1FC
330
1E
100
AcDbEntity
  8
DETAIL
100
AcDbCircle
 10
-23.39912907713262
 20
-156.00163524034
 30
0.0
 40
0.7990115753689229
100
AcDbArc
 50
179.9820369403265
 51
359.9820369403265
  0
LINE
  5
DA1FD
330
1E
100
AcDbEntity
  8
DETAIL
100
AcDbLine
 10
-12.79857000000021
 20
-156.0018858206261
 30
0.0
 11
-12.79857000000021
 21
-143.2200800715115
 31
0.0
  0
LINE
  5
DA1FE
330
1E
100
AcDbEntity
  8
DETAIL
100
AcDbLine
 10
-11.20004600000112
 20
-143.2200800715115
 30
0.0
 11
-11.20004600000112
 21
-156.0013850715119
 31
0.0
  0
ARC
  5
DA1FF
330
1E
100
AcDbEntity
  8
DETAIL
100
AcDbCircle
 10
-11.99930800039044
 20
-143.8195270203866
 30
0.0
 40
0.9990776901940819
100
AcDbArc
 50
36.86991215180031
 51
143.1301023764554
  0
ARC
  5
DA200
330
1E
100
AcDbEntity
  8
DETAIL
100
AcDbCircle
 10
-11.99930807713264
 20
-156.00163524034
 30
0.0
 40
0.7990115753689229
100
AcDbArc
 50
179.9820369403265
 51
359.9820369403265
  0
LINE
  5
DA201
330
1E
100
AcDbEntity
  8
DETAIL
100
AcDbLine
 10
-1.398749000000235
 20
-156.0018858206261
 30
0.0
 11
-1.398749000000235
 21
-143.2200800715115
 31
0.0
  0
LINE
  5
DA202
330
1E
100
AcDbEntity
  8
DETAIL
100
AcDbLine
 10
0.1997749999988514
 20
-143.2200800715115
 30
0.0
 11
0.1997749999988514
 21
-156.0013850715119
 31
0.0
  0
ARC
  5
DA203
330
1E
100
AcDbEntity
  8
DETAIL
100
AcDbCircle
 10
-0.599487000390468
 20
-143.8195270203866
 30
0.0
 40
0.9990776901940819
100
AcDbArc
 50
36.86991215180129
 51
143.1301023764554
  0
ARC
  5
DA204
330
1E
100
AcDbEntity
  8
DETAIL
100
AcDbCircle
 10
-0.5994870771326646
 20
-156.00163524034
 30
0.0
 40
0.7990115753689229
100
AcDbArc
 50
179.9820369403265
 51
359.9820369403265
  0
LINE
  5
DA205
330
1E
100
AcDbEntity
  8
DETAIL
100
AcDbLine
 10
10.00107199999974
 20
-156.0018858206263
 30
0.0
 11
10.00107199999974
 21
-143.2200800715115
 31
0.0
  0
LINE
  5
DA206
330
1E
100
AcDbEntity
  8
DETAIL
100
AcDbLine
 10
11.59959599999882
 20
-143.2200800715115
 30
0.0
 11
11.59959599999882
 21
-156.0013850715119
 31
0.0
  0
ARC
  5
DA207
330
1E
100
AcDbEntity
  8
DETAIL
100
AcDbCircle
 10
10.8003339996095
 20
-143.8195270203866
 30
0.0
 40
0.9990776901940819
100
AcDbArc
 50
36.86991215180129
 51
143.1301023764554
  0
ARC
  5
DA208
330
1E
100
AcDbEntity
  8
DETAIL
100
AcDbCircle
 10
10.80033392286731
 20
-156.00163524034
 30
0.0
 40
0.7990115753689229
100
AcDbArc
 50
179.9820369403265
 51
359.9820369403265
  0
LINE
  5
DA209
330
1E
100
AcDbEntity
  8
DETAIL
100
AcDbLine
 10
21.40089299999971
 20
-156.0018858206261
 30
0.0
 11
21.40089299999971
 21
-143.2200800715115
 31
0.0
  0
LINE
  5
DA20A
330
1E
100
AcDbEntity
  8
DETAIL
100
AcDbLine
 10
22.9994169999988
 20
-143.2200800715115
 30
0.0
 11
22.9994169999988
 21
-156.0013850715119
 31
0.0
  0
ARC
  5
DA20B
330
1E
100
AcDbEntity
  8
DETAIL
100
AcDbCircle
 10
22.20015499960948
 20
-143.8195270203866
 30
0.0
 40
0.9990776901940819
100
AcDbArc
 50
36.86991215180129
 51
143.1301023764554
  0
ARC
  5
DA20C
330
1E
100
AcDbEntity
  8
DETAIL
100
AcDbCircle
 10
22.20015492286729
 20
-156.00163524034
 30
0.0
 40
0.7990115753689229
100
AcDbArc
 50
179.9820369403265
 51
359.9820369403265
  0
LINE
  5
DA20D
330
1E
100
AcDbEntity
  8
DETAIL
100
AcDbLine
 10
32.80071399999969
 20
-156.0018858206261
 30
0.0
 11
32.80071399999969
 21
-143.2200800715115
 31
0.0
  0
LINE
  5
DA20E
330
1E
100
AcDbEntity
  8
DETAIL
100
AcDbLine
 10
34.39923799999878
 20
-143.2200800715115
 30
0.0
 11
34.39923799999878
 21
-156.0013850715119
 31
0.0
  0
ARC
  5
DA20F
330
1E
100
AcDbEntity
  8
DETAIL
100
AcDbCircle
 10
33.59997599960947
 20
-143.8195270203866
 30
0.0
 40
0.9990776901940819
100
AcDbArc
 50
36.86991215180129
 51
143.1301023764554
  0
ARC
  5
DA210
330
1E
100
AcDbEntity
  8
DETAIL
100
AcDbCircle
 10
33.59997592286726
 20
-156.00163524034
 30
0.0
 40
0.7990115753689229
100
AcDbArc
 50
179.9820369403265
 51
359.9820369403265
  0
LINE
  5
DA211
330
1E
100
AcDbEntity
  8
DETAIL
100
AcDbLine
 10
44.20053499999965
 20
-156.0018858206261
 30
0.0
 11
44.20053499999965
 21
-143.2200800715115
 31
0.0
  0
LINE
  5
DA212
330
1E
100
AcDbEntity
  8
DETAIL
100
AcDbLine
 10
45.79905899999874
 20
-143.2200800715115
 30
0.0
 11
45.79905899999874
 21
-156.0013850715119
 31
0.0
  0
ARC
  5
DA213
330
1E
100
AcDbEntity
  8
DETAIL
100
AcDbCircle
 10
44.99979699960943
 20
-143.8195270203866
 30
0.0
 40
0.9990776901940819
100
AcDbArc
 50
36.86991215180129
 51
143.1301023764554
  0
ARC
  5
DA214
330
1E
100
AcDbEntity
  8
DETAIL
100
AcDbCircle
 10
44.99979692286721
 20
-156.00163524034
 30
0.0
 40
0.7990115753689229
100
AcDbArc
 50
179.9820369403265
 51
359.9820369403265
  0
LINE
  5
DA215
330
1E
100
AcDbEntity
  8
DETAIL
100
AcDbLine
 10
55.60035599999963
 20
-156.0018858206261
 30
0.0
 11
55.60035599999963
 21
-143.2200800715115
 31
0.0
  0
LINE
  5
DA216
330
1E
100
AcDbEntity
  8
DETAIL
100
AcDbLine
 10
57.19887999999873
 20
-143.2200800715115
 30
0.0
 11
57.19887999999873
 21
-156.0013850715119
 31
0.0
  0
ARC
  5
DA217
330
1E
100
AcDbEntity
  8
DETAIL
100
AcDbCircle
 10
56.39961799960939
 20
-143.8195270203866
 30
0.0
 40
0.9990776901940819
100
AcDbArc
 50
36.86991215180129
 51
143.1301023764554
  0
ARC
  5
DA218
330
1E
100
AcDbEntity
  8
DETAIL
100
AcDbCircle
 10
56.39961792286719
 20
-156.00163524034
 30
0.0
 40
0.7990115753689229
100
AcDbArc
 50
179.9820369403265
 51
359.9820369403265
  0
LINE
  5
DA219
330
1E
100
AcDbEntity
  8
DETAIL
100
AcDbLine
 10
67.0036219999999
 20
-156.0018858206261
 30
0.0
 11
67.0036219999999
 21
-143.2200800715115
 31
0.0
  0
LINE
  5
DA21A
330
1E
100
AcDbEntity
  8
DETAIL
100
AcDbLine
 10
68.60214599999898
 20
-143.2200800715115
 30
0.0
 11
68.60214599999898
 21
-156.0013850715119
 31
0.0
  0
ARC
  5
DA21B
330
1E
100
AcDbEntity
  8
DETAIL
100
AcDbCircle
 10
67.80288399960965
 20
-143.8195270203865
 30
0.0
 40
0.9990776901940819
100
AcDbArc
 50
36.86991215180129
 51
143.1301023764554
  0
ARC
  5
DA21C
330
1E
100
AcDbEntity
  8
DETAIL
100
AcDbCircle
 10
67.80288392286746
 20
-156.00163524034
 30
0.0
 40
0.7990115753689229
100
AcDbArc
 50
179.9820369403265
 51
359.9820369403265
  0
LINE
  5
DA21D
330
1E
100
AcDbEntity
  8
DETAIL
100
AcDbLine
 10
78.39999799999958
 20
-156.0018858206261
 30
0.0
 11
78.39999799999958
 21
-143.2200800715115
 31
0.0
  0
LINE
  5
DA21E
330
1E
100
AcDbEntity
  8
DETAIL
100
AcDbLine
 10
79.99852199999867
 20
-143.2200800715115
 30
0.0
 11
79.99852199999867
 21
-156.0013850715119
 31
0.0
  0
ARC
  5
DA21F
330
1E
100
AcDbEntity
  8
DETAIL
100
AcDbCircle
 10
79.19925999960935
 20
-143.8195270203866
 30
0.0
 40
0.9990776901940819
100
AcDbArc
 50
36.86991215180129
 51
143.1301023764554
  0
ARC
  5
DA220
330
1E
100
AcDbEntity
  8
DETAIL
100
AcDbCircle
 10
79.19925992286714
 20
-156.00163524034
 30
0.0
 40
0.7990115753689229
100
AcDbArc
 50
179.9820369403265
 51
359.9820369403265
  0
LINE
  5
DA221
330
1E
100
AcDbEntity
  8
DETAIL
100
AcDbLine
 10
89.80326399999983
 20
-156.0018858206261
 30
0.0
 11
89.80326399999983
 21
-143.2200800715115
 31
0.0
  0
LINE
  5
DA222
330
1E
100
AcDbEntity
  8
DETAIL
100
AcDbLine
 10
91.40178799999892
 20
-143.2200800715115
 30
0.0
 11
91.40178799999892
 21
-156.0013850715119
 31
0.0
  0
ARC
  5
DA223
330
1E
100
AcDbEntity
  8
DETAIL
100
AcDbCircle
 10
90.60252599960959
 20
-143.8195270203866
 30
0.0
 40
0.9990776901940819
100
AcDbArc
 50
36.86991215180129
 51
143.1301023764554
  0
ARC
  5
DA224
330
1E
100
AcDbEntity
  8
DETAIL
100
AcDbCircle
 10
90.60252592286742
 20
-156.00163524034
 30
0.0
 40
0.7990115753689229
100
AcDbArc
 50
179.9820369403265
 51
359.9820369403265
  0
LINE
  5
DA225
330
1E
100
AcDbEntity
  8
DETAIL
100
AcDbLine
 10
101.1996399999998
 20
-156.0018858206261
 30
0.0
 11
101.1996399999998
 21
-143.2200800715115
 31
0.0
  0
LINE
  5
DA226
330
1E
100
AcDbEntity
  8
DETAIL
100
AcDbLine
 10
102.7981639999989
 20
-143.2200800715115
 30
0.0
 11
102.7981639999989
 21
-156.0013850715119
 31
0.0
  0
ARC
  5
DA227
330
1E
100
AcDbEntity
  8
DETAIL
100
AcDbCircle
 10
101.9989019996095
 20
-143.8195270203866
 30
0.0
 40
0.9990776901940819
100
AcDbArc
 50
36.86991215180129
 51
143.1301023764554
  0
ARC
  5
DA228
330
1E
100
AcDbEntity
  8
DETAIL
100
AcDbCircle
 10
101.9989019228673
 20
-156.00163524034
 30
0.0
 40
0.7990115753689229
100
AcDbArc
 50
179.9820369403265
 51
359.9820369403265
  0
LINE
  5
DA229
330
1E
100
AcDbEntity
  8
DETAIL
100
AcDbLine
 10
112.6029059999997
 20
-156.0018858206261
 30
0.0
 11
112.6029059999997
 21
-143.2200800715115
 31
0.0
  0
LINE
  5
DA22A
330
1E
100
AcDbEntity
  8
DETAIL
100
AcDbLine
 10
114.2014299999988
 20
-143.2200800715115
 30
0.0
 11
114.2014299999988
 21
-156.0013850715119
 31
0.0
  0
ARC
  5
DA22B
330
1E
100
AcDbEntity
  8
DETAIL
100
AcDbCircle
 10
113.4021679996094
 20
-143.8195270203866
 30
0.0
 40
0.9990776901940819
100
AcDbArc
 50
36.86991215180129
 51
143.1301023764554
  0
ARC
  5
DA22C
330
1E
100
AcDbEntity
  8
DETAIL
100
AcDbCircle
 10
113.4021679228673
 20
-156.00163524034
 30
0.0
 40
0.7990115753689229
100
AcDbArc
 50
179.9820369403265
 51
359.9820369403265
  0
ARC
  5
DA22D
330
1E
100
AcDbEntity
  8
DETAIL
100
AcDbCircle
 10
410.1929652800976
 20
-30.34195217452924
 30
0.0
 40
51.80703472539999
100
AcDbArc
 50
273.0985752750903
 51
359.9991653057624
  0
ARC
  5
DA231
330
1E
100
AcDbEntity
  8
DETAIL
100
AcDbCircle
 10
456.9524739999998
 20
27.00394199844579
 30
0.0
 40
0.5
100
AcDbArc
 50
0.0
 51
88.95414942689541
  0
ARC
  5
DA232
330
1E
100
AcDbEntity
  8
DETAIL
100
AcDbCircle
 10
457.9524739999998
 20
23.49407028429484
 30
0.0
 40
0.5
100
AcDbArc
 50
180.0
 51
267.9701277985651
  0
ARC
  5
DA233
330
1E
100
AcDbEntity
  8
DETAIL
100
AcDbCircle
 10
459.0
 20
19.9547454034035
 30
0.0
 40
3.0
100
AcDbArc
 50
0.0
 51
87.97012779856514
  0
ARC
  5
DA634
330
1E
100
AcDbEntity
  8
DETAIL
100
AcDbCircle
 10
127.6927803952959
 20
-150.5018450715121
 30
0.0
 40
5.0
100
AcDbArc
 50
270.0
 51
309.0360074779053
  0
DIMENSION
  5
DAA03
330
1E
100
AcDbEntity
  8
SIZE
100
AcDbDimension
280
     0
  2
*D14
 10
1150.000000000013
 20
-174.9999999999999
 30
0.0
 11
1117.500000000013
 21
-2.50000000000018
 31
0.0
 70
    32
 71
     5
 42
345.0000000000001
 73
     0
 74
     0
 75
     0
  3
STANDARD
100
AcDbAlignedDimension
 13
262.499999999986
 23
170.0
 33
0.0
 14
250.0
 24
-175.0
 34
0.0
 50
90.0
100
AcDbRotatedDimension
1001
ACAD
1000
DSTYLE
1002
{
1070
   271
1070
     7
1002
}
  0
DIMENSION
  5
DAAC7
330
1E
100
AcDbEntity
  8
SIZE
100
AcDbDimension
280
     0
  2
*D15
 10
270.0
 20
-492.4999999999998
 30
0.0
 11
173.5714285714285
 21
-492.4999999999998
 31
0.0
 70
   160
 71
     5
 42
40.0
 73
     0
 74
     0
 75
     0
  3
STANDARD
100
AcDbAlignedDimension
 13
230.0
 23
-163.2752232704716
 33
0.0
 14
270.0
 24
-163.2752232704716
 34
0.0
100
AcDbRotatedDimension
1001
ACAD
1000
DSTYLE
1002
{
1070
   271
1070
     8
1002
}
  0
TEXT
  5
DAB42
330
1E
100
AcDbEntity
  8
NOTE
100
AcDbText
 10
-300.5089455269638
 20
-316.1385515468364
 30
0.0
 40
45.0
  1
吹出方向
 41
0.9
100
AcDbText
  0
TEXT
  5
DAB43
330
1E
100
AcDbEntity
  8
NOTE
100
AcDbText
 10
-710.9595605848225
 20
2.865925719116147
 30
0.0
 40
45.0
  1
吸込方向
 41
0.9
100
AcDbText
  0
TEXT
  5
DAB44
330
1E
100
AcDbEntity
  8
NOTE
100
AcDbText
 10
-126.3376827701914
 20
363.12011918298
 30
0.0
 40
45.0
  1
吸込方向
 41
0.9
100
AcDbText
  0
LINE
  5
DAB4E
330
1E
100
AcDbEntity
  8
NOTE
100
AcDbLine
 10
-34.0
 20
94.50000000000001
 30
0.0
 11
34.0
 21
94.50000000000001
 31
0.0
  0
ARC
  5
DAB4F
330
1E
100
AcDbEntity
  8
DETAIL
100
AcDbCircle
 10
0.0
 20
94.50000000000001
 30
0.0
 40
16.5
100
AcDbArc
 50
89.99999999999767
 51
89.99990638015542
  0
TEXT
  5
DAB61
330
1E
100
AcDbEntity
  8
NOTE
100
AcDbText
 10
-822.5688240996973
 20
561.1347283631958
 30
0.0
 40
45.0
  1
AH 2XUcut
100
AcDbText
  0
TEXT
  5
DAB62
330
1E
100
AcDbEntity
  8
NOTE
100
AcDbText
 10
340.9156860942912
 20
373.2188447655595
 30
0.0
 40
45.0
  1
Dφ33
 41
0.9
100
AcDbText
  0
LINE
  5
DAB63
330
1E
100
AcDbEntity
  8
NOTE
100
AcDbLine
 10
338.2860216528062
 20
359.3012017269198
 30
0.0
 11
518.8834634523407
 21
359.3012017269198
 31
0.0
  0
LINE
  5
DAB64
330
1E
100
AcDbEntity
  8
NOTE
100
AcDbLine
 10
12.1611237672472
 20
105.6515500589692
 30
0.0
 11
338.2860216528062
 21
359.3012017269198
 31
0.0
  0
LINE
  5
DAB65
330
1E
100
AcDbEntity
  8
NOTE
100
AcDbLine
 10
50.66206208074579
 20
120.9012247589364
 30
0.0
 11
12.1611237672472
 21
105.6515500589692
 31
0.0
  0
LINE
  5
DAB66
330
1E
100
AcDbEntity
  8
NOTE
100
AcDbLine
 10
12.1611237672472
 20
105.6515500589692
 30
0.0
 11
37.87907721353347
 21
138.1086247886685
 31
0.0
  0
LINE
  5
DAB67
330
1E
100
AcDbEntity
  8
NOTE
100
AcDbLine
 10
-487.1459103746126
 20
543.1420860878825
 30
0.0
 11
-836.8324147035691
 21
543.1420860878825
 31
0.0
  0
TEXT
  5
DAB6B
330
1E
100
AcDbEntity
  8
NOTE
100
AcDbText
 10
-801.9690344207448
 20
477.5369707446497
 30
0.0
 40
45.0
  1
(基礎ボルト M8)
 41
0.7
 11
-801.9690344207448
 21
522.5369707446496
 31
0.0
100
AcDbText
 73
     3
  0
LINE
  5
DAB88
330
1E
100
AcDbEntity
  8
BASIS
100
AcDbLine
 10
-97.0
 20
-100.0
 30
0.0
 11
-97.0
 21
-200.0
 31
0.0
  0
TEXT
  5
DACF6
330
1E
100
AcDbEntity
  8
SIZE
100
AcDbText
 10
-136.6167641278827
 20
621.0615647386305
 30
0.0
 40
45.0
  1
ボルトピッチ
 50
0.0000025044687019
 41
0.9
100
AcDbText
  0
ARC
  5
DAD3F
330
1E
100
AcDbEntity
  8
DETAIL
100
AcDbCircle
 10
-413.3
 20
25.89827086819764
 30
0.0
 40
12.0
100
AcDbArc
 50
106.8506002992124
 51
180.0
  0
ARC
  5
DAD40
330
1E
100
AcDbEntity
  8
DETAIL
100
AcDbCircle
 10
-413.3
 20
-25.80706174864125
 30
0.0
 40
12.0
100
AcDbArc
 50
180.0
 51
252.917175061791
  0
DIMENSION
  5
DADC2
330
1E
100
AcDbEntity
  8
SIZE
100
AcDbDimension
280
     0
  2
*D16
 10
-399.9997416059038
 20
-592.4999999999998
 30
0.0
 11
-248.4998708029519
 21
-559.9999999999997
 31
0.0
 70
    32
 71
     5
 42
302.9997416059037
 73
     0
 74
     0
 75
     0
  3
STANDARD
100
AcDbAlignedDimension
 13
-97.0
 23
-200.0
 33
0.0
 14
-399.9997416059037
 24
-122.5
 34
0.0
100
AcDbRotatedDimension
  0
CIRCLE
  5
DAE52
330
1E
100
AcDbEntity
  8
FIX
100
AcDbCircle
 10
250.0
 20
-157.0
 30
0.0
 40
5.0
  0
CIRCLE
  5
DAE53
330
1E
100
AcDbEntity
  8
FIX
100
AcDbCircle
 10
-250.0
 20
-157.5
 30
0.0
 40
5.0
  0
CIRCLE
  5
DAE54
330
1E
100
AcDbEntity
  8
FIX
100
AcDbCircle
 10
-250.0
 20
162.4999999999999
 30
0.0
 40
5.0
  0
CIRCLE
  5
DAE55
330
1E
100
AcDbEntity
  8
FIX
100
AcDbCircle
 10
250.0
 20
162.4999999999999
 30
0.0
 40
5.0
  0
LINE
  5
DAE61
330
1E
100
AcDbEntity
  8
NOTE
100
AcDbLine
 10
925.0018182178136
 20
-443.0018181920297
 30
0.0
 11
1278.298488979733
 21
-443.0018181920297
 31
0.0
  0
LINE
  5
DAE62
330
1E
100
AcDbEntity
  8
NOTE
100
AcDbLine
 10
750.0
 20
-235.2720207622064
 30
0.0
 11
925.0018182178136
 21
-443.0018181920297
 31
0.0
  0
LINE
  5
DAE63
330
1E
100
AcDbEntity
  8
NOTE
100
AcDbLine
 10
767.5746828260537
 20
-272.7687586608324
 30
0.0
 11
750.0
 21
-235.2720207622064
 31
0.0
  0
LINE
  5
DAE64
330
1E
100
AcDbEntity
  8
NOTE
100
AcDbLine
 10
750.0
 20
-235.2720207622064
 30
0.0
 11
783.9684906326782
 21
-258.9578070825358
 31
0.0
  0
TEXT
  5
DAE65
330
1E
100
AcDbEntity
  8
NOTE
100
AcDbText
 10
933.7859608373383
 20
-432.7995527673507
 30
0.0
 40
45.0
  1
設置必要スペ－ス
 50
359.9999974955313
 41
0.8
100
AcDbText
  0
TEXT
  5
DAEAE
330
1E
100
AcDbEntity
  8
SIZE
100
AcDbText
 10
985.8562136180587
 20
-127.9373924663507
 30
0.0
 40
45.0
  1
ボルトピッチ
 50
90.00000250446868
 41
0.9
100
AcDbText
  0
DIMENSION
  5
DAEAF
330
1E
100
AcDbEntity
  8
SIZE
100
AcDbDimension
280
     0
  2
*D17
 10
429.0
 20
-492.4999999999998
 30
0.0
 11
513.029352219597
 21
-492.4999999999998
 31
0.0
 70
   160
 71
     5
 42
29.0
 73
     0
 74
     0
 75
     0
  3
STANDARD
100
AcDbAlignedDimension
 13
400.0
 23
-109.6573052144613
 33
0.0
 14
429.0
 24
-72.32375423215856
 34
0.0
100
AcDbRotatedDimension
1001
ACAD
1000
DSTYLE
1002
{
1070
   271
1070
     5
1002
}
  0
MTEXT
  5
DB055
330
1E
100
AcDbEntity
  8
NOTE
100
AcDbMText
 10
-833.0341689494709
 20
-364.7415109099563
 30
0.0
 40
45.0
 41
445.2929256957268
 46
0.0
 71
     1
 72
     5
  1
AH\P2X10X21
 73
     1
 44
1.0
1001
ACAD
1000
ACAD_MTEXT_COLUMN_INFO_BEGIN
1070
    75
1070
     2
1070
    79
1070
     0
1070
    76
1070
     1
1070
    78
1070
     0
1070
    48
1040
445.2929256957268
1070
    49
1040
320.0
1070
    50
1070
     1
1040
178.4358242355259
1000
ACAD_MTEXT_COLUMN_INFO_END
  0
LINE
  5
DB056
330
1E
100
AcDbEntity
  8
NOTE
100
AcDbLine
 10
-556.7252063863925
 20
-494.3732620432382
 30
0.0
 11
-879.6852994494091
 21
-494.3732620432382
 31
0.0
  0
TEXT
  5
DB057
330
1E
100
AcDbEntity
  8
NOTE
100
AcDbText
 10
-862.4064407100814
 20
-558.8253489891521
 30
0.0
 40
45.0
  1
(基礎ボルト M8)
 41
0.7
 11
-862.4064407100814
 21
-513.8253489891521
 31
0.0
100
AcDbText
 73
     3
  0
MTEXT
  5
DB05C
330
1E
100
AcDbEntity
  8
NOTE
100
AcDbMText
 10
-557.1752063863922
 20
-449.3732620432382
 30
0.0
 40
45.0
 41
0.0
 46
0.0
 71
     3
 72
     5
  1

 73
     1
 44
1.0
  0
LWPOLYLINE
  5
DB05E
330
1E
100
AcDbEntity
  8
NOTE
100
AcDbPolyline
 90
        2
 70
     0
 43
0.0
 10
-254.9769897596779
 20
-162.9661786530398
 10
-556.7252063863925
 20
-494.3732620432382
  0
LINE
  5
DB061
330
1E
100
AcDbEntity
  8
NOTE
100
AcDbLine
 10
-289.8318811745294
 20
-185.3271127554775
 30
0.0
 11
-254.9769897596779
 21
-162.9661786530398
 31
0.0
  0
LINE
  5
DB062
330
1E
100
AcDbEntity
  8
NOTE
100
AcDbLine
 10
-254.9769897596779
 20
-162.9661786530398
 30
0.0
 11
-273.9817442867795
 21
-199.7587612593106
 31
0.0
  0
MTEXT
  5
DB064
330
1E
100
AcDbEntity
  8
NOTE
100
AcDbMText
 10
-487.5959103746128
 20
588.1420860878825
 30
0.0
 40
45.0
 41
0.0
 46
0.0
 71
     3
 72
     5
  1

 73
     1
 44
1.0
  0
LWPOLYLINE
  5
DB066
330
1E
100
AcDbEntity
  8
NOTE
100
AcDbPolyline
 90
        2
 70
     0
 43
0.0
 10
-250.0
 20
162.4999999999999
 10
-487.1459103746126
 20
543.1420860878825
  0
LINE
  5
DB069
330
1E
100
AcDbEntity
  8
NOTE
100
AcDbLine
 10
-262.0545637594724
 20
202.1177021297735
 30
0.0
 11
-250.0
 21
162.5
 31
0.0
  0
LINE
  5
DB06A
330
1E
100
AcDbEntity
  8
NOTE
100
AcDbLine
 10
-250.0
 20
162.5
 30
0.0
 11
-280.2484093838239
 21
190.7826547414355
 31
0.0
  0
MTEXT
  5
DB06C
330
1E
100
AcDbEntity
  8
NOTE
100
AcDbMText
 10
688.3524372835052
 20
376.6229773444943
 30
0.0
 40
45.0
 41
0.0
 46
0.0
 71
     1
 72
     5
  1

 73
     1
 44
1.0
  0
LWPOLYLINE
  5
DB06E
330
1E
100
AcDbEntity
  8
NOTE
100
AcDbPolyline
 90
        3
 70
     0
 43
0.0
 10
429.0
 20
-8.5
 10
693.4225266187601
 20
359.3012017269198
 10
1018.873030264001
 20
359.3012017269193
  0
LINE
  5
DB071
330
1E
100
AcDbEntity
  8
NOTE
100
AcDbLine
 10
461.0516712603016
 20
17.72146446894584
 30
0.0
 11
429.0
 21
-8.5
 31
0.0
  0
LINE
  5
DB072
330
1E
100
AcDbEntity
  8
NOTE
100
AcDbLine
 10
429.0
 20
-8.5
 30
0.0
 11
443.6468294864154
 21
30.23428991824318
 31
0.0
  0
LINE
  5
DB497
330
1E
100
AcDbEntity
  8
DETAIL
100
AcDbLine
 10
270.0000000000002
 20
142.0085301112576
 30
0.0
 11
271.035956999999
 21
142.0085301112576
 31
0.0
  0
LINE
  5
DB498
330
1E
100
AcDbEntity
  8
DETAIL
100
AcDbLine
 10
270.0000000000001
 20
141.0094521112577
 30
0.0
 11
388.4975989970266
 21
141.0094521112578
 31
0.0
  0
LINE
  5
DB499
330
1E
100
AcDbEntity
  8
DETAIL
100
AcDbLine
 10
270.0000000000001
 20
-142.5
 30
0.0
 11
380.486640999999
 21
-142.5
 31
0.0
  0
LINE
  5
DB49A
330
1E
100
AcDbEntity
  8
DETAIL
100
AcDbLine
 10
230.0
 20
-140.992284007289
 30
0.0
 11
-229.999999981837
 21
-140.9922846721484
 31
0.0
  0
LINE
  5
DB49E
330
1E
100
AcDbEntity
  8
DETAIL
100
AcDbLine
 10
-254.9999999999998
 20
-151.4999524967316
 30
0.0
 11
-254.9999999999998
 21
-162.5000475104036
 31
0.0
  0
LINE
  5
DB49F
330
1E
100
AcDbEntity
  8
DETAIL
100
AcDbLine
 10
-244.9999999999999
 20
-162.5000475032684
 30
0.0
 11
-244.9999999999999
 21
-151.4999524967316
 31
0.0
  0
ARC
  5
DB4A0
330
1E
100
AcDbEntity
  8
DETAIL
100
AcDbCircle
 10
-249.9999999999997
 20
-151.5000475104036
 30
0.0
 40
4.999999999999943
100
AcDbArc
 50
0.0000000817641731
 51
180.0
  0
LINE
  5
DB4A1
330
1E
100
AcDbEntity
  8
DETAIL
100
AcDbLine
 10
-229.999999751987
 20
141.0094521112574
 30
0.0
 11
230.0
 21
141.0094521112577
 31
0.0
  0
LINE
  5
DB4A2
330
1E
100
AcDbEntity
  8
DETAIL
100
AcDbLine
 10
-229.9999997511727
 20
142.0085301112576
 30
0.0
 11
230.0
 21
142.0085301112575
 31
0.0
  0
LINE
  5
DB4A3
330
1E
100
AcDbEntity
  8
DETAIL
100
AcDbLine
 10
-229.9999999830658
 20
-142.5
 30
0.0
 11
230.0
 21
-142.5
 31
0.0
  0
LINE
  5
DB4A4
330
1E
100
AcDbEntity
  8
DETAIL
100
AcDbLine
 10
-270.0
 20
-140.9922847299623
 30
0.0
 11
-380.5011259739853
 21
-140.9922848896747
 31
0.0
  0
LINE
  5
DB4A5
330
1E
100
AcDbEntity
  8
DETAIL
100
AcDbLine
 10
-250.5997310000011
 20
-146.5361455444461
 30
0.0
 11
-250.5997310000011
 21
-156.0013850715119
 31
0.0
  0
DIMENSION
  5
DB69B
330
1E
100
AcDbEntity
  8
SIZE
100
AcDbDimension
280
     0
  2
*D18
 10
-780.9156058372119
 20
-142.5000000000001
 30
0.0
 11
-780.9156058372117
 21
-219.642857142857
 31
0.0
 70
   160
 71
     5
 42
15.00000000000003
 73
     0
 74
     0
 75
     0
  3
STANDARD
100
AcDbAlignedDimension
 13
-318.8389091140956
 23
-157.5
 33
0.0
 14
-379.9997416059039
 24
-142.5
 34
0.0
 50
90.0
100
AcDbRotatedDimension
  0
DIMENSION
  5
DB6C0
330
1E
100
AcDbEntity
  8
SIZE
100
AcDbDimension
280
     0
  2
*D19
 10
-780.9156058372114
 20
142.5
 30
0.0
 11
-780.9156058372113
 21
38.0714285714287
 31
0.0
 70
   160
 71
     5
 42
48.00000000000008
 73
     0
 74
     0
 75
     0
  3
STANDARD
100
AcDbAlignedDimension
 13
-33.3621153969234
 23
94.50000000000001
 33
0.0
 14
-387.9999999999999
 24
142.5
 34
0.0
 50
90.0
100
AcDbRotatedDimension
  0
LINE
  5
DBA3B
330
1E
100
AcDbEntity
  8
NOTE
100
AcDbLine
 10
385.1762457678415
 20
-8.5
 30
0.0
 11
472.8237542321584
 21
-8.5
 31
0.0
  0
LINE
  5
DC28B
330
1E
100
AcDbEntity
  8
OUTLINE
100
AcDbLine
 10
326.250501999999
 20
141.6157881112576
 30
0.0
 11
325.7413650033212
 21
141.0094521112577
 31
0.0
  0
LINE
  5
DC28C
330
1E
100
AcDbEntity
  8
OUTLINE
100
AcDbLine
 10
388.0000000000002
 20
142.5000000000001
 30
0.0
 11
328.1659749999988
 21
142.5
 31
0.0
  0
ARC
  5
DC28D
330
1E
100
AcDbEntity
  8
OUTLINE
100
AcDbCircle
 10
388.0
 20
130.5000000000001
 30
0.0
 40
12.0
100
AcDbArc
 50
0.0000002201526008
 51
90.0
  0
SPLINE
  5
DC28E
330
1E
100
AcDbEntity
  8
OUTLINE
100
AcDbSpline
210
0.0
220
0.0
230
1.0
 70
     8
 71
     3
 72
     8
 73
     4
 74
     0
 42
0.00000001
 43
0.0000000001
 40
0.0
 40
0.0
 40
0.0
 40
0.0
 40
1.0
 40
1.0
 40
1.0
 40
1.0
 10
328.1659749999986
 20
142.5
 30
0.0
 10
327.4252794704852
 20
142.5
 30
0.0
 10
326.7259250868045
 20
142.1727159288194
 30
0.0
 10
326.2505019097215
 20
141.6077202690977
 30
0.0
  0
SPLINE
  5
DC28F
330
1E
100
AcDbEntity
  8
OUTLINE
100
AcDbSpline
210
0.0
220
0.0
230
1.0
 70
     8
 71
     3
 72
    11
 73
     7
 74
     0
 42
0.00000001
 43
0.0000000001
 40
0.0
 40
0.0
 40
0.0
 40
0.0
 40
1.0
 40
1.0
 40
1.0
 40
2.0
 40
2.0
 40
2.0
 40
2.0
 10
399.9996610772559
 20
-92.99176902849927
 30
0.0
 10
401.1020916328111
 20
-92.99176902849927
 30
0.0
 10
401.9978164592003
 20
-92.09604420211055
 30
0.0
 10
401.9978164592003
 20
-90.99016855106865
 30
0.0
 10
401.9978164592003
 20
-90.99016855106865
 30
0.0
 10
401.9978164592003
 20
-90.99016855106865
 30
0.0
 10
401.9978164592003
 20
-90.99016855106865
 30
0.0
  0
LINE
  5
DC290
330
1E
100
AcDbEntity
  8
OUTLINE
100
AcDbLine
 10
401.9978164592003
 20
-82.42930336591291
 30
0.0
 11
410.7452760525208
 21
-82.14604274515371
 31
0.0
  0
LINE
  5
DC291
330
1E
100
AcDbEntity
  8
OUTLINE
100
AcDbLine
 10
456.9616002611731
 20
27.50385870286462
 30
0.0
 11
400.0
 21
28.54712981659581
 31
0.0
  0
LINE
  5
DC292
330
1E
100
AcDbEntity
  8
OUTLINE
100
AcDbLine
 10
459.1062616278057
 20
22.9528628905037
 30
0.0
 11
457.9347637286987
 21
22.99438403644481
 31
0.0
  0
ARC
  5
DC293
330
1E
100
AcDbEntity
  8
OUTLINE
100
AcDbCircle
 10
457.9524739999991
 20
23.49407028429485
 30
0.0
 40
0.5
100
AcDbArc
 50
180.0
 51
267.9701277985677
  0
LINE
  5
DC294
330
1E
100
AcDbEntity
  8
OUTLINE
100
AcDbLine
 10
457.4524739999993
 20
23.49407028429485
 30
0.0
 11
457.4524739999993
 21
27.00394199844578
 31
0.0
  0
ARC
  5
DC295
330
1E
100
AcDbEntity
  8
OUTLINE
100
AcDbCircle
 10
456.9524739999994
 20
27.00394199844578
 30
0.0
 40
0.5
100
AcDbArc
 50
0.0
 51
88.95414942690401
  0
LINE
  5
DC296
330
1E
100
AcDbEntity
  8
OUTLINE
100
AcDbLine
 10
462.0
 20
19.95474540340351
 30
0.0
 11
462.0
 21
-30.34270688874227
 31
0.0
  0
ARC
  5
DC297
330
1E
100
AcDbEntity
  8
OUTLINE
100
AcDbCircle
 10
458.9999999999998
 20
19.95474540340351
 30
0.0
 40
3.0
100
AcDbArc
 50
0.0
 51
87.97012779856773
  0
LINE
  5
DC298
330
1E
100
AcDbEntity
  8
OUTLINE
100
AcDbLine
 10
-368.2325160000007
 20
141.7777081112576
 30
0.0
 11
-367.4642600000013
 21
141.0094521112577
 31
0.0
  0
LINE
  5
DC299
330
1E
100
AcDbEntity
  8
OUTLINE
100
AcDbLine
 10
-369.9998500000011
 20
142.5
 30
0.0
 11
-388.0
 21
142.5
 31
0.0
  0
LINE
  5
DC29A
330
1E
100
AcDbEntity
  8
OUTLINE
100
AcDbLine
 10
-400.0000000000001
 20
130.5000001213725
 30
0.0
 11
-400.0
 21
91.15177144740362
 31
0.0
  0
ARC
  5
DC29B
330
1E
100
AcDbEntity
  8
OUTLINE
100
AcDbCircle
 10
-388.0000000000002
 20
130.5
 30
0.0
 40
12.0
100
AcDbArc
 50
90.0
 51
179.9999994204889
  0
LINE
  5
DC29C
330
1E
100
AcDbEntity
  8
OUTLINE
100
AcDbLine
 10
-379.9997416059039
 20
-142.5
 30
0.0
 11
380.4866409999988
 21
-142.5
 31
0.0
  0
ARC
  5
DC29D
330
1E
100
AcDbEntity
  8
OUTLINE
100
AcDbCircle
 10
-379.9997416059039
 20
-122.5
 30
0.0
 40
20.0
100
AcDbArc
 50
180.0
 51
270.0
  0
SPLINE
  5
DC29E
330
1E
100
AcDbEntity
  8
OUTLINE
100
AcDbSpline
210
0.0
220
0.0
230
1.0
 70
     8
 71
     3
 72
     8
 73
     4
 74
     0
 42
0.00000001
 43
0.0000000001
 40
0.0
 40
0.0
 40
0.0
 40
0.0
 40
1.0
 40
1.0
 40
1.0
 40
1.0
 10
-368.2325160156258
 20
141.7696397569443
 30
0.0
 10
-368.7010490017371
 20
142.2381727430556
 30
0.0
 10
-369.338391666668
 20
142.5
 30
0.0
 10
-369.9998500000011
 20
142.5
 30
0.0
  0
SPLINE
  5
DC29F
330
1E
100
AcDbEntity
  8
OUTLINE
100
AcDbSpline
210
0.0
220
0.0
230
1.0
 70
     8
 71
     3
 72
     8
 73
     4
 74
     0
 42
0.00000001
 43
0.0000000001
 40
0.0
 40
0.0
 40
0.0
 40
0.0
 40
1.0
 40
1.0
 40
1.0
 40
1.0
 10
-398.5011250694449
 20
-110.5583104199923
 30
0.0
 10
-399.4278557552095
 20
-111.0923002203395
 30
0.0
 10
-399.9997416059039
 20
-112.0844877203395
 30
0.0
 10
-400.0
 20
-113.1559124165201
 30
0.0
  0
SPLINE
  5
DC2A0
330
1E
100
AcDbEntity
  8
OUTLINE
100
AcDbSpline
210
0.0
220
0.0
230
1.0
 70
     8
 71
     3
 72
    10
 73
     6
 74
     0
 42
0.000000001
 43
0.0000000001
 40
-0.0000000048382285
 40
-0.0000000048382285
 40
-0.0000000048382285
 40
-0.0000000048382285
 40
0.0
 40
0.0
 40
1.0
 40
1.0
 40
1.0
 40
1.0
 10
398.4975999604556
 20
-112.2395170250152
 30
0.0
 10
398.4975999694564
 20
-112.2395170198147
 30
0.0
 10
398.4975999739568
 20
-112.2395170172145
 30
0.0
 10
399.4277757552067
 20
-111.702082121381
 30
0.0
 10
399.9996616059016
 20
-110.709894621381
 30
0.0
 10
400.0
 20
-109.6384699252003
 30
0.0
  0
SPLINE
  5
DC2A1
330
1E
100
AcDbEntity
  8
OUTLINE
100
AcDbSpline
210
0.0
220
0.0
230
1.0
 70
     8
 71
     3
 72
    11
 73
     7
 74
     0
 42
0.000000001
 43
0.0000000001
 40
0.0
 40
0.0
 40
0.0
 40
0.0
 40
1.0
 40
1.0
 40
1.0
 40
1.006993629286556
 40
1.006993629286556
 40
1.006993629286556
 40
1.006993629286556
 10
399.9135342187484
 20
-127.2532431456866
 30
0.0
 10
400.2304830034708
 20
-125.9578872429093
 30
0.0
 10
399.6551520572905
 20
-124.6074098123536
 30
0.0
 10
398.4975999739568
 20
-123.9425063835343
 30
0.0
 10
398.4895044838062
 20
-123.9378562954418
 30
0.0
 10
398.4813805167243
 20
-123.9332397393568
 30
0.0
 10
398.4732281096153
 20
-123.9286566718245
 30
0.0
  0
LINE
  5
DC2A2
330
1E
100
AcDbEntity
  8
OUTLINE
100
AcDbLine
 10
-367.4642600000008
 20
141.0094521112573
 30
0.0
 11
325.7413650033212
 21
141.0094521112576
 31
0.0
  0
LINE
  5
DC2A4
330
1E
100
AcDbEntity
  8
OUTLINE
100
AcDbLine
 10
-400.0
 20
91.15177144740361
 30
0.0
 11
-401.6878390000008
 21
89.46393311125751
 31
0.0
  0
LINE
  5
DC2A5
330
1E
100
AcDbEntity
  8
OUTLINE
100
AcDbLine
 10
-401.8380696010795
 20
-89.29288678793666
 30
0.0
 11
-399.3783703635076
 21
-91.75591789079112
 31
0.0
  0
LINE
  5
DC2A6
330
1E
100
AcDbEntity
  8
OUTLINE
100
AcDbLine
 10
-403.3
 20
85.57442011125743
 30
0.0
 11
-403.3
 21
-85.75974666994822
 31
0.0
  0
ARC
  5
DC2A7
330
1E
100
AcDbEntity
  8
OUTLINE
100
AcDbCircle
 10
-398.3009443156958
 20
-85.76028112979697
 30
0.0
 40
4.999055712874334
100
AcDbArc
 50
179.99387438439
 51
224.9633712325312
  0
ARC
  5
DC2A8
330
1E
100
AcDbEntity
  8
OUTLINE
100
AcDbCircle
 10
380.4976000030442
 20
-122.992283789768
 30
0.0
 40
18.0
100
AcDbArc
 50
357.0180865923147
 51
0.0000002269301847
  0
ARC
  5
DC2A9
330
1E
100
AcDbEntity
  8
OUTLINE
100
AcDbCircle
 10
380.4866409710919
 20
-122.4909008887426
 30
0.0
 40
20.0
100
AcDbArc
 50
270.0000000828031
 51
346.5723549908694
  0
LINE
  5
DC2AA
330
1E
100
AcDbEntity
  8
OUTLINE
100
AcDbLine
 10
-398.5011260000017
 20
-93.87580196963416
 30
0.0
 11
-398.5011260000017
 21
-110.5583109561867
 31
0.0
  0
ARC
  5
DC2AB
330
1E
100
AcDbEntity
  8
OUTLINE
100
AcDbCircle
 10
-401.5011260000017
 20
-93.87580196963416
 30
0.0
 40
3.0
100
AcDbArc
 50
0.0
 51
44.96122034394493
  0
SPLINE
  5
DC2AC
330
1E
100
AcDbEntity
  8
OUTLINE
100
AcDbSpline
210
0.0
220
0.0
230
1.0
 70
     8
 71
     3
 72
     8
 73
     4
 74
     0
 42
0.00000001
 43
0.0000000001
 40
0.0
 40
0.0
 40
0.0
 40
0.0
 40
1.0
 40
1.0
 40
1.0
 40
1.0
 10
-401.6878390000006
 20
89.46393311125751
 30
0.0
 10
-402.7212239583338
 20
88.43040426924378
 30
0.0
 10
-403.3
 20
87.03169550188246
 30
0.0
 10
-403.3
 20
85.57442011125745
 30
0.0
  0
LINE
  5
DC2AD
330
1E
100
AcDbEntity
  8
OUTLINE
100
AcDbLine
 10
398.4975999604562
 20
-112.2395170250159
 30
0.0
 11
398.4976000030442
 21
-122.9922837184759
 31
0.0
  0
LINE
  5
DC2AE
330
1E
100
AcDbEntity
  8
OUTLINE
100
AcDbLine
 10
400.0
 20
130.5000000461088
 30
0.0
 11
400.0
 21
28.547135941227
 31
0.0
  0
LINE
  5
DC2AF
330
1E
100
AcDbEntity
  8
OUTLINE
100
AcDbLine
 10
400.0
 20
-92.99176902849927
 30
0.0
 11
400.0
 21
-109.6384698887423
 31
0.0
  0
LINE
  5
DC2B0
330
1E
100
AcDbEntity
  8
OUTLINE
100
AcDbLine
 10
401.9978164592003
 20
-90.99016855106865
 30
0.0
 11
401.9978164592003
 21
-82.42930336591291
 31
0.0
  0
LINE
  5
DC2B1
330
1E
100
AcDbEntity
  8
OUTLINE
100
AcDbLine
 10
-400.0
 20
-113.1559124165201
 30
0.0
 11
-400.0
 21
-122.5
 31
0.0
  0
ARC
  5
DC2B2
330
1E
100
AcDbEntity
  8
OUTLINE
100
AcDbCircle
 10
410.1929652800975
 20
-30.34195217452923
 30
0.0
 40
51.80703472539999
100
AcDbArc
 50
270.6108374253792
 51
359.9991653057605
  0
LINE
  5
DC975
330
1E
100
AcDbEntity
  8
NOTE
100
AcDbLine
 10
385.1762457678415
 20
-10.3
 30
0.0
 11
472.8237542321584
 21
-10.3
 31
0.0
  0
VIEWPORT
  5
DB85B
102
{ACAD_XDICTIONARY
360
DB85C
102
}
330
1A
100
AcDbEntity
 67
     1
  8
0
100
AcDbViewport
 10
5.249999639556164
 20
3.999999883606678
 30
0.0
 40
17.05081451192573
 41
8.992999745766949
 68
     1
 69
     1
 12
5.249999639556164
 22
3.999999883606678
 13
0.0
 23
0.0
 14
10.0
 24
10.0
 15
10.0
 25
10.0
 16
0.0
 26
0.0
 36
1.0
 17
0.0
 27
0.0
 37
0.0
 42
50.0
 43
0.0
 44
0.0
 45
8.992999745766949
 50
0.0
 51
0.0
 72
   500
 90
   557088
  1

281
     0
 71
     1
 74
     0
110
0.0
120
0.0
130
0.0
111
1.0
121
0.0
131
0.0
112
0.0
122
1.0
132
0.0
 79
     0
146
0.0
170
     0
 61
     5
348
CE00B
292
     1
282
     1
141
0.0
142
0.0
 63
   250
421
  3355443
  0
VIEWPORT
  5
DB85F
102
{ACAD_XDICTIONARY
360
DB860
102
}
330
1A
100
AcDbEntity
 67
     1
  8
SIZE
100
AcDbViewport
 10
5.24999976158142
 20
3.999999761581421
 30
0.0
 40
8.399999618530275
 41
6.399999618530272
 68
     2
 69
     2
 12
174.5152899432021
 22
33.32014075862685
 13
0.0
 23
0.0
 14
10.0
 24
10.0
 15
10.0
 25
10.0
 16
0.0
 26
0.0
 36
1.0
 17
0.0
 27
0.0
 37
0.0
 42
50.0
 43
0.0
 44
0.0
 45
1712.931468043591
 50
0.0
 51
0.0
 72
   500
 90
   557088
  1

281
     0
 71
     1
 74
     0
110
0.0
120
0.0
130
0.0
111
1.0
121
0.0
131
0.0
112
0.0
122
1.0
132
0.0
 79
     0
146
0.0
170
     0
 61
     5
348
CE00B
292
     1
282
     1
141
0.0
142
0.0
 63
   250
421
  3355443
  0
ENDSEC
  0
SECTION
  2
OBJECTS
  0
DICTIONARY
  5
C
330
0
100
AcDbDictionary
281
     1
  3
ACAD_CIP_PREVIOUS_PRODUCT_INFO
350
CE03B
  3
ACAD_COLOR
350
CE01E
  3
ACAD_DETAILVIEWSTYLE
350
CE037
  3
ACAD_GROUP
350
D
  3
ACAD_LAYOUT
350
19
  3
ACAD_MATERIAL
350
CDFEC
  3
ACAD_MLEADERSTYLE
350
CE033
  3
ACAD_MLINESTYLE
350
16
  3
ACAD_PLOTSETTINGS
350
18
  3
ACAD_PLOTSTYLENAME
350
E
  3
ACAD_SCALELIST
350
CE021
  3
ACAD_SECTIONVIEWSTYLE
350
CE035
  3
ACAD_TABLESTYLE
350
CE01F
  3
ACAD_VISUALSTYLE
350
CE005
  3
ACDB_RECOMPOSE_DATA
350
DCCC1
  3
AcDbVariableDictionary
350
CF14E
  0
DICTIONARY
  5
CE08E
330
2
100
AcDbDictionary
280
     1
281
     1
  3
ACAD_LAYERSTATES
360
CE08F
  0
DICTIONARY
  5
CE03C
330
10
100
AcDbDictionary
280
     1
281
     1
  3
ADSK_XREC_LAYER_RECONCILED
360
CE03D
  0
DICTIONARY
  5
CE03E
330
22
100
AcDbDictionary
280
     1
281
     1
  3
ADSK_XREC_LAYER_RECONCILED
360
CE03F
  0
DICTIONARY
  5
CE040
330
31
100
AcDbDictionary
280
     1
281
     1
  3
ADSK_XREC_LAYER_RECONCILED
360
CE041
  0
DICTIONARY
  5
CE042
330
32
100
AcDbDictionary
280
     1
281
     1
  3
ADSK_XREC_LAYER_RECONCILED
360
CE043
  0
DICTIONARY
  5
CE044
330
33
100
AcDbDictionary
280
     1
281
     1
  3
ADSK_XREC_LAYER_RECONCILED
360
CE045
  0
DICTIONARY
  5
CE046
330
34
100
AcDbDictionary
280
     1
281
     1
  3
ADSK_XREC_LAYER_RECONCILED
360
CE047
  0
DICTIONARY
  5
CE048
330
35
100
AcDbDictionary
280
     1
281
     1
  3
ADSK_XREC_LAYER_RECONCILED
360
CE049
  0
DICTIONARY
  5
CE04A
330
37
100
AcDbDictionary
280
     1
281
     1
  3
ADSK_XREC_LAYER_RECONCILED
360
CE04B
  0
DICTIONARY
  5
D54B5
330
D54B4
100
AcDbDictionary
280
     1
281
     1
  0
DICTIONARY
  5
DAE49
330
DAE48
100
AcDbDictionary
280
     1
281
     1
  0
DICTIONARY
  5
66E76
330
1E
100
AcDbDictionary
280
     1
281
     1
  3
ACAD_LAYOUTSELFREF
360
CDFE7
  3
ACAD_SORTENTS
360
CF3CE
  0
DICTIONARY
  5
66E74
330
1A
100
AcDbDictionary
280
     1
281
     1
  3
ACAD_LAYOUTSELFREF
360
CDFE6
  0
DICTIONARY
  5
DB85C
330
DB85B
100
AcDbDictionary
280
     1
281
     1
  3
ASDK_XREC_ANNOTATION_SCALE_INFO
360
DB85D
  0
DICTIONARY
  5
DB860
330
DB85F
100
AcDbDictionary
280
     1
281
     1
  3
ASDK_XREC_ANNOTATION_SCALE_INFO
360
DB861
  0
XRECORD
  5
CE03B
102
{ACAD_REACTORS
330
C
102
}
330
C
100
AcDbXrecord
280
     1
300
ACDLT
300
2021
300
87396ACDLT_2021_0F
  0
DICTIONARY
  5
CE01E
102
{ACAD_REACTORS
330
C
102
}
330
C
100
AcDbDictionary
281
     1
  0
DICTIONARY
  5
CE037
102
{ACAD_REACTORS
330
C
102
}
330
C
100
AcDbDictionary
281
     1
  3
Imperial24
350
CE038
  3
Metric50
350
CE091
  0
DICTIONARY
  5
D
102
{ACAD_REACTORS
330
C
102
}
330
C
100
AcDbDictionary
281
     1
  3
*A1
350
D85DC
  0
DICTIONARY
  5
19
102
{ACAD_REACTORS
330
C
102
}
330
C
100
AcDbDictionary
281
     1
  3
Model
350
CE039
  3
レイアウト1
350
CE03A
  0
DICTIONARY
  5
CDFEC
102
{ACAD_REACTORS
330
C
102
}
330
C
100
AcDbDictionary
281
     1
  3
ByBlock
350
CDFF5
  3
ByLayer
350
CDFED
  3
Global
350
CDFFD
  0
DICTIONARY
  5
CE033
102
{ACAD_REACTORS
330
C
102
}
330
C
100
AcDbDictionary
281
     1
  3
Standard
350
CE034
  0
DICTIONARY
  5
16
102
{ACAD_REACTORS
330
C
102
}
330
C
100
AcDbDictionary
281
     1
  3
STANDARD
350
17
  0
DICTIONARY
  5
18
102
{ACAD_REACTORS
330
C
102
}
330
C
100
AcDbDictionary
281
     1
  0
ACDBDICTIONARYWDFLT
  5
E
102
{ACAD_REACTORS
330
C
102
}
330
C
100
AcDbDictionary
281
     1
  3
Normal
350
F
100
AcDbDictionaryWithDefault
340
F
  0
DICTIONARY
  5
CE021
102
{ACAD_REACTORS
330
C
102
}
330
C
100
AcDbDictionary
281
     1
  3
A0
350
CE022
  3
A1
350
CE023
  3
A2
350
CE024
  3
A3
350
CE025
  3
A4
350
CE026
  3
A5
350
CE027
  3
A6
350
CE028
  3
A7
350
CE029
  3
A8
350
CE02A
  3
A9
350
CE02B
  3
B0
350
CE02C
  3
B1
350
CE02D
  3
B2
350
CE02E
  3
B3
350
CE02F
  3
B4
350
CE030
  3
B5
350
CE031
  3
B6
350
CE032
  0
DICTIONARY
  5
CE035
102
{ACAD_REACTORS
330
C
102
}
330
C
100
AcDbDictionary
281
     1
  3
Imperial24
350
CE036
  3
Metric50
350
CE090
  0
DICTIONARY
  5
CE01F
102
{ACAD_REACTORS
330
C
102
}
330
C
100
AcDbDictionary
281
     1
  3
Standard
350
CE020
  0
DICTIONARY
  5
CE005
102
{ACAD_REACTORS
330
C
102
}
330
C
100
AcDbDictionary
281
     1
  3
2dWireframe
350
CE00B
  3
Basic
350
CE00A
  3
Brighten
350
CE011
  3
ColorChange
350
CE015
  3
Conceptual
350
CE00E
  3
Dim
350
CE010
  3
EdgeColorOff
350
CE01D
  3
Facepattern
350
CE014
  3
Flat
350
CE006
  3
FlatWithEdges
350
CE007
  3
Gouraud
350
CE008
  3
GouraudWithEdges
350
CE009
  3
Hidden
350
CE00D
  3
JitterOff
350
CE01B
  3
Linepattern
350
CE013
  3
OverhangOff
350
CE01C
  3
Realistic
350
CE00F
  3
Shaded
350
CE01A
  3
Shaded with edges
350
CE019
  3
Shades of Gray
350
CE016
  3
Sketchy
350
CE017
  3
Thicken
350
CE012
  3
Wireframe
350
CE00C
  3
X-Ray
350
CE018
  0
XRECORD
  5
DCCC1
102
{ACAD_REACTORS
330
C
102
}
330
C
100
AcDbXrecord
280
     1
 90
        1
330
CE020
330
DB055
  0
DICTIONARY
  5
CF14E
102
{ACAD_REACTORS
330
C
102
}
330
C
100
AcDbDictionary
281
     1
  3
CANNOSCALE
350
CF153
  3
CMLEADERSTYLE
350
CF150
  3
CTABLESTYLE
350
CF14F
  3
CVIEWDETAILSTYLE
350
CF151
  3
CVIEWSECTIONSTYLE
350
CF152
  3
DIMASSOC
350
CF621
  3
INDEXCTL
350
CF620
  3
LAYEREVAL
350
D165F
  3
LAYERNOTIFY
350
D1660
  3
LIGHTINGUNITS
350
D165E
  3
MSLTSCALE
350
D165D
  3
SORTENTS
350
CF61F
  0
DICTIONARY
  5
CE08F
102
{ACAD_REACTORS
330
CE08E
102
}
330
CE08E
100
AcDbDictionary
281
     1
  0
XRECORD
  5
CE03D
102
{ACAD_REACTORS
330
CE03C
102
}
330
CE03C
100
AcDbXrecord
280
     1
290
     1
  0
XRECORD
  5
CE03F
102
{ACAD_REACTORS
330
CE03E
102
}
330
CE03E
100
AcDbXrecord
280
     1
290
     1
  0
XRECORD
  5
CE041
102
{ACAD_REACTORS
330
CE040
102
}
330
CE040
100
AcDbXrecord
280
     1
290
     1
  0
XRECORD
  5
CE043
102
{ACAD_REACTORS
330
CE042
102
}
330
CE042
100
AcDbXrecord
280
     1
290
     1
  0
XRECORD
  5
CE045
102
{ACAD_REACTORS
330
CE044
102
}
330
CE044
100
AcDbXrecord
280
     1
290
     1
  0
XRECORD
  5
CE047
102
{ACAD_REACTORS
330
CE046
102
}
330
CE046
100
AcDbXrecord
280
     1
290
     1
  0
XRECORD
  5
CE049
102
{ACAD_REACTORS
330
CE048
102
}
330
CE048
100
AcDbXrecord
280
     1
290
     1
  0
XRECORD
  5
CE04B
102
{ACAD_REACTORS
330
CE04A
102
}
330
CE04A
100
AcDbXrecord
280
     1
290
     1
  0
XRECORD
  5
CDFE7
102
{ACAD_REACTORS
330
66E76
102
}
330
66E76
100
AcDbXrecord
280
     1
340
1E
  0
SORTENTSTABLE
  5
CF3CE
102
{ACAD_REACTORS
330
66E76
102
}
330
66E76
100
AcDbSortentsTable
330
1E
331
38341
  5
D3EFD
331
D7274
  5
D7286
331
D7275
  5
D7287
331
D7276
  5
D7288
331
D72FB
  5
D7312
331
D72FC
  5
D7313
331
D72FD
  5
D7315
331
D72FE
  5
D7316
331
D72FF
  5
D7317
331
D7300
  5
D7318
331
D7301
  5
D7319
331
D7302
  5
D731A
331
D7303
  5
D731B
331
D7304
  5
D731C
331
D7305
  5
D731D
331
D7306
  5
D731E
331
D7307
  5
D731F
331
D7308
  5
D7320
331
D730A
  5
D7322
331
D730B
  5
D7323
331
D730C
  5
D7324
331
D730D
  5
D7325
331
D730E
  5
D7326
331
D730F
  5
D7327
331
D7310
  5
D7328
331
D7312
  5
D732B
331
D7313
  5
D732C
331
D73B3
  5
D79DF
331
D73B4
  5
D79E3
331
D73B5
  5
D79E4
331
D73B6
  5
D7A25
331
D73B8
  5
D7A3C
331
D73B9
  5
D7A3F
331
D73BA
  5
D7A40
331
D73BB
  5
D7A4C
331
D73BD
  5
D7A4D
331
D73BF
  5
D7A9B
331
D73C2
  5
D7A9C
331
D73C3
  5
D7AA1
331
D73C4
  5
D7AA9
331
D73C7
  5
D7AAA
331
D73C8
  5
D7AAB
331
D73CE
  5
D7DDD
331
D7714
  5
D7DDE
331
D7715
  5
D7DDF
331
D7716
  5
D7DE0
331
D776A
  5
D7DE1
331
D79DF
  5
D7DE4
331
D7F5E
  5
D70F1
331
D7F5F
  5
D7FFE
331
D7F60
  5
D7FFF
331
D7FFF
  5
D8001
331
D8001
  5
D8003
331
D802B
  5
D802F
331
D8A5B
  5
D8A5C
331
D8A5C
  5
D951E
331
D951E
  5
D951F
331
D951F
  5
D9525
331
D9525
  5
D9526
331
D9526
  5
D9527
331
D9527
  5
D9528
331
D9528
  5
D9529
331
D9529
  5
D952B
331
D952B
  5
D952C
331
D952C
  5
D952D
331
D952D
  5
D953D
331
D953D
  5
D953E
331
D953E
  5
D953F
331
D953F
  5
D9540
331
D9540
  5
D9541
331
D9541
  5
D9542
331
D9542
  5
D9543
331
D9543
  5
D9544
331
D9544
  5
D9545
331
D9545
  5
D9546
331
D9546
  5
D9547
331
D9547
  5
D9548
331
D9548
  5
D9549
331
D9549
  5
D954A
331
D954B
  5
D954C
331
D954C
  5
D954D
331
D954D
  5
D954E
331
D954E
  5
D954F
331
D954F
  5
D9550
331
D9550
  5
D9551
331
D9551
  5
D9552
331
D9552
  5
D9553
331
D9553
  5
D9554
331
D9554
  5
D9555
331
D9555
  5
D9556
331
D9556
  5
D9557
331
D9557
  5
D9558
331
D9558
  5
D9559
331
D9559
  5
D955A
331
D955A
  5
D955B
331
D955B
  5
D955C
331
D955C
  5
D955D
331
D955D
  5
D955E
331
D955E
  5
D955F
331
D955F
  5
D9560
331
D9560
  5
D9561
331
D9561
  5
D9562
331
D9562
  5
D9563
331
D9563
  5
D9564
331
D9564
  5
D9565
331
D9565
  5
D9566
331
D9566
  5
D9567
331
D9567
  5
D9568
331
D9568
  5
D9569
331
D9569
  5
D956A
331
D956A
  5
D956B
331
D956B
  5
D956C
331
D956C
  5
D956D
331
D956D
  5
D956E
331
D956E
  5
D956F
331
D956F
  5
D9570
331
D9570
  5
D9571
331
D9571
  5
D9572
331
D9572
  5
D9573
331
D9573
  5
D9574
331
D9574
  5
D9575
331
D9576
  5
D9577
331
D9577
  5
D9578
331
D9578
  5
D9579
331
D9579
  5
D957A
331
D957A
  5
D957B
331
D957B
  5
D957C
331
D957C
  5
D957D
331
D957D
  5
D957E
331
D957E
  5
D957F
331
D957F
  5
D9580
331
D9580
  5
D9581
331
D9581
  5
D9582
331
D9582
  5
D9583
331
D9583
  5
D9584
331
D9584
  5
D9585
331
D9585
  5
D9586
331
D9586
  5
D9587
331
D9587
  5
D9588
331
D9588
  5
D9589
331
D9589
  5
D958A
331
D958A
  5
D958B
331
D958B
  5
D958C
331
D958C
  5
D958D
331
D958D
  5
D958E
331
D958E
  5
D958F
331
D958F
  5
D9590
331
D9590
  5
D959F
331
D959F
  5
D95A5
331
D95A5
  5
D95A7
331
D95A7
  5
D95A9
331
D95A9
  5
D95BC
331
D95BC
  5
D95BF
331
D95BF
  5
D95C4
331
D95C4
  5
D95D3
331
D95D3
  5
D95D7
331
D95D7
  5
D95E9
331
D95E9
  5
D95EF
331
D95EF
  5
D95F4
331
D95F4
  5
D95F5
331
D95F5
  5
D95FA
331
D95FA
  5
D95FC
331
D95FC
  5
D9603
331
D9603
  5
D960E
331
D960E
  5
D9618
331
D9618
  5
D9619
331
D9619
  5
D9624
331
D9624
  5
D962F
331
D962F
  5
D9639
331
D9639
  5
D963C
331
D963C
  5
D9641
331
D9641
  5
D9642
331
D9642
  5
D964C
331
D964C
  5
D964E
331
D964E
  5
D9654
331
D9654
  5
D965D
331
D965D
  5
D9664
331
D9664
  5
D9676
331
D9676
  5
D9677
331
D9677
  5
D967A
331
D967A
  5
D9682
331
D9682
  5
D9689
331
D9689
  5
D968E
331
D968E
  5
D9695
331
D9695
  5
D9697
331
D9697
  5
D9698
331
D9698
  5
D96A1
331
D96A1
  5
D96A2
331
D96A2
  5
D96A3
331
D96A3
  5
D96AA
331
D96AA
  5
D96AC
331
D96AC
  5
D96B8
331
D96B5
  5
D97FC
331
D96B8
  5
D97FD
331
D97FC
  5
D9813
331
D97FD
  5
D9815
331
D9813
  5
D981E
331
D9815
  5
D981F
331
D981F
  5
D9831
331
D9825
  5
D9835
331
D982D
  5
D9837
331
D9831
  5
D9841
331
D983C
  5
D9845
331
D983D
  5
D9846
331
D983E
  5
D9849
331
D9840
  5
D9855
331
D9841
  5
D986A
331
D9851
  5
D987B
331
D9853
  5
D987F
331
D9854
  5
D988A
331
D9855
  5
D988B
331
D9861
  5
D988E
331
D9862
  5
D988F
331
D9865
  5
D9891
331
D986A
  5
D9892
331
D9874
  5
D98A0
331
D987B
  5
D98A4
331
D988A
  5
D98AC
331
D988F
  5
D98B0
331
D9891
  5
D98B3
331
D9892
  5
D98B4
331
D989B
  5
D98B5
331
D98A0
  5
D98C7
331
D98A1
  5
D98C8
331
D98A6
  5
D98CD
331
D98A7
  5
D98CE
331
D98A8
  5
D98CF
331
D98AC
  5
D98F4
331
D98B0
  5
D98FD
331
D98B5
  5
D98FF
331
D98C4
  5
D9902
331
D98CB
  5
D9907
331
D98F0
  5
D9908
331
D98F1
  5
D9909
331
D98F2
  5
D990A
331
D98F3
  5
D990B
331
D98F4
  5
D990C
331
D98F5
  5
D990D
331
D98F6
  5
D990E
331
D98F7
  5
D990F
331
D98F8
  5
D9910
331
D98F9
  5
D9911
331
D98FA
  5
D9912
331
D98FB
  5
D9913
331
D98FC
  5
D9914
331
D98FD
  5
D9915
331
D98FE
  5
D9916
331
D98FF
  5
D9917
331
D9900
  5
D9918
331
D9901
  5
D9919
331
D9902
  5
D991A
331
D9903
  5
D991B
331
D9904
  5
D991C
331
D9905
  5
D991D
331
D9906
  5
D991E
331
D9907
  5
D991F
331
D9908
  5
D9920
331
D9909
  5
D9921
331
D990A
  5
D9922
331
D990B
  5
D9923
331
D990C
  5
D9924
331
D990D
  5
D9925
331
D990E
  5
D9926
331
D990F
  5
D9927
331
D9910
  5
D9928
331
D9911
  5
D9929
331
D9912
  5
D992A
331
D9913
  5
D992B
331
D9914
  5
D992C
331
D9915
  5
D992D
331
D9917
  5
D992F
331
D9918
  5
D9930
331
D9919
  5
D9931
331
D991A
  5
D9932
331
D991B
  5
D9934
331
D991C
  5
D9935
331
D991D
  5
D9936
331
D991E
  5
D9937
331
D991F
  5
D9938
331
D9920
  5
D9939
331
D9921
  5
D993B
331
D9922
  5
D993D
331
D9923
  5
D9941
331
D9924
  5
D9942
331
D9925
  5
D9943
331
D9926
  5
D994D
331
D9927
  5
D994E
331
D9928
  5
D9957
331
D9929
  5
D9958
331
D992A
  5
D9967
331
D992B
  5
D9968
331
D992E
  5
D9AB2
331
D992F
  5
D9AB5
331
D9930
  5
D9AB7
331
D9931
  5
D9AB8
331
D9932
  5
D9AB9
331
D993B
  5
DA168
331
D994C
  5
DA169
331
D994D
  5
DA16A
331
D994E
  5
DA16B
331
D994F
  5
DA16C
331
D9AA4
  5
DA16D
331
D9AA6
  5
DA16E
331
D9AA9
  5
DA170
331
D9FCE
  5
DA172
331
DA14D
  5
DA173
331
DA14F
  5
DA174
331
DA158
  5
DA180
331
DA15A
  5
DA181
331
DA15D
  5
DA182
331
DA15F
  5
DA185
331
DA160
  5
DA189
331
DA161
  5
DA18A
331
DA162
  5
DA18E
331
DA163
  5
DA18F
331
DA165
  5
DA190
331
DA166
  5
D98C9
331
DA167
  5
D98C3
331
DA168
  5
D98FC
331
DA169
  5
D98F8
331
DA16A
  5
DA191
331
DA16B
  5
DA193
331
DA16C
  5
D9822
331
DA16D
  5
D98A2
331
DA16E
  5
DA195
331
DA16F
  5
DA197
331
DA170
  5
D98FE
331
DA171
  5
D98D7
331
DA172
  5
D98A8
331
DA173
  5
D98FB
331
DA17F
  5
DA199
331
DA180
  5
DA19E
331
DA181
  5
DA19F
331
DA182
  5
DA1A1
331
DA183
  5
DA1A0
331
DA187
  5
DA1A3
331
DA189
  5
DA1A4
331
DA18A
  5
DA1A5
331
DA18B
  5
DA1A6
331
DA18C
  5
DA1A7
331
DA18D
  5
DA1A2
331
DA191
  5
DA1A8
331
DA193
  5
DA1A9
331
DA195
  5
DA1AA
331
DA196
  5
DA1AB
331
DA197
  5
DA1AC
331
DA198
  5
DA1AD
331
DA199
  5
DA1AE
331
DA19A
  5
DA1AF
331
DA19B
  5
DA1B0
331
DA19C
  5
DA1B1
331
DA19D
  5
DA1B2
331
DA19E
  5
DA1B3
331
DA19F
  5
DA1B4
331
DA1A0
  5
DA1B5
331
DA1A1
  5
DA1B6
331
DA1A6
  5
DA1BB
331
DA1A7
  5
DA1BC
331
DA1A8
  5
DA1BD
331
DA1A9
  5
DA1BE
331
DA1AC
  5
DA1C2
331
DA1B1
  5
DA1C7
331
DA1B2
  5
DA1C8
331
DA1B3
  5
DA1C9
331
DA1B4
  5
DA1CA
331
DA1B5
  5
DA1CB
331
DA1B6
  5
DA1CC
331
DA1B7
  5
DA1CD
331
DA1B8
  5
DA1CE
331
DA1B9
  5
DA1CF
331
DA1BA
  5
DA1D0
331
DA1BB
  5
DA1D1
331
DA1BC
  5
DA1D2
331
DA1BD
  5
DA1D3
331
DA1BE
  5
DA1D4
331
DA1BF
  5
DA1D5
331
DA1C0
  5
DA1D6
331
DA1C1
  5
DA1D7
331
DA1C2
  5
DA1D8
331
DA1C3
  5
DA1D9
331
DA1C4
  5
DA1DA
331
DA1C5
  5
DA1DB
331
DA1C6
  5
DA1DC
331
DA1C7
  5
DA1DD
331
DA1C8
  5
DA1DE
331
DA1C9
  5
DA1DF
331
DA1CA
  5
DA1E0
331
DA1CB
  5
DA1E1
331
DA1CC
  5
DA1E2
331
DA1CD
  5
DA1E3
331
DA1CE
  5
DA1E4
331
DA1CF
  5
DA1E5
331
DA1D0
  5
DA1E6
331
DA1D1
  5
DA1E7
331
DA1D2
  5
DA1E8
331
DA1D3
  5
DA1E9
331
DA1D4
  5
DA1EA
331
DA1D5
  5
DA1EB
331
DA1D6
  5
DA1EC
331
DA1D7
  5
DA1ED
331
DA1D8
  5
DA1EE
331
DA1D9
  5
DA1EF
331
DA1DA
  5
DA1F0
331
DA1DB
  5
DA1F1
331
DA1DC
  5
DA1F2
331
DA1DD
  5
DA1F3
331
DA1DE
  5
DA1F4
331
DA1DF
  5
DA1F5
331
DA1E0
  5
DA1F6
331
DA1E1
  5
DA1F7
331
DA1E2
  5
DA1F8
331
DA1E3
  5
DA1F9
331
DA1E4
  5
DA1FA
331
DA1E5
  5
DA1FB
331
DA1E6
  5
DA1FC
331
DA1E7
  5
DA1FD
331
DA1E8
  5
DA1FE
331
DA1E9
  5
DA1FF
331
DA1EA
  5
DA200
331
DA1EB
  5
DA201
331
DA1EC
  5
DA202
331
DA1ED
  5
DA203
331
DA1EE
  5
DA204
331
DA1EF
  5
DA205
331
DA1F0
  5
DA206
331
DA1F1
  5
DA207
331
DA1F2
  5
DA208
331
DA1F3
  5
DA209
331
DA1F4
  5
DA20A
331
DA1F5
  5
DA20B
331
DA1F6
  5
DA20C
331
DA1F7
  5
DA20D
331
DA1F8
  5
DA20E
331
DA1F9
  5
DA20F
331
DA1FA
  5
DA210
331
DA1FB
  5
DA211
331
DA1FC
  5
DA212
331
DA1FD
  5
DA213
331
DA1FE
  5
DA214
331
DA1FF
  5
DA215
331
DA200
  5
DA216
331
DA201
  5
DA217
331
DA202
  5
DA218
331
DA203
  5
DA219
331
DA204
  5
DA21A
331
DA205
  5
DA21B
331
DA206
  5
DA21C
331
DA207
  5
DA21D
331
DA208
  5
DA21E
331
DA209
  5
DA21F
331
DA20A
  5
DA220
331
DA20B
  5
DA221
331
DA20C
  5
DA222
331
DA20D
  5
DA223
331
DA20E
  5
DA224
331
DA20F
  5
DA225
331
DA210
  5
DA226
331
DA211
  5
DA227
331
DA212
  5
DA228
331
DA213
  5
DA229
331
DA214
  5
DA22A
331
DA215
  5
DA22B
331
DA216
  5
DA22C
331
DA217
  5
DA22D
331
DA218
  5
DA22E
331
DA219
  5
DA22F
331
DA21A
  5
DA230
331
DA21B
  5
DA231
331
DA21C
  5
DA232
331
DA21D
  5
DA233
331
DA21E
  5
DA436
331
DA21F
  5
DA437
331
DA220
  5
DA438
331
DA221
  5
DA439
331
DA222
  5
DA43A
331
DA223
  5
DA43B
331
DA224
  5
DA43C
331
DA225
  5
DA43D
331
DA226
  5
DA43E
331
DA227
  5
DA43F
331
DA228
  5
DA442
331
DA229
  5
DA497
331
DA22A
  5
DA498
331
DA22B
  5
DA499
331
DA22C
  5
DA49A
331
DA22D
  5
DA49B
331
DA231
  5
D985A
331
DA232
  5
D9851
331
DA233
  5
D9874
331
DA634
  5
D96B5
331
DAA03
  5
DADC2
331
DAAC7
  5
DAE52
331
DAB42
  5
DAE53
331
DAB43
  5
DAE54
331
DAB44
  5
DAE55
331
DAB4E
  5
DAE61
331
DAB4F
  5
DAE62
331
DAB61
  5
DAE63
331
DAB62
  5
DAE64
331
DAB63
  5
DAE65
331
DAB64
  5
DAEAE
331
DAB65
  5
DAEAF
331
DAB66
  5
DB055
331
DAB67
  5
DB056
331
DAB6B
  5
DB057
331
DAB88
  5
DB05A
331
DACF6
  5
DB05D
331
DAD3F
  5
DA198
331
DAD40
  5
DA196
331
DADC2
  5
DB061
331
DAE52
  5
DB065
331
DAE53
  5
DB067
331
DAE54
  5
DB069
331
DAE55
  5
DB06A
331
DAE61
  5
DB06D
331
DAE62
  5
DB06F
331
DAE63
  5
DB070
331
DAE64
  5
DB071
331
DAE65
  5
DB110
331
DAEAE
  5
DB111
331
DAEAF
  5
DB112
331
DB055
  5
DB113
331
DB056
  5
DB114
331
DB057
  5
DB115
331
DB05C
  5
DB4A5
331
DB05E
  5
DB4A6
331
DB061
  5
DB4A7
331
DB062
  5
DB4A8
331
DB064
  5
DB116
331
DB066
  5
DB49E
331
DB069
  5
DB49F
331
DB06A
  5
DB4A0
331
DB06C
  5
DB4A1
331
DB06E
  5
DB4A2
331
DB071
  5
DB4A3
331
DB072
  5
DB4A4
331
DB497
  5
D983F
331
DB498
  5
D98BE
331
DB499
  5
D98A7
331
DB49A
  5
D98F6
331
DB49E
  5
DB4A9
331
DB49F
  5
DB4AA
331
DB4A0
  5
DB4AB
331
DB4A1
  5
D98BD
331
DB4A2
  5
D983B
331
DB4A3
  5
D98A6
331
DB4A4
  5
D98F7
331
DB4A5
  5
DA1C0
  0
XRECORD
  5
CDFE6
102
{ACAD_REACTORS
330
66E74
102
}
330
66E74
100
AcDbXrecord
280
     1
340
1A
  0
XRECORD
  5
DB85D
102
{ACAD_REACTORS
330
DB85C
102
}
330
DB85C
100
AcDbXrecord
280
     1
 90
        1
340
CE022
  0
XRECORD
  5
DB861
102
{ACAD_REACTORS
330
DB860
102
}
330
DB860
100
AcDbXrecord
280
     1
 90
        1
340
CE022
  0
ACDBDETAILVIEWSTYLE
  5
CE038
102
{ACAD_XDICTIONARY
360
DCCC4
102
}
102
{ACAD_REACTORS
330
CE037
102
}
330
CE037
100
AcDbModelDocViewStyle
 70
     0
  3
Imperial24
290
     0
100
AcDbDetailViewStyle
 70
     0
 71
     0
 90
        3
 71
     1
340
11
 62
   256
 40
0.24
340
0
 62
   256
 40
0.24
300

 40
0.36
280
     3
 71
     2
340
15
 90
       25
 62
   256
 71
     3
340
11
 62
   256
 40
0.24
 90
        1
 40
0.75
 90
        1
300
%<\AcVar ViewType \f "%tc1">% %<\AcVar ViewDetailId>%\PSCALE %<\AcVar ViewScale \f "%sn">%
 71
     4
340
15
 90
       25
 62
   256
340
15
 90
       25
 62
   256
280
     0
  0
ACDBDETAILVIEWSTYLE
  5
CE091
102
{ACAD_XDICTIONARY
360
DCCC8
102
}
102
{ACAD_REACTORS
330
CE037
102
}
330
CE037
100
AcDbModelDocViewStyle
 70
     0
  3
Metric50
290
     0
100
AcDbDetailViewStyle
 70
     0
 71
     0
 90
        3
 71
     1
340
11
 62
   256
 40
5.0
340
0
 62
   256
 40
5.0
300

 40
0.0
280
     1
 71
     2
340
15
 90
       25
 62
   256
 71
     3
340
11
 62
   256
 40
5.0
 90
        0
 40
15.0
 90
        1
300
%<\AcVar ViewDetailId>% (%<\AcVar ViewScale \f "%sn">%)
 71
     4
340
15
 90
       25
 62
   256
340
15
 90
       25
 62
   256
280
     0
  0
GROUP
  5
D85DC
102
{ACAD_REACTORS
330
D
102
}
330
D
100
AcDbGroup
300

 70
     1
 71
     1
340
D70ED
340
D70EC
  0
LAYOUT
  5
CE039
102
{ACAD_REACTORS
330
19
102
}
330
19
100
AcDbPlotSettings
  1

  2
KONICA MINOLTA C364SeriesPCL.pc3
  4
A4
  6

 40
5.027082920074462
 41
5.027070522308346
 42
5.027099609375
 43
5.027084350585936
 44
296.9259948730469
 45
209.9733276367186
 46
0.0
 47
33.38768232153869
 48
0.0
 49
0.0
140
0.0
141
0.0
142
1.0
143
15.91132060062679
 70
  3764
 72
     1
 73
     0
 74
     0
  7

 75
     0
147
0.062848334534885
 76
     1
 77
     2
 78
   300
148
2132.153762197981
149
996.9068745991592
100
AcDbLayout
  1
Model
 70
     1
 71
     0
 10
0.0
 20
0.0
 11
12.0
 21
9.0
 12
0.0
 22
0.0
 32
0.0
 14
0.0
 24
0.0
 34
0.0
 15
0.0
 25
0.0
 35
0.0
146
0.0
 13
0.0
 23
0.0
 33
0.0
 16
1.0
 26
0.0
 36
0.0
 17
0.0
 27
1.0
 37
0.0
 76
     0
330
1E
331
CDFC4
1001
ACAD_PSEXT
1000
KONICA MINOLTA C364SeriesPCL.pc3
1000
KONICA MINOLTA C364SeriesPCL
1000
IP_129.0.0.35
1000

1070
     0
  0
LAYOUT
  5
CE03A
102
{ACAD_REACTORS
330
19
102
}
330
19
100
AcDbPlotSettings
  1

  2
none_device
  4
Letter_(8.50_x_11.00_Inches)
  6

 40
6.349999904632567
 41
6.349999904632567
 42
6.350006103515625
 43
6.350006103515625
 44
215.8999938964844
 45
279.3999938964844
 46
0.0
 47
0.0
 48
0.0
 49
0.0
140
0.0
141
0.0
142
1.0
143
1.0
 70
   688
 72
     0
 73
     1
 74
     5
  7

 75
    16
147
1.0
 76
     0
 77
     2
 78
   300
148
0.0
149
0.0
100
AcDbLayout
  1
レイアウト1
 70
     1
 71
     1
 10
-0.2500002402958907
 20
-0.2499999962453767
 11
10.74999951940822
 21
8.249999763458731
 12
0.0
 22
0.0
 32
0.0
 14
1.049999952316283
 24
0.7999999523162842
 34
0.0
 15
9.449999570846559
 25
7.199999570846557
 35
0.0
146
0.0
 13
0.0
 23
0.0
 33
0.0
 16
1.0
 26
0.0
 36
0.0
 17
0.0
 27
1.0
 37
0.0
 76
     0
330
1A
331
DB85B
1001
ACAD_PSEXT
1000
なし
1000
なし
1000
適切ではありません
1000
新しいプロッタ環境設定名を選択しない限り、レイアウトは印刷されません。
1070
     0
  0
MATERIAL
  5
CDFF5
102
{ACAD_XDICTIONARY
360
CDFF6
102
}
102
{ACAD_REACTORS
330
CDFEC
102
}
330
CDFEC
100
AcDbMaterial
  1
ByBlock
 72
     0
 43
0.0208333333333333
 43
0.0
 43
0.0
 43
0.0
 43
0.0
 43
0.0208333333333333
 43
0.0
 43
0.0
 43
0.0
 43
0.0
 43
1.0
 43
0.0
 43
0.0
 43
0.0
 43
0.0
 43
1.0
 77
     0
 47
0.0208333333333333
 47
0.0
 47
0.0
 47
0.0
 47
0.0
 47
0.0208333333333333
 47
0.0
 47
0.0
 47
0.0
 47
0.0
 47
1.0
 47
0.0
 47
0.0
 47
0.0
 47
0.0
 47
1.0
171
     0
 49
0.0208333333333333
 49
0.0
 49
0.0
 49
0.0
 49
0.0
 49
0.0208333333333333
 49
0.0
 49
0.0
 49
0.0
 49
0.0
 49
1.0
 49
0.0
 49
0.0
 49
0.0
 49
0.0
 49
1.0
175
     0
142
0.0208333333333333
142
0.0
142
0.0
142
0.0
142
0.0
142
0.0208333333333333
142
0.0
142
0.0
142
0.0
142
0.0
142
1.0
142
0.0
142
0.0
142
0.0
142
0.0
142
1.0
179
     0
144
0.0208333333333333
144
0.0
144
0.0
144
0.0
144
0.0
144
0.0208333333333333
144
0.0
144
0.0
144
0.0
144
0.0
144
1.0
144
0.0
144
0.0
144
0.0
144
0.0
144
1.0
147
0.0208333333333333
147
0.0
147
0.0
147
0.0
147
0.0
147
0.0208333333333333
147
0.0
147
0.0
147
0.0
147
0.0
147
1.0
147
0.0
147
0.0
147
0.0
147
0.0
147
1.0
  0
MATERIAL
  5
CDFED
102
{ACAD_XDICTIONARY
360
CDFEE
102
}
102
{ACAD_REACTORS
330
CDFEC
102
}
330
CDFEC
100
AcDbMaterial
  1
ByLayer
 72
     0
 43
0.0208333333333333
 43
0.0
 43
0.0
 43
0.0
 43
0.0
 43
0.0208333333333333
 43
0.0
 43
0.0
 43
0.0
 43
0.0
 43
1.0
 43
0.0
 43
0.0
 43
0.0
 43
0.0
 43
1.0
 77
     0
 47
0.0208333333333333
 47
0.0
 47
0.0
 47
0.0
 47
0.0
 47
0.0208333333333333
 47
0.0
 47
0.0
 47
0.0
 47
0.0
 47
1.0
 47
0.0
 47
0.0
 47
0.0
 47
0.0
 47
1.0
171
     0
 49
0.0208333333333333
 49
0.0
 49
0.0
 49
0.0
 49
0.0
 49
0.0208333333333333
 49
0.0
 49
0.0
 49
0.0
 49
0.0
 49
1.0
 49
0.0
 49
0.0
 49
0.0
 49
0.0
 49
1.0
175
     0
142
0.0208333333333333
142
0.0
142
0.0
142
0.0
142
0.0
142
0.0208333333333333
142
0.0
142
0.0
142
0.0
142
0.0
142
1.0
142
0.0
142
0.0
142
0.0
142
0.0
142
1.0
179
     0
144
0.0208333333333333
144
0.0
144
0.0
144
0.0
144
0.0
144
0.0208333333333333
144
0.0
144
0.0
144
0.0
144
0.0
144
1.0
144
0.0
144
0.0
144
0.0
144
0.0
144
1.0
147
0.0208333333333333
147
0.0
147
0.0
147
0.0
147
0.0
147
0.0208333333333333
147
0.0
147
0.0
147
0.0
147
0.0
147
1.0
147
0.0
147
0.0
147
0.0
147
0.0
147
1.0
  0
MATERIAL
  5
CDFFD
102
{ACAD_XDICTIONARY
360
CDFFE
102
}
102
{ACAD_REACTORS
330
CDFEC
102
}
330
CDFEC
100
AcDbMaterial
  1
Global
 72
     0
 43
0.0208333333333333
 43
0.0
 43
0.0
 43
0.0
 43
0.0
 43
0.0208333333333333
 43
0.0
 43
0.0
 43
0.0
 43
0.0
 43
1.0
 43
0.0
 43
0.0
 43
0.0
 43
0.0
 43
1.0
 77
     0
 47
0.0208333333333333
 47
0.0
 47
0.0
 47
0.0
 47
0.0
 47
0.0208333333333333
 47
0.0
 47
0.0
 47
0.0
 47
0.0
 47
1.0
 47
0.0
 47
0.0
 47
0.0
 47
0.0
 47
1.0
171
     0
 49
0.0208333333333333
 49
0.0
 49
0.0
 49
0.0
 49
0.0
 49
0.0208333333333333
 49
0.0
 49
0.0
 49
0.0
 49
0.0
 49
1.0
 49
0.0
 49
0.0
 49
0.0
 49
0.0
 49
1.0
175
     0
142
0.0208333333333333
142
0.0
142
0.0
142
0.0
142
0.0
142
0.0208333333333333
142
0.0
142
0.0
142
0.0
142
0.0
142
1.0
142
0.0
142
0.0
142
0.0
142
0.0
142
1.0
179
     0
144
0.0208333333333333
144
0.0
144
0.0
144
0.0
144
0.0
144
0.0208333333333333
144
0.0
144
0.0
144
0.0
144
0.0
144
1.0
144
0.0
144
0.0
144
0.0
144
0.0
144
1.0
147
0.0208333333333333
147
0.0
147
0.0
147
0.0
147
0.0
147
0.0208333333333333
147
0.0
147
0.0
147
0.0
147
0.0
147
1.0
147
0.0
147
0.0
147
0.0
147
0.0
147
1.0
  0
MLEADERSTYLE
  5
CE034
102
{ACAD_REACTORS
330
CE033
102
}
330
CE033
100
AcDbMLeaderStyle
179
     2
170
     2
171
     1
172
     0
 90
        2
 40
0.0
 41
0.0
173
     1
 91
-1056964608
340
13
 92
       -2
290
     1
 42
0.09
291
     1
 43
0.36
  3
Standard
341
D78AC
 44
40.0
300

342
11
174
     5
178
     6
175
     1
176
     0
 93
-1056964608
 45
45.0
292
     0
297
     0
 46
0.18
 94
-1056964608
 47
1.0
 49
1.0
140
1.0
293
     1
141
0.0
294
     1
177
     0
142
1.0
295
     0
296
     0
143
0.125
271
     0
272
     9
273
     9
298
     1
1001
ACAD_MLEADERVER
1070
     2
  0
MLINESTYLE
  5
17
102
{ACAD_REACTORS
330
16
102
}
330
16
100
AcDbMlineStyle
  2
STANDARD
 70
     0
  3

 62
   256
 51
90.0
 52
90.0
 71
     2
 49
0.5
 62
   256
  6
BYLAYER
 49
-0.5
 62
   256
  6
BYLAYER
  0
ACDBPLACEHOLDER
  5
F
102
{ACAD_REACTORS
330
E
102
}
330
E
  0
SCALE
  5
CE022
102
{ACAD_REACTORS
330
CE021
102
}
330
CE021
100
AcDbScale
 70
     0
300
1:1
140
1.0
141
1.0
290
     1
  0
SCALE
  5
CE023
102
{ACAD_REACTORS
330
CE021
102
}
330
CE021
100
AcDbScale
 70
     0
300
1/128" = 1'-0"
140
0.0078125
141
12.0
290
     0
  0
SCALE
  5
CE024
102
{ACAD_REACTORS
330
CE021
102
}
330
CE021
100
AcDbScale
 70
     0
300
1/64" = 1'-0"
140
0.015625
141
12.0
290
     0
  0
SCALE
  5
CE025
102
{ACAD_REACTORS
330
CE021
102
}
330
CE021
100
AcDbScale
 70
     0
300
1/32" = 1'-0"
140
0.03125
141
12.0
290
     0
  0
SCALE
  5
CE026
102
{ACAD_REACTORS
330
CE021
102
}
330
CE021
100
AcDbScale
 70
     0
300
1/16" = 1'-0"
140
0.0625
141
12.0
290
     0
  0
SCALE
  5
CE027
102
{ACAD_REACTORS
330
CE021
102
}
330
CE021
100
AcDbScale
 70
     0
300
3/32" = 1'-0"
140
0.09375
141
12.0
290
     0
  0
SCALE
  5
CE028
102
{ACAD_REACTORS
330
CE021
102
}
330
CE021
100
AcDbScale
 70
     0
300
1/8" = 1'-0"
140
0.125
141
12.0
290
     0
  0
SCALE
  5
CE029
102
{ACAD_REACTORS
330
CE021
102
}
330
CE021
100
AcDbScale
 70
     0
300
3/16" = 1'-0"
140
0.1875
141
12.0
290
     0
  0
SCALE
  5
CE02A
102
{ACAD_REACTORS
330
CE021
102
}
330
CE021
100
AcDbScale
 70
     0
300
1/4" = 1'-0"
140
0.25
141
12.0
290
     0
  0
SCALE
  5
CE02B
102
{ACAD_REACTORS
330
CE021
102
}
330
CE021
100
AcDbScale
 70
     0
300
3/8" = 1'-0"
140
0.375
141
12.0
290
     0
  0
SCALE
  5
CE02C
102
{ACAD_REACTORS
330
CE021
102
}
330
CE021
100
AcDbScale
 70
     0
300
1/2" = 1'-0"
140
0.5
141
12.0
290
     0
  0
SCALE
  5
CE02D
102
{ACAD_REACTORS
330
CE021
102
}
330
CE021
100
AcDbScale
 70
     0
300
3/4" = 1'-0"
140
0.75
141
12.0
290
     0
  0
SCALE
  5
CE02E
102
{ACAD_REACTORS
330
CE021
102
}
330
CE021
100
AcDbScale
 70
     0
300
1" = 1'-0"
140
1.0
141
12.0
290
     0
  0
SCALE
  5
CE02F
102
{ACAD_REACTORS
330
CE021
102
}
330
CE021
100
AcDbScale
 70
     0
300
1-1/2" = 1'-0"
140
1.5
141
12.0
290
     0
  0
SCALE
  5
CE030
102
{ACAD_REACTORS
330
CE021
102
}
330
CE021
100
AcDbScale
 70
     0
300
3" = 1'-0"
140
3.0
141
12.0
290
     0
  0
SCALE
  5
CE031
102
{ACAD_REACTORS
330
CE021
102
}
330
CE021
100
AcDbScale
 70
     0
300
6" = 1'-0"
140
6.0
141
12.0
290
     0
  0
SCALE
  5
CE032
102
{ACAD_REACTORS
330
CE021
102
}
330
CE021
100
AcDbScale
 70
     0
300
1'-0" = 1'-0"
140
12.0
141
12.0
290
     0
  0
ACDBSECTIONVIEWSTYLE
  5
CE036
102
{ACAD_XDICTIONARY
360
DCCC2
102
}
102
{ACAD_REACTORS
330
CE035
102
}
330
CE035
100
AcDbModelDocViewStyle
 70
     0
  3
Imperial24
290
     0
100
AcDbSectionViewStyle
 70
     0
 71
     0
 90
       78
 71
     1
340
11
 62
   256
 40
0.24
340
0
340
0
 62
   256
 40
0.24
300
I, O, Q, S, X, Z
 40
0.48
 90
        3
 40
0.18
 90
        1
 71
     2
340
15
 90
       25
 62
   256
340
15
 90
       50
 62
   256
 40
0.24
 40
0.0
 40
0.24
 71
     3
340
11
 62
   256
 40
0.24
 90
        1
 40
0.75
 90
        1
300
%<\AcVar ViewType \f "%tc1">% %<\AcVar ViewSectionStartId>%-%<\AcVar ViewSectionEndId>%\PSCALE %<\AcVar ViewScale \f "%sn">%
 71
     4
 62
   256
 62
   257
300
ANSI31
 40
1.0
 90
        0
290
     0
290
     0
 90
        6
 40
0.0
 40
1.570796326794896
 40
0.2617993877991494
 40
1.308996938995747
 40
-0.2617993877991494
 40
1.832595714594044
  0
ACDBSECTIONVIEWSTYLE
  5
CE090
102
{ACAD_XDICTIONARY
360
DCCC6
102
}
102
{ACAD_REACTORS
330
CE035
102
}
330
CE035
100
AcDbModelDocViewStyle
 70
     0
  3
Metric50
290
     0
100
AcDbSectionViewStyle
 70
     0
 71
     0
 90
      102
 71
     1
340
11
 62
   256
 40
5.0
340
0
340
0
 62
   256
 40
5.0
300
I, O, Q, S, X, Z
 40
10.0
 90
        0
 40
2.5
 90
        0
 71
     2
340
15
 90
       25
 62
   256
340
15
 90
       50
 62
   256
 40
5.0
 40
2.5
 40
5.0
 71
     3
340
11
 62
   256
 40
5.0
 90
        0
 40
15.0
 90
        1
300
%<\AcVar ViewSectionStartId>%-%<\AcVar ViewSectionEndId>% (%<\AcVar ViewScale \f "%sn">%)
 71
     4
 62
   256
 62
   257
300
ANSI31
 40
1.0
 90
        0
290
     0
290
     0
 90
        6
 40
0.0
 40
1.570796326794896
 40
0.2617993877991494
 40
1.308996938995747
 40
-0.2617993877991494
 40
1.832595714594044
  0
TABLESTYLE
  5
CE020
102
{ACAD_XDICTIONARY
360
CF155
102
}
102
{ACAD_REACTORS
330
CE01F
102
}
330
CE01F
100
AcDbTableStyle
280
     0
  3
Standard
 70
     0
 71
     0
 40
0.06
 41
0.06
280
     0
281
     0
  7
STANDARD
140
0.18
170
     2
 62
     0
 63
     7
283
     0
 90
      512
 91
        0
  1

274
    -2
284
     1
 64
     0
275
    -2
285
     1
 65
     0
276
    -2
286
     1
 66
     0
277
    -2
287
     1
 67
     0
278
    -2
288
     1
 68
     0
279
    -2
289
     1
 69
     0
  7
STANDARD
140
0.25
170
     5
 62
     0
 63
     7
283
     0
 90
      512
 91
        0
  1

274
    -2
284
     1
 64
     0
275
    -2
285
     1
 65
     0
276
    -2
286
     1
 66
     0
277
    -2
287
     1
 67
     0
278
    -2
288
     1
 68
     0
279
    -2
289
     1
 69
     0
  7
STANDARD
140
0.18
170
     5
 62
     0
 63
     7
283
     0
 90
      512
 91
        0
  1

274
    -2
284
     1
 64
     0
275
    -2
285
     1
 65
     0
276
    -2
286
     1
 66
     0
277
    -2
287
     1
 67
     0
278
    -2
288
     1
 68
     0
279
    -2
289
     1
 69
     0
  0
VISUALSTYLE
  5
CE00B
102
{ACAD_REACTORS
330
CE005
102
}
330
CE005
100
AcDbVisualStyle
  2

 70
     4
177
     3
291
     0
 70
    58
 90
        0
176
     1
 90
        2
176
     1
 90
        0
176
     1
 90
        0
176
     1
 40
0.6
176
     1
 40
30.0
176
     1
 62
     7
176
     1
 90
        1
176
     1
 90
        4
176
     1
 62
     7
176
     1
 62
   257
176
     1
 90
        1
176
     1
 90
        1
176
     1
 40
1.0
176
     1
 90
        0
176
     1
 62
   257
176
     1
 40
1.0
176
     1
 90
        1
176
     1
 90
        6
176
     1
 90
        2
176
     1
 62
     7
176
     1
 90
        5
176
     1
 90
        0
176
     1
 90
        0
176
     1
290
     0
176
     1
 90
        1
176
     1
 40
0.0
176
     1
 90
        0
176
     1
290
     1
176
     1
290
     1
176
     1
290
     0
176
     1
290
     0
176
     1
290
     0
176
     1
290
     0
176
     1
290
     0
176
     1
290
     0
176
     1
290
     0
176
     1
 90
       50
176
     1
 40
0.0
176
     1
 40
1.0
176
     1
 90
        0
176
     1
 62
    18
176
     1
 90
       50
176
     1
 90
        3
176
     1
 62
     5
420
      255
176
     1
290
     0
176
     1
 90
       50
176
     1
 90
       50
176
     1
 90
       50
176
     1
290
     0
176
     1
 90
       50
176
     1
 62
   256
176
     0
 40
1.0
176
     0
 90
        2
176
     1
  1
strokes_ogs.tif
176
     1
290
     0
176
     1
 40
1.0
176
     1
 40
1.0
176
     1
1001
ACAD
1000
AcDbSavedByObjectVersion
1070
     0
  0
VISUALSTYLE
  5
CE00A
102
{ACAD_REACTORS
330
CE005
102
}
330
CE005
100
AcDbVisualStyle
  2

 70
     7
177
     3
291
     1
 70
    58
 90
        1
176
     1
 90
        0
176
     1
 90
        1
176
     1
 90
        0
176
     1
 40
0.6
176
     1
 40
30.0
176
     1
 62
     7
176
     1
 90
        0
176
     1
 90
        4
176
     1
 62
     7
176
     1
 62
   257
176
     1
 90
        1
176
     1
 90
        1
176
     1
 40
1.0
176
     1
 90
        8
176
     1
 62
     7
176
     1
 40
1.0
176
     1
 90
        1
176
     1
 90
        6
176
     1
 90
        2
176
     1
 62
     7
176
     1
 90
        5
176
     1
 90
        0
176
     1
 90
        0
176
     1
290
     0
176
     1
 90
        1
176
     1
 40
0.0
176
     1
 90
        0
176
     1
290
     0
176
     1
290
     1
176
     1
290
     1
176
     1
290
     0
176
     1
290
     0
176
     1
290
     0
176
     1
290
     0
176
     1
290
     0
176
     1
290
     0
176
     1
 90
       50
176
     1
 40
0.0
176
     1
 40
1.0
176
     1
 90
        0
176
     1
 62
    18
176
     1
 90
       50
176
     1
 90
        3
176
     1
 62
     5
420
      255
176
     1
290
     0
176
     1
 90
       50
176
     1
 90
       50
176
     1
 90
       50
176
     1
290
     0
176
     1
 90
       50
176
     1
 62
   256
176
     0
 40
1.0
176
     0
 90
        2
176
     1
  1
strokes_ogs.tif
176
     1
290
     0
176
     1
 40
1.0
176
     1
 40
1.0
176
     1
1001
ACAD
1000
AcDbSavedByObjectVersion
1070
     0
  0
VISUALSTYLE
  5
CE011
102
{ACAD_REACTORS
330
CE005
102
}
330
CE005
100
AcDbVisualStyle
  2

 70
    12
177
     3
291
     1
 70
    58
 90
        2
176
     1
 90
        2
176
     1
 90
        0
176
     1
 90
        0
176
     1
 40
0.6
176
     1
 40
30.0
176
     1
 62
     7
176
     1
 90
        1
176
     1
 90
        4
176
     1
 62
     7
176
     1
 62
   257
176
     1
 90
        1
176
     1
 90
        1
176
     1
 40
1.0
176
     1
 90
        8
176
     1
 62
     7
176
     1
 40
1.0
176
     1
 90
        1
176
     1
 90
        6
176
     1
 90
        2
176
     1
 62
     7
176
     1
 90
        5
176
     1
 90
        0
176
     1
 90
        0
176
     1
290
     0
176
     1
 90
        1
176
     1
 40
50.0
176
     1
 90
        0
176
     1
290
     0
176
     1
290
     1
176
     1
290
     1
176
     1
290
     0
176
     1
290
     0
176
     1
290
     0
176
     1
290
     0
176
     1
290
     0
176
     1
290
     0
176
     1
 90
       50
176
     1
 40
0.0
176
     1
 40
1.0
176
     1
 90
        0
176
     1
 62
    18
176
     1
 90
       50
176
     1
 90
        3
176
     1
 62
     5
420
      255
176
     1
290
     0
176
     1
 90
       50
176
     1
 90
       50
176
     1
 90
       50
176
     1
290
     0
176
     1
 90
       50
176
     1
 62
   256
176
     0
 40
1.0
176
     0
 90
        2
176
     1
  1
strokes_ogs.tif
176
     1
290
     0
176
     1
 40
1.0
176
     1
 40
1.0
176
     1
1001
ACAD
1000
AcDbSavedByObjectVersion
1070
     0
  0
VISUALSTYLE
  5
CE015
102
{ACAD_REACTORS
330
CE005
102
}
330
CE005
100
AcDbVisualStyle
  2

 70
    16
177
     3
291
     1
 70
    58
 90
        2
176
     1
 90
        2
176
     1
 90
        3
176
     1
 90
        0
176
     1
 40
0.6
176
     1
 40
30.0
176
     1
 62
     8
176
     1
 90
        1
176
     1
 90
        4
176
     1
 62
     7
176
     1
 62
   257
176
     1
 90
        1
176
     1
 90
        1
176
     1
 40
1.0
176
     1
 90
        8
176
     1
 62
     8
176
     1
 40
1.0
176
     1
 90
        1
176
     1
 90
        6
176
     1
 90
        2
176
     1
 62
     7
176
     1
 90
        5
176
     1
 90
        0
176
     1
 90
        0
176
     1
290
     0
176
     1
 90
        1
176
     1
 40
0.0
176
     1
 90
        0
176
     1
290
     0
176
     1
290
     1
176
     1
290
     1
176
     1
290
     0
176
     1
290
     0
176
     1
290
     0
176
     1
290
     0
176
     1
290
     0
176
     1
290
     0
176
     1
 90
       50
176
     1
 40
0.0
176
     1
 40
1.0
176
     1
 90
        0
176
     1
 62
    18
176
     1
 90
       50
176
     1
 90
        3
176
     1
 62
     5
420
      255
176
     1
290
     0
176
     1
 90
       50
176
     1
 90
       50
176
     1
 90
       50
176
     1
290
     0
176
     1
 90
       50
176
     1
 62
   256
176
     0
 40
1.0
176
     0
 90
        2
176
     1
  1
strokes_ogs.tif
176
     1
290
     0
176
     1
 40
1.0
176
     1
 40
1.0
176
     1
1001
ACAD
1000
AcDbSavedByObjectVersion
1070
     0
  0
VISUALSTYLE
  5
CE00E
102
{ACAD_REACTORS
330
CE005
102
}
330
CE005
100
AcDbVisualStyle
  2

 70
     9
177
     3
291
     0
 70
    58
 90
        3
176
     1
 90
        2
176
     1
 90
        0
176
     1
 90
        0
176
     1
 40
0.6
176
     1
 40
30.0
176
     1
 62
     7
176
     1
 90
        2
176
     1
 90
        2
176
     1
 62
     7
176
     1
 62
   257
176
     1
 90
        1
176
     1
 90
        1
176
     1
 40
179.0
176
     1
 90
        8
176
     1
 62
     7
176
     1
 40
1.0
176
     1
 90
        1
176
     1
 90
        6
176
     1
 90
        2
176
     1
 62
     7
176
     1
 90
        3
176
     1
 90
        0
176
     1
 90
        0
176
     1
290
     0
176
     1
 90
        1
176
     1
 40
0.0
176
     1
 90
        0
176
     1
290
     0
176
     1
290
     1
176
     1
290
     1
176
     1
290
     0
176
     1
290
     0
176
     1
290
     0
176
     1
290
     0
176
     1
290
     0
176
     1
290
     0
176
     1
 90
       50
176
     1
 40
0.0
176
     1
 40
1.0
176
     1
 90
        0
176
     1
 62
    18
176
     1
 90
       50
176
     1
 90
        3
176
     1
 62
     5
420
      255
176
     1
290
     0
176
     1
 90
       50
176
     1
 90
       50
176
     1
 90
       50
176
     1
290
     0
176
     1
 90
       50
176
     1
 62
   256
176
     0
 40
1.0
176
     0
 90
        2
176
     1
  1
strokes_ogs.tif
176
     1
290
     0
176
     1
 40
1.0
176
     1
 40
1.0
176
     1
1001
ACAD
1000
AcDbSavedByObjectVersion
1070
     0
  0
VISUALSTYLE
  5
CE010
102
{ACAD_REACTORS
330
CE005
102
}
330
CE005
100
AcDbVisualStyle
  2

 70
    11
177
     3
291
     1
 70
    58
 90
        2
176
     1
 90
        2
176
     1
 90
        0
176
     1
 90
        0
176
     1
 40
0.6
176
     1
 40
30.0
176
     1
 62
     7
176
     1
 90
        1
176
     1
 90
        4
176
     1
 62
     7
176
     1
 62
   257
176
     1
 90
        1
176
     1
 90
        1
176
     1
 40
1.0
176
     1
 90
        8
176
     1
 62
     7
176
     1
 40
1.0
176
     1
 90
        1
176
     1
 90
        6
176
     1
 90
        2
176
     1
 62
     7
176
     1
 90
        5
176
     1
 90
        0
176
     1
 90
        0
176
     1
290
     0
176
     1
 90
        1
176
     1
 40
-50.0
176
     1
 90
        0
176
     1
290
     0
176
     1
290
     1
176
     1
290
     1
176
     1
290
     0
176
     1
290
     0
176
     1
290
     0
176
     1
290
     0
176
     1
290
     0
176
     1
290
     0
176
     1
 90
       50
176
     1
 40
0.0
176
     1
 40
1.0
176
     1
 90
        0
176
     1
 62
    18
176
     1
 90
       50
176
     1
 90
        3
176
     1
 62
     5
420
      255
176
     1
290
     0
176
     1
 90
       50
176
     1
 90
       50
176
     1
 90
       50
176
     1
290
     0
176
     1
 90
       50
176
     1
 62
   256
176
     0
 40
1.0
176
     0
 90
        2
176
     1
  1
strokes_ogs.tif
176
     1
290
     0
176
     1
 40
1.0
176
     1
 40
1.0
176
     1
1001
ACAD
1000
AcDbSavedByObjectVersion
1070
     0
  0
VISUALSTYLE
  5
CE01D
102
{ACAD_REACTORS
330
CE005
102
}
330
CE005
100
AcDbVisualStyle
  2

 70
    22
177
     3
291
     1
 70
    58
 90
        2
176
     0
 90
        2
176
     0
 90
        0
176
     0
 90
        0
176
     0
 40
0.6
176
     0
 40
30.0
176
     0
 62
     7
176
     0
 90
        1
176
     0
 90
        4
176
     0
 62
     7
176
     0
 62
   257
176
     0
 90
        1
176
     0
 90
        1
176
     0
 40
1.0
176
     0
 90
        8
176
     2
 62
     7
176
     0
 40
1.0
176
     0
 90
        1
176
     0
 90
        6
176
     0
 90
        2
176
     0
 62
     7
176
     0
 90
        5
176
     0
 90
        0
176
     0
 90
        0
176
     0
290
     0
176
     0
 90
        1
176
     0
 40
0.0
176
     0
 90
        0
176
     0
290
     0
176
     1
290
     1
176
     1
290
     1
176
     1
290
     0
176
     1
290
     0
176
     1
290
     0
176
     1
290
     0
176
     1
290
     0
176
     1
290
     0
176
     1
 90
       50
176
     0
 40
0.0
176
     0
 40
1.0
176
     0
 90
        0
176
     0
 62
    18
176
     0
 90
       50
176
     0
 90
        3
176
     0
 62
     5
420
      255
176
     0
290
     0
176
     1
 90
       50
176
     0
 90
       50
176
     0
 90
       50
176
     0
290
     0
176
     1
 90
       50
176
     0
 62
   256
176
     0
 40
1.0
176
     0
 90
        2
176
     0
  1
strokes_ogs.tif
176
     0
290
     0
176
     1
 40
1.0
176
     0
 40
1.0
176
     0
1001
ACAD
1000
AcDbSavedByObjectVersion
1070
     0
  0
VISUALSTYLE
  5
CE014
102
{ACAD_REACTORS
330
CE005
102
}
330
CE005
100
AcDbVisualStyle
  2

 70
    15
177
     3
291
     1
 70
    58
 90
        2
176
     1
 90
        2
176
     1
 90
        0
176
     1
 90
        0
176
     1
 40
0.6
176
     1
 40
30.0
176
     1
 62
     7
176
     1
 90
        1
176
     1
 90
        4
176
     1
 62
     7
176
     1
 62
   257
176
     1
 90
        1
176
     1
 90
        1
176
     1
 40
1.0
176
     1
 90
        8
176
     1
 62
     7
176
     1
 40
1.0
176
     1
 90
        1
176
     1
 90
        6
176
     1
 90
        2
176
     1
 62
     7
176
     1
 90
        5
176
     1
 90
        0
176
     1
 90
        0
176
     1
290
     0
176
     1
 90
        1
176
     1
 40
0.0
176
     1
 90
        0
176
     1
290
     0
176
     1
290
     1
176
     1
290
     1
176
     1
290
     0
176
     1
290
     0
176
     1
290
     0
176
     1
290
     0
176
     1
290
     0
176
     1
290
     0
176
     1
 90
       50
176
     1
 40
0.0
176
     1
 40
1.0
176
     1
 90
        0
176
     1
 62
    18
176
     1
 90
       50
176
     1
 90
        3
176
     1
 62
     5
420
      255
176
     1
290
     0
176
     1
 90
       50
176
     1
 90
       50
176
     1
 90
       50
176
     1
290
     0
176
     1
 90
       50
176
     1
 62
   256
176
     0
 40
1.0
176
     0
 90
        2
176
     1
  1
strokes_ogs.tif
176
     1
290
     0
176
     1
 40
1.0
176
     1
 40
1.0
176
     1
1001
ACAD
1000
AcDbSavedByObjectVersion
1070
     0
  0
VISUALSTYLE
  5
CE006
102
{ACAD_REACTORS
330
CE005
102
}
330
CE005
100
AcDbVisualStyle
  2

 70
     0
177
     3
291
     1
 70
    58
 90
        2
176
     1
 90
        1
176
     1
 90
        1
176
     1
 90
        2
176
     1
 40
0.6
176
     1
 40
30.0
176
     1
 62
     7
176
     1
 90
        0
176
     1
 90
        0
176
     1
 62
     7
176
     1
 62
   257
176
     1
 90
        1
176
     1
 90
        1
176
     1
 40
1.0
176
     1
 90
        8
176
     1
 62
     7
176
     1
 40
1.0
176
     1
 90
        1
176
     1
 90
        6
176
     1
 90
        2
176
     1
 62
     7
176
     1
 90
        5
176
     1
 90
        0
176
     1
 90
        0
176
     1
290
     0
176
     1
 90
       13
176
     1
 40
0.0
176
     1
 90
        0
176
     1
290
     0
176
     1
290
     1
176
     1
290
     1
176
     1
290
     0
176
     1
290
     0
176
     1
290
     0
176
     1
290
     0
176
     1
290
     0
176
     1
290
     0
176
     1
 90
       50
176
     1
 40
0.0
176
     1
 40
1.0
176
     1
 90
        0
176
     1
 62
    18
176
     1
 90
       50
176
     1
 90
        3
176
     1
 62
     5
420
      255
176
     1
290
     0
176
     1
 90
       50
176
     1
 90
       50
176
     1
 90
       50
176
     1
290
     0
176
     1
 90
       50
176
     1
 62
   256
176
     0
 40
1.0
176
     0
 90
        2
176
     1
  1
strokes_ogs.tif
176
     1
290
     0
176
     1
 40
1.0
176
     1
 40
1.0
176
     1
1001
ACAD
1000
AcDbSavedByObjectVersion
1070
     0
  0
VISUALSTYLE
  5
CE007
102
{ACAD_REACTORS
330
CE005
102
}
330
CE005
100
AcDbVisualStyle
  2

 70
     1
177
     3
291
     1
 70
    58
 90
        2
176
     1
 90
        1
176
     1
 90
        1
176
     1
 90
        2
176
     1
 40
0.6
176
     1
 40
30.0
176
     1
 62
     7
176
     1
 90
        1
176
     1
 90
        0
176
     1
 62
     7
176
     1
 62
   257
176
     1
 90
        1
176
     1
 90
        1
176
     1
 40
1.0
176
     1
 90
        0
176
     1
 62
   257
176
     1
 40
1.0
176
     1
 90
        1
176
     1
 90
        6
176
     1
 90
        2
176
     1
 62
     7
176
     1
 90
        5
176
     1
 90
        0
176
     1
 90
        0
176
     1
290
     0
176
     1
 90
       13
176
     1
 40
0.0
176
     1
 90
        0
176
     1
290
     0
176
     1
290
     1
176
     1
290
     1
176
     1
290
     0
176
     1
290
     0
176
     1
290
     0
176
     1
290
     0
176
     1
290
     0
176
     1
290
     0
176
     1
 90
       50
176
     1
 40
0.0
176
     1
 40
1.0
176
     1
 90
        0
176
     1
 62
    18
176
     1
 90
       50
176
     1
 90
        3
176
     1
 62
     5
420
      255
176
     1
290
     0
176
     1
 90
       50
176
     1
 90
       50
176
     1
 90
       50
176
     1
290
     0
176
     1
 90
       50
176
     1
 62
   256
176
     0
 40
1.0
176
     0
 90
        2
176
     1
  1
strokes_ogs.tif
176
     1
290
     0
176
     1
 40
1.0
176
     1
 40
1.0
176
     1
1001
ACAD
1000
AcDbSavedByObjectVersion
1070
     0
  0
VISUALSTYLE
  5
CE008
102
{ACAD_REACTORS
330
CE005
102
}
330
CE005
100
AcDbVisualStyle
  2

 70
     2
177
     3
291
     1
 70
    58
 90
        2
176
     1
 90
        2
176
     1
 90
        1
176
     1
 90
        2
176
     1
 40
0.6
176
     1
 40
30.0
176
     1
 62
     7
176
     1
 90
        0
176
     1
 90
        0
176
     1
 62
     7
176
     1
 62
   257
176
     1
 90
        1
176
     1
 90
        1
176
     1
 40
1.0
176
     1
 90
        0
176
     1
 62
     7
176
     1
 40
1.0
176
     1
 90
        1
176
     1
 90
        6
176
     1
 90
        2
176
     1
 62
     7
176
     1
 90
        5
176
     1
 90
        0
176
     1
 90
        0
176
     1
290
     0
176
     1
 90
       13
176
     1
 40
0.0
176
     1
 90
        0
176
     1
290
     0
176
     1
290
     1
176
     1
290
     1
176
     1
290
     0
176
     1
290
     0
176
     1
290
     0
176
     1
290
     0
176
     1
290
     0
176
     1
290
     0
176
     1
 90
       50
176
     1
 40
0.0
176
     1
 40
1.0
176
     1
 90
        0
176
     1
 62
    18
176
     1
 90
       50
176
     1
 90
        3
176
     1
 62
     5
420
      255
176
     1
290
     0
176
     1
 90
       50
176
     1
 90
       50
176
     1
 90
       50
176
     1
290
     0
176
     1
 90
       50
176
     1
 62
   256
176
     0
 40
1.0
176
     0
 90
        2
176
     1
  1
strokes_ogs.tif
176
     1
290
     0
176
     1
 40
1.0
176
     1
 40
1.0
176
     1
1001
ACAD
1000
AcDbSavedByObjectVersion
1070
     0
  0
VISUALSTYLE
  5
CE009
102
{ACAD_REACTORS
330
CE005
102
}
330
CE005
100
AcDbVisualStyle
  2

 70
     3
177
     3
291
     1
 70
    58
 90
        2
176
     1
 90
        2
176
     1
 90
        1
176
     1
 90
        2
176
     1
 40
0.6
176
     1
 40
30.0
176
     1
 62
     7
176
     1
 90
        1
176
     1
 90
        0
176
     1
 62
     7
176
     1
 62
   257
176
     1
 90
        1
176
     1
 90
        1
176
     1
 40
1.0
176
     1
 90
        0
176
     1
 62
   257
176
     1
 40
1.0
176
     1
 90
        1
176
     1
 90
        6
176
     1
 90
        2
176
     1
 62
     7
176
     1
 90
        5
176
     1
 90
        0
176
     1
 90
        0
176
     1
290
     0
176
     1
 90
       13
176
     1
 40
0.0
176
     1
 90
        0
176
     1
290
     0
176
     1
290
     1
176
     1
290
     1
176
     1
290
     0
176
     1
290
     0
176
     1
290
     0
176
     1
290
     0
176
     1
290
     0
176
     1
290
     0
176
     1
 90
       50
176
     1
 40
0.0
176
     1
 40
1.0
176
     1
 90
        0
176
     1
 62
    18
176
     1
 90
       50
176
     1
 90
        3
176
     1
 62
     5
420
      255
176
     1
290
     0
176
     1
 90
       50
176
     1
 90
       50
176
     1
 90
       50
176
     1
290
     0
176
     1
 90
       50
176
     1
 62
   256
176
     0
 40
1.0
176
     0
 90
        2
176
     1
  1
strokes_ogs.tif
176
     1
290
     0
176
     1
 40
1.0
176
     1
 40
1.0
176
     1
1001
ACAD
1000
AcDbSavedByObjectVersion
1070
     0
  0
VISUALSTYLE
  5
CE00D
102
{ACAD_REACTORS
330
CE005
102
}
330
CE005
100
AcDbVisualStyle
  2

 70
     6
177
     3
291
     0
 70
    58
 90
        1
176
     1
 90
        2
176
     1
 90
        2
176
     1
 90
        0
176
     1
 40
0.6
176
     1
 40
30.0
176
     1
 62
     7
176
     1
 90
        2
176
     1
 90
        2
176
     1
 62
     7
176
     1
 62
   257
176
     1
 90
        2
176
     1
 90
        1
176
     1
 40
40.0
176
     1
 90
        0
176
     1
 62
   257
176
     1
 40
1.0
176
     1
 90
        1
176
     1
 90
        6
176
     1
 90
        2
176
     1
 62
     7
176
     1
 90
        3
176
     1
 90
        0
176
     1
 90
        0
176
     1
290
     0
176
     1
 90
        1
176
     1
 40
0.0
176
     1
 90
        0
176
     1
290
     0
176
     1
290
     1
176
     1
290
     1
176
     1
290
     0
176
     1
290
     0
176
     1
290
     0
176
     1
290
     0
176
     1
290
     0
176
     1
290
     0
176
     1
 90
       50
176
     1
 40
0.0
176
     1
 40
1.0
176
     1
 90
        0
176
     1
 62
    18
176
     1
 90
       50
176
     1
 90
        3
176
     1
 62
     5
420
      255
176
     1
290
     0
176
     1
 90
       50
176
     1
 90
       50
176
     1
 90
       50
176
     1
290
     0
176
     1
 90
       50
176
     1
 62
   256
176
     0
 40
1.0
176
     0
 90
        2
176
     1
  1
strokes_ogs.tif
176
     1
290
     0
176
     1
 40
1.0
176
     1
 40
1.0
176
     1
1001
ACAD
1000
AcDbSavedByObjectVersion
1070
     0
  0
VISUALSTYLE
  5
CE01B
102
{ACAD_REACTORS
330
CE005
102
}
330
CE005
100
AcDbVisualStyle
  2

 70
    20
177
     3
291
     1
 70
    58
 90
        2
176
     0
 90
        2
176
     0
 90
        0
176
     0
 90
        0
176
     0
 40
0.6
176
     0
 40
30.0
176
     0
 62
     7
176
     0
 90
        1
176
     0
 90
        4
176
     0
 62
     7
176
     0
 62
   257
176
     0
 90
        1
176
     0
 90
        1
176
     0
 40
1.0
176
     0
 90
       10
176
     2
 62
     7
176
     0
 40
1.0
176
     0
 90
        1
176
     0
 90
        6
176
     0
 90
        2
176
     0
 62
     7
176
     0
 90
        5
176
     0
 90
        0
176
     0
 90
        0
176
     0
290
     0
176
     0
 90
        1
176
     0
 40
0.0
176
     0
 90
        0
176
     0
290
     0
176
     1
290
     1
176
     1
290
     1
176
     1
290
     0
176
     1
290
     0
176
     1
290
     0
176
     1
290
     0
176
     1
290
     0
176
     1
290
     0
176
     1
 90
       50
176
     0
 40
0.0
176
     0
 40
1.0
176
     0
 90
        0
176
     0
 62
    18
176
     0
 90
       50
176
     0
 90
        3
176
     0
 62
     5
420
      255
176
     0
290
     0
176
     1
 90
       50
176
     0
 90
       50
176
     0
 90
       50
176
     0
290
     0
176
     1
 90
       50
176
     0
 62
   256
176
     0
 40
1.0
176
     0
 90
        2
176
     0
  1
strokes_ogs.tif
176
     0
290
     0
176
     1
 40
1.0
176
     0
 40
1.0
176
     0
1001
ACAD
1000
AcDbSavedByObjectVersion
1070
     0
  0
VISUALSTYLE
  5
CE013
102
{ACAD_REACTORS
330
CE005
102
}
330
CE005
100
AcDbVisualStyle
  2

 70
    14
177
     3
291
     1
 70
    58
 90
        2
176
     1
 90
        2
176
     1
 90
        0
176
     1
 90
        0
176
     1
 40
0.6
176
     1
 40
30.0
176
     1
 62
     7
176
     1
 90
        1
176
     1
 90
        4
176
     1
 62
     7
176
     1
 62
   257
176
     1
 90
        7
176
     1
 90
        7
176
     1
 40
1.0
176
     1
 90
        8
176
     1
 62
     7
176
     1
 40
1.0
176
     1
 90
        1
176
     1
 90
        6
176
     1
 90
        2
176
     1
 62
     7
176
     1
 90
        5
176
     1
 90
        0
176
     1
 90
        0
176
     1
290
     0
176
     1
 90
        1
176
     1
 40
0.0
176
     1
 90
        0
176
     1
290
     0
176
     1
290
     1
176
     1
290
     1
176
     1
290
     0
176
     1
290
     0
176
     1
290
     0
176
     1
290
     0
176
     1
290
     0
176
     1
290
     0
176
     1
 90
       50
176
     1
 40
0.0
176
     1
 40
1.0
176
     1
 90
        0
176
     1
 62
    18
176
     1
 90
       50
176
     1
 90
        3
176
     1
 62
     5
420
      255
176
     1
290
     0
176
     1
 90
       50
176
     1
 90
       50
176
     1
 90
       50
176
     1
290
     0
176
     1
 90
       50
176
     1
 62
   256
176
     0
 40
1.0
176
     0
 90
        2
176
     1
  1
strokes_ogs.tif
176
     1
290
     0
176
     1
 40
1.0
176
     1
 40
1.0
176
     1
1001
ACAD
1000
AcDbSavedByObjectVersion
1070
     0
  0
VISUALSTYLE
  5
CE01C
102
{ACAD_REACTORS
330
CE005
102
}
330
CE005
100
AcDbVisualStyle
  2

 70
    21
177
     3
291
     1
 70
    58
 90
        2
176
     0
 90
        2
176
     0
 90
        0
176
     0
 90
        0
176
     0
 40
0.6
176
     0
 40
30.0
176
     0
 62
     7
176
     0
 90
        1
176
     0
 90
        4
176
     0
 62
     7
176
     0
 62
   257
176
     0
 90
        1
176
     0
 90
        1
176
     0
 40
1.0
176
     0
 90
        9
176
     2
 62
     7
176
     0
 40
1.0
176
     0
 90
        1
176
     0
 90
        6
176
     0
 90
        2
176
     0
 62
     7
176
     0
 90
        5
176
     0
 90
        0
176
     0
 90
        0
176
     0
290
     0
176
     0
 90
        1
176
     0
 40
0.0
176
     0
 90
        0
176
     0
290
     0
176
     1
290
     1
176
     1
290
     1
176
     1
290
     0
176
     1
290
     0
176
     1
290
     0
176
     1
290
     0
176
     1
290
     0
176
     1
290
     0
176
     1
 90
       50
176
     0
 40
0.0
176
     0
 40
1.0
176
     0
 90
        0
176
     0
 62
    18
176
     0
 90
       50
176
     0
 90
        3
176
     0
 62
     5
420
      255
176
     0
290
     0
176
     1
 90
       50
176
     0
 90
       50
176
     0
 90
       50
176
     0
290
     0
176
     1
 90
       50
176
     0
 62
   256
176
     0
 40
1.0
176
     0
 90
        2
176
     0
  1
strokes_ogs.tif
176
     0
290
     0
176
     1
 40
1.0
176
     0
 40
1.0
176
     0
1001
ACAD
1000
AcDbSavedByObjectVersion
1070
     0
  0
VISUALSTYLE
  5
CE00F
102
{ACAD_REACTORS
330
CE005
102
}
330
CE005
100
AcDbVisualStyle
  2

 70
     8
177
     3
291
     0
 70
    58
 90
        2
176
     1
 90
        3
176
     1
 90
        0
176
     1
 90
        2
176
     1
 40
0.6
176
     1
 40
30.0
176
     1
 62
     7
176
     1
 90
        0
176
     1
 90
        0
176
     1
 62
     7
176
     1
 62
   257
176
     1
 90
        1
176
     1
 90
        1
176
     1
 40
1.0
176
     1
 90
        8
176
     1
 62
   257
176
     1
 40
1.0
176
     1
 90
        1
176
     1
 90
        6
176
     1
 90
        2
176
     1
 62
     7
176
     1
 90
        3
176
     1
 90
        0
176
     1
 90
        0
176
     1
290
     0
176
     1
 90
       13
176
     1
 40
0.0
176
     1
 90
        0
176
     1
290
     0
176
     1
290
     1
176
     1
290
     1
176
     1
290
     0
176
     1
290
     0
176
     1
290
     0
176
     1
290
     0
176
     1
290
     0
176
     1
290
     0
176
     1
 90
       50
176
     1
 40
0.0
176
     1
 40
1.0
176
     1
 90
        0
176
     1
 62
    18
176
     1
 90
       50
176
     1
 90
        3
176
     1
 62
     5
420
      255
176
     1
290
     0
176
     1
 90
       50
176
     1
 90
       50
176
     1
 90
       50
176
     1
290
     0
176
     1
 90
       50
176
     1
 62
   256
176
     0
 40
1.0
176
     0
 90
        2
176
     1
  1
strokes_ogs.tif
176
     1
290
     0
176
     1
 40
1.0
176
     1
 40
1.0
176
     1
1001
ACAD
1000
AcDbSavedByObjectVersion
1070
     0
  0
VISUALSTYLE
  5
CE01A
102
{ACAD_REACTORS
330
CE005
102
}
330
CE005
100
AcDbVisualStyle
  2

 70
    27
177
     3
291
     0
 70
    58
 90
        2
176
     1
 90
        2
176
     1
 90
        1
176
     1
 90
        2
176
     1
 40
0.6
176
     1
 40
30.0
176
     1
 62
     7
176
     1
 90
        0
176
     1
 90
        4
176
     1
 62
     7
176
     1
 62
   257
176
     1
 90
        1
176
     1
 90
        1
176
     1
 40
1.0
176
     1
 90
        8
176
     1
 62
   257
176
     1
 40
1.0
176
     1
 90
        1
176
     1
 90
        6
176
     1
 90
        2
176
     1
 62
     8
176
     1
 90
        3
176
     1
 90
        0
176
     1
 90
        0
176
     1
290
     0
176
     1
 90
        5
176
     1
 40
0.0
176
     1
 90
        0
176
     1
290
     0
176
     1
290
     1
176
     1
290
     1
176
     1
290
     0
176
     1
290
     0
176
     1
290
     0
176
     1
290
     0
176
     1
290
     0
176
     1
290
     0
176
     1
 90
       50
176
     1
 40
0.0
176
     1
 40
1.0
176
     1
 90
        0
176
     1
 62
    18
176
     1
 90
       50
176
     1
 90
        3
176
     1
 62
     5
420
      255
176
     1
290
     0
176
     1
 90
       50
176
     1
 90
       50
176
     1
 90
       50
176
     1
290
     0
176
     1
 90
       50
176
     1
 62
   256
176
     0
 40
1.0
176
     0
 90
        2
176
     1
  1
strokes_ogs.tif
176
     1
290
     0
176
     1
 40
1.0
176
     1
 40
1.0
176
     1
1001
ACAD
1000
AcDbSavedByObjectVersion
1070
     0
  0
VISUALSTYLE
  5
CE019
102
{ACAD_REACTORS
330
CE005
102
}
330
CE005
100
AcDbVisualStyle
  2

 70
    26
177
     3
291
     0
 70
    58
 90
        2
176
     1
 90
        2
176
     1
 90
        1
176
     1
 90
        2
176
     1
 40
0.6
176
     1
 40
30.0
176
     1
 62
     7
176
     1
 90
        1
176
     1
 90
        2
176
     1
 62
     7
176
     1
 62
   257
176
     1
 90
        2
176
     1
 90
        1
176
     1
 40
1.0
176
     1
 90
        8
176
     1
 62
   257
176
     1
 40
1.0
176
     1
 90
        1
176
     1
 90
        6
176
     1
 90
        2
176
     1
 62
     7
176
     1
 90
        3
176
     1
 90
        0
176
     1
 90
        0
176
     1
290
     0
176
     1
 90
        5
176
     1
 40
0.0
176
     1
 90
        0
176
     1
290
     0
176
     1
290
     1
176
     1
290
     1
176
     1
290
     0
176
     1
290
     0
176
     1
290
     0
176
     1
290
     0
176
     1
290
     0
176
     1
290
     0
176
     1
 90
       50
176
     1
 40
0.0
176
     1
 40
1.0
176
     1
 90
        0
176
     1
 62
    18
176
     1
 90
       50
176
     1
 90
        3
176
     1
 62
     5
420
      255
176
     1
290
     0
176
     1
 90
       50
176
     1
 90
       50
176
     1
 90
       50
176
     1
290
     0
176
     1
 90
       50
176
     1
 62
   256
176
     0
 40
1.0
176
     0
 90
        2
176
     1
  1
strokes_ogs.tif
176
     1
290
     0
176
     1
 40
1.0
176
     1
 40
1.0
176
     1
1001
ACAD
1000
AcDbSavedByObjectVersion
1070
     0
  0
VISUALSTYLE
  5
CE016
102
{ACAD_REACTORS
330
CE005
102
}
330
CE005
100
AcDbVisualStyle
  2

 70
    23
177
     3
291
     0
 70
    58
 90
        2
176
     1
 90
        2
176
     1
 90
        3
176
     1
 90
        0
176
     1
 40
0.6
176
     1
 40
30.0
176
     1
 62
     7
176
     1
 90
        2
176
     1
 90
        2
176
     1
 62
     7
176
     1
 62
     7
176
     1
 90
        1
176
     1
 90
        1
176
     1
 40
40.0
176
     1
 90
        8
176
     1
 62
     7
176
     1
 40
1.0
176
     1
 90
        1
176
     1
 90
        6
176
     1
 90
        2
176
     1
 62
     7
176
     1
 90
        3
176
     1
 90
        0
176
     1
 90
        0
176
     1
290
     0
176
     1
 90
        1
176
     1
 40
0.0
176
     1
 90
        0
176
     1
290
     0
176
     1
290
     1
176
     1
290
     1
176
     1
290
     0
176
     1
290
     0
176
     1
290
     0
176
     1
290
     0
176
     1
290
     0
176
     1
290
     0
176
     1
 90
       50
176
     1
 40
0.0
176
     1
 40
1.0
176
     1
 90
        0
176
     1
 62
    18
176
     1
 90
       50
176
     1
 90
        3
176
     1
 62
     5
420
      255
176
     1
290
     0
176
     1
 90
       50
176
     1
 90
       50
176
     1
 90
       50
176
     1
290
     0
176
     1
 90
       50
176
     1
 62
   256
176
     0
 40
1.0
176
     0
 90
        2
176
     1
  1
strokes_ogs.tif
176
     1
290
     0
176
     1
 40
1.0
176
     1
 40
1.0
176
     1
1001
ACAD
1000
AcDbSavedByObjectVersion
1070
     0
  0
VISUALSTYLE
  5
CE017
102
{ACAD_REACTORS
330
CE005
102
}
330
CE005
100
AcDbVisualStyle
  2

 70
    24
177
     3
291
     0
 70
    58
 90
        1
176
     1
 90
        2
176
     1
 90
        2
176
     1
 90
        0
176
     1
 40
0.6
176
     1
 40
30.0
176
     1
 62
     7
176
     1
 90
        2
176
     1
 90
        2
176
     1
 62
     7
176
     1
 62
     7
176
     1
 90
        1
176
     1
 90
        1
176
     1
 40
40.0
176
     1
 90
       11
176
     1
 62
     7
176
     1
 40
1.0
176
     1
 90
        1
176
     1
 90
        6
176
     1
 90
        2
176
     1
 62
     7
176
     1
 90
        6
176
     1
 90
        0
176
     1
 90
        0
176
     1
290
     0
176
     1
 90
        1
176
     1
 40
0.0
176
     1
 90
        0
176
     1
290
     0
176
     1
290
     1
176
     1
290
     1
176
     1
290
     0
176
     1
290
     0
176
     1
290
     0
176
     1
290
     0
176
     1
290
     0
176
     1
290
     0
176
     1
 90
       50
176
     1
 40
0.0
176
     1
 40
1.0
176
     1
 90
        0
176
     1
 62
    18
176
     1
 90
       50
176
     1
 90
        3
176
     1
 62
     5
420
      255
176
     1
290
     0
176
     1
 90
       50
176
     1
 90
       50
176
     1
 90
       50
176
     1
290
     0
176
     1
 90
       50
176
     1
 62
   256
176
     0
 40
1.0
176
     0
 90
        2
176
     1
  1
strokes_ogs.tif
176
     1
290
     0
176
     1
 40
1.0
176
     1
 40
1.0
176
     1
1001
ACAD
1000
AcDbSavedByObjectVersion
1070
     0
  0
VISUALSTYLE
  5
CE012
102
{ACAD_REACTORS
330
CE005
102
}
330
CE005
100
AcDbVisualStyle
  2

 70
    13
177
     3
291
     1
 70
    58
 90
        2
176
     1
 90
        2
176
     1
 90
        0
176
     1
 90
        0
176
     1
 40
0.6
176
     1
 40
30.0
176
     1
 62
     7
176
     1
 90
        1
176
     1
 90
        4
176
     1
 62
     7
176
     1
 62
   257
176
     1
 90
        1
176
     1
 90
        1
176
     1
 40
1.0
176
     1
 90
       12
176
     1
 62
     7
176
     1
 40
1.0
176
     1
 90
        1
176
     1
 90
        6
176
     1
 90
        2
176
     1
 62
     7
176
     1
 90
        5
176
     1
 90
        0
176
     1
 90
        0
176
     1
290
     0
176
     1
 90
        1
176
     1
 40
0.0
176
     1
 90
        0
176
     1
290
     0
176
     1
290
     1
176
     1
290
     1
176
     1
290
     0
176
     1
290
     0
176
     1
290
     0
176
     1
290
     0
176
     1
290
     0
176
     1
290
     0
176
     1
 90
       50
176
     1
 40
0.0
176
     1
 40
1.0
176
     1
 90
        0
176
     1
 62
    18
176
     1
 90
       50
176
     1
 90
        3
176
     1
 62
     5
420
      255
176
     1
290
     0
176
     1
 90
       50
176
     1
 90
       50
176
     1
 90
       50
176
     1
290
     0
176
     1
 90
       50
176
     1
 62
   256
176
     0
 40
1.0
176
     0
 90
        2
176
     1
  1
strokes_ogs.tif
176
     1
290
     0
176
     1
 40
1.0
176
     1
 40
1.0
176
     1
1001
ACAD
1000
AcDbSavedByObjectVersion
1070
     0
  0
VISUALSTYLE
  5
CE00C
102
{ACAD_REACTORS
330
CE005
102
}
330
CE005
100
AcDbVisualStyle
  2

 70
     5
177
     3
291
     0
 70
    58
 90
        0
176
     1
 90
        2
176
     1
 90
        0
176
     1
 90
        0
176
     1
 40
0.6
176
     1
 40
30.0
176
     1
 62
     7
176
     1
 90
        1
176
     1
 90
        4
176
     1
 62
     7
176
     1
 62
   257
176
     1
 90
        1
176
     1
 90
        1
176
     1
 40
1.0
176
     1
 90
        0
176
     1
 62
   257
176
     1
 40
1.0
176
     1
 90
        1
176
     1
 90
        6
176
     1
 90
        2
176
     1
 62
     7
176
     1
 90
        3
176
     1
 90
        0
176
     1
 90
        0
176
     1
290
     0
176
     1
 90
        1
176
     1
 40
0.0
176
     1
 90
        0
176
     1
290
     0
176
     1
290
     1
176
     1
290
     1
176
     1
290
     0
176
     1
290
     0
176
     1
290
     0
176
     1
290
     0
176
     1
290
     0
176
     1
290
     0
176
     1
 90
       50
176
     1
 40
0.0
176
     1
 40
1.0
176
     1
 90
        0
176
     1
 62
    18
176
     1
 90
       50
176
     1
 90
        3
176
     1
 62
     5
420
      255
176
     1
290
     0
176
     1
 90
       50
176
     1
 90
       50
176
     1
 90
       50
176
     1
290
     0
176
     1
 90
       50
176
     1
 62
   256
176
     0
 40
1.0
176
     0
 90
        2
176
     1
  1
strokes_ogs.tif
176
     1
290
     0
176
     1
 40
1.0
176
     1
 40
1.0
176
     1
1001
ACAD
1000
AcDbSavedByObjectVersion
1070
     0
  0
VISUALSTYLE
  5
CE018
102
{ACAD_REACTORS
330
CE005
102
}
330
CE005
100
AcDbVisualStyle
  2

 70
    25
177
     3
291
     0
 70
    58
 90
        2
176
     1
 90
        2
176
     1
 90
        1
176
     1
 90
        1
176
     1
 40
0.5
176
     1
 40
30.0
176
     1
 62
     7
176
     1
 90
        1
176
     1
 90
        0
176
     1
 62
     7
176
     1
 62
   257
176
     1
 90
        1
176
     1
 90
        1
176
     1
 40
1.0
176
     1
 90
        8
176
     1
 62
     7
176
     1
 40
1.0
176
     1
 90
        1
176
     1
 90
        6
176
     1
 90
        2
176
     1
 62
     7
176
     1
 90
        3
176
     1
 90
        0
176
     1
 90
        0
176
     1
290
     0
176
     1
 90
       13
176
     1
 40
0.0
176
     1
 90
        0
176
     1
290
     0
176
     1
290
     1
176
     1
290
     1
176
     1
290
     0
176
     1
290
     0
176
     1
290
     0
176
     1
290
     0
176
     1
290
     0
176
     1
290
     0
176
     1
 90
       50
176
     1
 40
0.0
176
     1
 40
1.0
176
     1
 90
        0
176
     1
 62
    18
176
     1
 90
       50
176
     1
 90
        3
176
     1
 62
     5
420
      255
176
     1
290
     0
176
     1
 90
       50
176
     1
 90
       50
176
     1
 90
       50
176
     1
290
     0
176
     1
 90
       50
176
     1
 62
   256
176
     0
 40
1.0
176
     0
 90
        2
176
     1
  1
strokes_ogs.tif
176
     1
290
     0
176
     1
 40
1.0
176
     1
 40
1.0
176
     1
1001
ACAD
1000
AcDbSavedByObjectVersion
1070
     0
  0
DICTIONARYVAR
  5
CF153
102
{ACAD_REACTORS
330
CF14E
102
}
330
CF14E
100
DictionaryVariables
280
     0
  1
1:1
  0
DICTIONARYVAR
  5
CF150
102
{ACAD_REACTORS
330
CF14E
102
}
330
CF14E
100
DictionaryVariables
280
     0
  1
STANDARD
  0
DICTIONARYVAR
  5
CF14F
102
{ACAD_REACTORS
330
CF14E
102
}
330
CF14E
100
DictionaryVariables
280
     0
  1
STANDARD
  0
DICTIONARYVAR
  5
CF151
102
{ACAD_REACTORS
330
CF14E
102
}
330
CF14E
100
DictionaryVariables
280
     0
  1
Imperial24
  0
DICTIONARYVAR
  5
CF152
102
{ACAD_REACTORS
330
CF14E
102
}
330
CF14E
100
DictionaryVariables
280
     0
  1
Imperial24
  0
DICTIONARYVAR
  5
CF621
102
{ACAD_REACTORS
330
CF14E
102
}
330
CF14E
100
DictionaryVariables
280
     0
  1
1
  0
DICTIONARYVAR
  5
CF620
102
{ACAD_REACTORS
330
CF14E
102
}
330
CF14E
100
DictionaryVariables
280
     0
  1
0
  0
DICTIONARYVAR
  5
D165F
102
{ACAD_REACTORS
330
CF14E
102
}
330
CF14E
100
DictionaryVariables
280
     0
  1
1
  0
DICTIONARYVAR
  5
D1660
102
{ACAD_REACTORS
330
CF14E
102
}
330
CF14E
100
DictionaryVariables
280
     0
  1
15
  0
DICTIONARYVAR
  5
D165E
102
{ACAD_REACTORS
330
CF14E
102
}
330
CF14E
100
DictionaryVariables
280
     0
  1
0
  0
DICTIONARYVAR
  5
D165D
102
{ACAD_REACTORS
330
CF14E
102
}
330
CF14E
100
DictionaryVariables
280
     0
  1
0
  0
DICTIONARYVAR
  5
CF61F
102
{ACAD_REACTORS
330
CF14E
102
}
330
CF14E
100
DictionaryVariables
280
     0
  1
127
  0
DICTIONARY
  5
DCCC4
330
CE038
100
AcDbDictionary
280
     1
281
     1
  3
ACAD_XREC_ROUNDTRIP
360
DCCC5
  0
DICTIONARY
  5
DCCC8
330
CE091
100
AcDbDictionary
280
     1
281
     1
  3
ACAD_XREC_ROUNDTRIP
360
DCCC9
  0
DICTIONARY
  5
CDFF6
330
CDFF5
100
AcDbDictionary
280
     1
281
     1
  3
ACAD_XREC_ROUNDTRIP
360
CF159
  3
BUMPTILE
360
CDFF8
  3
DIFFUSETILE
360
CDFF7
  3
OPACITYTILE
360
CDFFB
  3
REFLECTIONTILE
360
CDFFA
  3
REFRACTIONTILE
360
CDFFC
  3
SPECULARTILE
360
CDFF9
  0
DICTIONARY
  5
CDFEE
330
CDFED
100
AcDbDictionary
280
     1
281
     1
  3
ACAD_XREC_ROUNDTRIP
360
CF158
  3
BUMPTILE
360
CDFF0
  3
DIFFUSETILE
360
CDFEF
  3
OPACITYTILE
360
CDFF3
  3
REFLECTIONTILE
360
CDFF2
  3
REFRACTIONTILE
360
CDFF4
  3
SPECULARTILE
360
CDFF1
  0
DICTIONARY
  5
CDFFE
330
CDFFD
100
AcDbDictionary
280
     1
281
     1
  3
ACAD_XREC_ROUNDTRIP
360
CF15A
  3
BUMPTILE
360
CE000
  3
DIFFUSETILE
360
CDFFF
  3
FBXASSET
360
D6C8A
  3
OPACITYTILE
360
CE003
  3
REFLECTIONTILE
360
CE002
  3
REFRACTIONTILE
360
CE004
  3
SPECULARTILE
360
CE001
  0
DICTIONARY
  5
DCCC2
330
CE036
100
AcDbDictionary
280
     1
281
     1
  3
ACAD_XREC_ROUNDTRIP
360
DCCC3
  0
DICTIONARY
  5
DCCC6
330
CE090
100
AcDbDictionary
280
     1
281
     1
  3
ACAD_XREC_ROUNDTRIP
360
DCCC7
  0
DICTIONARY
  5
CF155
330
CE020
100
AcDbDictionary
280
     1
281
     1
  3
ACAD_ROUNDTRIP_2008_TABLESTYLE_CELLSTYLEMAP
360
DCCC0
  0
XRECORD
  5
DCCC5
102
{ACAD_REACTORS
330
DCCC4
102
}
330
DCCC4
100
AcDbXrecord
280
     1
102
DISPLAYNAME
  1
Imperial24
102
FLAGS
 90
        0
  0
XRECORD
  5
DCCC9
102
{ACAD_REACTORS
330
DCCC8
102
}
330
DCCC8
100
AcDbXrecord
280
     1
102
DISPLAYNAME
  1
Metric50
102
FLAGS
 90
        0
  0
XRECORD
  5
CF159
102
{ACAD_REACTORS
330
CDFF6
102
}
330
CDFF6
100
AcDbXrecord
280
     1
102
MATERIAL
148
0.0
149
0.0
149
0.0
 93
        0
 94
      127
282
     0
 72
     0
 77
     0
171
     0
175
     0
179
     0
273
     0
  0
XRECORD
  5
CDFF8
102
{ACAD_REACTORS
330
CDFF6
102
}
330
CDFF6
100
AcDbXrecord
280
     1
270
     1
271
     1
  0
XRECORD
  5
CDFF7
102
{ACAD_REACTORS
330
CDFF6
102
}
330
CDFF6
100
AcDbXrecord
280
     1
270
     1
271
     1
  0
XRECORD
  5
CDFFB
102
{ACAD_REACTORS
330
CDFF6
102
}
330
CDFF6
100
AcDbXrecord
280
     1
270
     1
271
     1
  0
XRECORD
  5
CDFFA
102
{ACAD_REACTORS
330
CDFF6
102
}
330
CDFF6
100
AcDbXrecord
280
     1
270
     1
271
     1
  0
XRECORD
  5
CDFFC
102
{ACAD_REACTORS
330
CDFF6
102
}
330
CDFF6
100
AcDbXrecord
280
     1
270
     1
271
     1
  0
XRECORD
  5
CDFF9
102
{ACAD_REACTORS
330
CDFF6
102
}
330
CDFF6
100
AcDbXrecord
280
     1
270
     1
271
     1
  0
XRECORD
  5
CF158
102
{ACAD_REACTORS
330
CDFEE
102
}
330
CDFEE
100
AcDbXrecord
280
     1
102
MATERIAL
148
0.0
149
0.0
149
0.0
 93
        0
 94
      127
282
     0
 72
     0
 77
     0
171
     0
175
     0
179
     0
273
     0
  0
XRECORD
  5
CDFF0
102
{ACAD_REACTORS
330
CDFEE
102
}
330
CDFEE
100
AcDbXrecord
280
     1
270
     1
271
     1
  0
XRECORD
  5
CDFEF
102
{ACAD_REACTORS
330
CDFEE
102
}
330
CDFEE
100
AcDbXrecord
280
     1
270
     1
271
     1
  0
XRECORD
  5
CDFF3
102
{ACAD_REACTORS
330
CDFEE
102
}
330
CDFEE
100
AcDbXrecord
280
     1
270
     1
271
     1
  0
XRECORD
  5
CDFF2
102
{ACAD_REACTORS
330
CDFEE
102
}
330
CDFEE
100
AcDbXrecord
280
     1
270
     1
271
     1
  0
XRECORD
  5
CDFF4
102
{ACAD_REACTORS
330
CDFEE
102
}
330
CDFEE
100
AcDbXrecord
280
     1
270
     1
271
     1
  0
XRECORD
  5
CDFF1
102
{ACAD_REACTORS
330
CDFEE
102
}
330
CDFEE
100
AcDbXrecord
280
     1
270
     1
271
     1
  0
XRECORD
  5
CF15A
102
{ACAD_REACTORS
330
CDFFE
102
}
330
CDFFE
100
AcDbXrecord
280
     1
102
MATERIAL
148
0.0
149
0.0
149
0.0
 93
        0
 94
      127
282
     0
 72
     0
 77
     0
171
     0
175
     0
179
     0
273
     0
  0
XRECORD
  5
CE000
102
{ACAD_REACTORS
330
CDFFE
102
}
330
CDFFE
100
AcDbXrecord
280
     1
270
     1
271
     1
  0
XRECORD
  5
CDFFF
102
{ACAD_REACTORS
330
CDFFE
102
}
330
CDFFE
100
AcDbXrecord
280
     1
270
     1
271
     1
  0
XRECORD
  5
D6C8A
102
{ACAD_REACTORS
330
CDFFE
102
}
330
CDFFE
100
AcDbXrecord
280
     1
 70
     1
 90
652598616
 71
     1
  1
3A3D6C50-744B-4AC4-B9D4-640693DA1497
311
504B0304140006080800128F295075298AAD16010000A80100004F00000031363644374142392D313038342D343245362D423936332D4343354641354239374231442F4173736574446174612F446566696E6974696F6E4974657261746F7250726F706572746965732E62696E6D50BD4EC33010360C200606241E8081AD32
311
719A8B5D232114C729130BA83372836923B969552762CDC8B3F47DFA3CE50C8900094B9FBFBBEF7EED0F42C8A13F6892234487F739F283ADEDB62A9FCBA55D19721214B79E1B778D96D2B2802CD774CCE4940280A613C1052D38A4B192C0908E31EF14A1ED9B695D135A3E56BEB4CE99DAAE5B7F81423FE36A651A9C65DC4D
311
283A232450872043C0874E8BEF8DC292EF08F3BAB9BD37DEDBE62E8A39D7225392C66C0214C605A74AF284E6793ACD5225858A75F464FDBADD96D6474996689EA78C0A0045F12580E91A2807C665A2B318A4889A651BBEE632AC31AF4DE52216F52BBC6CEA051975FB7D37C2E8D7F9EB0DEA3F3CDB1D76B341C7AA1F2774FC
311
151B72903F01504B0304140006080800128F29503E264CA702010000300200004500000031363644374142392D313038342D343245362D423936332D4343354641354239374231442F4173736574446174612F496E7374616E636550726F706572746965732E62696EEB606060F80F0540260323103700495E20ED9E9A975A
311
94991C9C9C919A9BA802143076347631733635D035373171D235717436D175B27431D135333130B33476713434B134674768046B313471713532B5D435353131D635313332D475727372D13534373670367376B67474B504EA00DBCBA019D37FE8ABC6157B20CD04146B0062181F4C03F940F0C11EA29A8141C08141002C04
311
26541C106CAC2CA046088033B02A030AC2157C6006F21A8018AAF50194E6010A610250382264E08660284CD9E98021862280A91564B406929A0FF62C401E28B6F88038B83CB1243943D7A928312F25350524C3C0A0DD70F56A83369809E6AC0A85B251645054A1A983A947A601504B0304140006080800128F295088E57597
311
CD3F0000904100006B00000031363644374142392D313038342D343245362D423936332D4343354641354239374231442F5265736F75726365732F33413344364335302D373434422D344143342D423944342D3634303639334441313439372F7468756D626E61696C2F302F67656E657269635F706E67355B773CD4FF1FBF
311
73E71C0E67EF7576C9DEF3EC995D46C6A1EC5046649CBDF79E192942562825CE965D8A868C2842C8DE9FDFD1F7E7F138F7078FCF6B3F5FCFD7EBFDFEC41B196891913091804020321D6D7513FC77D8C5070EC3FFEE51B21F068154CC75D455CC028A3EA68992803810109FDDE5D5CEC5521B28A1B422BF80741695D5B529DA
311
1C2D058AD2388BDA9F476F7C2CADC939304173DBF48A452BF8A700C0C70C3D121C1AA15A5270C22E2B9E28763651F7DA0D12CE11077B2ECD0D560B5E3DE2368B1E65C5E1C87384A4CC5F2D9FB8BE39E9B77C753783A37998F5CEF1B4FEE553463245C9712270880DF339E0B882A6BA713D865F6F384C842D440934EF264F4A
311
304F8DE4EEFA1E2BF5E2D91F5ADD9613D6E31DDB33ED31DB1D7916CAF091286EA3D31B9CFECB78BB0060245B943C4C040119FF780A74DD308BA9D028678674EB5504ECF284EE814DAED07440BAF649BE4B55DA2890F4D73E2D489A59EE54FDB0A85B59F2F52C4858A02705C4815A792B0C4A996A2023ECB195073E115E3E36
311
47F64243A8338F2000BCB58DA5692C7E7C3D413F963FEDF3CF00FBB0F831A9D51360FECA43819F527B89FA260EB63C5DA676830AA3626A3693B23F1A17A0DFFCE3EE164E31B5365EDF0C89EF64D8E38AB0BA9A1117D7C3A0EC44F44F4023095E80BA610DE336D0F99593A88BFC5306E72DF98F7FD132ED95878DF2964EA7E4
311
3071359FD83B2BDF9C6B5BDF768F0F3C0FC351199526F53D9460A34511F75D1B63E488178569472C91A94497807A3FD4A390C6558F26D416365C3656DE6E769DA9D8FC73774E1709812842DD8EF96AED1960F79D21B395CDDFE6F92CB4EB962A4668C76990E2EF29798C8941D67DA50F4A5F947872460F1F6FDB794E8A29FD
311
7AC0C0D6E0714339CE258FB17AE8535221E3464A10F29A0BE5EEECEFC5675926A89F49EB14E5711894F6586DB5754EB4D5DA9C6437EBA57DB97A24F8B8A8DB295FFD73266CF57E82694DF5166DDF93573AFE9C9C5EB05F8FEF8E89E0A8917B0B3724DB7BEBB53252581EFC3E38166BA131A3A5B42FE2AD00A769BBFA4458D2
311
DE7822F8C4F63D0B8E21B285AE13325F3410A435C648C9D91FDEB109E73CEDA7BC796961AF79175E1A3CE4C5E8B0D009B0C9E29EFD98BC8E97554E3D8D838424E270F7685226E5AC268E021EDE3522D583E8F20C0BDE2959EF5BBFEEDAB32FE9A3ED0E39F211A86AA9DEBFC68182EDED132AB8BB794442D2D7EA9F4D8BFF52
311
BC4D55BB165124EE90A42D101E67BBBB292FFB4F66DE5BF2300E44546757DA7CEF8932BFC9F92A0707953491A55C5A5ACEDABD9FA1AEA01BAC3DC5A24E22E7C47213493996EFBC369D086ED9397C9BA6C7F9855C7BD5E15BFC8C53DB3D2A4C5901A57ACD2FBDF4D1676E95338B2C2BCE65FDA4C64F5FEFDC7D9CA5AA1FCF11
311
E193F2FDABF0F4916BF13FB916A224380E6462A9815F2300DC49CC4DF8D055CEF76462F4B7A7ACA7365C2707891370BC1D0AA6203C44CCAB47084FEC057F27FFCD57F89B8B9852459798A675C66BD7CE572CAF71FF7E6D7ECF7BF62CAB7B3F1107DCD04DC55A3F9961700286141C94A4F771FEB2BCDA2DDEE0CB0BAE402FF1
311
DB0100F8E475DFFFC074DDB4498AB7D186A7654DDB1CB680D703D47CEB4E72F8CB13D86A4AA68116E26387B93FD6738779B34FEDB8E517EDF2BAF28D9BE93A1D3A164320E07D42E514725C29515FF361754213EDE06B079A2E99EB1CA82A02019EADEEB87B9AF005BD04BBCECB14AACD6B24EFBE482194A97DD32400685FF1
311
FEF1544D1B14EFB1E7F08E6D2CD2AF52DE757F35F5E62332EE88EA26417AD5C3E0E319D68F25414E6D672BD4522B278C57D18F0113921C71D96527E091F00CEB15AE23D24667369BD3CEFA10C7549D930890BA4366F4EBC55F01F746109F98ABCDD5A3EE06619C6AD78AB33E48E4C9BD21BF7478B385EC05C4F8987E2C1BFA
311
0A60EBEDAA0AE0B015C2720ECE180FB6F2DEFBEB822D96338C9B63822183BBF52FB664A7AE57003AABCE512BF77E7E31BDA2E739AC4C131657DDFE5225E900FB56CC01CDE808FA4A9C9DA16AC679656BB64796283D89812B8F91136AE18EE5EBBAF47A73BE3C153EB5D4CD491B4BFB4FE690A4CF9ABA08C0D8AA64220C438C
311
96EA6CA80B58FE5761E697B3A292EB9FBDA502FA863E49FE694ADDFFF9D62C520BDD1A22014147A0903A05B9B729F54272EF83931FEEC057BFF8C8055C279EAC5C0011804828734024F6CFA319C9CC6867C727184465CD9BB7ED386AFFD96B294A85E3802FAE47244602D8273615952B98C4F23F7EAE4463D9D638EEE374A2
311
0959E0FE519C4CFB0FBFE5DD80C2AA3F9DB961D1BDE57E67C9BB47B77FDD74EE3094F5DBBE3EBC1FBDB7393F5116263009E2EFE1AF9A221B2AE234C902BF70E9F280ED23E73908361565964333A3F01D0B006AF32FB21AA1316744B489D5A198E85299241735BE559675130955C902A8ED761FC0DBE337A9F91919AF5CE32A
311
F902ADF9AB2615E00E8A94586BA1A90839B61832FF1BFB76D2EFADE6DB1BA04CCAD3DA649E7E2A0219F592E22F2AD54847EEA8E42271011E9074F8F3DD9FBA6CDF88FFC9FC7E811AD1CA8F4557CE4AFC7BBEDCF0114A48689F20A584520C74DA8127124B767E2FB91A6B186246727BE63C9445BAE02088D58B8EFDC0F10724
311
07CD9B89A13F6303B4A928F593AD489B58E6869325790ADC406036C591729FE14021F94B7796BB11848D463536A092A26F077F94639F7CEEE2A724C66EC885F4A24F8B8A0AC321F8FD149BA529460FAA34E4663C02D41FDF80BCA222D42F0ABFF8490F4FA74C673807C2051D8E467B47B616072860069A9A303ABA9B319D58
311
404461401B0A0F9BE5E1E151C14BC33B32ABE03DDE91708DFAEB15E7C0D593C86BB7D7EC17BE56E57975F077BFD5525F3A1A361D584A75E08CF29FC7B44B2B3085014F3A5A14517377C3F6B8F37E59514C3B12F8AACDEDDA4DFC49BE5710101534CD6FB6DE15B50F11A09472AABA727F0C49D9CB906B158030065F48EB3625
311
E010CEC1D511D0053474B11E6A4F01C0D6EF1BED3A944FDEC70E0DDCDC756C86545910E0DAE3BE3AA9A404574C2995CD5CAF9549226BC94B4F4F0F5F9086F418F6B32346464610D8BC7391D3C3A3CCF04CFC1FB2A3A3170E369511868F14EEA4E5E438CC73DB1F3248AA94B6B2FF33B222FF3D1E7BF146CAD229770158063B
311
CE4F5391964DF62F7E52A7BE0EEA829C9E13C4C147D6F93FE59E111DAB5E4594D6F3CD1AD375EE039930EFE5AF2BB2D41C83C7DABD8C659BAFBE8FAB392CA634F3D15C1D945DB4588D2B0824A4EC928AAC565557CA2F0DAA588CA5BE30B3A8004F7BF005E96CBF891D7F18112A3619FDF530DC8AA64954258E1811789B5189
311
B49B4EB53F5F89F7D37523894F3EB57B373763C91E502F52CC99EB7BDDF933FC324C4FFC2561DFFA7339FAFDD0A4BFBE6D3A8FF9ED1FC49898139864602458968913181918F719CCF5A68B2EE9C1FF050E34E63107003B8120FA982C21B30A874E4F5E4B38D5A8290C4B8D9BE48A0BE31EA995BDC37AC6DE90BA17D259DEF5
311
3605D55922FEB1855D915B659FBEB350EE0DFB2F9F766E1C84CC8964B75D08667445EAB966015F63A18A9E0A325C1B3DC628C0D3CB60F767FA93CC65F25458BD23C3B312716E5F40E5858AC06EBA9AB14F95DB99147B832069201541D09A0D856E12C629CF32683760EE855537D1901988D5EBC156676C7DD51D7207CF3267
311
AF1D76C2AD867315E44618015313A98B19941C696FED3461CAA9B5415F918556D7802EDACEFD6B2E45853A9735DFC9DBF7E440F9319F8B6805A973BCCDC76C069A9144E51F187EDCC12FC31B5DEAAF0A76137199B106EC84ADA6B6EE697D4E6A96E007417F4E880E8B1E89B4BCE9D81EF611E2ED8F0C1A6C25F620FAFAAB65
311
6A7C42D464880E8AFAB0E0FC8EA38CA9A8AEEAEE3E4648BA4680270A89743CDD3E6C6CBF34B7B640EFA285ABC7EA0A1E28F3CC963D114A80123EE66D0AF7D5380EB41909B605AB4765B709B808590458157E69BA1378FEC4B48CAF6A730E3BE3C5EF2DD1A5EAF94B1DDE50CEB55DDFD7EE9A16747FA4B223359FB1FCC69E11
311
94892BABB93A1D5C4E807AC0EA2E30180811E77A2291F6E7F7FAA5E0F60215BC6024E48DE436C511F0628B8CA189982D4D83CCA17D305A7E923C37941CFDFDCD93ACAF735EF5F0E61BBD3E6C41A59B242790D3A3BAC7064DCD89AA2E37214EC839820949D5CAA31E240D2948E48F690298974A96BA9A8432BC90F5071D6537
311
C9666EA4564796B7AFFFA548077BEEA75F63083435074BA182F3699557397F71548383FDA8CA34D99B981E72835ECDA5DDDC151315173D05A21F651AAF8524E88209E2E7A737ED1045800CE3390050BCFB8BE588DF111617874C62575039CA588EEFDEFEFE319B739DE2EDC147092A262611E159650E787917885EF08F1F51
311
B8F2D8A71D60B58B190FEF9541A1BE94BC19FEA50784DA1419FE4B0FB51B8D36B5FF8E1286FD8AF42B91E59A5F1CC4D60174E764045FD8C57B18209B217F89A62252BD20BE0E63E12B8E8F029FE19E0E8D0870F58721A557082250D5424F7909369376E41666C0EE77CD87CB283F661D5FB6D0DA023CB67320A20DC7BE661E
311
9E1BFE5463085C557DA1FF9BE835733766C3D139F2CF9E2208873AD0EB4814DE9E6BF2CAF81614D4D43906ED1C05A3265CABBFE192770FC2F64F940CB6B17B5F166F133C9AEEAD2641807C3E69515171DD74C4A85311513D6EC9530B3B601B6BA3EBFF3B5C3D2F7D69765141E345F75433953D013ADDF8F6AA7DC3F4A7563F
311
E5C7D367937E2900D7EAD0F9FC9A4A1A9B5BDF1FEF08532660C01C5D6DE22199AA774383E306DAB87E301ABB7D213887F9869D4942D0D71E94B27EDF216A318BD488D45DF84529EF575AF3C3938C0AAA0215B01994153E2054A0B894DA5C784980633AAD48576957CF4AEAEAFADC7C587368551C73DBE1E57C58AC713303A8
311
BFC258BD04B51724459FF9E24C03A81E0E0679CEB9B348C0DC998FEB9C6D6EFA77D247CC8F92D3848599ED89A23218D0636465AD1CEEB7DC140D7426F83491C4E8E8281C2FB35240918FFECE880CA2A42D70E8B20B34DF5221C7DB0CF90ECCB9C745B37A47E9B716FF7A97B7A252C1F3814DC7B1E1A7F72B8751D524EF7CAE
311
45B0C73B3BE7D08ED39781B380DDFC9AA4A4749C9493DB5BAD07A6EA6C092FBD0E85DB004DF06B8C9D3089C5320187E4CE1846158C7EA7DDAE8AD9AFFF21AA3A1026BB06A259845E8232DEE62811A4DA9CEAB3A4887320B76E2AE5615EAB7BDF738CBDD01F1E64064BC13D9EC53576751CA8CACD58B3CEB0E6CA585BD089B2
311
A59B9FC101403387AADBDBE70586B93D64BF3AD4453EF9C3B6A93817E8346991798601344F79A83C51F3D50F7BF2683A3605F51A72449489E0EE6169C749C60B1035651103AEE24D24E51A759C840DD3FC6504DA6FE107510E447B43461C79D22970B75DE5E1BD3007D1AFC619A4A4A69B5626AF5E9B8374E20677F77E2F8E
311
73DF868E8BEC7EBA7B6A75EEF7205E1AB9486CB642741D6E03FF13FCCEDB1C4AC129886268B01CDF4B124AF797CF784F3C6DEC97A17D4B558070A0F1C04DA4FF9BDBF34159AEFE958479824B3F58EBD1E19088A2AFDE501B6F2052368A3FD0E650A179EFAB1561E1D27527077136E652676C3670F42DCB3352F48F6BC86D2C
311
3B0051727E41A0A4DC6CE2BE9D47F5CAA2935A3C0539AF080665997194ABECD723B08129CC5B6B21D2E7D54CD4D12610E7E9FB8306771A89576C7A982002775ED44F3F744CF21EEBB27A631671D921938AAEE3EB0D19CD1E083727F607823E817BF599DCED5394E37EEBC2E88782E638920CA641EF74D4CDFCDEF06F4278EC
311
B18E31E7E9876F2D783C8BF429C75395F57E98C2B495A3DA077EB3AC3C158608B6B57FE3EA48484D9A480096FCEE0DE880950E7E5A5714131C5C41AAA29FD19AE81AC145FA1B9E85C7169A5AB837B213493DF7E9AA4B5FBF9CDEB36EBD21EF1181B7CF7366AB2A951D01E37AF4EB835D1BE8C117CFBE7625D2EBCDB0B20C5A
311
4B45CED0BCDE3EE8DA9DA78C2E21DEAAFFD1197E463C33CC6A80FB785669B856EFF7A8CCCA2841B5A5369173320B1170C368B2748D81062EA0296E5E2D95D7667A4A46D98A6FF475C76AAB0A8C8D45E226FAFC9FE0133EA9F60111F99CA81ACE03A1D14C89E8B0D69079C91464FA1D99E651D0EAF606F345C42A8A1AA9BA39
311
1031582B96D5B4176A77AADB01F12FD298A75DEEBB2C82F0B8650E880722F8DDD90C56A7A058E5FDEF1AC93545BA27367C76F5D8F9690CB6F8DAE141EDD7971F0FB548A2AE435F224D6E5954CA155512F7332029D5A1230854B79F258EC5FFDB09F5F6343A8EB193229B7F7E79B3E48F8E183860B38C8269D1B53738FF1E0B
311
ACF6AADA6D4869E9DE708E79B5DADCC09B1BC76F649731CFAF59A83FD8BAE4C749D66FA87A3810D4D62FFE826FA400C0F325D2BC0F3CA35F5847B82A2ACC7961745C823E4D863D54460AF792CE6F79B5C7A33B25C3AEA6CDE15A919B6367D781E9D44F61BF828672594A3E1D9EDD6DF179A81F27EAC05B936575D73E05C209
311
DDD2115CFB705DF9BBF3C911589B3640735E9E618FC9C36A7326C82B2205E244C55D56FDB9D5DC93CE958D4BF8174D2B3DA54CB3C09F2C2A6DFF73D23B2197355761AD421EC581284A7EF8DE2CE3497C0C804D49B41DFD6A7360844E5BEFFB495CFCDB97A4595911CDBA623274CE852B5E278AF0BEB1770E9D37CD977B2766
311
A7DED0E94B840E1E95E8C77DE5CB6354AF7871427C28ADBEEF7BA0A28E19DE9ACD75F379FE373EAE6DDDAE3834692F9C2B03B4FCA8FCA9ABE8EEEBEBB725B88A7C90941E850682CA04061A7DF0CE82ED49BFAFFD42C309818FAE14755CAAE78B0F73243ECCCAD7DF58FCB9CDFAE7A4D3E6671A613639130D056C8383C8F4FC
311
F4808C331E544DD26E4755D09EA05253B3049A1E32587CC25D72E073E2CD96D04A71BBCB0038FEC3F53D254199C3CDC67CD66640269431860225392B2CB3ECD0B4498AAE78BA1994246AE1EE78F2EDFB79F6C6CB6B5E279C4D373FBC21CB2698C9ACBBEB6A4BB6B39E16AB0E421CCBFC7654D81ED86022F9BB522146F9F477
311
2E2D0E4FA70120C95A85A417BF5078B232F4754363EB1750B2AC2148EB46B1EA72AD9B4D23ADCBC589D70106C3EC2ABEEED84DFE28E718C6C83502C28E9FDD3B09DA0A6F6F7B72B706A31C9E2A331EE70DA56A083D2177BFD63C55B11D8D949FAFCF90B23A1E24B9B5018B9A17E99F2890EC302F330FE7936E2C23F0D237EC
311
8916F5166AB84B62A21BB0B950146962D754F92CC2C8877BED8FC7B7B25726DD19545392570B3A2C66B58F027BEF412E552D12A588C4A3CC5C3193FCB3485EFFF700D0B9EEC077754A33DC1FB9E25AF814628F91DDFECB667D3F7690803F38D13F8AE39353523BB08FC6760144AFA2CE28236F65EDBB3D5F59A57D612B99E3
311
D7E5F8A851666BF9B5A6658EFC96EEB37A378ABB0EB3FDDF1303AF32C41BD1C8560745D7BD81066B0D6313359CF488563D3BA3F8E2185D1FAA3EBA1397C9D0E3DD232180A4DCADB6AF25DB3AC3CC26589C8239E66E81547BC7E2F328F9884764CA37EB5DBE390DFC03A5246B456A7C3684C4377D0EEF9A350680FA9A077E8B
311
2957B489E09AB1AD41316944C2254B5984830F691C93CAA767EECF976FA5647538830B5E63236A6F0365C1E0F3E327F24FE35EDDBD7360B0F7374837409F7A6311BECC12B7026D4FA1AE204FA3F5FE904B1F420C7A9044AE58E403E7C4848E7DA25DC9EDAC79DD756FAA26B9EA83ACE8A214A2612A22AFA19DAE7DBAC5F8CD
311
E1292A485F98DAC731A29FE01A3966E96BCB9FB5A4C8830E1B9AF0C54B87FBE221A097036E5D28D1F869F810C06A9BB0AC0612F69AEBAF893C6E7AD59460208BAB3A6B09CA4F6BDDAB8CF0D1F84B72487498395A70DCD754796E271099A567A55CF242BBED64696378BB6CF25EF0FCDB589F3A82F1116D010A9AB9FA435880
311
9EE0C973A2B4229BAA876A70B03AB49CBA7FBE71DB1832FFD32F9BF2C8E98075CACAFB36921235D0F552B6A67E94E094097A5D7DF681B40623DA535ADA7A9AD8E9A62407D7C9A5AE51D62A17A83A23728DE86BB56115804D3F2675F2C6B87541A0FC497BF0CA86420F558C9859EBE9FAD62747E323E3AADC03FDCDDFE7407B
311
09DA90B44E3185723C5381EAEF589765E2F7A099BA46695BAD60CEF3491B8A171F5F56444F7CE9455312C3498C74173AEA0214EC029833B34B650CBB5A5508D5091665309642791708ECF27CF11DB3D797D6CFE474453BD4BFADB768094B2147814D81C7CBAF8228DCAF5564B5891F5EF6A860EB2E323CB82AB868D8EA0488
311
80D63B0DE5341F1B3D53297B928A11E15F25E5148990F710747C3509ED14909C552EBE3973246FCE55D00564D8310BC3EBC5085D08D806799B77D6C57FDF5E55837F9E934F09C03C729271B64F12D0A9F9E938107CAF7BF1EC8CF1BB9B42363D33070F4CACB425E605DDB0A34A12BB936DE286B9887A4E2E558F0886498BFF
311
49C311D96C277CF6A9FC0D75AD0ECC5226D7E0E3572012E56D7FDE4410CEC7A6D0F997F225A2055B8B92E3956E875AE4993CB3D4C9063AF98FD45E1BAB165640A43439A2C9181A7C355B297C0A0CCFFAE19B6FA3C2BA238A885FBC98B8F6DAF4B94B97304878DF4D8BFF6A4AEDF79E90ED4E68F00CD7299F4E0D83E35601AF
311
0CBEF18C1E870E74758FA91F5131075004DB3CFCF09AE1DABC11957FD9808C92E8A678CE9DBE40DDA0E0D1D505AAFBCBA208232BFB6FB3704E8985E61ADE53DE74152F5C7DE74B1DEDCD37DC3E8FB30D7EBA8B9EFFC3606BF90B8D438279CB7709FC7C00D327F41817EEA71CD9E49FE9C8C9A81C70915D9F0F15958EC5AA4C
311
3BBFAF46986B90F188BDB24B89DE3C6F29EC3E6F66D84856EE96A35E657CA41B41EFD8DBFA16AD6E91439EA92B40B21C053249F51AE50EB0B24C770FFAF40DF12C8436366819C48E36547D4E7B72FE2BBF10828583057814A668BDF183F6B2E58DFB151103E56303E63D00F39C27C4661605DB644D19175D02E3F0241E8FC3
311
458D17AAAADB117CE9EEA690D0DB01E634878C04C2C9310B69FCAB831151E3AD293BEF6E46B0ABCECB50F5939B39C613D41E81FAE8D34CAE3C4566B761D37185FE864AC32FCB71AEF39DAA5BAB88609BB980CD2F07A8F941653B529567726E2B2A58D079DD57E1E5E31426CF184A04D7B03B985F276D47406AF276FE32E332
311
8BA866EB1FD39BEF57863A317634AA5FE467409B3873F5069EF0D71AF00AD189D17BA1974ECDB2D623E9E14086386A6AAB5807825C37B015BFE892AFD154920EC437EB945D958E18622E1E0FE2FA06557CE4BB9BBD05A2D40E774DA2B65473791E314B7D6C886820B2FCFE4AA272B3B8B15E7344A145E8AF919B5454D89D36
311
D413E87211186BF6F645E5EC94DCCE8E1C799022E4EC9BC86D7A0F2AFB1FC4B2CE48F84B3F49ECE65BAD24CADCC07EFF39AB06BE9E6B27A059938EA7208838455383DDBCFCD967DDE4650EF92A14FF933C975DB20BD7FEEBC4487576485963D757D16340D9599FEB362F775F38CA4185A86F74B629C81B133644A3B18FD056
311
E997E0734F9BE26D11C0AAFC669E2AC9FC41D281F8B2E1C35AE27BCE05F3DA295488096688719D974DF1B5D182DB7792288697F8763CFB43562C1CDEE11C4AABD5C22B6E33F6F389CFC3477C5919DC0D533F8A7A1846B7ADB60ABDC26C43D0CFC8910B7C15EE22675BD02702ED39DB77A87A192CA7A543E6205B979B9F5A6B
311
512A3CA799E198B2D5797C0AF8D1D872CA455D4D431A7879D4DD76110B5FF7F4176B54477A9EB5E4A5D11214FDA585F0382751D8E2582BA5D2075053298FEB8F1537304E32CB22C2E2B693DC0A760B1DFCA751BDC445AFDCBB12820ED85F6D5298933C7EF1211E9E057684056CDA3FEF3BB6052355E162DF27C59E965A8DDB
311
7F9437EB72CDDA3A090DE65A5B2F50326247B7EC67B73ACC7047FC9B353D6EE990F772207C6EC52B39DC2F3C0754821DAB559F7C1809C7D0DD5B0499D0442E0A6E391B3D5DB46D11E731E6794EC77523FBDAA242ED67F9FA1FB684255671F63C9BCFE6E7E896D51001A6113EF2298BA494E0B0980D1FA5B9D60796554C0225
311
6B1E0345FB7C6186B6A19D2DCA270416262845FA4F42DB5D9B0A0B6F07FCA2E56C242522E001E0CEB734AF310FC8BFB57E38E03AACE93B3326A2197891E68452B26A6307FDABFEE0223D3C03C3C73D2D5BC054C8311F12004CAE488E5C29287F8156A2CAA4AD0D7BE6B97264E4139F437CE73ADF52E5134C52B819777C18B3
311
23A5924E4F67AFD13B1CDC3A61793A79FAF5C0CEB718E441071E797C6DCCB9EFCF7E4A1E9F3DF3C2F9C9E8294E9586868788C972857FB0556D7A26941A7EEB9B580AD78EC40B85DC906B4120A563CA3B87797ED612D3B035962BB75F6515A393F4CB057F564CDF54F2E5A024514E6A1F901DB80C7E70B1FC05E356A7E72FAB
311
F4775B3E3FB8F70A2A8E7B6A94542BB304157978CCC999E707A29CC795E67A59CC546A5D47B368954CA7B6E75EC9E1F6FC73CE3B4F71F8CB1A6B15923D61EAAEB14626AAA9D04A26EB9C66CD1BE86CA31A5D8703DE04CD1EBCE4F5CCB62F93909AD11E55799A781A956ED27D3E738F4538CB04ADABC7DAEF20BC35BA6A90BC
311
C1DC61BA05F20D8832FFB9BC9B15E2DB838A0AFBB7E0C82A562127E0446894F427794C3037186F622BF24DE1B00AA10A23BFA47B2A180D6DA5AD6F7326FEB8C100C2D7142EB2A0B2A9D1008A09BA343D70E054AB69E2A7EDB783CBD92537FAF4A44D1296AC2792729104B3276C276C951D0CF3CF3F1E6B017720A7B8505A5F
311
F9589365979678C36F1BAF759EAF57C60F1FF5FE9DCF5F8E764FF25A2D06CF25117A8FED51884C13B2B750DB0E4F5E3D64124FCF11F0AD8F1CC3B3DA4B38ED22BF1CB2585EE6BFEBBA63FBFD44F9537B9B37BDD6B358720F98A8125AED4349CCFEB0E135F19E208A04CA7E2B10711185D72E381F448036EF57C9F874E54A97
311
1CA37A639E986AC0226DC5AA00D5B14FEA9192234B3DE617814FC221C92F33F1D392F297731B567FD98FD91D989379AF567A65B8ADF177591DB90FBEA99BF4ED11B16E50A0AB1DBF1156D034BBE04D69D08F939D8E92BF525A1DDAFF80ECBC95D8F45D3FDD289FD23F7D8B452F8EBB34EC082DEEE68E18EDDF072060FAD2AB
311
1504DD4879BF67099FC58F6E9DEFBF645D16334A3E9A127C6F1AF6132CF287E433B43A0EE93812B4AA0B194E03EE3FF91EF9C6ED0074A2F6EB18A96A7C9890B1FCDA1F2095E944DB911ED54C60DF16FB74C8CE9BDC7C54C4F14078CF73C2FFF1F1BBCCD7CF64F71407EA1683DBC410D226627F66E509060D5C0AFD611DE681
311
D509DB8DD12FB1265B03C6F5C55FF4C30BD94187FF692B4F152982502F193098A789526A038AB529A52BC0DC4FB6285CBAC10A8B8DB75DCD9BDABBB221E27D1F8DA9F5EE5926A1C8AA9BA9BC09239C6A7F12914EA3B59EFF7AAEC3FFCCE56F1C5C2980AD072793527565E774F4631DB178CEEC691B1F367BEA0CF2907E1D6B
311
854D527065979DDEF002D8B2ACEA7CE21AE297737EDE1D45B31233B73FEA35BCFDD0B09721FDBAF6432681F2FD10C3E9EFB246FD6E854B344ACC9D8A0EEF876A7314B49B6A499FC650B099D650DBFEC7638ADFD245E2B7839DA5AC5F7D5623FC0ECEEC8653FC9B2BDD1AD4D00A566FBA7186DD3C9CD26512551637498CADB9
311
50FEC71ADB9A5524285DE328B8EC7EC75D2345AEC6A27C42AF6D9B92155315C80DBFCABBB7DA0FAE425C4FB896B15C9BFAC4FE67DF5A23D30C93DA4D8F36FB15D100050DA6062E22AEC5F4DAC4F6FEEF97AE05DE63C6D38F9E068A20BC5E3B6BCD75320C5090924E7F93640A7735B1A43451C2D91EE62C6238B797349E5989
311
0AF3A520DF4A87095F3ABEC2E61F0593416CE46CDCBE0E00E2523FCCD04408588B5B6C9DB6459C786CE378770B54F51DA3A5E1DF2A3349BEAAC234A6CF8993B598B3B25B4B113E353A4D750FA7534749430F3EBF2512E7EA3FD43C6AB9A1F765A58463B306721A15D224FAFE8C6F5E3432D57EE697DA0DD5A9D4866A8BCCAA
311
A9DFF1F06047851408FEC060471D0E3EB86BFAF46E4B5E60311DC3E3CEA147C75CF971BE74689507154FF2D2E92F15CDB2B9182B11459FD8ACAC5A85F174BC94A7F4EE4C4F5CAFA7C02E37BF0BC77B7DCD0C047BC316F562A01A441AFA7931CC84A28CB9F4AA367EB515778F29BFE61195FA671F4352E5E46E3A64773F1F76
311
EE5EB36D7BCE9BCEAD837A4D77F8DB8C92AEEF6711920D7C7D0F76B0FD0EB7AB83724CD35BCA7D36DDDF5FBB7FF6F04A91F3E2BB3B8F1A43CD659639507FF6331C5F697BCC782AE57D757A27D97F1AB9E0AEDB43F92F1B2AACDF5FEC8ADBAF9F814E2027003BA2F9E144B1938A7A04050AE5D953B82C45619165C813A10E76
311
DD6906B3C16438064D14CDA713AEC420034613E1AC7241904A49FBF87409AFB1FCB9B72FE7933A87D8FBEDACECE4EDCF6A4FE9FB94D5DEB74FAB7CFEAE17EE965DF980DCCA2D04134994F9A2E94D2265DA4FE6AA7B7AC15FACAC2B5ABBCD7DFF542C5314FDAB2E1B9D8B65220B8E2B638BE008E8DCA22678C820C5053664D1
311
5E89F2D735B51A84955E81A443545E9FF787BE0FA700A76D136C27DA179A7C6E8939E01BE756E19CB292798063D8B97F44E8A27BCF3A614FEB8BE974A718E86F7EC99B53CA35FA24F61F2B07266684623A3D4CF073E511F3A10A8FDAFAF0078C577F4DF9D339FE7862E5FA47CF4344209E5BF76D783B1B48E152AD281B15FC
311
B934DCDA49CEC5706B1EE8B460F435324A5CAD154725E21AB8044B75A557A79F6C807B9340AA3D92503E866F4274412926C8C504E4D5EF8C0E68DD0B028781A6B4054F11CF18941F101C57CCC796773ABC8DED9CD91FE5788806C05E548895354AEAC96546D55B0E94A59F148D061F42AA398D822CDECA4CDE79E13469BDCC
311
44FDC990F366BA5978C15F97ED80CBFD73B0CD9B8B83A4F6845BDFBFAF034019473FB9A63BD55D3A4A7284757071574029A4D016DCCBE95DD679EF3C4880BF169422F8C89B68A988D2B13793CAED4F74DE7486C72DC94DF46B8E93D8E02EFCB1FF9B3BA10C8AE7F653DF94F4AF466CDDCEF5776687F7C4C14B63E4EED1719D
311
C2EC482D7DBCC7AE518CDE3D5FF86D39000EC3673C0044E1D308BF05F74D1B5F033A7D1BE7F74BC55BBE3E4A20F920946CA0271EB17BD2B80E5660ACB8A29A79F5E4BBA49D4D945B6EEF4A7EFEAA65E5555BBB57A7E15D2F83C69F30BBB978D2B39F1F26FC097424D39BB33CA3D87ABF64E307938B685BAD44F71556A30B7E
311
712CA4FE600613C3E554B69ADE949A7CFE214DF1FFF05CB82151EC6FC31950239F94CF7AD39DC473F6EA356E5EC2C4EFA04383CEFE985A127484366FBEE3C0EC4FEA363E4F6632AE781392FD45D67B63FB8DF70E82734F431FD3443172A0E30A83D60982D55FA6A2CF86DBA8382502ACC6CDEF3B907982EED1160E14863FA2
311
42F9757347E1544275CCDCF71ECD5F8621CBEA326B8BA884AD7F825781923E66971F04010D574C541D8427A438A37EEF8AF88240EED7362C953F5A81DE2D56109CDE2524EA0F5D2F87308C0C47BD97AD605878AB8589E17CA83930CB5E0DCCD75853D68B1AB136594926DE426C367428E9334AFAFF90ECE221BB5DC9E5BB53
311
D2CDEF954EAA9CD814F0E5725F1965DD458E5F8487683AD86B9D0076BE3EE91EB1CECC5331A67A3F79D8B27587C12EC2A6A70474749F27B4C0BBAFB94B34189E88DC18964BE4121B9137FD516C7755356E50D6714E31ACD222621EBBCD1CFF81D87479056A9DA0E0B8EA19D24CF937DA89F78E8650CCBDC110AAB6C4E46DCB
311
FD0446BA9E2060E81F314AC2031E88135E5476AC0160EF5C0DD2EEF1B8B5CB2D198BE9A554A9093B5F7D7E4B5407DDFCA1D9C152FD97F55BFFFDFE802954DFEC8995B983E28AC92F1971E28F531DC407A1280EB125F64A72E617EFB27DFBCEDCDA2D6F2BDADA36873EE46B9BE1782998C63DA7182BC383FB6FD15DA472B175
311
D7E8B4FC88F38D6E07FEAA3FA3CBB8F6B449ECF14D2175E5C5CCA3A42ABF24CA6C9395AF74535F4DDB38CB84F56614B0FD32D7E19CA5CF988DB4449C40E23DF2B16772594554579094450F56F253CD25EA7F77366FB1CFE79696C428BB64D5A41E986189427E5E4D7E2DAE3D5BB4972B3DC44EAABDDDD63A2264ECFA5C786E
311
B0EE1FDC5BE34FA0F08376869FD1E61EA06CAE15191135445EE8F0394161C3266A596AA035572BB0C8876180D8B9C77D307DF9DCDF7365ABDA6F3A2366436457A4DFC1F259666569A9E4A79C817BDD5610E5200FCE894A358EC72858D50EF67545DA81C6FACE3D457BAF70367E1E6BDD9A952FB4F56247F58F523B97E64024
311
6051A72F79BE42FFA0B3187F63097F91C48B868586F714B0EBD5A00A8412C1236E1298F60C72BE6C96B82B404CADAA304AE9F303176B14BA53FBC2D5E86377E35542019E24D97B96A49B2C0E5006E7795954DEAF5DA58958839043C6C70BD3B1B33B6DC5C31316D8A6923F142E26F6711A2258AF977DDF1F970ECC4F1F2B43
311
4B96D81BEB6E89BF3BBB3C7C8CC80505070723D6D7D7D3C8CA27CA164A26024FED94B12A86031867241DA53D929636DA600F050BC40CE48B8BA03D69224720DEE2ED2127390BDF5E6EA64527BBD4C4C63FA76BB801FEEC0E61218EC98A8A86CD8313781617877E66692839B9468CF4DB8E50A73986E558E309C0D6F676F921
311
BE02F1185454DC75B111572FF9D27D85EA14C05AD7271225B391C4275659CA4A43759D0BA44639BE4C30A84DB7F67A41399FB95CBF923B1B1672ABC807C1590557FB18D811983FA97F5E609516D62281D38B1281F68FC75528C35E4CD7DF0F7DBB5E5DD69C414EBEA2F4A5B241B996BA77AE6C772E367408C633EA3E438B68
311
563EA8BE7667F3A4C4FDEEA52ABD78A2820F443B7914A15F180018D231E64519C56A12F6CA7C8DAE18F06F6B769DBF92329EF6A5D18FBCE600F36BD8E8198DE5CDAA96181F3A756EBA5501CEE58F497EA4F418A2B82565B9BCC611713C0B708CCA1F398B78C5F7D03B3437CC18F13061F55C7BEDADD5ACB1DB0E36D3CE47FF
311
6EA1A563A57E9649EA5D14D1A50EAA457463381C073777EF1600607BAF6428A7DDC079D47A204EF1E1F1F0589FB054D45E02CE623B3823C317C601E589E22B1E88B448524B86A82828E32345EC18AE17214B42F8C41C6D428016D9BA31DDCB47572561E5A402E5BA4FCE55F78AF7268524AA04130F3A20BA5D1E9F9948EA48
311
FC8F5314FDB35E21898198060034ACE5E3E2BBCA34092518F275190AF65F45867FF0900AA4B81F25427414C372BF51DC29AA855C5428EE1EEDD6B849AD60F6E73475C2D2523F8A2772C840A478DED18A8C5C91B085F255DC4F54EA7AA8947354FD17ECF8FB3B4A0DE7B483CAF3A1165EE05BBA413E5C1FEF3DE1D6B8F2F3F3
311
251C17D9FCAB48A9AAF63AC773A0E413BBC46A9ADF84A566FC920E4D8C52C9769EE3301CADEEEDD92B312E02E2A7E35B7F1E7D203FE5A7D75578B06E99D0E46FFADB8FDA17ED8880390DA29094202D6F645F76F6F96409CDA05495A96E84B04A00D1A6C6C81D7F3DE9376E828CCF144EE50E364ACCE7237EA0BFB5607ED1AC
311
3CFE73794E5B61739D14DF1743441B1AC98F00ECEDE9E7301FA29755FBEFA68C91EF2B314CF510537EF1ABFC9A762496280B546F5EDAAF8A5B387D469FC9A878A92828C88608453ACEC6094DCA54111E7AD5B2663DFE2DD151B7F123B9F4FEF8EE36AB125FD7AD52A59B1B765B3E3F73E3F73DEA93875004D2AFFE3CDE9493
311
B87A9904DD052028949041A91DC0E1BA47BA714343FD5B25E0A6A09503AFC17C790058A836A324FE31D7893512E28230332F153181C1E018E1124EBE1BA262AA428A518237D1EA7275E48C5C561BD19ED6912EDD8367DA0F31E40EEAE9683DA9257525AEA7B632B97119E17145A90231768A4F3B9120FF32E8319B015E3CBE
311
26F1A754177D8185345817C096B0CE443A955D13AC15E1FB5DEEA0239EC32A3C92241A237B0B02FFCB4F93CF2B02570C8D192E2F2A68CEEB42F12E6F8CEEFF46C251E22B4341C56FB08CCE550E7A9D6F4D6564B9EA52A83D5BF2C6E03FA19D2775E15A8A7ACF30A13C259EE7F5EF2AC3BA354F1500E1A07FC63FB4686E2F12
311
EC69719F9ECF5FE3F35598DF2CE944008CE78F0911BA5BE5D0A34E0098FF038669C26030BA9B300303039852A8F6F496341737CA7E0D2E3AAA36DE0A70AA7D9CA0D54D9AD84B18A44C9E625475E1C97B93BEBB38DCE7D227E67A2D00F531436136355F243D1FC0D712C5765754FA22FCFFAE97919161F46D6E61ACB37D8377
311
7B385889770B50765B127768443A5C4D3A4E35A3151111F146B7CA116F918A049F1C272F2CD7976C69A0068773451659A97E0F4A08FE604C3FF6CE7385DB19F4D3ABC8A0D80DA8A42096AC377DB49382B36E270B6FA7570188B4B7D1DDDDA82ACA487CCA5D38BD3BD039ADBAFA4ACFF27809239B722081E2EB9F145320553D
311
183F28471C388BC8814E5045676767AB58A8E72D1CED2CA731379515D2E533E4CF0B39DFC625F97AC4836831A4DE330E87A8126FA17EBE583D614E71E22A8DBF2825599743E0640037303E8E1B1E8EA4E1ABFA4F62907B5E4E0E5DCFDAB417C36C6848A2B8D15F1E505434C0707E16B1CFC2A1C36A42BBF55734F8F4301DDC
311
2A5110CEE8C0747F69519265012A2174BF4E955ECD4FDE095A3ABC70536B7AD0B9D7892F81287D667C108703C9B66A221E9A0929D030008F77FF6F5D2108EF5706FC87A3069B976F7C9FC3239D13D283CDEA83597461079FEEE049B0F392889898B7D87D31F8D60ED7B56B91823A8E4EDDB36C6172ECEE42BD42B12CD67994
311
FA0F0DFAE9389356F4CD4425A4B8AA55CBF7ECD585C6A2C2316791E43D5C06841ADBB226A87FD61515FFBB0167B74E56BD7F3E90A57A97FEDCBDF483A0D6699A8C0849CAEB4947FAA90D8E332D9DEBD9F4738C37DA0CAF9CF3DAA68BCB67C420459C7A64498D6E848E5CADE92BB6901F607AA331104A67F7CD650EE169B1DA
311
E94D2C31C2F993632259B6957E246EFE4C5481107B07118607700040E5812A2A2A38DA0076875258C753F60E0F2662C748EDD5F3F3686B8FC3BD6FE631ECCAA1E8B1C1E565AD117E54893E79F4672E32F9E46B2A183DFDCF3EECB4D4D077DBEA0DA254D256045109670050129E9B9B1A9E4A11344D61497A99277809515151
311
0C4BB7EF2009B63AA4360635312E4CF668B7E0D3D85A8688E2BD83B569439892ADB63461930D428E0DE42E4AC57CE48DA5CC1449530D8BD3D6A0F08DF20C8E8F570F2CFFFCEA286E30969B4654D498A58D9DA782E19FE3F002181838925592C4A1EF0B332D88B61A92C644547BED490D3A42CFFAB70E36D961F694F6307F72
311
FF15A1C79D5B1B5CEFD353D9E2B52566DEC8F8F09CB3E8359C0F68EBBB7898243E34E12A015B2685AB303C04D3A9E00671FF3DFF0A184E4A2ABEB2B666AF5B3A209C73D8EF29DCDB069C9F391EEE9DD0F74C7BCDE16F8F02E3B8816122BBEB50665775B600549D8BB33A54A6BF940C028118BC6878C79958D6784F9DEAA6E2
311
6748386FFAF8D0D0101E2847B6563F5D8DC1D78F787BE00E2C941AE12148D4A81599FE8F68D4DA5CDED75530ADE138240300EE13B0FC13A1687FED6774662C05A2B7DFB186732F0D7A93545D8B0A6390AE5054D9CB582DA846D7A061B3358B45E2B52DDE63E114397EDB7E09233A579155D795BE76102CF277F4DF8B188C4F
311
2879BEAE3C08347124BF9ED23B128259FE107D31E34A652F090B30B39E0D9AF917B76A2806135621A8A60681F16AF216514BBD02711585B5B1AE823F4B2D0369EA5B6BCB863072727FFC871CA6C9AB79A814D989057E9470A3D238BC87CBB4A0EA49AFE2B86F22E499793CAA9047080450166BDC357524561E258C77CB697F
311
1ABB32562CF87C3B7AA12F911EF19FB3E5C02222E887D08202A60A17151F5E053A86B437771088B4FEE14D652C43E8D939995D34545E12E2FF93D4E366EAD25F10CB7DED141563C3D0C447AF06078A91135FD4B9611583CB4BF3BD167F2399CEAB0E0100F8FFC305F00F1711717173138B4B48C83022295DE657EFEDD97F23
311
8ECA80F528AFB4F8D67AD4E2594B9A3AA86D7487EFC313BA95745C186F0CDD84CC12DC9CB0424B42203D351FD9C0A3AF10CC7F388E0329279087386421F194F4A29464C1DEF7EF8BE515E4A199DCD5B909342598D8FE6A231F71336248D5CEC5454455C7BE383B3BC7B260FED27F703FDC39A170F3827239102F59D4DEE7FE
311
F82EAA1A5E4BA94DCC4CC44E7E2EDE20F24244E4454369D2E87C3F823F193FD4FD27E1C23984B01898D15ABC20711A8A558054951A6AE280096BA36CBA439603B7B0B4C45F248C14B2383B4B5CD8ECECE4FF859AD4A6CA2326D020EF090F4041D28DB66E5256B56232CC52829DE8060BAE6BBF37D4B7469B822454FE93210A
311
3E8D15E69FFCF01123222611C51C4FD0A041A0CFA2471CF6BE38D2B20FA4C3525B5B8B586759475CF80ADFE67A284AC24651E52B8E683D24C2622642F27E7C3C22783BCF63648BC398BD6CD0D9C97E7E7E3EACB6126DB7A6C1FD9F1031302EE67ED96F22B77C7CA0239BB324207559B105E4693EB26EC46182A92C9C0DBD24
311
F29B31C5C5AC1F84300E0E17CEEAC15F5736FA4A98971E2F1423BFCD68D4BBD5F86E74B40A369F39507C88FCDB35D2DD8DEBEA4AF999E23CF2816D204200DF6E611781B9884C1AC8888B4DE397320472959434323A5A36B22A8E1F721A270DF3BD65E4A31C11FF048AFB0D8B7B6881423793963A23CFCE935FC189ED36FAE3
311
5C46DA3574C979E4394BE52084F3081837BE033396D2EBD80F1F691B273F660D2B32FA27A33B1DE4ADA5F0FA4651511102DFA410DDA86E065272CA314D5249DF91B06BB92807B28EFD54F08F7B525252782CD276DD02E6B0319B13DF87B1F6361AD6B28FC0D711CF445429B9E5A433CD493051C49A9E03DDB1B147D8802535
311
14A5DED88009018620EE229101C041950E2D8AA8E1F5F5438E0C0C0C60EEDEE9E3E0C051948C69F84BB7B2A48A1F3C8EB9E6864687F4F4F6F6E2FA87608ADAF9C5E117B7C1A737E710769DA1D15ECE6A84502AA855398712D5FB51BE92E4EF824969CE18278798AC303C2C7980DD2500ADF8FB1E6D6C2FAAFF998717892333
311
4A244758BAA01A9A1B70FA5097D01E1CC2A58DAD0EC94CE6430AA9B0C10D75E3C6BAC670EFBADEE1607739CE0FC18A2587E3EC3058562014C64219C69BC269082D5C2F4A659278D585755912176D78A1B641719C2A394CED495A1AC5D583FD2F5EDD93308EA7EAE8A6DD396598BDBD3D4CFED62D18A5BDFDE0DD5C80D1A89B
311
A62697B131AE7CE9A6594138582F1B37D68F1749AC7CB67A70695D48A4A056AC1FBD4E82358CEAE38F54B95A9016F9000F9879C0D9D131768635CA798895F27D6F1614F11F2838A83611AA51C9A3DDB539D42979C29F10465655C17BEC3E2760B80DCBF609198C7B171A531905F3EC218D696025975E986C6B4C6666667872
311
71F202805577DD5A3EF0CAFAF91B62DC4B2DB4217A7606282F31D8DDBC290593BAA93EA6353AFA9939B877978481E15CFC9F2755CDC00C538F63A4BA3E80AE009B73CA0185687D339A507D165B74290D6EE46D5C58148F020C3668ABE9EF2F7549170DC80DB41FFC1D678FF19AEB10C7133832B104B80F691B3138F97A92D2
311
6E551F1F110400D45AC71A9B9AC41A1A1B1DAEED0B0810638EFFB511D46B121C6FEA0F38CD00E03CFFEB9713FE1F9C263E4DDEC160D0497FA9A132BA608584057FB15380825DE6C7FC3C667EE947D488A09898D8E939C4953BF4EC9836344D2CC6B2971B2A21A572B06096F4982D2CC7232D46E8EA69DC83722E267754D777
311
F97F96D5DA74E1E75178084D0E70F12AD33E5F71EF2AFA599B2BEBF60A5BE475F444F240CBFE8143C334E7ED9150FEEFEF7EB020C4DBED388DD1D6A167A76F3CBF119B578AE8CFA7736ACAFA4440A1C47185638A0D2F3EB5BDDEFDA958FB13CE4AA4923D5BF840392D45544329525749734866684BF7F8D9D54D892E19BCA9
311
F829A0F8BFCBEEA6CFDFC61D74EA1A645ED7A1FF241739F15694BD835B66FEC5677E40FE69BD3F91AE402F036537218A401CB0828604AD189E575015C6F3F6BBC8AC79CF6C70653847254B31551EFCBEB5978B9DB85D58D0FA41A9DFE9C624834AA04949D24B5AE6D299E072D152D12097920F14AA92C31C3B97E28B6C2E6E
311
9C23D63043ECBBC0A60FDF5BD0C33C127EA8A3308B8B6AFFEB28B4455BF6E7AF4FC6222728357EB8E46E85053E6A8843AB23295BF838ABDA94658FEF3F832F147046B4ACD6F7D48E8FCC9618582961C898D1C7A253C91BFECBDA6BA18A1FCF70755DCCEE2222F41B76D23CA98D0CB3D95F0CF66D57FFF65E2A90F5DF40FC31
311
87621E981BD0BC1D992787212688976B94A8F0C6EF646624B570B78E068826F87CE27041A95C9A4871FF65CC17FCB1639629AD6A9517000D63AC231F3D741CB8430777E7ECF80CE7A3F73C0F162F7E56AA71F4DA80A33CD6ACEE78E2C11FAC03DAFCE929B106F8F6B3ED2DC71FF994BD9CEF4E9A94896EF1B6E2B7B4978168
311
BCF0847A3D2A4F1B0500B926E634B174548E9FBAD27153FB5FC36799B1E6C7C38A94E1F9E996796D7B485E635D5287A2AE76FBD11A341DB3F8F810385BB7296391973DC6C37C452A9305AEBBE0CDB6C566DB59FE60C8E94B1FD090354BF51439FFD1B48D725228FFA88C84F686F547107A7A235665A4593B7C34D748C1AC8D
311
56DD5DA861EEFBADDECBBD65117E65851F90351AEB65F0EFCFF4BCFEF24CB7A5879699FAC437A7AF9099186CF006BB923A59E37D7A36A29FD8D2CBB914A5E9D0A8FD212FBF796AE9A67958FF1D5D8B85F78F96219D4714EB919929241B6C018AAE0C02069F8D919961EC5DDFBFB7573E3AC8E08BFB7C8534BE6DE045B3CD63
311
DBD71F7638BA2309CAE398EA3A7D8F98BBBC7AEB367EFA5CFA27A9F8F2F52FE878058E6209C026453F8E7E8A237DFC389E9590F6059B397CFD65183BBF936E86896612A5B5FEE49DAC8455D026218AFEBEC12B3523A45B57B82C9C97E02ACFA1184DB18E48CF615DBF39C3CC6F0B4AE6BBEEA2E39D944E290302FA3DE33FA7
311
E40296E2EF7BF1CD855BBECFAD0FD622BEE9746FC4FDFDE545AE6E3BC234CADF83A0FB76DFB145BF3828AE3436368AC24989454F8FF70A177672C711CAA1A76107218CF948CA01F873520E7A2B118EBB161ABAD432932029628B6761590C98AB590C8C8C79798CE9F715BA696E839E9131A4BB68BE923F1747FBFF165331FF
311
DD4D05997ACD168F12CA75348DAC04C7F509FE83898A8B421181AF492861CE81E4A2DD0A30850CFA95E05F097FF70F9E777310D584A75BA7018922E271DAB1D785671157685B7D383D3E074DDB4F1E44EF04B07BAAC75A062077C54B9752C738C9D804D402E02851F3F89605AF189738C18C021D2139EAF72513824E10DDD3
311
047BACC8521ED7E98B257D1166903B1B08FA6F918FD7E162913FEC7D0EF4787E29C35FBA8C6E2C9C20E9AB30AE42CA2A01A090E7D010C1B5BF9CEE2A304BF3A987FB40D836979B79E18D70F257DA61E808472DD85B82761825779D6B90CAEB0F23360C6F80A7D7D77545E95B3DFF0CF96A827F9B5BCECD2C9698718417EF80
311
FEEDEE938AFF55859D0D540B7FE09435583A6F04874A0C7E8CF234DF4879722000167F5872CEC6BF3EF7E5A8CC8121E6A359227C8A29C95212F9F735BC72A887D56B8F309FC525BFB4FD767AAEC4AEFF249CFBBD2DE1AB9969A6155C7D8DABC307E47324C1F916C7BCFF40ABA5644E9FFB9238D19ADADA49D9610F01ABBA57
311
E4DFCBDCCBB2B93C8953206C91DE01B0E2651A6D6C31721915B31F7B7CBCE55466F6D70402788FA91D73BE4ADCBA99A35F17D6B83383704917D6833F0FA3CD45C926ADB8BC17999A4A0AFBCE2541F7B8CF4C2F5FBA611B3E626D64407CB32C122DFF4EF8674D6EDBB86C8F7C6A16D50FA685E2CCA34F8F7D1D8265BB0042E9
311
D7F1F666F7BE5FAA5184DF58E12122A42EF02F461B3F369AC746F96528AD208512AB56844CF75B97F352DF7995024FB02855385854F3798670D01CAC771AC3E1889EC25F61A20C1F8CAB46898817F9C47E2CDA1F286BF2F358298709FE567C91133E2638C8B53975E753EA8BFD3578B5F7186B7BF084EBA3F77BAC3132A577
311
9902EC22AF2D2E79F42D324E083386DAEE9810D1B44A5DAA54513C7A71E52A4AB9257D975B621308FE4D2141CC3DCFE946C154A3C1DFCCA7629EC69ACFA831634ADDA93C0388D2A9A2DDAFCF957C6995BCE7FBB6DC4EBAE79E63EB08E9A25F52F67076F7093CA545CA3053B5BF576DEAD4E0017143C5F759F32B2D6F145B52
311
B67B48909B7C7FCA6586EE385A2189C16932CB6DDFD9152AE317C430492A578ED27B72D85D40C7C93C097939E1B50F4D67F05334FE9DC362C30B7FF561B95259138ECFD9274C8D695C31B14D4EAA9F3D7FA8DDF652F8C5DEFA23284C799B7D94416DEE81E05A866302DC70192A5368EA65E1CED8BF107A1E2D3119A71E85DC
311
1A7B0C1E93274CE04DD0F2ABC8AC7C987FDB002B6F81757B43502EF7A0D92E416494FAEEA4C9C090CD9557AA4D532F4996A272B94355C5A0E4974EEA9627476F30809B94D8D8D860062E02204643BEC7D0438AF800FC7E2B26955D595421E83C69E1A07E0E3122285835F014AD538188CF9737CE76D464A353FA55A001AB25
311
26B84E985083693BC76FE211CA1D000679C889E3C009832C87E1AC2EDD05C302557422DF0800E316FCAC86978A371F025A6C7DAA9F333E7BD160403A1A06EA75AA9888FF01504B0304140006080800128F295028BB58AF800100009E0500003D00000031363644374142392D313038342D343245362D423936332D43433546
311
41354239374231442F536368656D61732F436F6D6D6F6E536368656D612E786D6CBD544D4FC23018BEFB2B96DE15493C78601010A34B880709DEDFB52FD0D8B54BD70DF6EFED3AC0B12E6442E2716BFB3CEFF3D18E26FB440405EA8C2B1992E1C323095052C5B8DC842437EBFB673219DF8DA659866649B798C078B48AE641
311
0122242F2A4994AC7F93815DF85C049C8564CA0A901499DD886B2EB9B1E02448F358701A9235880C49A0119892A20C89D1B9FD768815CAD268CB5E0355B40B1E47F3E37A2020464BED06AA57CE8FCC20C3C3446D46761A2632A8C1283D07031EFF2AE7CCB1BFEEE916E406DFAC8E36FFD99A9D60A6944090EEDC3B670C7DC1
311
3DE86B6B2C5C240D6E503BB85ACD579D513F1B9F9A69DC9CC22AFA80C426D40AF0B21EA168559156B6276F0F726A6BFF04DCD513A87A62CAD41FB24FCB2858B3952E3D852084DA25B9303C15687973CC8E8AAE11DF2836C38C6A9E765E8C1BA1BFB1DC29CDFE518C8B5A7655A4ED7E77291ABEB80DBD82EC866ADE1B8D05AF
311
9E35CF09D7A061F38A986D9EC412B8F0F65E5D81534D9B231D1E5A8FE577A241F3A5FD01504B0304140006080800128F2950E336299B9F040000341300003E00000031363644374142392D313038342D343245362D423936332D4343354641354239374231442F536368656D61732F47656E65726963536368656D612E786D
311
6CD5585B6FE238147EDF5F61E5BD1498E9A895A02398AA5D1E2A5665BAAF96710C78D6B9C87168D95FBFE7F81242134A968E469A4855437C72AEDFB965F4F53551642B7421B3741C0D7AFD88889467B14CD7E3A834AB8BEBE8EBED1FA3495108B3E01B91B0DBD1F3EC8E6C991A470F22155A72F73CBABC1D4D5921DCD19348
311
63A11F990102A6F61466977B8AC49FB13C174CB3940BE4504A22E3713489B7F82406516225536940BD88E4E552493E8E564C1522225AB0384BD56E1C195DC26FAB13882C2EBD62E1FF9E5B0FCC453132C99548446A1872B62267078F1EF14C3DB1DD1952DDBBB384AD456779F387C51992E0ADCE12FED2622BC5CB1952FC9B
311
DF3295E9206E961AB116DA7ACE45F76F07A26EFC3FD762FD7362FC3C0BAA4DB34C09E682CA5167BADCD16CF94370E331E2F1A3D852008AAD5D64BA2373478338AEB1583B905396D158182655E1B938D07926CF007CC7E85E6709999B0D3827C0BF406BEF55C68CF5579DA32C8C85BE03EFE788787E8FEC95DC85C3E31A6156
311
58D81F9A34499612004CE69CAB12531B15A887ACA642C110F8C1A8C1974A85853F407794695C905C688E69B116550ACA946B9B4785FC179E0E229240B62665328E86D5BD2C800CF5D80289F35AC25E3DD51508F4BF9A74A0F5A557BB3D284BC6FF59312E282F956A75C5D453906F48D11A876599E49425602400842995BDF0
311
2C4D012E226658F78A710416AC552831FDDEF0E6F0BABEBEA9DC36718CCEF4DAC5A0DF871AECBDD8F448F015F8DA113A473609D1751672B723874B2CAB21ECD6E284E51DCC7D1A47A00F60EC21DC4CC3CDC406DC03760A4E6C772F2F4D561A9AE58C4B03F5B4838701472139EDCB36819A66C472B52AB1139C648956F43E0D
311
AEC067B56B0818F5961D3D446B8F1E1E78C0EAD7EE02AF2895D813E88AC5014A7B436DBB20F778D40A1D9737EFE45B47D49CC8360F9966B15AABAC802C1005548A93EE469F5D55317CD8BF0AA86CABADB2A009D4D6F60CFE53AE370AFE8C45415B15D362A5A038E766E34B00F8C2E3E7098E2093B1C96349FDAEA158903B4B
311
DAEA665F473FECE72186E3BDDCACCADA31839CD6D4FA7D47DF5469006ED340EBE71DF960DDEE88A3E17557039B58C278A1795BA8079419DA8FC5BA1BAA1A66238BF69C7B2BE4E6274839122B7D00BE8B7D52CF61B2D63216046008C8B330FC10F8907787DEF061F47965BBA02FD8F53BA12F9827614979F53563D0BB1AD67A
311
03DC0E00E2FB2CF3EFB457E70E65A3D7C78E7D700DBB45132AE9BBA5E468CD861408961AD8B00A55C2FCC677F4456039FD9F1907A5B3E2D0EE845FDBA2DAFA88C64195671AD6D282DA2E45B1F50A0D632B0D0B6718757DCC7C84A70A3656F222CDA6DBF07E204AB358961D1BE31E53A82C2C0D56DBF61A5608B5A252A932A1
311
DC6E32462430853353EA30417C8199A662E946A4EF352268B8CDB9A9C6762515ACE8E09BBC031C608A02C4BA89C9DDC074E46E0E26A17BCBD4ED43270D03E3645ADB81F6D62CC07A3243EB81C07E01681DDF2DB4730631E6DDA6CBBD048BE9F06AEB3CF06B31DD6C9575E37E9FF17161342C4C76D95519672A6509E0F5C4E7
311
1B4B1916440059F57D0921F496237E473A83E3E4E06353BD9D27593594D7B6707C08D22FEBDFBFFE03504B0304140006080800128F29508DFFFC99640100009B0300004500000031363644374142392D313038342D343245362D423936332D4343354641354239374231442F536368656D61732F52656E6465724D61746572
311
69616C536368656D612E786D6CA5535D6BC230147DDFAF08799F5FDB600FADA20EA430D968A7AF12D36B1B481349529DFF7EF9A85A718860DFDA73EFB987734EA3D16FC5D10E946652C4B8DFE9610482CA9C8922C6B5D93CBFE3D1F0291A6B0D26A3255464182D920FB4233CC629881CD49C18508CF000E3EE309A100D6162
311
2AAB4A8A33B2483F11CB639C545B0E1508438C3D3C0361192846DB7ACD198DF186700D182920B914FC1063A36AFBEE8FBA03FFD3CC1D1F4FC9E151A2AF59F628C5B7821D83FDFD3489305080F2EE04BF962195FB285E9D2DD352320A9E827AE357594914E42B1F5FE35F83688F60C4C91A6C946ED0668E8F244BC2EB0BA6E3
311
BCCFC0B6A4B507F9F9F8D51EB315D9BA9E08D308E89F96931666E577837E2B4172199C68C4FE306156D47DF51C698C7B9D97FE5BEFE2190C3C38BB054E6E8163FB039CB4B993C80BF18D969203116D6BBD26238B821F9BB909AD6D9C71B85BCD8C33D66FEA3D31B4BC0AD45BEA46BBEDDFEC0F504B0304140006080800128F
311
2950174CF0F051000000570000004700000031363644374142392D313038342D343245362D423936332D4343354641354239374231442F4173736574446174612F41737365745461626C654F66436F6E74656E74732E62696E536160603076347631733635D035373171D235717436D175B27431D135333130B33476713434
311
B1341702AACB4D2C492DCA4CCC492C28484D2C4ACC4B4E050A82012F90744FCD03CA26072767A4E6260200504B0304140006080800128F2950C55C663656000000680000004500000031363644374142392D313038342D343245362D423936332D4343354641354239374231442F4173736574446174612F53747265616D56
311
657273696F6E5461626C652E696E665D8CBD0A80300C06F73E4B29FE6CDD8A2E82A083B8B7F209014925C9FBA3AEAEC7DD2555D896CB85E51C2A1BD834F6A1F56EC4494C4695278364ABB24ABD2146F88CCEBB89D5321FF8F3F43D672A3B44DF3CB6A1710F504B0304140006080800128F29504004A52838010000A2040000
311
3600000031363644374142392D313038342D343245362D423936332D4343354641354239374231442F4173736574446174612F636E782E786D6CCD94314FC3301085FF4A6489318E530485CA718560E904121503DBD5B9B4561D3BB22F08FE3D769B0154C4D4A1EBE9BBBBE727BF93CBCFDE161F18A2F1AE613517AC40A77D
311
6BDCB6612375E51D2B964A06EFE907C60A073D362C979992DBE0C7612AB5D8C16873D51AB79F8A0F3122AD6163F1B97BF48ED0516485B61063C3A2DE610F1C46F22DC63D6F8180D73C60F463D0982691E9719AA4030261CBD44CCC4429EA52DCAFEBF9E2E676713D7F97552695DC786F27DEA465C10F5733A18F7B9912B2CA
311
8092633013955FC3D45F2AF9C638592552C94821B93275D0D7903A6018ACD140C9BCCA6B422A1384D0CBEA082B5965177E79F1849D7126B7AC9234201F5E92400C64F0023DF94FEDF9BD59B948E0345EB223A71ACFEFC3EBE117BD1D6379C8CDE5A5E5542337AE3B4356AAC33949D1C9D7457D03504B030414000608080012
311
8F2950DF8D9574E8000000600100006700000031363644374142392D313038342D343245362D423936332D4343354641354239374231442F5265736F75726365732F33413344364335302D373434422D344143342D423944342D3634303639334441313439372F7468756D626E61696C2F302F636E782E786D6C4D90C16EC4
311
200C447F25B2D46302D9AADD7645D89FE8A9978A126F8A96600466D5FE7DA1E5B0A7B1C64F9667D4F97BF7C30D5376141698270903064BAB0BDB02852FE30B0C67AD1211DF613004B3E302CD06ADB64425766BC58B29BEB9DE856B37370C989CFD886183C17A93F302D97EE16E26539856CCD769356CA6794A98A9248BF500
311
BB1DFB019BD030AEA00FF22047398FF2F56D3E9E9E9E4F8FC777251AA9D52791EFBC0B8C89E2C3415AAA63A8FF48251AA05549AE532D04E8BBE794A84BAD32A79ABF43FC132B6462F4CE1AAE3509B28C3C5608CDAEC43FAC956879ABFC9551B575A37F01504B0304140006080800128F2950A233C2345D0000008000000065
311
00000031363644374142392D313038342D343245362D423936332D4343354641354239374231442F5265736F75726365732F33413344364335302D373434422D344143342D423944342D3634303639334441313439372F7468756D626E61696C2F636E782E786D6C4D8B490E80201004BF42E6EE76F3C0F216234B88306310
311
8CCF170C074F95AE5473F5C4C06E932E4F28601967600677D21E9D8092EDB002539227A2FCCB80E1168D80A6417297A89C5D6963B7129A0D1E8F2EE73AA7B62BBEB8B27DE50B504B0304140006080800128F2950BE89762363000000880000005B00000031363644374142392D313038342D343245362D423936332D434335
311
4641354239374231442F5265736F75726365732F33413344364335302D373434422D344143342D423944342D3634303639334441313439372F636E782E786D6C4DCC3B0E80201004D0AB90EDFD75167CCE820A4A845D83603CBE602CAC26799919AEEEE0D965E2E908050C6D0FCCE04C8BC355404EB6198129C92351FAD580
311
A10E464065907C8D948F8F166375F655BDC3FDC3B4E530A176BE7057BDC43B2A593FE403504B0304140006080800128F2950E6F5BFC07D000000A30000003600000031363644374142392D313038342D343245362D423936332D4343354641354239374231442F5265736F75726365732F636E782E786D6C4D8CD10A832018
311
465F45FE7B37C37FB6400DCB178965112B0D97638F3F1D5DECEA83C3778E6C3FDB4ADE2EBE96E015541706C4F94718173F2B48C744EF405A2D6308C7DF0D881F36A7A060D0728E21ED271ADD34A4B5D075F1CF1372C3ADE86F8CD6881D45D323ED1A8B5420130DB7A6C2A6CEC6B528797EBDBC25AFBF504B03041400060808
311
00128F295024FE8E7D0C010000550300003400000031363644374142392D313038342D343245362D423936332D4343354641354239374231442F536368656D61732F636E782E786D6CCD93BD4E042114855F65426239C08CD1D50DC3161656366A6587CCDD5DB2C09DF063F4ED85956237B1D3623B38F97273CE812B369FCE
311
761F10A2413F918172D281D7381BBF9B484EDBFE8E741B2902623AC148E7958389549948B10B989726CDB055D956D51A7F68E2033A87FE45EFC129D269AB629C483C5EA9CA096788073AABA4E8400344CC414399908C8336410750096622473EF29E0F3DBF7F1D56EB9BDBF5F5EA4DB04A4AF18E681B6F7C8280CBD5C83596
311
A32F86B86015902207D3A89A82C85377B4F4215821A4882994161A99BE9642AA65B146AB54CA6247F0879182D5B067911FC14330FA52339FD9FBB7D0CFE067084FE5A58251F652B3FFE6F26F15B0E306946F5017427E03504B0304140006080800128F2950E3603EBE7A000000C20000002C00000031363644374142392D31
311
3038342D343245362D423936332D4343354641354239374231442F636E782E786D6C6DCD410EC2201085E1AB90D9DBEACE05D09878023D01A1D34A8419C380F1F82DA68B9AB8FDFEC93C3D7C52546FCC12980C9CBA232824CF63A0D9402DD3E10C6AB03A3397DD192872090D3406ABE7CCF5B5D18893ABB1690CF4DCF02282
311
E5EA8A5BB96FFE536F285CB347F95BEFFE81C9ED5AFF9D5B1FB575BB00504B0304140006080800128F295029AACC1A7F000000A300000007000000636E782E786D6C4D8CD10E822018465F85FDF79494A26C8013ADF770898E89D0485A8F1F342FBAFAB6B3EF1CDE7E368BDE3ABC8C7702C8A900A4DDC34FC62D02E23EE306
311
502B79F07EFFBB0172E3A605640C922FC1C7E781263D8FD1666A8D5B0F48281DEA4E314C8AA6C4E5E546B162F48AFBBEBA779562B5224332CE5949F3EBA5CD79F905504B0304140006080800128F2950CA1DF9C9A900000073010000130000005B436F6E74656E745F54797065735D2E786D6CA590410EC2300C04BF12E5DE
311
BA70400835E500FC800F84E0B411AD13252E2ABF27A55740421CEDDDD9B55CEFA7A117778CC979527255565220197F75D42A39B22DB652EC9BFAFC089844F65252B2630E3B80643A1C742A7D40CA8AF571D09CC7D842D0E6A65B8475556DC07862242E78CE904D7D44ABC79EC569CAEBA537E3521C16DF5CA5A40EA1774673
311
3E0B6615DE7217475F386F18B9481C510F1F021CD9FF027EA0E1F5C4E609504B0304140006080800128F29503DEE336E64000000790000001B0000006175746F6465736B2D64657369676E2D7061636B6167652E786D6C35CBC10E83200C00D05F21DCA56CA76D41FC96062B120735B69A7DBE268BB7777961F8D5AF396893
311
C2ADB70FE7ADA196782C2DF776D7A97B5933C430F15651E5469C55D70F80A4992A3ADC954792C525AE70A1E4D6AD9816CC044FEFDF01FE3FDE907802504B0304140006080800128F29505BEBE908F9000000960100003700000031363644374142392D313038342D343245362D423936332D4343354641354239374231442F
311
4173736574446174612F636F72652E786D6C8550CB6E833010FC15B47783ED4080C8384A4BFA053DF5661987580936F2A3EAE7D74EA8D49E7ADAD5ECCCECEEB0E3D7722F3E95F3DA9A014889A15046DA499B7980182EA883E2C899B336FCA24161C4A206C83070363B1BD70D92D60465326AECA4365078AF0214F29E9A01BC
311
BCAA45942286C4F0B77215F226665592F2C9E32C463D6D523D25377DD1CA01A7236DDB737742FD2BED51DDED317AE94782BA37DAD44D776E6BD2B02A8B390B7AF9D92E9D12414D498F29469820DCBF93F6D0EC0FBBF6835599C9990F2EFDBC2DCDDF013FE5AB471104AB9ED33FAE719DFE778DDA841DDD5C9F0A0F9CA4231F
311
03CEAA9C522A8F0853CD89F26F504B0304140006080800128F2950606ADFE1F40000008E0100006800000031363644374142392D313038342D343245362D423936332D4343354641354239374231442F5265736F75726365732F33413344364335302D373434422D344143342D423944342D3634303639334441313439372F
311
7468756D626E61696C2F302F636F72652E786D6C8550CB6EC32010FC156BEFD840ECD88E3051DBA45FD0536F08888B1283C5A3EAE71712576A4F3DED6A76667677D8F16BB9559FDA07E3EC04A4C650692B9D32769E20C50B1AA03A72E69D8BBF685059B1E8090A0C9CCDDEA57583A4B351DB825AA7F4068A1074844ADE7233
311
41901F7A11B5483133C2B55E85BC8A59D7A47EF0384BC9A84D6A54763317A33D707AA27D7F1E9ED0F84247D40E7B8C9EC71341C32BEDDA6E38F72DE95853C49C45B3FC6C975E8BA855D6638A1126088F6FA43F74FBC3AE7F674D617216A2CF3F6F4BCB77C0316B1EE81FB7B4AAFFDD92B1714737B787220027F9B8FB80B3A6
311
A493CB3DBA5C4B92FC1B504B0304140006080800128F29503B25D80AFA000000960100006600000031363644374142392D313038342D343245362D423936332D4343354641354239374231442F5265736F75726365732F33413344364335302D373434422D344143342D423944342D3634303639334441313439372F746875
311
6D626E61696C2F636F72652E786D6C8550416EC32010FC8AB5776C20766C4798A86DD217F4D41B05E2A0D86019A8FAFC42E24AEDA9A75DCDCECCEE0E3B7ECD53F1A9576F9C1D8094180A6DA553C68E03C470411D1447CE56E7C22F1A1456CC7A800C0367E3EAE2B241D2D9A06D46AD537A0385F73A4021A7D40CE0E555CFA2
311
14312486BF958B903731EA92940F1E67311AB5498D4A6EE662F40A9C9E68DB9EBB27D4BFD01ED5DD1EA3E7FE4450F74A9BBAE9CE6D4D1A56653167C1CC3FDBE5AA45D02AE931C5081384FB37D21E9AFD61D7BEB32A3339F3614D3F6F4BF377C0C335CE1F569889558FE91FD7B8A8FF5DA3B1614737D787C20327E9C8FB80B3
311
2AA794CA3DC25473A2FC1B504B0304140006080800128F29505B5FDD0C0C010000B10100005C00000031363644374142392D313038342D343245362D423936332D4343354641354239374231442F5265736F75726365732F33413344364335302D373434422D344143342D423944342D3634303639334441313439372F636F
311
72652E786D6C8590C16E842018845FC57047415174836C5CDD3E414FBD11655DB22B1881A68F5F586DD29E7AFAC930C3C73FECFCB53C934FB95965740B708A4022F56826A5E7167877833548CE9C6DC6B85F369068B1C816441970366FC6AF87341AEDA48EAA36933C4461AD7420199FE1D0023BDEE52252E15D70D847BA8A
311
F1216699E274F771E6BD9A8EA89AC26BEAA6E406783EE4945EEB0E367DDE405257085E9A01C3FA2D2F49595F29C125CB629833A7961FFAB849E1E414F228471061889A774C4F65752AE807CBA29333EBB6B0F3018DDB015E74C550F5258294900B245D4F228EC08AA0AA29860E9386B26C0FFE01FA75FA1FE89576457E00F7
311
84051C87FFBF2E38CB628161BCDA0D3396CDBF01504B0304140006080800128F2950CFB78E55FB000000960100003700000031363644374142392D313038342D343245362D423936332D4343354641354239374231442F5265736F75726365732F636F72652E786D6C8550CB6E833010FC15E4BB013B1020328EDA26FD80AA
311
A7DE2C7B43AC041BF951F5F36B072AB5A79E76353B33BB3BECF835DF8B4F705E5B332252D6A80023ADD2661A510C17DCA3E2C899B336FCA2A1C28819469461C4D9E46C5C36485A13C064D458051B28BC87800A794FCD88BCBCC22C4A114362F85BB90879131394A45C799CC5A8D526D52AB9E98B0687383DD1AE3BF74F7878
311
A1036EFA7D8D9F8713C1FD2B6D9BB63F770D695995C59C053DFF6C970E440095F435AD714D703DBC93EED0EE0FBBEE835599C9990F2EFDBC2DCDDF21FE06DE4627C1B36A9DFE718D8BFADF356A137674735D151E71928E7C0C38AB724AA93C224C3527CABF01504B0304140006080800128F29504C55E061F8000000940100
311
003500000031363644374142392D313038342D343245362D423936332D4343354641354239374231442F536368656D61732F636F72652E786D6C8550CB6E833010FC15B47783ED4080C8386A9BF407DA536F1676889560233FAA7E7E6D42A5F6D4D3AE66676677871DBFE67BF1A99CD7D60C404A0C8532A395DA4C03C47041
311
1D1447CE9CB5E1170D0A236635408681B3C9D9B86CD0684D5026A3C64AB581C27B15A018EFA919C08F57358B52C49018FE562E62BC894995A47CF0388B51CB4DAA6572D317AD1C707AA26D7BEE9E50FF427B54777B8C9EFB1341DD2B6DEAA63BB735695895C59C053DFF6C1F9D1241C9A4C714234C10EEDF497B68F6875DFB
311
C1AACCE4CC07977EDE96E6EF80BFAD777A563D667F3CE322FFF78CDA841DDD3C1F0A0F9CA413D7016755CE289535C054739EFC1B504B0304140006080800128F29500617C30403010000D80100002D00000031363644374142392D313038342D343245362D423936332D4343354641354239374231442F636F72652E786D6C
311
9591DD72832010855F85E11E158D1A33482626ED13F4AA771436964904879F4E1FBF58EDB4BD6BAF600EDFD9E5ECB2E3FB74476FE0BCB6A6C7342B300223ADD266EC710C57B2C7E8C899B336FCC0303262821E2F32E66C7436CE9B24AD096016D558059B28BC878091BCA74B8FBD7C854964228644F85B360B79132364345B
311
39CE829EBEACD28108A0302F8BB220052545F744DB43DD1CAAF699E50BC959D42654E5D60CA61750C8CE2145C2BCAE58BE3E272C6AB5415AA54FEAAB0687396D9A4B7B1A3A428BFD8EECCA87860C5D5391F3B97E3CD543D70EF4928A2433673EB8349AADC83284BFDA57E3AF687156FF8CB63A7CEAF91D2A5FE6CC59FEB984
311
742E3BE11F504B0304140006080800128F2950F37F63C907010000B201000008000000636F72652E786D6C8D504B6EC32014BC0A628F0DC48EED0813B54D7A82AEBAA386382836587CA2F6F685D895DA5D570FCDE7CDF0D8F1739EC05D39AFADE921293004CA0C566A33F630860B6A213872E6AC0DBF64101831AB1E661872
311
363A1B970D1AAC09CA64D458A9365078AF0204C3941E3DF4C355CDA210312485BF158B186E62540529561D6741CF3FD6C1291194849C628A112608776FA439D4FBC3AE796765567216A3965B9496295D5FB472C972A24D736E9F50F7423B54B57B8C9EBB1341ED2BADABBA3D3715A95999CD9CF9E0D29FB725A967005EDC73
311
2E2B578AB30F6BA74D904A4960CDF40539666526FE948E8BFC47696DC28E6E0B5787879CA4420F2205E70BA6F1386F9AF9DAFC1B504B01021400140006080800128F295075298AAD16010000A80100004F000000000000000000000000000000000031363644374142392D313038342D343245362D423936332D4343354641
311
354239374231442F4173736574446174612F446566696E6974696F6E4974657261746F7250726F706572746965732E62696E504B01021400140006080800128F29503E264CA7020100003002000045000000000000000000000000008301000031363644374142392D313038342D343245362D423936332D43433546413542
311
39374231442F4173736574446174612F496E7374616E636550726F706572746965732E62696E504B01021400140006080800128F295088E57597CD3F0000904100006B00000000000000000000000000E802000031363644374142392D313038342D343245362D423936332D4343354641354239374231442F5265736F7572
311
6365732F33413344364335302D373434422D344143342D423944342D3634303639334441313439372F7468756D626E61696C2F302F67656E657269635F706E67504B01021400140006080800128F295028BB58AF800100009E0500003D000000000000000000000000003E43000031363644374142392D313038342D343245
311
362D423936332D4343354641354239374231442F536368656D61732F436F6D6D6F6E536368656D612E786D6C504B01021400140006080800128F2950E336299B9F040000341300003E000000000000000000000000001945000031363644374142392D313038342D343245362D423936332D4343354641354239374231442F
311
536368656D61732F47656E65726963536368656D612E786D6C504B01021400140006080800128F29508DFFFC99640100009B0300004500000000000000000000000000144A000031363644374142392D313038342D343245362D423936332D4343354641354239374231442F536368656D61732F52656E6465724D61746572
311
69616C536368656D612E786D6C504B01021400140006080800128F2950174CF0F051000000570000004700000000000000000000000000DB4B000031363644374142392D313038342D343245362D423936332D4343354641354239374231442F4173736574446174612F41737365745461626C654F66436F6E74656E74732E
311
62696E504B01021400140006080800128F2950C55C663656000000680000004500000000000000000000000000914C000031363644374142392D313038342D343245362D423936332D4343354641354239374231442F4173736574446174612F53747265616D56657273696F6E5461626C652E696E66504B01021400140006
311
080800128F29504004A52838010000A204000036000000000000000000000000004A4D000031363644374142392D313038342D343245362D423936332D4343354641354239374231442F4173736574446174612F636E782E786D6C504B01021400140006080800128F2950DF8D9574E8000000600100006700000000000000
311
000000000000D64E000031363644374142392D313038342D343245362D423936332D4343354641354239374231442F5265736F75726365732F33413344364335302D373434422D344143342D423944342D3634303639334441313439372F7468756D626E61696C2F302F636E782E786D6C504B01021400140006080800128F
311
2950A233C2345D0000008000000065000000000000000000000000004350000031363644374142392D313038342D343245362D423936332D4343354641354239374231442F5265736F75726365732F33413344364335302D373434422D344143342D423944342D3634303639334441313439372F7468756D626E61696C2F63
311
6E782E786D6C504B01021400140006080800128F2950BE89762363000000880000005B000000000000000000000000002351000031363644374142392D313038342D343245362D423936332D4343354641354239374231442F5265736F75726365732F33413344364335302D373434422D344143342D423944342D36343036
311
39334441313439372F636E782E786D6C504B01021400140006080800128F2950E6F5BFC07D000000A30000003600000000000000000000000000FF51000031363644374142392D313038342D343245362D423936332D4343354641354239374231442F5265736F75726365732F636E782E786D6C504B010214001400060808
311
00128F295024FE8E7D0C010000550300003400000000000000000000000000D052000031363644374142392D313038342D343245362D423936332D4343354641354239374231442F536368656D61732F636E782E786D6C504B01021400140006080800128F2950E3603EBE7A000000C20000002C0000000000000000000000
311
00002E54000031363644374142392D313038342D343245362D423936332D4343354641354239374231442F636E782E786D6C504B01021400140006080800128F295029AACC1A7F000000A30000000700000000000000000000000000F2540000636E782E786D6C504B01021400140006080800128F2950CA1DF9C9A9000000
311
730100001300000000000000000000000000965500005B436F6E74656E745F54797065735D2E786D6C504B01021400140006080800128F29503DEE336E64000000790000001B00000000000000000000000000705600006175746F6465736B2D64657369676E2D7061636B6167652E786D6C504B0102140014000608080012
311
8F29505BEBE908F90000009601000037000000000000000000000000000D57000031363644374142392D313038342D343245362D423936332D4343354641354239374231442F4173736574446174612F636F72652E786D6C504B01021400140006080800128F2950606ADFE1F40000008E0100006800000000000000000000
311
0000005B58000031363644374142392D313038342D343245362D423936332D4343354641354239374231442F5265736F75726365732F33413344364335302D373434422D344143342D423944342D3634303639334441313439372F7468756D626E61696C2F302F636F72652E786D6C504B01021400140006080800128F2950
311
3B25D80AFA000000960100006600000000000000000000000000D559000031363644374142392D313038342D343245362D423936332D4343354641354239374231442F5265736F75726365732F33413344364335302D373434422D344143342D423944342D3634303639334441313439372F7468756D626E61696C2F636F72
311
652E786D6C504B01021400140006080800128F29505B5FDD0C0C010000B10100005C00000000000000000000000000535B000031363644374142392D313038342D343245362D423936332D4343354641354239374231442F5265736F75726365732F33413344364335302D373434422D344143342D423944342D3634303639
311
334441313439372F636F72652E786D6C504B01021400140006080800128F2950CFB78E55FB000000960100003700000000000000000000000000D95C000031363644374142392D313038342D343245362D423936332D4343354641354239374231442F5265736F75726365732F636F72652E786D6C504B0102140014000608
311
0800128F29504C55E061F8000000940100003500000000000000000000000000295E000031363644374142392D313038342D343245362D423936332D4343354641354239374231442F536368656D61732F636F72652E786D6C504B01021400140006080800128F29500617C30403010000D80100002D000000000000000000
311
00000000745F000031363644374142392D313038342D343245362D423936332D4343354641354239374231442F636F72652E786D6C504B01021400140006080800128F2950F37F63C907010000B20100000800000000000000000000000000C2600000636F72652E786D6C504B0506000000001A001A00210B0000EF610000
311
0000
310
504B0304140006080800128F2950000000000000000000000000370000006662782F33423130313239392D413531442D343138382D413236412D3046393243443834433232312F617474726962757465732E62696E504B0304140006080800128F2950000000000000000000000000350000006662782F3342313031323939
310
2D413531442D343138382D413236412D3046393243443834433232312F76657274696365732E62696E504B0304140006080800128F2950F270F1330600000004000000360000006662782F33423130313239392D413531442D343138382D413236412D3046393243443834433232312F747269616E676C65732E62696E6366
310
60600000504B0304140006080800128F295088E57597CD3F000090410000420000006662782F33423130313239392D413531442D343138382D413236412D3046393243443834433232312F7265736F75726365732F322F305F67656E657269632E706E67355B773CD4FF1FBF73E71C0E67EF7576C9DEF3EC995D46C6A1EC50
310
46649CBDF79E192942562825CE965D8A868C2842C8DE9FDFD1F7E7F138F7078FCF6B3F5FCFD7EBFDFEC41B196891913091804020321D6D7513FC77D8C5070EC3FFEE51B21F068154CC75D455CC028A3EA68992803810109FDDE5D5CEC5521B28A1B422BF80741695D5B529DA1C2D058AD2388BDA9F476F7C2CADC939304173
310
DBF48A452BF8A700C0C70C3D121C1AA15A5270C22E2B9E28763651F7DA0D12CE11077B2ECD0D560B5E3DE2368B1E65C5E1C87384A4CC5F2D9FB8BE39E9B77C753783A37998F5CEF1B4FEE553463245C9712270880DF339E0B882A6BA713D865F6F384C842D440934EF264F4A304F8DE4EEFA1E2BF5E2D91F5ADD9613D6E31D
310
DB33ED31DB1D7916CAF091286EA3D31B9CFECB78BB0060245B943C4C040119FF780A74DD308BA9D028678674EB5504ECF284EE814DAED07440BAF649BE4B55DA2890F4D73E2D489A59EE54FDB0A85B59F2F52C4858A02705C4815A792B0C4A996A2023ECB195073E115E3E3647F64243A8338F2000BCB58DA5692C7E7C3D41
310
3F963FEDF3CF00FBB0F831A9D51360FECA43819F527B89FA260EB63C5DA676830AA3626A3693B23F1A17A0DFFCE3EE164E31B5365EDF0C89EF64D8E38AB0BA9A1117D7C3A0EC44F44F4023095E80BA610DE336D0F99593A88BFC5306E72DF98F7FD132ED95878DF2964EA7E43071359FD83B2BDF9C6B5BDF768F0F3C0FC351
310
199526F53D9460A34511F75D1B63E488178569472C91A94497807A3FD4A390C6558F26D416365C3656DE6E769DA9D8FC73774E1709812842DD8EF96AED1960F79D21B395CDDFE6F92CB4EB962A4668C76990E2EF29798C8941D67DA50F4A5F947872460F1F6FDB794E8A29FD7AC0C0D6E0714339CE258FB17AE8535221E346
310
4A10F29A0BE5EEECEFC5675926A89F49EB14E5711894F6586DB5754EB4D5DA9C6437EBA57DB97A24F8B8A8DB295FFD73266CF57E82694DF5166DDF93573AFE9C9C5EB05F8FEF8E89E0A8917B0B3724DB7BEBB53252581EFC3E38166BA131A3A5B42FE2AD00A769BBFA4458D2DE7822F8C4F63D0B8E21B285AE13325F3410A4
310
35C648C9D91FDEB109E73CEDA7BC796961AF79175E1A3CE4C5E8B0D009B0C9E29EFD98BC8E97554E3D8D838424E270F7685226E5AC268E021EDE3522D583E8F20C0BDE2959EF5BBFEEDAB32FE9A3ED0E39F211A86AA9DEBFC68182EDED132AB8BB794442D2D7EA9F4D8BFF52BC4D55BB165124EE90A42D101E67BBBB292FFB
310
4F66DE5BF2300E44546757DA7CEF8932BFC9F92A0707953491A55C5A5ACEDABD9FA1AEA01BAC3DC5A24E22E7C47213493996EFBC369D086ED9397C9BA6C7F9855C7BD5E15BFC8C53DB3D2A4C5901A57ACD2FBDF4D1676E95338B2C2BCE65FDA4C64F5FEFDC7D9CA5AA1FCF11E193F2FDABF0F4916BF13FB916A224380E6462
310
A9815F2300DC49CC4DF8D055CEF76462F4B7A7ACA7365C2707891370BC1D0AA6203C44CCAB47084FEC057F27FFCD57F89B8B9852459798A675C66BD7CE572CAF71FF7E6D7ECF7BF62CAB7B3F1107DCD04DC55A3F9961700286141C94A4F771FEB2BCDA2DDEE0CB0BAE402FF1DB0100F8E475DFFFC074DDB4498AB7D186A765
310
4DDB1CB680D703D47CEB4E72F8CB13D86A4AA68116E26387B93FD6738779B34FEDB8E517EDF2BAF28D9BE93A1D3A164320E07D42E514725C29515FF361754213EDE06B079A2E99EB1CA82A02019EADEEB87B9AF005BD04BBCECB14AACD6B24EFBE482194A97DD32400685FF1FEF1544D1B14EFB1E7F08E6D2CD2AF52DE757F
310
35F5E62332EE88EA26417AD5C3E0E319D68F25414E6D672BD4522B278C57D18F0113921C71D96527E091F00CEB15AE23D24667369BD3CEFA10C7549D930890BA4366F4EBC55F01F746109F98ABCDD5A3EE06619C6AD78AB33E48E4C9BD21BF7478B385EC05C4F8987E2C1BFA0A60EBEDAA0AE0B015C2720ECE180FB6F2DEFB
310
EB822D96338C9B63822183BBF52FB664A7AE57003AABCE512BF77E7E31BDA2E739AC4C131657DDFE5225E900FB56CC01CDE808FA4A9C9DA16AC679656BB64796283D89812B8F91136AE18EE5EBBAF47A73BE3C153EB5D4CD491B4BFB4FE690A4CF9ABA08C0D8AA64220C438C96EA6CA80B58FE5761E697B3A292EB9FBDA502
310
FA863E49FE694ADDFFF9D62C520BDD1A22014147A0903A05B9B729F54272EF83931FEEC057BFF8C8055C279EAC5C0011804828734024F6CFA319C9CC6867C727184465CD9BB7ED386AFFD96B294A85E3802FAE47244602D8273615952B98C4F23F7EAE4463D9D638EEE374A20959E0FE519C4CFB0FBFE5DD80C2AA3F9DB961
310
D1BDE57E67C9BB47B77FDD74EE3094F5DBBE3EBC1FBDB7393F5116263009E2EFE1AF9A221B2AE234C902BF70E9F280ED23E73908361565964333A3F01D0B006AF32FB21AA1316744B489D5A198E85299241735BE559675130955C902A8ED761FC0DBE337A9F91919AF5CE32AF902ADF9AB2615E00E8A94586BA1A90839B618
310
32FF1BFB76D2EFADE6DB1BA04CCAD3DA649E7E2A0219F592E22F2AD54847EEA8E42271011E9074F8F3DD9FBA6CDF88FFC9FC7E811AD1CA8F4557CE4AFC7BBEDCF0114A48689F20A584520C74DA8127124B767E2FB91A6B186246727BE63C9445BAE02088D58B8EFDC0F1072407CD9B89A13F6303B4A928F593AD489B58E686
310
9325790ADC406036C591729FE14021F94B7796BB11848D463536A092A26F077F94639F7CEEE2A724C66EC885F4A24F8B8A0AC321F8FD149BA529460FAA34E4663C02D41FDF80BCA222D42F0ABFF8490F4FA74C673807C2051D8E467B47B616072860069A9A303ABA9B319D58404461401B0A0F9BE5E1E151C14BC33B32ABE0
310
3DDE91708DFAEB15E7C0D593C86BB7D7EC17BE56E57975F077BFD5525F3A1A361D584A75E08CF29FC7B44B2B3085014F3A5A14517377C3F6B8F37E59514C3B12F8AACDEDDA4DFC49BE5710101534CD6FB6DE15B50F11A09472AABA727F0C49D9CB906B158030065F48EB3625E010CEC1D511D0053474B11E6A4F01C0D6EF1B
310
ED3A944FDEC70E0DDCDC756C86545910E0DAE3BE3AA9A404574C2995CD5CAF9549226BC94B4F4F0F5F9086F418F6B32346464610D8BC7391D3C3A3CCF04CFC1FB2A3A3170E369511868F14EEA4E5E438CC73DB1F3248AA94B6B2FF33B222FF3D1E7BF146CAD229770158063BCE4F5391964DF62F7E52A7BE0EEA829C9E13C4
310
C147D6F93FE59E111DAB5E4594D6F3CD1AD375EE039930EFE5AF2BB2D41C83C7DABD8C659BAFBE8FAB392CA634F3D15C1D945DB4588D2B0824A4EC928AAC565557CA2F0DAA588CA5BE30B3A8004F7BF005E96CBF891D7F18112A3619FDF530DC8AA64954258E1811789B5189B49B4EB53F5F89F7D37523894F3EB57B373763
310
C91E502F52CC99EB7BDDF933FC324C4FFC2561DFFA7339FAFDD0A4BFBE6D3A8FF9ED1FC49898139864602458968913181918F719CCF5A68B2EE9C1FF050E34E63107003B8120FA982C21B30A874E4F5E4B38D5A8290C4B8D9BE48A0BE31EA995BDC37AC6DE90BA17D259DEF53605D55922FEB1855D915B659FBEB350EE0DFB
310
2F9F766E1C84CC8964B75D08667445EAB966015F63A18A9E0A325C1B3DC628C0D3CB60F767FA93CC65F25458BD23C3B312716E5F40E5858AC06EBA9AB14F95DB99147B832069201541D09A0D856E12C629CF32683760EE855537D1901988D5EBC156676C7DD51D7207CF3267AF1D76C2AD867315E44618015313A98B19941C
310
696FED3461CAA9B5415F918556D7802EDACEFD6B2E45853A9735DFC9DBF7E440F9319F8B6805A973BCCDC76C069A9144E51F187EDCC12FC31B5DEAAF0A76137199B106EC84ADA6B6EE697D4E6A96E007417F4E880E8B1E89B4BCE9D81EF611E2ED8F0C1A6C25F620FAFAAB656A7C42D464880E8AFAB0E0FC8EA38CA9A8AEEA
310
EE3E4648BA4680270A89743CDD3E6C6CBF34B7B640EFA285ABC7EA0A1E28F3CC963D114A80123EE66D0AF7D5380EB41909B605AB4765B709B808590458157E69BA1378FEC4B48CAF6A730E3BE3C5EF2DD1A5EAF94B1DDE50CEB55DDFD7EE9A16747FA4B223359FB1FCC69E1194892BABB93A1D5C4E807AC0EA2E30180811E7
310
7A2291F6E7F7FAA5E0F60215BC6024E48DE436C511F0628B8CA189982D4D83CCA17D305A7E923C37941CFDFDCD93ACAF735EF5F0E61BBD3E6C41A59B242790D3A3BAC7064DCD89AA2E37214EC839820949D5CAA31E240D2948E48F690298974A96BA9A8432BC90F5071D6537C9666EA4564796B7AFFFA548077BEEA75F6308
310
3435074BA182F3699557397F71548383FDA8CA34D99B981E72835ECDA5DDDC151315173D05A21F651AAF8524E88209E2E7A737ED1045800CE3390050BCFB8BE588DF111617874C62575039CA588EEFDEFEFE319B739DE2EDC147092A262611E159650E787917885EF08F1F51B8F2D8A71D60B58B190FEF9541A1BE94BC19FE
310
A50784DA1419FE4B0FB51B8D36B5FF8E1286FD8AF42B91E59A5F1CC4D60174E764045FD8C57B18209B217F89A62252BD20BE0E63E12B8E8F029FE19E0E8D0870F58721A557082250D5424F7909369376E41666C0EE77CD87CB283F661D5FB6D0DA023CB67320A20DC7BE661E9E1BFE5463085C557DA1FF9BE835733766C3D1
310
39F2CF9E2208873AD0EB4814DE9E6BF2CAF81614D4D43906ED1C05A3265CABBFE192770FC2F64F940CB6B17B5F166F133C9AEEAD2641807C3E69515171DD74C4A85311513D6EC9530B3B601B6BA3EBFF3B5C3D2F7D69765141E345F75433953D013ADDF8F6AA7DC3F4A7563FE5C7D367937E2900D7EAD0F9FC9A4A1A9B5BDF
310
1FEF08532660C01C5D6DE22199AA774383E306DAB87E301ABB7D213887F9869D4942D0D71E94B27EDF216A318BD488D45DF84529EF575AF3C3938C0AAA0215B01994153E2054A0B894DA5C784980633AAD48576957CF4AEAEAFADC7C587368551C73DBE1E57C58AC713303A8BFC258BD04B51724459FF9E24C03A81E0E0679
310
CEB9B348C0DC998FEB9C6D6EFA77D247CC8F92D3848599ED89A23218D0636465AD1CEEB7DC140D7426F83491C4E8E8281C2FB35240918FFECE880CA2A42D70E8B20B34DF5221C7DB0CF90ECCB9C745B37A47E9B716FF7A97B7A252C1F3814DC7B1E1A7F72B8751D524EF7CAE45B0C73B3BE7D08ED39781B380DDFC9AA4A474
310
9C9493DB5BAD07A6EA6C092FBD0E85DB004DF06B8C9D3089C5320187E4CE1846158C7EA7DDAE8AD9AFFF21AA3A1026BB06A259845E8232DEE62811A4DA9CEAB3A4887320B76E2AE5615EAB7BDF738CBDD01F1E64064BC13D9EC53576751CA8CACD58B3CEB0E6CA585BD089B2A59B9FC101403387AADBDBE70586B93D64BF3A
310
D4453EF9C3B6A93817E8346991798601344F79A83C51F3D50F7BF2683A3605F51A72449489E0EE6169C749C60B1035651103AEE24D24E51A759C840DD3FC6504DA6FE107510E447B43461C79D22970B75DE5E1BD3007D1AFC619A4A4A69B5626AF5E9B8374E20677F77E2F8E73DF868E8BEC7EBA7B6A75EEF7205E1AB9486C
310
B642741D6E03FF13FCCEDB1C4AC129886268B01CDF4B124AF797CF784F3C6DEC97A17D4B558070A0F1C04DA4FF9BDBF34159AEFE958479824B3F58EBD1E19088A2AFDE501B6F2052368A3FD0E650A179EFAB1561E1D27527077136E652676C3670F42DCB3352F48F6BC86D2C3B0051727E41A0A4DC6CE2BE9D47F5CAA2935A
310
3C0539AF080665997194ABECD723B08129CC5B6B21D2E7D54CD4D12610E7E9FB8306771A89576C7A982002775ED44F3F744CF21EEBB27A631671D921938AAEE3EB0D19CD1E083727F607823E817BF599DCED5394E37EEBC2E88782E638920CA641EF74D4CDFCDEF06F4278ECB18E31E7E9876F2D783C8BF429C75395F57E98
310
C2B495A3DA077EB3AC3C158608B6B57FE3EA48484D9A480096FCEE0DE880950E7E5A5714131C5C41AAA29FD19AE81AC145FA1B9E85C7169A5AB837B213493DF7E9AA4B5FBF9CDEB36EBD21EF1181B7CF7366AB2A951D01E37AF4EB835D1BE8C117CFBE7625D2EBCDB0B20C5A4B45CED0BCDE3EE8DA9DA78C2E21DEAAFFD119
310
7E463C33CC6A80FB785669B856EFF7A8CCCA2841B5A5369173320B1170C368B2748D81062EA0296E5E2D95D7667A4A46D98A6FF475C76AAB0A8C8D45E226FAFC9FE0133EA9F60111F99CA81ACE03A1D14C89E8B0D69079C91464FA1D99E651D0EAF606F345C42A8A1AA9BA391031582B96D5B4176A77AADB01F12FD298A75D
310
EEBB2C82F0B8650E880722F8DDD90C56A7A058E5FDEF1AC93545BA27367C76F5D8F9690CB6F8DAE141EDD7971F0FB548A2AE435F224D6E5954CA155512F7332029D5A1230854B79F258EC5FFDB09F5F6343A8EB193229B7F7E79B3E48F8E183860B38C8269D1B53738FF1E0BACF6AADA6D4869E9DE708E79B5DADCC09B1BC7
310
6F649731CFAF59A83FD8BAE4C749D66FA87A3810D4D62FFE826FA400C0F325D2BC0F3CA35F5847B82A2ACC7961745C823E4D863D54460AF792CE6F79B5C7A33B25C3AEA6CDE15A919B6367D781E9D44F61BF828672594A3E1D9EDD6DF179A81F27EAC05B936575D73E05C209DDD2115CFB705DF9BBF3C911589B3640735E9E
310
618FC9C36A7326C82B2205E244C55D56FDB9D5DC93CE958D4BF8174D2B3DA54CB3C09F2C2A6DFF73D23B2197355761AD421EC581284A7EF8DE2CE3497C0C804D49B41DFD6A7360844E5BEFFB495CFCDB97A4595911CDBA623274CE852B5E278AF0BEB1770E9D37CD977B2766A7DED0E94B840E1E95E8C77DE5CB6354AF7871
310
427C28ADBEEF7BA0A28E19DE9ACD75F379FE373EAE6DDDAE3834692F9C2B03B4FCA8FCA9ABE8EEEBEBB725B88A7C90941E850682CA04061A7DF0CE82ED49BFAFFD42C309818FAE14755CAAE78B0F73243ECCCAD7DF58FCB9CDFAE7A4D3E6671A613639130D056C8383C8F4FCF4808C331E544DD26E4755D09EA05253B3049A
310
1E32587CC25D72E073E2CD96D04A71BBCB0038FEC3F53D254199C3CDC67CD66640269431860225392B2CB3ECD0B4498AAE78BA1994246AE1EE78F2EDFB79F6C6CB6B5E279C4D373FBC21CB2698C9ACBBEB6A4BB6B39E16AB0E421CCBFC7654D81ED86022F9BB522146F9F4772E2D0E4FA70120C95A85A417BF5078B232F475
310
4363EB1750B2AC2148EB46B1EA72AD9B4D23ADCBC589D70106C3EC2ABEEED84DFE28E718C6C83502C28E9FDD3B09DA0A6F6F7B72B706A31C9E2A331EE70DA56A083D2177BFD63C55B11D8D949FAFCF90B23A1E24B9B5018B9A17E99F2890EC302F330FE7936E2C23F0D237EC8916F5166AB84B62A21BB0B950146962D754F9
310
2CC2C8877BED8FC7B7B25726DD19545392570B3A2C66B58F027BEF412E552D12A588C4A3CC5C3193FCB3485EFFF700D0B9EEC077754A33DC1FB9E25AF814628F91DDFECB667D3F7690803F38D13F8AE39353523BB08FC6760144AFA2CE28236F65EDBB3D5F59A57D612B99E3D7E5F8A851666BF9B5A6658EFC96EEB37A378A
310
BB0EB3FDDF1303AF32C41BD1C8560745D7BD81066B0D6313359CF488563D3BA3F8E2185D1FAA3EBA1397C9D0E3DD232180A4DCADB6AF25DB3AC3CC26589C8239E66E81547BC7E2F328F9884764CA37EB5DBE390DFC03A5246B456A7C3684C4377D0EEF9A350680FA9A077E8B2957B489E09AB1AD41316944C2254B5984830F
310
691C93CAA767EECF976FA5647538830B5E63236A6F0365C1E0F3E327F24FE35EDDBD7360B0F7374837409F7A6311BECC12B7026D4FA1AE204FA3F5FE904B1F420C7A9044AE58E403E7C4848E7DA25DC9EDAC79DD756FAA26B9EA83ACE8A214A2612A22AFA19DAE7DBAC5F8CDE1292A485F98DAC731A29FE01A3966E96BCB9F
310
B5A4C8830E1B9AF0C54B87FBE221A097036E5D28D1F869F810C06A9BB0AC0612F69AEBAF893C6E7AD59460208BAB3A6B09CA4F6BDDAB8CF0D1F84B72487498395A70DCD754796E271099A567A55CF242BBED64696378BB6CF25EF0FCDB589F3A82F1116D010A9AB9FA4358809EE0C973A2B4229BAA876A70B03AB49CBA7FBE
310
71DB1832FFD32F9BF2C8E98075CACAFB36921235D0F552B6A67E94E094097A5D7DF681B40623DA535ADA7A9AD8E9A62407D7C9A5AE51D62A17A83A23728DE86BB56115804D3F2675F2C6B87541A0FC497BF0CA86420F558C9859EBE9FAD62747E323E3AADC03FDCDDFE7407B09DA90B44E3185723C5381EAEF589765E2F7A0
310
99BA46695BAD60CEF3491B8A171F5F56444F7CE9455312C3498C74173AEA0214EC029833B34B650CBB5A5508D5091665309642791708ECF27CF11DB3D797D6CFE474453BD4BFADB768094B2147814D81C7CBAF8228DCAF5564B5891F5EF6A860EB2E323CB82AB868D8EA048880D63B0DE5341F1B3D53297B928A11E15F25E5
310
148990F710747C3509ED14909C552EBE3973246FCE55D00564D8310BC3EBC5085D08D806799B77D6C57FDF5E55837F9E934F09C03C729271B64F12D0A9F9E938107CAF7BF1EC8CF1BB9B42363D33070F4CACB425E605DDB0A34A12BB936DE286B9887A4E2E558F0886498BFF49C311D96C277CF6A9FC0D75AD0ECC5226D7E0
310
E3572012E56D7FDE4410CEC7A6D0F997F225A2055B8B92E3956E875AE4993CB3D4C9063AF98FD45E1BAB165640A43439A2C9181A7C355B297C0A0CCFFAE19B6FA3C2BA238A885FBC98B8F6DAF4B94B97304878DF4D8BFF6A4AEDF79E90ED4E68F00CD7299F4E0D83E35601AF0CBEF18C1E870E74758FA91F5131075004DB3C
310
FCF09AE1DABC11957FD9808C92E8A678CE9DBE40DDA0E0D1D505AAFBCBA208232BFB6FB3704E8985E61ADE53DE74152F5C7DE74B1DEDCD37DC3E8FB30D7EBA8B9EFFC3606BF90B8D438279CB7709FC7C00D327F41817EEA71CD9E49FE9C8C9A81C70915D9F0F15958EC5AA4C3BBFAF46986B90F188BDB24B89DE3C6F29EC3E
310
6F66D84856EE96A35E657CA41B41EFD8DBFA16AD6E91439EA92B40B21C053249F51AE50EB0B24C770FFAF40DF12C8436366819C48E36547D4E7B72FE2BBF10828583057814A668BDF183F6B2E58DFB151103E56303E63D00F39C27C4661605DB644D19175D02E3F0241E8FC3458D17AAAADB117CE9EEA690D0DB01E634878C
310
04C2C9310B69FCAB831151E3AD293BEF6E46B0ABCECB50F5939B39C613D41E81FAE8D34CAE3C4566B761D37185FE864AC32FCB71AEF39DAA5BAB88609BB980CD2F07A8F941653B529567726E2B2A58D079DD57E1E5E31426CF184A04D7B03B985F276D47406AF276FE32E3328BA866EB1FD39BEF57863A317634AA5FE46740
310
9B3873F5069EF0D71AF00AD189D17BA1974ECDB2D623E9E14086386A6AAB5807825C37B015BFE892AFD154920EC437EB945D958E18622E1E0FE2FA06557CE4BB9BBD05A2D40E774DA2B65473791E314B7D6C886820B2FCFE4AA272B3B8B15E7344A145E8AF919B5454D89D36D413E87211186BF6F645E5EC94DCCE8E1C7990
310
22E4EC9BC86D7A0F2AFB1FC4B2CE48F84B3F49ECE65BAD24CADCC07EFF39AB06BE9E6B27A059938EA7208838455383DDBCFCD967DDE4650EF92A14FF933C975DB20BD7FEEBC4487576485963D757D16340D9599FEB362F775F38CA4185A86F74B629C81B133644A3B18FD056E997E0734F9BE26D11C0AAFC669E2AC9FC41D2
310
81F8B2E1C35AE27BCE05F3DA295488096688719D974DF1B5D182DB7792288697F8763CFB43562C1CDEE11C4AABD5C22B6E33F6F389CFC3477C5919DC0D533F8A7A1846B7ADB60ABDC26C43D0CFC8910B7C15EE22675BD02702ED39DB77A87A192CA7A543E6205B979B9F5A6B512A3CA799E198B2D5797C0AF8D1D872CA455D
310
4D431A7879D4DD76110B5FF7F4176B54477A9EB5E4A5D11214FDA585F0382751D8E2582BA5D2075053298FEB8F1537304E32CB22C2E2B693DC0A760B1DFCA751BDC445AFDCBB12820ED85F6D5298933C7EF1211E9E057684056CDA3FEF3BB6052355E162DF27C59E965A8DDB7F9437EB72CDDA3A090DE65A5B2F50326247B7
310
EC67B73ACC7047FC9B353D6EE990F772207C6EC52B39DC2F3C0754821DAB559F7C1809C7D0DD5B0499D0442E0A6E391B3D5DB46D11E731E6794EC77523FBDAA242ED67F9FA1FB684255671F63C9BCFE6E7E896D51001A6113EF2298BA494E0B0980D1FA5B9D60796554C02256B1E0345FB7C6186B6A19D2DCA270416262845
310
FA4F42DB5D9B0A0B6F07FCA2E56C242522E001E0CEB734AF310FC8BFB57E38E03AACE93B3326A2197891E68452B26A6307FDABFEE0223D3C03C3C73D2D5BC054C8311F12004CAE488E5C29287F8156A2CAA4AD0D7BE6B97264E4139F437CE73ADF52E5134C52B819777C18B323A5924E4F67AFD13B1CDC3A61793A79FAF5C0
310
CEB718E441071E797C6DCCB9EFCF7E4A1E9F3DF3C2F9C9E8294E9586868788C972857FB0556D7A26941A7EEB9B580AD78EC40B85DC906B4120A563CA3B87797ED612D3B035962BB75F6515A393F4CB057F564CDF54F2E5A024514E6A1F901DB80C7E70B1FC05E356A7E72FABF4775B3E3FB8F70A2A8E7B6A94542BB3041579
310
78CCC999E707A29CC795E67A59CC546A5D47B368954CA7B6E75EC9E1F6FC73CE3B4F71F8CB1A6B15923D61EAAEB14626AAA9D04A26EB9C66CD1BE86CA31A5D8703DE04CD1EBCE4F5CCB62F93909AD11E55799A781A956ED27D3E738F4538CB04ADABC7DAEF20BC35BA6A90BCC1DC61BA05F20D8832FFB9BC9B15E2DB838A0A
310
FBB7E0C82A562127E0446894F427794C3037186F622BF24DE1B00AA10A23BFA47B2A180D6DA5AD6F7326FEB8C100C2D7142EB2A0B2A9D1008A09BA343D70E054AB69E2A7EDB783CBD92537FAF4A44D1296AC2792729104B3276C276C951D0CF3CF3F1E6B017720A7B8505A5FF9589365979678C36F1BAF759EAF57C60F1FF5
310
FE9DCF5F8E764FF25A2D06CF25117A8FED51884C13B2B750DB0E4F5E3D64124FCF11F0AD8F1CC3B3DA4B38ED22BF1CB2585EE6BFEBBA63FBFD44F9537B9B37BDD6B358720F98A8125AED4349CCFEB0E135F19E208A04CA7E2B10711185D72E381F448036EF57C9F874E54A971CA37A639E986AC0226DC5AA00D5B14FEA9192
310
234B3DE617814FC221C92F33F1D392F297731B567FD98FD91D989379AF567A65B8ADF177591DB90FBEA99BF4ED11B16E50A0AB1DBF1156D034BBE04D69D08F939D8E92BF525A1DDAFF80ECBC95D8F45D3FDD289FD23F7D8B452F8EBB34EC082DEEE68E18EDDF072060FAD2AB1504DD4879BF67099FC58F6E9DEFBF645D1633
310
4A3E9A127C6F1AF6132CF287E433B43A0EE93812B4AA0B194E03EE3FF91EF9C6ED0074A2F6EB18A96A7C9890B1FCDA1F2095E944DB911ED54C60DF16FB74C8CE9BDC7C54C4F14078CF73C2FFF1F1BBCCD7CF64F71407EA1683DBC410D226627F66E509060D5C0AFD611DE681D509DB8DD12FB1265B03C6F5C55FF4C30BD941
310
87FF692B4F152982502F193098A789526A038AB529A52BC0DC4FB6285CBAC10A8B8DB75DCD9BDABBB221E27D1F8DA9F5EE5926A1C8AA9BA9BC09239C6A7F12914EA3B59EFF7AAEC3FFCCE56F1C5C2980AD072793527565E774F4631DB178CEEC691B1F367BEA0CF2907E1D6B854D527065979DDEF002D8B2ACEA7CE21AE297
310
737EDE1D45B31233B73FEA35BCFDD0B09721FDBAF6432681F2FD10C3E9EFB246FD6E854B344ACC9D8A0EEF876A7314B49B6A499FC650B099D650DBFEC7638ADFD245E2B7839DA5AC5F7D5623FC0ECEEC8653FC9B2BDD1AD4D00A566FBA7186DD3C9CD26512551637498CADB950FEC71ADB9A5524285DE328B8EC7EC75D2345
310
AEC6A27C42AF6D9B92155315C80DBFCABBB7DA0FAE425C4FB896B15C9BFAC4FE67DF5A23D30C93DA4D8F36FB15D100050DA6062E22AEC5F4DAC4F6FEEF97AE05DE63C6D38F9E068A20BC5E3B6BCD75320C5090924E7F93640A7735B1A43451C2D91EE62C6238B797349E59890AF3A520DF4A87095F3ABEC2E61F0593416CE4
310
6CDCBE0E00E2523FCCD04408588B5B6C9DB6459C786CE378770B54F51DA3A5E1DF2A3349BEAAC234A6CF8993B598B3B25B4B113E353A4D750FA7534749430F3EBF2512E7EA3FD43C6AB9A1F765A58463B306721A15D224FAFE8C6F5E3432D57EE697DA0DD5A9D4866A8BCCAAA9DFF1F06047851408FEC060471D0E3EB86BFA
310
F46E4B5E60311DC3E3CEA147C75CF971BE74689507154FF2D2E92F15CDB2B9182B11459FD8ACAC5A85F174BC94A7F4EE4C4F5CAFA7C02E37BF0BC77B7DCD0C047BC316F562A01A441AFA7931CC84A28CB9F4AA367EB515778F29BFE61195FA671F4352E5E46E3A64773F1F76EE5EB36D7BCE9BCEAD837A4D77F8DB8C92AEEF
310
6711920D7C7D0F76B0FD0EB7AB83724CD35BCA7D36DDDF5FBB7FF6F04A91F3E2BB3B8F1A43CD659639507FF6331C5F697BCC782AE57D757A27D97F1AB9E0AEDB43F92F1B2AACDF5FEC8ADBAF9F814E2027003BA2F9E144B1938A7A04050AE5D953B82C45619165C813A10E76DD6906B3C16438064D14CDA713AEC420034613
310
E1AC7241904A49FBF87409AFB1FCB9B72FE7933A87D8FBEDACECE4EDCF6A4FE9FB94D5DEB74FAB7CFEAE17EE965DF980DCCA2D04134994F9A2E94D2265DA4FE6AA7B7AC15FACAC2B5ABBCD7DFF542C5314FDAB2E1B9D8B65220B8E2B638BE008E8DCA22678C820C5053664D15E89F2D735B51A84955E81A443545E9FF787BE
310
0FA700A76D136C27DA179A7C6E8939E01BE756E19CB292798063D8B97F44E8A27BCF3A614FEB8BE974A718E86F7EC99B53CA35FA24F61F2B07266684623A3D4CF073E511F3A10A8FDAFAF0078C577F4DF9D339FE7862E5FA47CF4344209E5BF76D783B1B48E152AD281B15FCB934DCDA49CEC5706B1EE8B460F435324A5CAD
310
154725E21AB8044B75A557A79F6C807B9340AA3D92503E866F4274412926C8C504E4D5EF8C0E68DD0B028781A6B4054F11CF18941F101C57CCC796773ABC8DED9CD91FE5788806C05E548895354AEAC96546D55B0E94A59F148D061F42AA398D822CDECA4CDE79E13469BDCC44FDC990F366BA5978C15F97ED80CBFD73B0CD
310
9B8B83A4F6845BDFBFAF034019473FB9A63BD55D3A4A7284757071574029A4D016DCCBE95DD679EF3C4880BF169422F8C89B68A988D2B13793CAED4F74DE7486C72DC94DF46B8E93D8E02EFCB1FF9B3BA10C8AE7F653DF94F4AF466CDDCEF5776687F7C4C14B63E4EED1719DC2EC482D7DBCC7AE518CDE3D5FF86D39000EC3
310
673C0044E1D308BF05F74D1B5F033A7D1BE7F74BC55BBE3E4A20F920946CA0271EB17BD2B80E5660ACB8A29A79F5E4BBA49D4D945B6EEF4A7EFEAA65E5555BBB57A7E15D2F83C69F30BBB978D2B39F1F26FC097424D39BB33CA3D87ABF64E307938B685BAD44F71556A30B7E712CA4FE600613C3E554B69ADE949A7CFE214D
310
F1FFF05CB82151EC6FC31950239F94CF7AD39DC473F6EA356E5EC2C4EFA04383CEFE985A127484366FBEE3C0EC4FEA363E4F6632AE781392FD45D67B63FB8DF70E82734F431FD3443172A0E30A83D60982D55FA6A2CF86DBA8382502ACC6CDEF3B907982EED1160E14863FA242F9757347E1544275CCDCF71ECD5F8621CBEA
310
326B8BA884AD7F825781923E66971F04010D574C541D8427A438A37EEF8AF88240EED7362C953F5A81DE2D56109CDE2524EA0F5D2F87308C0C47BD97AD605878AB8589E17CA83930CB5E0DCCD75853D68B1AB136594926DE426C367428E9334AFAFF90ECE221BB5DC9E5BB53D2CDEF954EAA9CD814F0E5725F1965DD458E5F
310
8487683AD86B9D0076BE3EE91EB1CECC5331A67A3F79D8B27587C12EC2A6A70474749F27B4C0BBAFB94B34189E88DC18964BE4121B9137FD516C7755356E50D6714E31ACD222621EBBCD1CFF81D87479056A9DA0E0B8EA19D24CF937DA89F78E8650CCBDC110AAB6C4E46DCBFD0446BA9E2060E81F314AC2031E88135E5476
310
AC0160EF5C0DD2EEF1B8B5CB2D198BE9A554A9093B5F7D7E4B5407DDFCA1D9C152FD97F55BFFFDFE802954DFEC8995B983E28AC92F1971E28F531DC407A1280EB125F64A72E617EFB27DFBCEDCDA2D6F2BDADA36873EE46B9BE1782998C63DA7182BC383FB6FD15DA472B175D7E8B4FC88F38D6E07FEAA3FA3CBB8F6B449EC
310
F14D2175E5C5CCA3A42ABF24CA6C9395AF74535F4DDB38CB84F56614B0FD32D7E19CA5CF988DB4449C40E23DF2B16772594554579094450F56F253CD25EA7F77366FB1CFE79696C428BB64D5A41E986189427E5E4D7E2DAE3D5BB4972B3DC44EAABDDDD63A2264ECFA5C786EB0EE1FDC5BE34FA0F08376869FD1E61EA06CAE
310
15191135445EE8F0394161C3266A596AA035572BB0C8876180D8B9C77D307DF9DCDF7365ABDA6F3A2366436457A4DFC1F259666569A9E4A79C817BDD5610E5200FCE894A358EC72858D50EF67545DA81C6FACE3D457BAF70367E1E6BDD9A952FB4F56247F58F523B97E640246051A72F79BE42FFA0B3187F63097F91C48B86
310
8586F714B0EBD5A00A8412C1236E1298F60C72BE6C96B82B404CADAA304AE9F303176B14BA53FBC2D5E86377E35542019E24D97B96A49B2C0E5006E7795954DEAF5DA58958839043C6C70BD3B1B33B6DC5C31316D8A6923F142E26F6711A2258AF977DDF1F970ECC4F1F2B434B96D81BEB6E89BF3BBB3C7C8CC80505070723
310
D6D7D7D3C8CA27CA164A26024FED94B12A86031867241DA53D929636DA600F050BC40CE48B8BA03D69224720DEE2ED2127390BDF5E6EA64527BBD4C4C63FA76BB801FEEC0E61218EC98A8A86CD8313781617877E66692839B9468CF4DB8E50A73986E558E309C0D6F676F921BE02F1185454DC75B111572FF9D27D85EA14C0
310
5AD7271225B391C4275659CA4A43759D0BA44639BE4C30A84DB7F67A41399FB95CBF923B1B1672ABC807C1590557FB18D811983FA97F5E609516D62281D38B1281F68FC75528C35E4CD7DF0F7DBB5E5DD69C414EBEA2F4A5B241B996BA77AE6C772E367408C633EA3E438B68563EA8BE7667F3A4C4FDEEA52ABD78A2820F44
310
3B7914A15F180018D231E64519C56A12F6CA7C8DAE18F06F6B769DBF92329EF6A5D18FBCE600F36BD8E8198DE5CDAA96181F3A756EBA5501CEE58F497EA4F418A2B82565B9BCC611713C0B708CCA1F398B78C5F7D03B3437CC18F13061F55C7BEDADD5ACB1DB0E36D3CE47FF6EA1A563A57E9649EA5D14D1A50EAA45746338
310
1C073777EF1600607BAF6428A7DDC079D47A204EF1E1F1F0589FB054D45E02CE623B3823C317C601E589E22B1E88B448524B86A82828E32345EC18AE17214B42F8C41C6D428016D9BA31DDCB47572561E5A402E5BA4FCE55F78AF7268524AA04130F3A20BA5D1E9F9948EA48FC8F5314FDB35E21898198060034ACE5E3E2BB
310
CA34092518F275190AF65F45867FF0900AA4B81F25427414C372BF51DC29AA855C5428EE1EEDD6B849AD60F6E73475C2D2523F8A2772C840A478DED18A8C5C91B085F255DC4F54EA7AA8947354FD17ECF8FB3B4A0DE7B483CAF3A1165EE05BBA413E5C1FEF3DE1D6B8F2F3F3251C17D9FCAB48A9AAF63AC773A0E413BBC46A
310
9ADF84A566FC920E4D8C52C9769EE3301CADEEEDD92B312E02E2A7E35B7F1E7D203FE5A7D75578B06E99D0E46FFADB8FDA17ED8880390DA29094202D6F645F76F6F96409CDA05495A96E84B04A00D1A6C6C81D7F3DE9376E828CCF144EE50E364ACCE7237EA0BFB5607ED1AC3CFE73794E5B61739D14DF1743441B1AC98F00
310
ECEDE9E7301FA29755FBEFA68C91EF2B314CF510537EF1ABFC9A762496280B546F5EDAAF8A5B387D469FC9A878A92828C88608453ACEC6094DCA54111E7AD5B2663DFE2DD151B7F123B9F4FEF8EE36AB125FD7AD52A59B1B765B3E3F73E3F73DEA93875004D2AFFE3CDE9493B87A9904DD052028949041A91DC0E1BA47BA71
310
4343FD5B25E0A6A09503AFC17C790058A836A324FE31D7893512E28230332F153181C1E018E1124EBE1BA262AA428A518237D1EA7275E48C5C561BD19ED6912EDD8367DA0F31E40EEAE9683DA9257525AEA7B632B97119E17145A90231768A4F3B9120FF32E8319B015E3CBE26F1A754177D8185345817C096B0CE443A955D
310
13AC15E1FB5DEEA0239EC32A3C92241A237B0B02FFCB4F93CF2B02570C8D192E2F2A68CEEB42F12E6F8CEEFF46C251E22B4341C56FB08CCE550E7A9D6F4D6564B9EA52A83D5BF2C6E03FA19D2775E15A8A7ACF30A13C259EE7F5EF2AC3BA354F1500E1A07FC63FB4686E2F12EC69719F9ECF5FE3F35598DF2CE944008CE78F
310
0911BA5BE5D0A34E0098FF038669C26030BA9B300303039852A8F6F496341737CA7E0D2E3AAA36DE0A70AA7D9CA0D54D9AD84B18A44C9E625475E1C97B93BEBB38DCE7D227E67A2D00F531436136355F243D1FC0D712C5765754FA22FCFFAE97919161F46D6E61ACB37D83777B385889770B50765B127768443A5C4D3A4E35
310
A3151111F146B7CA116F918A049F1C272F2CD7976C69A0068773451659A97E0F4A08FE604C3FF6CE7385DB19F4D3ABC8A0D80DA8A42096AC377DB49382B36E270B6FA7570188B4B7D1DDDDA82ACA487CCA5D38BD3BD039ADBAFA4ACFF27809239B722081E2EB9F145320553D183F28471C388BC8814E5045676767AB58A8E7
310
2D1CED2CA731379515D2E533E4CF0B39DFC625F97AC4836831A4DE330E87A8126FA17EBE583D614E71E22A8DBF2825599743E0640037303E8E1B1E8EA4E1ABFA4F62907B5E4E0E5DCFDAB417C36C6848A2B8D15F1E505434C0707E16B1CFC2A1C36A42BBF55734F8F4301DDC2A5110CEE8C0747F69519265012A2174BF4E95
310
5ECD4FDE095A3ABC70536B7AD0B9D7892F81287D667C108703C9B66A221E9A0929D030008F77FF6F5D2108EF5706FC87A3069B976F7C9FC3239D13D283CDEA83597461079FEEE049B0F392889898B7D87D31F8D60ED7B56B91823A8E4EDDB36C6172ECEE42BD42B12CD67994FA0F0DFAE9389356F4CD4425A4B8AA55CBF7EC
310
D585C6A2C2316791E43D5C06841ADBB226A87FD61515FFBB0167B74E56BD7F3E90A57A97FEDCBDF483A0D6699A8C0849CAEB4947FAA90D8E332D9DEBD9F4738C37DA0CAF9CF3DAA68BCB67C420459C7A64498D6E848E5CADE92BB6901F607AA331104A67F7CD650EE169B1DAE94D2C31C2F993632259B6957E246EFE4C5481
310
107B07118607700040E5812A2A2A38DA0076875258C753F60E0F2662C748EDD5F3F3686B8FC3BD6FE631ECCAA1E8B1C1E565AD117E54893E79F4672E32F9E46B2A183DFDCF3EECB4D4D077DBEA0DA254D256045109670050129E9B9B1A9E4A11344D61497A992778095151510C4BB7EF2009B63AA4360635312E4CF668B7E0
310
D3D85A8688E2BD83B569439892ADB63461930D428E0DE42E4AC57CE48DA5CC1449530D8BD3D6A0F08DF20C8E8F570F2CFFFCEA286E30969B4654D498A58D9DA782E19FE3F002181838925592C4A1EF0B332D88B61A92C644547BED490D3A42CFFAB70E36D961F694F6307F72FF15A1C79D5B1B5CEFD353D9E2B52566DEC8F8
310
F09CB3E8359C0F68EBBB7898243E34E12A015B2685AB303C04D3A9E00671FF3DFF0A184E4A2ABEB2B666AF5B3A209C73D8EF29DCDB069C9F391EEE9DD0F74C7BCDE16F8F02E3B8816122BBEB50665775B600549D8BB33A54A6BF940C028118BC6878C79958D6784F9DEAA6E26748386FFAF8D0D0101E2847B6563F5D8DC1D7
310
8F787BE00E2C941AE12148D4A81599FE8F68D4DA5CDED75530ADE138240300EE13B0FC13A1687FED6774662C05A2B7DFB186732F0D7A93545D8B0A6390AE5054D9CB582DA846D7A061B3358B45E2B52DDE63E114397EDB7E09233A579155D795BE76102CF277F4DF8B188C4F2879BEAE3C08347124BF9ED23B128259FE107D
310
31E34A652F090B30B39E0D9AF917B76A2806135621A8A60681F16AF216514BBD02711585B5B1AE823F4B2D0369EA5B6BCB863072727FFC871CA6C9AB79A814D989057E9470A3D238BC87CBB4A0EA49AFE2B86F22E499793CAA9047080450166BDC357524561E258C77CB697F1ABB32562CF87C3B7AA12F911EF19FB3E5C022
310
22E887D08202A60A17151F5E053A86B437771088B4FEE14D652C43E8D939995D34545E12E2FF93D4E366EAD25F10CB7DED141563C3D0C447AF06078A91135FD4B9611583CB4BF3BD167F2399CEAB0E0100F8FFC305F00F1711717173138B4B48C83022295DE657EFEDD97F238ECA80F528AFB4F8D67AD4E2594B9A3AA86D74
310
87EFC313BA95745C186F0CDD84CC12DC9CB0424B42203D351FD9C0A3AF10CC7F388E0329279087386421F194F4A29464C1DEF7EF8BE515E4A199DCD5B909342598D8FE6A231F71336248D5CEC5454455C7BE383B3BC7B260FED27F703FDC39A170F3827239102F59D4DEE7FEF82EAA1A5E4BA94DCC4CC44E7E2EDE20F24244
310
E4454369D2E87C3F823F193FD4FD27E1C23984B01898D15ABC20711A8A558054951A6AE280096BA36CBA439603B7B0B4C45F248C14B2383B4B5CD8ECECE4FF859AD4A6CA2326D020EF090F4041D28DB66E5256B56232CC52829DE8060BAE6BBF37D4B7469B822454FE93210A3E8D15E69FFCF01123222611C51C4FD0A041A0
310
CFA2471CF6BE38D2B20FA4C3525B5B8B586759475CF80ADFE67A284AC24651E52B8E683D24C2622642F27E7C3C22783BCF63648BC398BD6CD0D9C97E7E7E3EACB6126DB7A6C1FD9F1031302EE67ED96F22B77C7CA0239BB324207559B105E4693EB26EC46182A92C9C0DBD24F29B31C5C5AC1F84300E0E17CEEAC15F5736FA
310
4A98971E2F1423BFCD68D4BBD5F86E74B40A369F39507C88FCDB35D2DD8DEBEA4AF999E23CF2816D204200DF6E611781B9884C1AC8888B4DE397320472959434323A5A36B22A8E1F721A270DF3BD65E4A31C11FF048AFB0D8B7B6881423793963A23CFCE935FC189ED36FAE35C46DA3574C979E4394BE52084F3081837BE03
310
3396D2EBD80F1F691B273F660D2B32FA27A33B1DE4ADA5F0FA4651511102DFA410DDA86E065272CA314D5249DF91B06BB92807B28EFD54F08F7B525252782CD276DD02E6B0319B13DF87B1F6361AD6B28FC0D711CF445429B9E5A433CD493051C49A9E03DDB1B147D880253514A5DED88009018620EE229101C041950E2D8A
310
A8E1F5F5438E0C0C0C60EEDEE9E3E0C051948C69F84BB7B2A48A1F3C8EB9E6864687F4F4F6F6E2FA87608ADAF9C5E117B7C1A737E710769DA1D15ECE6A84502AA855398712D5FB51BE92E4EF824969CE18278798AC303C2C7980DD2500ADF8FB1E6D6C2FAAFF9987178923334A244758BAA01A9A1B70FA5097D01E1CC2A58D
310
AD0EC94CE6430AA9B0C10D75E3C6BAC670EFBADEE1607739CE0FC18A2587E3EC3058562014C64219C69BC269082D5C2F4A659278D585755912176D78A1B641719C2A394CED495A1AC5D583FD2F5EDD93308EA7EAE8A6DD396598BDBD3D4CFED62D18A5BDFDE0DD5C80D1A89BA62697B131AE7CE9A6594138582F1B37D68F17
310
49AC7CB67A70695D48A4A056AC1FBD4E82358CEAE38F54B95A9016F9000F9879C0D9D131768635CA798895F27D6F1614F11F2838A83611AA51C9A3DDB539D42979C29F10465655C17BEC3E2760B80DCBF609198C7B171A531905F3EC218D696025975E986C6B4C666666787271F202805577DD5A3EF0CAFAF91B62DC4B2DB4
310
217A7606282F31D8DDBC290593BAA93EA6353AFA9939B877978481E15CFC9F2755CDC00C538F63A4BA3E80AE009B73CA0185687D339A507D165B74290D6EE46D5C58148F020C3668ABE9EF2F7549170DC80DB41FFC1D678FF19AEB10C7133832B104B80F691B3138F97A92D26E551F1F110400D45AC71A9B9AC41A1A1B1DAE
310
ED0B0810638EFFB511D46B121C6FEA0F38CD00E03CFFEB9713FE1F9C263E4DDEC160D0497FA9A132BA608584057FB15380825DE6C7FC3C667EE947D488A09898D8E939C4953BF4EC9836344D2CC6B2971B2A21A572B06096F4982D2CC7232D46E8EA69DC83722E267754D777F97F96D5DA74E1E75178084D0E70F12AD33E5F
310
71EF2AFA599B2BEBF60A5BE475F444F240CBFE8143C334E7ED9150FEEFEF7EB020C4DBED388DD1D6A167A76F3CBF119B578AE8CFA7736ACAFA4440A1C47185638A0D2F3EB5BDDEFDA958FB13CE4AA4923D5BF840392D45544329525749734866684BF7F8D9D54D892E19BCA9F829A0F8BFCBEEA6CFDFC61D74EA1A645ED7A1
310
FF241739F15694BD835B66FEC5677E40FE69BD3F91AE402F036537218A401CB0828604AD189E575015C6F3F6BBC8AC79CF6C70653847254B31551EFCBEB5978B9DB85D58D0FA41A9DFE9C624834AA04949D24B5AE6D299E072D152D12097920F14AA92C31C3B97E28B6C2E6E9C23D63043ECBBC0A60FDF5BD0C33C127EA8A3
310
308B8B6AFFEB28B4455BF6E7AF4FC6222728357EB8E46E85053E6A8843AB23295BF838ABDA94658FEF3F832F147046B4ACD6F7D48E8FCC9618582961C898D1C7A253C91BFECBDA6BA18A1FCF70755DCCEE2222F41B76D23CA98D0CB3D95F0CF66D57FFF65E2A90F5DF40FC3187621E981BD0BC1D992787212688976B94A8F0
310
C6EF646624B570B78E068826F87CE27041A95C9A4871FF65CC17FCB1639629AD6A9517000D63AC231F3D741CB8430777E7ECF80CE7A3F73C0F162F7E56AA71F4DA80A33CD6ACEE78E2C11FAC03DAFCE929B106F8F6B3ED2DC71FF994BD9CEF4E9A94896EF1B6E2B7B4978168BCF0847A3D2A4F1B0500B926E634B174548E9F
310
BAD27153FB5FC36799B1E6C7C38A94E1F9E996796D7B485E635D5287A2AE76FBD11A341DB3F8F810385BB7296391973DC6C37C452A9305AEBBE0CDB6C566DB59FE60C8E94B1FD090354BF51439FFD1B48D725228FFA88C84F686F547107A7A235665A4593B7C34D748C1AC8D56DD5DA861EEFBADDECBBD65117E65851F9035
310
1AEB65F0EFCFF4BCFEF24CB7A5879699FAC437A7AF9099186CF006BB923A59E37D7A36A29FD8D2CBB914A5E9D0A8FD212FBF796AE9A67958FF1D5D8B85F78F96219D4714EB919929241B6C018AAE0C02069F8D919961EC5DDFBFB7573E3AC8E08BFB7C8534BE6DE045B3CD63DBD71F7638BA2309CAE398EA3A7D8F98BBBC7A
310
EB367EFA5CFA27A9F8F2F52FE878058E6209C026453F8E7E8A237DFC389E9590F6059B397CFD65183BBF936E86896612A5B5FEE49DAC8455D026218AFEBEC12B3523A45B57B82C9C97E02ACFA1184DB18E48CF615DBF39C3CC6F0B4AE6BBEEA2E39D944E290302FA3DE33FA7E40296E2EF7BF1CD855BBECFAD0FD622BEE974
310
6FC4FDFDE545AE6E3BC234CADF83A0FB76DFB145BF3828AE3436368AC24989454F8FF70A177672C711CAA1A76107218CF948CA01F873520E7A2B118EBB161ABAD432932029628B6761590C98AB590C8C8C79798CE9F715BA696E839E9131A4BB68BE923F1747FBFF165331FFDD4D05997ACD168F12CA75348DAC04C7F509FE
310
83898A8B421181AF492861CE81E4A2DD0A30850CFA95E05F097FF70F9E777310D584A75BA7018922E271DAB1D785671157685B7D383D3E074DDB4F1E44EF04B07BAAC75A062077C54B9752C738C9D804D402E02851F3F89605AF189738C18C021D2139EAF72513824E10DDD3047BACC8521ED7E98B257D1166903B1B08FA6F
310
918FD7E162913FEC7D0EF4787E29C35FBA8C6E2C9C20E9AB30AE42CA2A01A090E7D010C1B5BF9CEE2A304BF3A987FB40D836979B79E18D70F257DA61E808472DD85B82761825779D6B90CAEB0F23360C6F80A7D7D77545E95B3DFF0CF96A827F9B5BCECD2C9698718417EF80FEEDEE938AFF55859D0D540B7FE09435583A6F
310
04874A0C7E8CF234DF4879722000167F5872CEC6BF3EF7E5A8CC8121E6A359227C8A29C95212F9F735BC72A887D56B8F309FC525BFB4FD767AAEC4AEFF249CFBBD2DE1AB9969A6155C7D8DABC307E47324C1F916C7BCFF40ABA5644E9FFB9238D19ADADA49D9610F01ABBA57E4DFCBDCCBB2B93C8953206C91DE01B0E2651A
310
6D6C31721915B31F7B7CBCE55466F6D70402788FA91D73BE4ADCBA99A35F17D6B83383704917D6833F0FA3CD45C926ADB8BC17999A4A0AFBCE2541F7B8CF4C2F5FBA611B3E626D64407CB32C122DFF4EF8674D6EDBB86C8F7C6A16D50FA685E2CCA34F8F7D1D8265BB0042E9D7F1F666F7BE5FAA5184DF58E12122A42EF02F
310
461B3F369AC746F96528AD208512AB56844CF75B97F352DF7995024FB02855385854F3798670D01CAC771AC3E1889EC25F61A20C1F8CAB46898817F9C47E2CDA1F286BF2F358298709FE567C91133E2638C8B53975E753EA8BFD3578B5F7186B7BF084EBA3F77BAC3132A5779902EC22AF2D2E79F42D324E083386DAEE9810
310
D1B44A5DAA54513C7A71E52A4AB9257D975B621308FE4D2141CC3DCFE946C154A3C1DFCCA7629EC69ACFA831634ADDA93C0388D2A9A2DDAFCF957C6995BCE7FBB6DC4EBAE79E63EB08E9A25F52F67076F7093CA545CA3053B5BF576DEAD4E0017143C5F759F32B2D6F145B52B67B48909B7C7FCA6586EE385A2189C16932CB
310
6DDFD9152AE317C430492A578ED27B72D85D40C7C93C097939E1B50F4D67F05334FE9DC362C30B7FF561B95259138ECFD9274C8D695C31B14D4EAA9F3D7FA8DDF652F8C5DEFA23284C799B7D94416DEE81E05A866302DC70192A5368EA65E1CED8BF107A1E2D3119A71E85DC1A7B0C1E93274CE04DD0F2ABC8AC7C987FDB00
310
2B6F81757B43502EF7A0D92E416494FAEEA4C9C090CD9557AA4D532F4996A272B94355C5A0E4974EEA9627476F30809B94D8D8D860062E02204643BEC7D0438AF800FC7E2B26955D595421E83C69E1A07E0E3122285835F014AD538188CF9737CE76D464A353FA55A001AB2526B84E985083693BC76FE211CA1D000679C889
310
E3C009832C87E1AC2EDD05C302557422DF0800E316FCAC86978A371F025A6C7DAA9F333E7BD160403A1A06EA75AA9888FF01504B0304140006080800128F295051464CB48900000043010000360000006662782F33423130313239392D413531442D343138382D413236412D3046393243443834433232312F646972656374
310
6F72792E786D6C9D8F310EC2300C45AF127987122606C71DD918B841D4B851A43646695A717C52A85029031293A5A76FBF6FACEF7DA7264E43906840EF0FA03836E242F406C6DCEE4EA06AC22492573150D1F66C60C640E8938CB705396EEDD86DE9B5042FE27813D640EA63BB001C722AF6E55CB61E4863F58284D5D3F53D
310
D715CE1C3985E63FD7F1B7EBDD617E9F1E504B0304140006080800128F295000B6DAF344070000541C0000340000006662782F33423130313239392D413531442D343138382D413236412D3046393243443834433232312F6F626A656374732E786D6CDD595B6FE23814FE2B51F665F721570285116544615BA15167468366
310
B56F9109867AEB5CE4242DDD5FBFC78E1DE234403A1769B4AD54A8631F9FF39DFBC9F4FD21A6C613663949936BD3B35DD3C049946E49B2BF36CB62678D4DE3FDCC98B2342D1AFB4C234131BE36F9B2399BEE595A6672698B77A8A4EDD5DB9BBF8D3CC209368D88A23CBF36F3E801C7C84665916E71FE686F5181ECFDEE607B
310
76B55127BB67287B685D95218693025885F504A8480E3CFD5F10C9994D1DBE41DB36E8B7CD3FB3CD1182EB8C92242F5012BDE2AA759D7F82ABD675032F58FEE90F27D63008065630F23DEBE6F6666979570377315A2C26F33F27A6319B6ED294D60AC870B2052DBE98336FEAF027B5F812852EBEA334497024D1ECDAB0C592
310
2EC1791B130D584F88D65048256B6361D053F813DB7A81A2B1A4A1AD84539F4DEB4D37FF0008791F2B6539E6569E170C742DB1AFFCC19D3AD5AAA617921B312A3023881A946C1862A020D85A294823C3BD8593323866428B8A5E935730ECCBBED4C5E5AEA494FBAF39139E16823FE222179C917F313B72DFBC0D7802694B92
310
1463296CF1920189C9D4118BD5B3812F1F56401A3B8AF6602D2026DF34F05B782D782C582DCDD987DBCD61CDE343F7E5194B33CC0A6E79C299A5DF290D364C0B8CAF072815AEBAEE8EA87C01E83F02F2352FC61434C7C82138044A7686927C97B218B463B886E5C21FD7E05F5F7D9B3AF5E1996168B1F214A6E0B63F08534D
310
0CEDEE06A4B3E913187DCA0652B8758428D8F43D49B89F83A11834852588F7BBCDC19CAD2098C2229C4214A487DFA9C3BF1AF051D18178D3D25057F8EDA128E5306D3F3BEAEA0E6C8691A8569526E3297C873F04DFF972FD615DB21D8AF0BD74EC25DE918414904CBB19D240D75CFEEBEAA3F0C83B9A6E103D9ED6364570CD
310
3EE571A3432D6BA91643E80538E169B8D28C58B927E0ED94A204A7652ED7BBE25494D294859B97B072E1CEBBFE5236505D260DA0339641728F18C93826E64C6AAB0E84764350B030C4A405EE2BAD869B32CE4214A765C243ED6B536CF30171865B225015D494612BAF5564B764B72B73085E9D24171A90D29F15E1CAC20388
310
635DFC32BC630892689A84047230384BE70DDA053578E779CE31DD8584D2320E7784421E0963949DA0DF538266E67AC42FCF29DB7612D42D4BF9A4B2210EB8045681A4B25515F3A54E197E22BCCC14F94C65036D87AC43CD5970225DF04CD101A8324661E683F960395A0C5DEB2A086EAC60BE08AC9BC932B046813B9A0C96
310
732F985CB5F954D1AA99EF4095BCCCD1FCAF7828E34D820885075C6CB4CDDEBD17D9F3DA81D0E80C6E3CD7F327136B3EF49656E08DC7D6DC1FCD2DF776E22F96E360E1FB9EC3709E962CC2B9E33B6EA84C324BF6A7B852DCBD8EA150D65C4E764A5F6D61FEC731B49D133425FEAA41B48E5D1D0561DF20CA8FB643288A1E79
310
8A0A23A8FA3ADDA71544DB7C74C5B937C665D71EB8E2C7F326BE3BF1C793E1B067D813377D77A4EB922182CEB32CC234431129BA536A0B999E2CBF29BBD8036F5861A3FEFABE0178F55EAD993A9F9924532189D11E873BC4FB8A8E507A49E2CEACB7A7699E9304E7A22F7C552FB668BA36945F7A96EE305B9287312ED0B758
310
AC68345A5E00D19C86D0C1167C8670B18EA85D40F62CA728F27E1952BD90FF25CC519CD1AA37BE8481E72B085457D465A19C697EC513D867888AD0DD6231EAB844BD665F55149D5A6B539F7C33F913F0A84AE827C2A3AEE85F6CD9436FC27FC6108646436F30BAAA5571092D7559C17B3F5A42B71ABD84CF98EC1F7A15A7FD
310
B4D228F3AA42BCC031B4BEA828592F8F1D413451B6A5049291A1E5128D9BDE58508A9E4F757D709968FA4E95C48D6BA0762509CCC67A09F24A8A4E2316BA1073403EEE7A83672B6C2E52FDEE88F9D3ABECA6FBC56260741907A8B0AB102CE38F56877756EA5A0D953FA3228250BA169FD60D78C4166F8FCD9C46AEABAC5735
310
EDA58A7BC5436A0C535EC423ED3DFF42BF20503574DCB97357157A4EB5BEE2A9CD8681F6910F8D699DD6A7BB758B0AACF43EFD9963849F5B14E4EA8277D067487D5D1DE7042D0A52A2AFAB33C77F892E4429B0317A8309729E5202837CBC35F63885FC0DA38A1E1D0A8B712EF23218AF0C52EA2D428FD34FD51CB6401BAA4E
310
470F0886D954F66F65048354C899D7A65C377E83D1299F5E8A8196FD08AD9B8C61A65132726D82C516043A347B032330317014D45B234E706C94EC79C6AF4ED5FF1F8F7174202A1DE5AAF7F4C1454AA6391394C29978B700755FF56036FD76D1153B062AE0EBA62C6A618E0B47692408EA2542251C4C0A1F25BC072829CECB
310
E5D9628F0649AF69FE593BA8A85A05627B31926FE03D5F7E76F8347DF5C9C868B9E7EA3CD7316B942CDEA9D3B29A5C4DC130A49819E255E4E29DF399A5F05A2A366E091881F1FB613CFAC359A4719C26D59233972FB78CF503BCAADA3A6A4C08ADBFEB8D1D313990AF02C20DCAB18DB6F9232C806A19E1F3D40A62CD00EA68
310
DA3000A511AE0B38A6ED5F2D0D591D35A62ACDB0CBE111EF010C7024FEFE87BB4D7343636809BE005C8987C72F6A61EA30189CCFFE03504B0304140006080800128F295086F07598E2000000550100003C0000006662782F33423130313239392D413531442D343138382D413236412D3046393243443834433232312F7265
310
736F75726365732F322F636E782E786D6C4D90CD4E042110845F6542E2718019A3AB1B867D094F5E3608BD4816E8093F1B7D7B61C5C45377AABE74AA4B9CBE829F6E90B2C3B89185723241D4685CB41BA9E532BF90E92445422CFF3032451560235D2652D884751F92818BAABEABDEC5EB10F9D94284E4F4798F964CDAAB9C
310
3792F5270445552D68205FA95145D18526C858938676A2B800E3844EA00A182257BEF2992F337F7D5B0EC7A7E7E3E3E15DB04E4AF181E807EF628184FBC3CA35B635B6445CB00E4851931B547FA3197FF1688B2758B3A5C825B50E0656BEF786B9A02CB03BF2EB4AC1FA936DDC1B68B317227F00504B030414000608080012
310
8F2950FF15A4A45D000000800000003A0000006662782F33423130313239392D413531442D343138382D413236412D3046393243443834433232312F7265736F75726365732F636E782E786D6C4D8B3B0E80201005AF42B6F75B59F0390B113044D83508C6E30BC6C26AF226F3B8BA6360974DA7271430F523308B2B198F9B
310
80925DB700539227A2FCCB80A18E5640D320F996A81C9F32D6E9129A0D1EF74FCE750E6D57BC7165FBCA07504B0304140006080800128F2950F5E8CF3F4301000056050000300000006662782F33423130313239392D413531442D343138382D413236412D3046393243443834433232312F636E782E786D6CCD94414EC330
310
1045AF1259629938298242E5B8120B4EC002B1739C69304DECC89E207A7BC6C56D41A88245A576678D9FA5FF67BE472C3F863E7B071F8CB335AB8A926560B56B8DED6A36E12ABF63D9520AEF1C7EC35866D500358B652645E7DD34A6520B2B35F5B1DA1BBB4E4585E84D33210496E95E8550B3A05F6150859AD0B510D645AB
310
501555E121B8C96BA0F7680648EFB50785D032392B67655E567979FF54CD1737B78BEBF98BE09194A271AE4FBCB108DE8D57B3523B3A5A92530A1E0129266F12153D3079D05634C60A4EF75204D26BBBC4E1668CDC38F6462BA44671A711302708D420F8172C058F8E7FF87E7C783E68A0536B3C68747E73B63654C7DAB097
310
565022FED7852DF89779D7BC91E5F3CDFDA8E124EC647677C90D14DDDF49A03C29DBF597F801F6D24E9F7F5A2C68F4259ADE293B9167BE5D8134F8B811E527504B0304140006080800128F29509B8E2D787E000000A30000000B0000006662782F636E782E786D6C4D8CD10AC22018465F45FE7BCBDF56284C876DF41EA3B9
310
21390D9BD1E3A7B18BAE3E387CE7B4DD67F5E46DD3CBC5A0000F0C880DF738B9B028C8DB4C05904EB729C6EDEF06248CAB555031E87649313F7734D979CCBE52EFC26387A72B32E4525273C68136280435FC6228BB49DE0FA2E939C7621CAB52E6D72B5BF3FA0B504B0304140006080800128F2950A6D797065F0000008200
310
000007000000636E782E786D6C4DCB3B0E80201045D1AD90E9FD7516806B51190811670C8A61F982B1B0BAC9C97B72CA7B1037C6D3332918DA1E04D2CAC69353902EDB8C20262D23F3F59B81A079470595414B17391D1F19B4730A5583A7ED43BBE4025D9592775E5ADFFA01504B0304140006080800128F2950ECFD112DA8
310
00000026010000130000005B436F6E74656E745F54797065735D2E786D6C7D4F4B0EC22010BD0A61DF525D18634ABB506FE00510A79458060253536F2FD89D5197F3FED3F68B9BD80362B21E25DFD40D6780DADF2C1AC9671AAA3D677DD75E9E0112CB5A4C928F44E12044D22338956A1F003333F8E814E5331A1194BE2B03
310
62DB343BA13D122055543278D79E6050F344ECBC6478EDCD76CE8EABAE5449AE4298AC56946789C28AAFBEABC53F3EAF09A84A1441B91F0101CD4780756578C173A578FFDDBD00504B0304140006080800128F29503DEE336E64000000790000001B0000006175746F6465736B2D64657369676E2D7061636B6167652E786D
310
6C35CBC10E83200C00D05F21DCA56CA76D41FC96062B120735B69A7DBE268BB7777961F8D5AF396893C2ADB70FE7ADA196782C2DF776D7A97B5933C430F15651E5469C55D70F80A4992A3ADC954792C525AE70A1E4D6AD9816CC044FEFDF01FE3FDE907802504B0304140006080800128F2950B4CC29EFF40000008E010000
310
3D0000006662782F33423130313239392D413531442D343138382D413236412D3046393243443834433232312F7265736F75726365732F322F636F72652E786D6C8550CB6E833010FC15B477830D098FC8382211FD829E7AB38C43AC041BF951F5F36B072AB5A79E76353B33BB3BF4FCB53CB34F699D32BA079263C8A41666
310
527AEE21F81B6A213B336A8DF1BF689069BEC81E120C8CCED684758784D15EEA846A33C91DE4CE490F9978C6A60727EE72E1390F3E32DC235FB978F059E624DF788C86A0A65DAAA6E8A66E4A5A60DD38D4E3F1724543351274E8DE08BA54ED01B5D7A6ABEA7AC0B8296991C48C7AB5FC6C1756722F2760252E31C204E1EE9D
310
34A7637DAA9A0F5A2426A3CEDBF8F3BE347D17E9B4D8D03F6E619DFE770B4AFBAADCDD36850346E271AF01A3454A27965774B1A624D937504B0304140006080800128F2950D96F82A4FA000000960100003B0000006662782F33423130313239392D413531442D343138382D413236412D3046393243443834433232312F72
310
65736F75726365732F636F72652E786D6C8550CB6EC23010FC9568EF4EEC0412821CA380D22FE8A937CB59C082D8C88FAA9F5F1B52A93DF5B4ABD999D9DDE187AFE55E7CA2F3DA9A015849A140A3ECACCD658018CE6407C54170676DF84583C2C80507C830087E71363E56485913D064D4D81957507A8F010A754FCD005E5D
310
7191A58C2131FCAD7C487593172C59F9E2091EA39E57A99E939B3E6B7420FA696CA7EDF144C6666264D3BF31726C761BB23B757DD3B623A55DCDAB2C163CE8E567BB722803CE206A5A534219A1FD3BEBF6DB76DF741FBCCA4CC17D70E9E77569FE0E84436FA353E879F59AFE718D8FF97FD7A84D68EAD5F5A5F020583AF239
310
10BCCA29A5F28C30D59CA8F806504B0304140006080800128F2950C67EDF65F1000000B1010000310000006662782F33423130313239392D413531442D343138382D413236412D3046393243443834433232312F636F72652E786D6C8D50CB6EC32010FC156BEFD880F3B0234CE426EA17F4D41B02E2A0C460F1A8FAF985C4
310
95DA5B4E8B666798D961C7EFF95E7D691F8CB303901A43A5AD74CAD86980142FA883EAC899772EFEA14165C5AC07283070367997961592CE466D0B6A9DD22B2842D0112A79CF8F0182BCEA59D422C5CC08B77A11F226265D93FAC9E32C9AF9572ABD16512BE014538C3041B8FF20FBC3767768F79FAC294CCE52326AB5322A
310
BB9B8BD11E78FB4630A17D8FC62D39A30DE93A34D2DD88F07B4F4FE76E73A294B0A688390BD1E79BD74FCA75AFCA9FC27F99D3A25EC86C6C6CE96AF85404E025CF63C159530ACCE3D16E9EA56CFE03504B0304140006080800128F2950F7C88C2554010000DD0200000C0000006662782F636F72652E786D6C8D52DB8E8320
310
14FC15C33B8ADA6A6D90A66DBA5FB04FFB4691BAA40A06C1F4F317BCC4F5612F314132E79C993313F0E9D536C1C0752F942C411C221070C95425645D026B1EF0008213C15A29F3AD0D0492B6BC041E0604D75AD96E869892864B8F4A55F119A47DCF0D0858E32E25E8D9276F6948AD711DFD33EC287BD29A877138F5116CAD
310
A8E651513936F1105C0352DCCED96D7FB9C2737A8BE1AE788BE1253DECE0E19A1769969D11CA131CF961828D681775A63935BC02244109822886A8788FF3E33E3BA6F9078E7C27C1BDD1CEF32CEADD01F2B8BF7034E11B3EDB557FF359214D9ACC7CD3440F48ECD61B0B04473E1FF71BC3DB66E8845D7E86DE9BC5C2D34103
310
6746E99DAB54CAAEA58136963B6A148C1F8EA6AA631E097EE2497EE1F99DC3054565ED56A3C65DEFD678F5ED4E1DD77030AF402ADDD2665D6E5A713D57A18DA5659CA946E9FF4C2F56973023FF30C917504B0304140006080800128F295066B341BD08010000B201000008000000636F72652E786D6C8D50CB6EC32010FC15
310
B4776CB0133F224CE444EE17F4D41B35C445B1C132386AFFBE10BB527BEB69D1CCECCE30ECFC398DE8A116A7AD698026049032BD95DA0C0DACFE862B4067CE166BFD2F19202326D5408481B361B1EBBC43BD355E99881A2BD50E0AE79407D48FE1D180EB3FD42412B1FAA070F76416FD5D0C2AA1C9A6E3CCEBE967B55F94F0
310
4A02CF484630A198D4AFB43C1D8B535EBEB1342A395B572D772B2D83BBBE69B500AFBBB6E88E972B6EF38EE243FD42F125AF0EB8BA96755E142D2165C6D2B8CC99F34BF8F37E24E4F4C88947F465E94671F66EEDB80B422889AC19BF80139646E24FE87596FF08AD8DCFB3FDE0B6E180D310E84904E3D86018CF7AC38C6DF3
310
6F504B01021400140006080800128F29500000000000000000000000003700000000000000000000000000000000006662782F33423130313239392D413531442D343138382D413236412D3046393243443834433232312F617474726962757465732E62696E504B01021400140006080800128F2950000000000000000000
310
0000003500000000000000000000000000550000006662782F33423130313239392D413531442D343138382D413236412D3046393243443834433232312F76657274696365732E62696E504B01021400140006080800128F2950F270F13306000000040000003600000000000000000000000000A80000006662782F334231
310
30313239392D413531442D343138382D413236412D3046393243443834433232312F747269616E676C65732E62696E504B01021400140006080800128F295088E57597CD3F0000904100004200000000000000000000000000020100006662782F33423130313239392D413531442D343138382D413236412D304639324344
310
3834433232312F7265736F75726365732F322F305F67656E657269632E706E67504B01021400140006080800128F295051464CB4890000004301000036000000000000000000000000002F4100006662782F33423130313239392D413531442D343138382D413236412D3046393243443834433232312F6469726563746F72
310
792E786D6C504B01021400140006080800128F295000B6DAF344070000541C000034000000000000000000000000000C4200006662782F33423130313239392D413531442D343138382D413236412D3046393243443834433232312F6F626A656374732E786D6C504B01021400140006080800128F295086F07598E2000000
310
550100003C00000000000000000000000000A24900006662782F33423130313239392D413531442D343138382D413236412D3046393243443834433232312F7265736F75726365732F322F636E782E786D6C504B01021400140006080800128F2950FF15A4A45D000000800000003A00000000000000000000000000DE4A00
310
006662782F33423130313239392D413531442D343138382D413236412D3046393243443834433232312F7265736F75726365732F636E782E786D6C504B01021400140006080800128F2950F5E8CF3F43010000560500003000000000000000000000000000934B00006662782F33423130313239392D413531442D34313838
310
2D413236412D3046393243443834433232312F636E782E786D6C504B01021400140006080800128F29509B8E2D787E000000A30000000B00000000000000000000000000244D00006662782F636E782E786D6C504B01021400140006080800128F2950A6D797065F000000820000000700000000000000000000000000CB4D
310
0000636E782E786D6C504B01021400140006080800128F2950ECFD112DA80000002601000013000000000000000000000000004F4E00005B436F6E74656E745F54797065735D2E786D6C504B01021400140006080800128F29503DEE336E64000000790000001B00000000000000000000000000284F00006175746F646573
310
6B2D64657369676E2D7061636B6167652E786D6C504B01021400140006080800128F2950B4CC29EFF40000008E0100003D00000000000000000000000000C54F00006662782F33423130313239392D413531442D343138382D413236412D3046393243443834433232312F7265736F75726365732F322F636F72652E786D6C
310
504B01021400140006080800128F2950D96F82A4FA000000960100003B00000000000000000000000000145100006662782F33423130313239392D413531442D343138382D413236412D3046393243443834433232312F7265736F75726365732F636F72652E786D6C504B01021400140006080800128F2950C67EDF65F100
310
0000B10100003100000000000000000000000000675200006662782F33423130313239392D413531442D343138382D413236412D3046393243443834433232312F636F72652E786D6C504B01021400140006080800128F2950F7C88C2554010000DD0200000C00000000000000000000000000A75300006662782F636F7265
310
2E786D6C504B01021400140006080800128F295066B341BD08010000B2010000080000000000000000000000000025550000636F72652E786D6C504B050600000000120012002D060000535600000000
  0
XRECORD
  5
CE003
102
{ACAD_REACTORS
330
CDFFE
102
}
330
CDFFE
100
AcDbXrecord
280
     1
270
     1
271
     1
  0
XRECORD
  5
CE002
102
{ACAD_REACTORS
330
CDFFE
102
}
330
CDFFE
100
AcDbXrecord
280
     1
270
     1
271
     1
  0
XRECORD
  5
CE004
102
{ACAD_REACTORS
330
CDFFE
102
}
330
CDFFE
100
AcDbXrecord
280
     1
270
     1
271
     1
  0
XRECORD
  5
CE001
102
{ACAD_REACTORS
330
CDFFE
102
}
330
CDFFE
100
AcDbXrecord
280
     1
270
     1
271
     1
  0
XRECORD
  5
DCCC3
102
{ACAD_REACTORS
330
DCCC2
102
}
330
DCCC2
100
AcDbXrecord
280
     1
102
DISPLAYNAME
  1
Imperial24
102
FLAGS
 90
        0
  0
XRECORD
  5
DCCC7
102
{ACAD_REACTORS
330
DCCC6
102
}
330
DCCC6
100
AcDbXrecord
280
     1
102
DISPLAYNAME
  1
Metric50
102
FLAGS
 90
        0
  0
CELLSTYLEMAP
  5
DCCC0
102
{ACAD_REACTORS
330
CF155
102
}
330
CF155
100
AcDbCellStyleMap
 90
        3
300
CELLSTYLE
  1
TABLEFORMAT_BEGIN
 90
        5
170
     1
 91
        0
 92
    32768
 62
   257
 93
        1
300
CONTENTFORMAT
  1
CONTENTFORMAT_BEGIN
 90
        0
 91
        0
 92
      512
 93
        0
300

 40
0.0
140
1.0
 94
        5
 62
     0
340
11
144
0.25
309
CONTENTFORMAT_END
171
     1
301
MARGIN
  1
CELLMARGIN_BEGIN
 40
0.06
 40
0.06
 40
0.06
 40
0.06
 40
0.18
 40
0.18
309
CELLMARGIN_END
 94
        6
 95
        1
302
GRIDFORMAT
  1
GRIDFORMAT_BEGIN
 90
        0
 91
        1
 62
     0
 92
       -2
340
0
 93
        0
 40
0.045
309
GRIDFORMAT_END
 95
        2
302
GRIDFORMAT
  1
GRIDFORMAT_BEGIN
 90
        0
 91
        1
 62
     0
 92
       -2
340
0
 93
        0
 40
0.045
309
GRIDFORMAT_END
 95
        4
302
GRIDFORMAT
  1
GRIDFORMAT_BEGIN
 90
        0
 91
        1
 62
     0
 92
       -2
340
0
 93
        0
 40
0.045
309
GRIDFORMAT_END
 95
        8
302
GRIDFORMAT
  1
GRIDFORMAT_BEGIN
 90
        0
 91
        1
 62
     0
 92
       -2
340
0
 93
        0
 40
0.045
309
GRIDFORMAT_END
 95
       16
302
GRIDFORMAT
  1
GRIDFORMAT_BEGIN
 90
        0
 91
        1
 62
     0
 92
       -2
340
0
 93
        0
 40
0.045
309
GRIDFORMAT_END
 95
       32
302
GRIDFORMAT
  1
GRIDFORMAT_BEGIN
 90
        0
 91
        1
 62
     0
 92
       -2
340
0
 93
        0
 40
0.045
309
GRIDFORMAT_END
309
TABLEFORMAT_END
  1
CELLSTYLE_BEGIN
 90
        1
 91
        1
300
_TITLE
309
CELLSTYLE_END
300
CELLSTYLE
  1
TABLEFORMAT_BEGIN
 90
        5
170
     1
 91
        0
 92
        0
 62
   257
 93
        1
300
CONTENTFORMAT
  1
CONTENTFORMAT_BEGIN
 90
        0
 91
        0
 92
      512
 93
        0
300

 40
0.0
140
1.0
 94
        5
 62
     0
340
11
144
0.18
309
CONTENTFORMAT_END
171
     1
301
MARGIN
  1
CELLMARGIN_BEGIN
 40
0.06
 40
0.06
 40
0.06
 40
0.06
 40
0.18
 40
0.18
309
CELLMARGIN_END
 94
        6
 95
        1
302
GRIDFORMAT
  1
GRIDFORMAT_BEGIN
 90
        0
 91
        1
 62
     0
 92
       -2
340
0
 93
        0
 40
0.045
309
GRIDFORMAT_END
 95
        2
302
GRIDFORMAT
  1
GRIDFORMAT_BEGIN
 90
        0
 91
        1
 62
     0
 92
       -2
340
0
 93
        0
 40
0.045
309
GRIDFORMAT_END
 95
        4
302
GRIDFORMAT
  1
GRIDFORMAT_BEGIN
 90
        0
 91
        1
 62
     0
 92
       -2
340
0
 93
        0
 40
0.045
309
GRIDFORMAT_END
 95
        8
302
GRIDFORMAT
  1
GRIDFORMAT_BEGIN
 90
        0
 91
        1
 62
     0
 92
       -2
340
0
 93
        0
 40
0.045
309
GRIDFORMAT_END
 95
       16
302
GRIDFORMAT
  1
GRIDFORMAT_BEGIN
 90
        0
 91
        1
 62
     0
 92
       -2
340
0
 93
        0
 40
0.045
309
GRIDFORMAT_END
 95
       32
302
GRIDFORMAT
  1
GRIDFORMAT_BEGIN
 90
        0
 91
        1
 62
     0
 92
       -2
340
0
 93
        0
 40
0.045
309
GRIDFORMAT_END
309
TABLEFORMAT_END
  1
CELLSTYLE_BEGIN
 90
        2
 91
        1
300
_HEADER
309
CELLSTYLE_END
300
CELLSTYLE
  1
TABLEFORMAT_BEGIN
 90
        5
170
     1
 91
        0
 92
        0
 62
   257
 93
        1
300
CONTENTFORMAT
  1
CONTENTFORMAT_BEGIN
 90
        0
 91
        0
 92
      512
 93
        0
300

 40
0.0
140
1.0
 94
        2
 62
     0
340
11
144
0.18
309
CONTENTFORMAT_END
171
     1
301
MARGIN
  1
CELLMARGIN_BEGIN
 40
0.06
 40
0.06
 40
0.06
 40
0.06
 40
0.18
 40
0.18
309
CELLMARGIN_END
 94
        6
 95
        1
302
GRIDFORMAT
  1
GRIDFORMAT_BEGIN
 90
        0
 91
        1
 62
     0
 92
       -2
340
0
 93
        0
 40
0.045
309
GRIDFORMAT_END
 95
        2
302
GRIDFORMAT
  1
GRIDFORMAT_BEGIN
 90
        0
 91
        1
 62
     0
 92
       -2
340
0
 93
        0
 40
0.045
309
GRIDFORMAT_END
 95
        4
302
GRIDFORMAT
  1
GRIDFORMAT_BEGIN
 90
        0
 91
        1
 62
     0
 92
       -2
340
0
 93
        0
 40
0.045
309
GRIDFORMAT_END
 95
        8
302
GRIDFORMAT
  1
GRIDFORMAT_BEGIN
 90
        0
 91
        1
 62
     0
 92
       -2
340
0
 93
        0
 40
0.045
309
GRIDFORMAT_END
 95
       16
302
GRIDFORMAT
  1
GRIDFORMAT_BEGIN
 90
        0
 91
        1
 62
     0
 92
       -2
340
0
 93
        0
 40
0.045
309
GRIDFORMAT_END
 95
       32
302
GRIDFORMAT
  1
GRIDFORMAT_BEGIN
 90
        0
 91
        1
 62
     0
 92
       -2
340
0
 93
        0
 40
0.045
309
GRIDFORMAT_END
309
TABLEFORMAT_END
  1
CELLSTYLE_BEGIN
 90
        3
 91
        2
300
_DATA
309
CELLSTYLE_END
  0
ENDSEC
  0
EOF
