  0
SECTION
  2
HEADER
  9
$ACADVER
  1
AC1027
  9
$ACADMAINTVER
 70
   125
  9
$DWGCODEPAGE
  3
ANSI_932
  9
$LASTSAVEDBY
  1
NN40375
  9
$REQUIREDVERSIONS
160
                 0
  9
$INSBASE
 10
0.0
 20
0.0
 30
0.0
  9
$EXTMIN
 10
-1106.1318492598
 20
-479.5088854790602
 30
0.0
  9
$EXTMAX
 10
1553.454504976836
 20
1060.0
 30
0.0
  9
$LIMMIN
 10
-1183.738028243999
 20
-482.577477193845
  9
$LIMMAX
 10
1198.257431087698
 20
821.9562918286355
  9
$ORTHOMODE
 70
     0
  9
$REGENMODE
 70
     1
  9
$FILLMODE
 70
     1
  9
$QTEXTMODE
 70
     0
  9
$MIRRTEXT
 70
     0
  9
$LTSCALE
 40
100.0
  9
$ATTMODE
 70
     1
  9
$TEXTSIZE
 40
64.0
  9
$TRACEWID
 40
0.05
  9
$TEXTSTYLE
  7
STANDARD
  9
$CLAYER
  8
OUTLINE
  9
$CELTYPE
  6
CONTINUOUS
  9
$CECOLOR
 62
   256
  9
$CELTSCALE
 40
1.0
  9
$DISPSILH
 70
     0
  9
$DIMSCALE
 40
1.0
  9
$DIMASZ
 40
10.0
  9
$DIMEXO
 40
10.0
  9
$DIMDLI
 40
100.0
  9
$DIMRND
 40
0.0
  9
$DIMDLE
 40
0.0
  9
$DIMEXE
 40
10.0
  9
$DIMTP
 40
0.0
  9
$DIMTM
 40
0.0
  9
$DIMTXT
 40
45.0
  9
$DIMCEN
 40
0.09
  9
$DIMTSZ
 40
0.0
  9
$DIMTOL
 70
     0
  9
$DIMLIM
 70
     0
  9
$DIMTIH
 70
     0
  9
$DIMTOH
 70
     0
  9
$DIMSE1
 70
     0
  9
$DIMSE2
 70
     0
  9
$DIMTAD
 70
     1
  9
$DIMZIN
 70
     8
  9
$DIMBLK
  1
ORIGIN
  9
$DIMASO
 70
     1
  9
$DIMSHO
 70
     0
  9
$DIMPOST
  1

  9
$DIMAPOST
  1

  9
$DIMALT
 70
     0
  9
$DIMALTD
 70
     2
  9
$DIMALTF
 40
25.4
  9
$DIMLFAC
 40
1.0
  9
$DIMTOFL
 70
     1
  9
$DIMTVP
 40
0.0
  9
$DIMTIX
 70
     0
  9
$DIMSOXD
 70
     0
  9
$DIMSAH
 70
     0
  9
$DIMBLK1
  1

  9
$DIMBLK2
  1

  9
$DIMSTYLE
  2
STANDARD
  9
$DIMCLRD
 70
   256
  9
$DIMCLRE
 70
   256
  9
$DIMCLRT
 70
   256
  9
$DIMTFAC
 40
1.0
  9
$DIMGAP
 40
10.0
  9
$DIMJUST
 70
     0
  9
$DIMSD1
 70
     0
  9
$DIMSD2
 70
     0
  9
$DIMTOLJ
 70
     1
  9
$DIMTZIN
 70
     0
  9
$DIMALTZ
 70
     0
  9
$DIMALTTZ
 70
     0
  9
$DIMUPT
 70
     0
  9
$DIMDEC
 70
     4
  9
$DIMTDEC
 70
     4
  9
$DIMALTU
 70
     2
  9
$DIMALTTD
 70
     2
  9
$DIMTXSTY
  7
STANDARD
  9
$DIMAUNIT
 70
     0
  9
$DIMADEC
 70
     0
  9
$DIMALTRND
 40
0.0
  9
$DIMAZIN
 70
     0
  9
$DIMDSEP
 70
    46
  9
$DIMATFIT
 70
     3
  9
$DIMFRAC
 70
     0
  9
$DIMLDRBLK
  1
Open30
  9
$DIMLUNIT
 70
     2
  9
$DIMLWD
 70
    -1
  9
$DIMLWE
 70
    -2
  9
$DIMTMOVE
 70
     0
  9
$DIMFXL
 40
1.0
  9
$DIMFXLON
 70
     0
  9
$DIMJOGANG
 40
0.7853981633974483
  9
$DIMTFILL
 70
     0
  9
$DIMTFILLCLR
 70
     0
  9
$DIMARCSYM
 70
     0
  9
$DIMLTYPE
  6
BYLAYER
  9
$DIMLTEX1
  6

  9
$DIMLTEX2
  6

  9
$DIMTXTDIRECTION
 70
     0
  9
$LUNITS
 70
     2
  9
$LUPREC
 70
     4
  9
$SKETCHINC
 40
0.1
  9
$FILLETRAD
 40
10.0
  9
$AUNITS
 70
     1
  9
$AUPREC
 70
     3
  9
$MENU
  1
ACAD
  9
$ELEVATION
 40
0.0
  9
$PELEVATION
 40
0.0
  9
$THICKNESS
 40
0.0
  9
$LIMCHECK
 70
     0
  9
$CHAMFERA
 40
0.0
  9
$CHAMFERB
 40
0.0
  9
$CHAMFERC
 40
0.0
  9
$CHAMFERD
 40
0.0
  9
$SKPOLY
 70
     0
  9
$TDCREATE
 40
2450330.393194445
  9
$TDUCREATE
 40
2450330.018205984
  9
$TDUPDATE
 40
2460262.685937500
  9
$TDUUPDATE
 40
2460262.310937500
  9
$TDINDWG
 40
5.1103217477
  9
$TDUSRTIMER
 40
5.1103198148
  9
$USRTIMER
 70
     1
  9
$ANGBASE
 50
0.0
  9
$ANGDIR
 70
     0
  9
$PDMODE
 70
     3
  9
$PDSIZE
 40
-2.0
  9
$PLINEWID
 40
0.0
  9
$SPLFRAME
 70
     0
  9
$SPLINETYPE
 70
     6
  9
$SPLINESEGS
 70
     8
  9
$HANDSEED
  5
DBD98
  9
$SURFTAB1
 70
     6
  9
$SURFTAB2
 70
     6
  9
$SURFTYPE
 70
     6
  9
$SURFU
 70
     6
  9
$SURFV
 70
     6
  9
$UCSBASE
  2

  9
$UCSNAME
  2

  9
$UCSORG
 10
0.0
 20
0.0
 30
0.0
  9
$UCSXDIR
 10
1.0
 20
0.0
 30
0.0
  9
$UCSYDIR
 10
0.0
 20
1.0
 30
0.0
  9
$UCSORTHOREF
  2

  9
$UCSORTHOVIEW
 70
     0
  9
$UCSORGTOP
 10
0.0
 20
0.0
 30
0.0
  9
$UCSORGBOTTOM
 10
0.0
 20
0.0
 30
0.0
  9
$UCSORGLEFT
 10
0.0
 20
0.0
 30
0.0
  9
$UCSORGRIGHT
 10
0.0
 20
0.0
 30
0.0
  9
$UCSORGFRONT
 10
0.0
 20
0.0
 30
0.0
  9
$UCSORGBACK
 10
0.0
 20
0.0
 30
0.0
  9
$PUCSBASE
  2

  9
$PUCSNAME
  2

  9
$PUCSORG
 10
0.0
 20
0.0
 30
0.0
  9
$PUCSXDIR
 10
1.0
 20
0.0
 30
0.0
  9
$PUCSYDIR
 10
0.0
 20
1.0
 30
0.0
  9
$PUCSORTHOREF
  2

  9
$PUCSORTHOVIEW
 70
     0
  9
$PUCSORGTOP
 10
0.0
 20
0.0
 30
0.0
  9
$PUCSORGBOTTOM
 10
0.0
 20
0.0
 30
0.0
  9
$PUCSORGLEFT
 10
0.0
 20
0.0
 30
0.0
  9
$PUCSORGRIGHT
 10
0.0
 20
0.0
 30
0.0
  9
$PUCSORGFRONT
 10
0.0
 20
0.0
 30
0.0
  9
$PUCSORGBACK
 10
0.0
 20
0.0
 30
0.0
  9
$USERI1
 70
     0
  9
$USERI2
 70
     0
  9
$USERI3
 70
     0
  9
$USERI4
 70
     0
  9
$USERI5
 70
     0
  9
$USERR1
 40
20.0
  9
$USERR2
 40
0.0
  9
$USERR3
 40
0.0
  9
$USERR4
 40
0.0
  9
$USERR5
 40
0.0
  9
$WORLDVIEW
 70
     1
  9
$SHADEDGE
 70
     3
  9
$SHADEDIF
 70
    70
  9
$TILEMODE
 70
     1
  9
$MAXACTVP
 70
    64
  9
$PINSBASE
 10
0.0
 20
0.0
 30
0.0
  9
$PLIMCHECK
 70
     0
  9
$PEXTMIN
 10
1.000000000000000E+20
 20
1.000000000000000E+20
 30
1.000000000000000E+20
  9
$PEXTMAX
 10
-1.000000000000000E+20
 20
-1.000000000000000E+20
 30
-1.000000000000000E+20
  9
$PLIMMIN
 10
0.0
 20
0.0
  9
$PLIMMAX
 10
12.0
 20
9.0
  9
$UNITMODE
 70
     0
  9
$VISRETAIN
 70
     1
  9
$PLINEGEN
 70
     0
  9
$PSLTSCALE
 70
     1
  9
$TREEDEPTH
 70
  3020
  9
$CMLSTYLE
  2
STANDARD
  9
$CMLJUST
 70
     0
  9
$CMLSCALE
 40
1.0
  9
$PROXYGRAPHICS
 70
     1
  9
$MEASUREMENT
 70
     0
  9
$CELWEIGHT
370
    -1
  9
$ENDCAPS
280
     0
  9
$JOINSTYLE
280
     0
  9
$LWDISPLAY
290
     0
  9
$INSUNITS
 70
     0
  9
$HYPERLINKBASE
  1

  9
$STYLESHEET
  1
MONOCHROME.CTB
  9
$XEDIT
290
     1
  9
$CEPSNTYPE
380
     0
  9
$PSTYLEMODE
290
     1
  9
$FINGERPRINTGUID
  2
{97DA8DB6-C4F0-4C3D-ABEB-53C4FBBC7EFF}
  9
$VERSIONGUID
  2
{A6646506-C5AF-004C-91DA-CEE2CBBC0D99}
  9
$EXTNAMES
290
     1
  9
$PSVPSCALE
 40
0.0
  9
$OLESTARTUP
290
     0
  9
$SORTENTS
280
   127
  9
$INDEXCTL
280
     0
  9
$HIDETEXT
280
     0
  9
$XCLIPFRAME
280
     2
  9
$HALOGAP
280
     0
  9
$OBSCOLOR
 70
   257
  9
$OBSLTYPE
280
     0
  9
$INTERSECTIONDISPLAY
280
     0
  9
$INTERSECTIONCOLOR
 70
   257
  9
$DIMASSOC
280
     1
  9
$PROJECTNAME
  1

  9
$CAMERADISPLAY
290
     0
  9
$LENSLENGTH
 40
50.0
  9
$CAMERAHEIGHT
 40
0.0
  9
$STEPSPERSEC
 40
2.0
  9
$STEPSIZE
 40
6.0
  9
$3DDWFPREC
 40
2.0
  9
$PSOLWIDTH
 40
0.25
  9
$PSOLHEIGHT
 40
4.0
  9
$LOFTANG1
 40
1.570795999999999
  9
$LOFTANG2
 40
1.570795999999999
  9
$LOFTMAG1
 40
0.0
  9
$LOFTMAG2
 40
0.0
  9
$LOFTPARAM
 70
     7
  9
$LOFTNORMALS
280
     1
  9
$LATITUDE
 40
37.795
  9
$LONGITUDE
 40
-122.394
  9
$NORTHDIRECTION
 40
0.0
  9
$TIMEZONE
 70
 -8000
  9
$LIGHTGLYPHDISPLAY
280
     1
  9
$TILEMODELIGHTSYNCH
280
     1
  9
$CMATERIAL
347
CDFED
  9
$SOLIDHIST
280
     0
  9
$SHOWHIST
280
     1
  9
$DWFFRAME
280
     2
  9
$DGNFRAME
280
     0
  9
$REALWORLDSCALE
290
     1
  9
$INTERFERECOLOR
 62
     1
  9
$INTERFEREOBJVS
345
CE00F
  9
$INTERFEREVPVS
346
CE00C
  9
$CSHADOW
280
     0
  9
$SHADOWPLANELOCATION
 40
0.0
  0
ENDSEC
  0
SECTION
  2
CLASSES
  0
CLASS
  1
ACDBDICTIONARYWDFLT
  2
AcDbDictionaryWithDefault
  3
ObjectDBX Classes
 90
        0
 91
        1
280
     0
281
     0
  0
CLASS
  1
MATERIAL
  2
AcDbMaterial
  3
ObjectDBX Classes
 90
     1153
 91
        3
280
     0
281
     0
  0
CLASS
  1
VISUALSTYLE
  2
AcDbVisualStyle
  3
ObjectDBX Classes
 90
     4095
 91
       24
280
     0
281
     0
  0
CLASS
  1
TABLESTYLE
  2
AcDbTableStyle
  3
ObjectDBX Classes
 90
     4095
 91
        1
280
     0
281
     0
  0
CLASS
  1
SCALE
  2
AcDbScale
  3
ObjectDBX Classes
 90
     1153
 91
       17
280
     0
281
     0
  0
CLASS
  1
MLEADERSTYLE
  2
AcDbMLeaderStyle
  3
ACDB_MLEADERSTYLE_CLASS
 90
     4095
 91
        1
280
     0
281
     0
  0
CLASS
  1
ACDBSECTIONVIEWSTYLE
  2
AcDbSectionViewStyle
  3
ObjectDBX Classes
 90
     1025
 91
        2
280
     0
281
     0
  0
CLASS
  1
ACDBDETAILVIEWSTYLE
  2
AcDbDetailViewStyle
  3
ObjectDBX Classes
 90
     1025
 91
        2
280
     0
281
     0
  0
CLASS
  1
DICTIONARYVAR
  2
AcDbDictionaryVar
  3
ObjectDBX Classes
 90
        0
 91
       15
280
     0
281
     0
  0
CLASS
  1
SORTENTSTABLE
  2
AcDbSortentsTable
  3
ObjectDBX Classes
 90
        0
 91
        1
280
     0
281
     0
  0
CLASS
  1
CELLSTYLEMAP
  2
AcDbCellStyleMap
  3
ObjectDBX Classes
 90
     1152
 91
        2
280
     0
281
     0
  0
CLASS
  1
MULTILEADER
  2
AcDbMLeader
  3
ACDB_MLEADER_CLASS
 90
     1025
 91
        0
280
     0
281
     1
  0
ENDSEC
  0
SECTION
  2
TABLES
  0
TABLE
  2
VPORT
  5
8
330
0
100
AcDbSymbolTable
 70
     1
1001
ACAD
1000
DbSaveVer
1071
      224
  0
VPORT
  5
CDFC4
330
8
100
AcDbSymbolTableRecord
100
AcDbViewportTableRecord
  2
*ACTIVE
 70
     0
 10
0.0
 20
0.0
 11
1.0
 21
1.0
 12
144.3849229837105
 22
282.6738876971349
 13
0.0
 23
0.0
 14
50.0
 24
50.0
 15
100.0
 25
100.0
 16
0.0
 26
0.0
 36
1.0
 17
0.0
 27
0.0
 37
0.0
 40
1815.279268068876
 41
1.710050614605929
 42
50.0
 43
0.0
 44
0.0
 50
0.0
 51
0.0
 71
     0
 72
   500
 73
     1
 74
     0
 75
     0
 76
     0
 77
     0
 78
     0
281
     0
 65
     1
110
0.0
120
0.0
130
0.0
111
1.0
121
0.0
131
0.0
112
0.0
122
1.0
132
0.0
 79
     0
146
0.0
348
CE00B
 60
     3
 61
     5
292
     1
282
     1
141
0.0
142
0.0
 63
   250
421
  3355443
1001
ACAD_NAV_VCDISPLAY
1070
     3
  0
ENDTAB
  0
TABLE
  2
LTYPE
  5
5
330
0
100
AcDbSymbolTable
 70
     4
  0
LTYPE
  5
13
330
5
100
AcDbSymbolTableRecord
100
AcDbLinetypeTableRecord
  2
BYBLOCK
 70
     0
  3

 72
    65
 73
     0
 40
0.0
  0
LTYPE
  5
14
330
5
100
AcDbSymbolTableRecord
100
AcDbLinetypeTableRecord
  2
BYLAYER
 70
     0
  3

 72
    65
 73
     0
 40
0.0
  0
LTYPE
  5
15
330
5
100
AcDbSymbolTableRecord
100
AcDbLinetypeTableRecord
  2
CONTINUOUS
 70
     0
  3
実線
 72
    65
 73
     0
 40
0.0
  0
LTYPE
  5
889DC
330
5
100
AcDbSymbolTableRecord
100
AcDbLinetypeTableRecord
  2
PHANTOM
 70
     0
  3
_____ _ _ _____ _ _ _____ _ _ _____
 72
    65
 73
     6
 40
0.8
 49
0.45
 74
     0
 49
-0.05
 74
     0
 49
0.1
 74
     0
 49
-0.05
 74
     0
 49
0.1
 74
     0
 49
-0.05
 74
     0
  0
LTYPE
  5
D1A57
330
5
100
AcDbSymbolTableRecord
100
AcDbLinetypeTableRecord
  2
CENTER
 70
     0
  3
____ _ ____ _ ____ _ ____ _ ____ _ ____ _ ____
 72
    65
 73
     4
 40
0.6
 49
0.375
 74
     0
 49
-0.075
 74
     0
 49
0.075
 74
     0
 49
-0.075
 74
     0
  0
ENDTAB
  0
TABLE
  2
LAYER
  5
2
102
{ACAD_XDICTIONARY
360
CE08E
102
}
330
0
100
AcDbSymbolTable
 70
    11
  0
LAYER
  5
10
102
{ACAD_XDICTIONARY
360
CE03C
102
}
330
2
100
AcDbSymbolTableRecord
100
AcDbLayerTableRecord
  2
0
 70
     0
 62
     7
  6
CONTINUOUS
370
    -3
390
F
347
CDFFD
348
0
  0
LAYER
  5
22
102
{ACAD_XDICTIONARY
360
CE03E
102
}
330
2
100
AcDbSymbolTableRecord
100
AcDbLayerTableRecord
  2
SIZE
 70
     0
 62
    30
  6
CONTINUOUS
370
    -3
390
F
347
CDFFD
348
0
  0
LAYER
  5
31
102
{ACAD_XDICTIONARY
360
CE040
102
}
330
2
100
AcDbSymbolTableRecord
100
AcDbLayerTableRecord
  2
DETAIL
 70
     0
 62
     5
  6
CONTINUOUS
370
    -3
390
F
347
CDFFD
348
0
  0
LAYER
  5
32
102
{ACAD_XDICTIONARY
360
CE042
102
}
330
2
100
AcDbSymbolTableRecord
100
AcDbLayerTableRecord
  2
OUTLINE
 70
     0
 62
     3
  6
CONTINUOUS
370
    -3
390
F
347
CDFFD
348
0
  0
LAYER
  5
33
102
{ACAD_XDICTIONARY
360
CE044
102
}
330
2
100
AcDbSymbolTableRecord
100
AcDbLayerTableRecord
  2
BASIS
 70
     0
 62
     6
  6
CENTER
370
    -3
390
F
347
CDFFD
348
0
  0
LAYER
  5
34
102
{ACAD_XDICTIONARY
360
CE046
102
}
330
2
100
AcDbSymbolTableRecord
100
AcDbLayerTableRecord
  2
NOTE
 70
     0
 62
     4
  6
CONTINUOUS
370
    -3
390
F
347
CDFFD
348
0
  0
LAYER
  5
35
102
{ACAD_XDICTIONARY
360
CE048
102
}
330
2
100
AcDbSymbolTableRecord
100
AcDbLayerTableRecord
  2
ARRANGE
 70
     0
 62
     1
  6
CONTINUOUS
370
    -3
390
F
347
CDFFD
348
0
  0
LAYER
  5
37
102
{ACAD_XDICTIONARY
360
CE04A
102
}
330
2
100
AcDbSymbolTableRecord
100
AcDbLayerTableRecord
  2
ETC
 70
     0
 62
    61
  6
CONTINUOUS
370
    -3
390
F
347
CDFFD
348
0
  0
LAYER
  5
3A
330
2
100
AcDbSymbolTableRecord
100
AcDbLayerTableRecord
  2
DEFPOINTS
 70
     0
 62
     7
  6
CONTINUOUS
290
     0
370
    -3
390
F
347
CDFFD
348
0
  0
LAYER
  5
D54BD
330
2
100
AcDbSymbolTableRecord
100
AcDbLayerTableRecord
  2
SERVICE_SPACE
 70
     0
 62
     2
  6
PHANTOM
370
    18
390
F
347
CDFFD
348
0
  0
LAYER
  5
DAC9E
102
{ACAD_XDICTIONARY
360
DAC9F
102
}
330
2
100
AcDbSymbolTableRecord
100
AcDbLayerTableRecord
  2
FIX
 70
     0
 62
    11
  6
CONTINUOUS
370
    -3
390
F
347
CDFFD
348
0
  0
ENDTAB
  0
TABLE
  2
STYLE
  5
3
330
0
100
AcDbSymbolTable
 70
     1
  0
STYLE
  5
11
330
3
100
AcDbSymbolTableRecord
100
AcDbTextStyleTableRecord
  2
STANDARD
 70
     0
 40
0.0
 41
1.0
 50
0.0
 71
     0
 42
64.0
  3
SIMPLEX.shx
  4
extfont.shx
  0
ENDTAB
  0
TABLE
  2
VIEW
  5
6
330
0
100
AcDbSymbolTable
 70
     1
  0
VIEW
  5
3C
330
6
100
AcDbSymbolTableRecord
100
AcDbViewTableRecord
  2
ALL
 70
     0
 40
4282.62
 10
0.0
 20
41.30990399999999
 41
5940.0
 11
0.0
 21
0.0
 31
1.0
 12
0.0
 22
0.0
 32
0.0
 42
50.0
 43
0.0
 44
0.0
 50
0.0
 71
     0
281
     0
 72
     0
 73
     0
348
CE00B
  0
ENDTAB
  0
TABLE
  2
UCS
  5
7
330
0
100
AcDbSymbolTable
 70
     0
  0
ENDTAB
  0
TABLE
  2
APPID
  5
9
330
0
100
AcDbSymbolTable
 70
    10
  0
APPID
  5
12
330
9
100
AcDbSymbolTableRecord
100
AcDbRegAppTableRecord
  2
ACAD
 70
     0
  0
APPID
  5
CE04C
330
9
100
AcDbSymbolTableRecord
100
AcDbRegAppTableRecord
  2
ACAD_PSEXT
 70
     0
  0
APPID
  5
CE068
330
9
100
AcDbSymbolTableRecord
100
AcDbRegAppTableRecord
  2
ACAD_NAV_VCDISPLAY
 70
     0
  0
APPID
  5
CF18C
330
9
100
AcDbSymbolTableRecord
100
AcDbRegAppTableRecord
  2
ACAD_MLEADERVER
 70
     0
  0
APPID
  5
CF3D9
330
9
100
AcDbSymbolTableRecord
100
AcDbRegAppTableRecord
  2
ACAD_EXEMPT_FROM_CAD_STANDARDS
 70
     0
  0
APPID
  5
D172E
330
9
100
AcDbSymbolTableRecord
100
AcDbRegAppTableRecord
  2
AcadAnnoMonitorAlertIconDisabled
 70
     0
  0
APPID
  5
D6768
330
9
100
AcDbSymbolTableRecord
100
AcDbRegAppTableRecord
  2
ACAD_DSTYLE_DIMJAG
 70
     0
  0
APPID
  5
D6769
330
9
100
AcDbSymbolTableRecord
100
AcDbRegAppTableRecord
  2
ACAD_DSTYLE_DIMTALN
 70
     0
  0
APPID
  5
D84F7
330
9
100
AcDbSymbolTableRecord
100
AcDbRegAppTableRecord
  2
AcadAnnoPO
 70
     0
  0
APPID
  5
D9868
330
9
100
AcDbSymbolTableRecord
100
AcDbRegAppTableRecord
  2
ACAD_DSTYLE_DIM_LINETYPE
 70
     0
  0
ENDTAB
  0
TABLE
  2
DIMSTYLE
  5
A
330
0
100
AcDbSymbolTable
 70
     2
100
AcDbDimStyleTable
 71
     1
340
213
  0
DIMSTYLE
105
213
102
{ACAD_REACTORS
330
D7480
330
D7483
330
D7484
330
D7485
330
D748B
330
D7624
330
D747A
330
D747C
330
D7482
330
D7E56
330
D7E7E
330
DAA00
102
}
330
A
100
AcDbSymbolTableRecord
100
AcDbDimStyleTableRecord
  2
STANDARD
 70
     0
 41
10.0
 42
10.0
 43
100.0
 44
10.0
 73
     0
 74
     0
 77
     1
 78
     8
140
45.0
147
10.0
172
     1
176
   256
177
   256
178
   256
340
11
341
D7F38
342
46
345
14
371
    -1
1001
ACAD_DSTYLE_DIMJAG
1070
   388
1040
1.5
1001
ACAD_DSTYLE_DIMTALN
1070
   392
1070
     0
  0
ENDTAB
  0
TABLE
  2
BLOCK_RECORD
  5
1
330
0
100
AcDbSymbolTable
 70
    15
  0
BLOCK_RECORD
  5
1E
102
{ACAD_XDICTIONARY
360
66E76
102
}
330
1
100
AcDbSymbolTableRecord
100
AcDbBlockTableRecord
  2
*MODEL_SPACE
340
CE039
 70
     0
280
     1
281
     0
  0
BLOCK_RECORD
  5
1A
330
1
100
AcDbSymbolTableRecord
100
AcDbBlockTableRecord
  2
*PAPER_SPACE
340
CE03A
 70
     0
280
     1
281
     0
  0
BLOCK_RECORD
  5
46
330
1
100
AcDbSymbolTableRecord
100
AcDbBlockTableRecord
  2
_ORIGIN
340
0
102
{BLKREFS
331
DBD17
331
DBD18
331
DBD20
331
DBD21
331
DBD2B
331
DBD2C
331
DBD34
331
DBD35
331
DBD3D
331
DBD3E
331
DBD46
331
DBD47
331
DBD4F
331
DBD50
331
DBD59
331
DBD5A
331
DBD63
331
DBD64
331
DBD6C
331
DBD6D
331
DBD76
331
DBD77
331
DBD81
331
DBD82
102
}
 70
     0
280
     1
281
     0
  0
BLOCK_RECORD
  5
D7631
330
1
100
AcDbSymbolTableRecord
100
AcDbBlockTableRecord
  2
*D1
340
0
 70
     0
280
     1
281
     0
  0
BLOCK_RECORD
  5
D764B
330
1
100
AcDbSymbolTableRecord
100
AcDbBlockTableRecord
  2
*D2
340
0
 70
     0
280
     1
281
     0
  0
BLOCK_RECORD
  5
D7657
330
1
100
AcDbSymbolTableRecord
100
AcDbBlockTableRecord
  2
*D3
340
0
 70
     0
280
     1
281
     0
  0
BLOCK_RECORD
  5
D7664
330
1
100
AcDbSymbolTableRecord
100
AcDbBlockTableRecord
  2
*D4
340
0
 70
     0
280
     1
281
     0
  0
BLOCK_RECORD
  5
D7671
330
1
100
AcDbSymbolTableRecord
100
AcDbBlockTableRecord
  2
*D5
340
0
 70
     0
280
     1
281
     0
  0
BLOCK_RECORD
  5
D767D
330
1
100
AcDbSymbolTableRecord
100
AcDbBlockTableRecord
  2
*D6
340
0
 70
     0
280
     1
281
     0
  0
BLOCK_RECORD
  5
D7689
330
1
100
AcDbSymbolTableRecord
100
AcDbBlockTableRecord
  2
*D7
340
0
 70
     0
280
     1
281
     0
  0
BLOCK_RECORD
  5
D7696
330
1
100
AcDbSymbolTableRecord
100
AcDbBlockTableRecord
  2
*D8
340
0
 70
     0
280
     1
281
     0
  0
BLOCK_RECORD
  5
D76A2
330
1
100
AcDbSymbolTableRecord
100
AcDbBlockTableRecord
  2
*D9
340
0
 70
     0
280
     1
281
     0
  0
BLOCK_RECORD
  5
D7E57
330
1
100
AcDbSymbolTableRecord
100
AcDbBlockTableRecord
  2
*D10
340
0
 70
     0
280
     1
281
     0
  0
BLOCK_RECORD
  5
D7E7F
330
1
100
AcDbSymbolTableRecord
100
AcDbBlockTableRecord
  2
*D11
340
0
 70
     0
280
     1
281
     0
  0
BLOCK_RECORD
  5
D7F38
330
1
100
AcDbSymbolTableRecord
100
AcDbBlockTableRecord
  2
_Open30
340
0
 70
     0
280
     1
281
     0
  0
BLOCK_RECORD
  5
DAA01
330
1
100
AcDbSymbolTableRecord
100
AcDbBlockTableRecord
  2
*D13
340
0
 70
     0
280
     1
281
     0
  0
ENDTAB
  0
ENDSEC
  0
SECTION
  2
BLOCKS
  0
BLOCK
  5
1F
330
1E
100
AcDbEntity
  8
0
100
AcDbBlockBegin
  2
*MODEL_SPACE
 70
     0
 10
0.0
 20
0.0
 30
0.0
  3
*MODEL_SPACE
  1

  0
ENDBLK
  5
20
330
1E
100
AcDbEntity
  8
0
100
AcDbBlockEnd
  0
BLOCK
  5
1B
330
1A
100
AcDbEntity
 67
     1
  8
0
100
AcDbBlockBegin
  2
*PAPER_SPACE
 70
     0
 10
0.0
 20
0.0
 30
0.0
  3
*PAPER_SPACE
  1

  0
ENDBLK
  5
1C
330
1A
100
AcDbEntity
 67
     1
  8
0
100
AcDbBlockEnd
  0
BLOCK
  5
47
330
46
100
AcDbEntity
  8
0
100
AcDbBlockBegin
  2
_ORIGIN
 70
     0
 10
0.0
 20
0.0
 30
0.0
  3
_ORIGIN
  1

  0
CIRCLE
  5
48
330
46
100
AcDbEntity
  8
0
  6
ByBlock
 62
     0
100
AcDbCircle
 10
0.0
 20
0.0
 30
0.0
 40
0.5
  0
LINE
  5
49
330
46
100
AcDbEntity
  8
0
  6
ByBlock
 62
     0
100
AcDbLine
 10
0.0
 20
0.0
 30
0.0
 11
-1.0
 21
0.0
 31
0.0
  0
ENDBLK
  5
4A
330
46
100
AcDbEntity
  8
0
100
AcDbBlockEnd
  0
BLOCK
  5
D7632
330
D7631
100
AcDbEntity
  8
0
100
AcDbBlockBegin
  2
*D1
 70
     1
 10
0.0
 20
0.0
 30
0.0
  3
*D1
  1

  0
LINE
  5
DBD26
330
D7631
100
AcDbEntity
  8
SIZE
440
 16777216
370
    -2
100
AcDbLine
 10
279.9993230000001
 20
-0.0000005000006224
 30
0.0
 11
610.0
 21
-0.0000005000005693
 31
0.0
  0
LINE
  5
DBD27
330
D7631
100
AcDbEntity
  8
SIZE
440
 16777216
370
    -2
100
AcDbLine
 10
79.88922800000003
 20
10.0
 30
0.0
 11
610.0
 21
10.00000000000009
 31
0.0
  0
LINE
  5
DBD28
330
D7631
100
AcDbEntity
  8
SIZE
440
 16777216
100
AcDbLine
 10
600.0
 20
20.00000000000009
 30
0.0
 11
600.0
 21
30.00000000000009
 31
0.0
  0
LINE
  5
DBD29
330
D7631
100
AcDbEntity
  8
SIZE
440
 16777216
100
AcDbLine
 10
600.0
 20
-10.00000050000057
 30
0.0
 11
600.0
 21
-104.2857147857149
 31
0.0
  0
LINE
  5
DBD2A
330
D7631
100
AcDbEntity
  8
SIZE
440
 16777216
100
AcDbLine
 10
600.0
 20
10.00000000000009
 30
0.0
 11
600.0
 21
-0.0000005000005709
 31
0.0
  0
INSERT
  5
DBD2B
330
D7631
100
AcDbEntity
  8
SIZE
440
 16777216
100
AcDbBlockReference
  2
_ORIGIN
 10
600.0
 20
10.00000000000009
 30
0.0
 41
10.0
 42
10.0
 43
10.0
 50
270.0
  0
INSERT
  5
DBD2C
330
D7631
100
AcDbEntity
  8
SIZE
440
 16777216
100
AcDbBlockReference
  2
_ORIGIN
 10
600.0
 20
-0.0000005000005709
 30
0.0
 41
10.0
 42
10.0
 43
10.0
 50
90.0
  0
MTEXT
  5
DBD2D
330
D7631
100
AcDbEntity
  8
SIZE
440
 16777216
100
AcDbMText
 10
567.4999999999998
 20
-62.14285764285787
 30
0.0
 40
45.0
 41
0.0
 46
0.0
 71
     5
 72
     1
  1
\A1;10
 11
0.0000000000000001
 21
1.0
 31
0.0
 73
     1
 44
1.0
  0
POINT
  5
DBD2E
330
D7631
100
AcDbEntity
  8
DEFPOINTS
 62
     0
440
 16777216
100
AcDbPoint
 10
269.9993230000001
 20
-0.000000500000624
 30
0.0
  0
POINT
  5
DBD2F
330
D7631
100
AcDbEntity
  8
DEFPOINTS
 62
     0
440
 16777216
100
AcDbPoint
 10
69.88922800000003
 20
10.0
 30
0.0
  0
POINT
  5
DBD30
330
D7631
100
AcDbEntity
  8
DEFPOINTS
 62
     0
440
 16777216
100
AcDbPoint
 10
600.0
 20
10.00000000000009
 30
0.0
  0
ENDBLK
  5
D7633
330
D7631
100
AcDbEntity
  8
0
100
AcDbBlockEnd
  0
BLOCK
  5
D764C
330
D764B
100
AcDbEntity
  8
0
100
AcDbBlockBegin
  2
*D2
 70
     1
 10
0.0
 20
0.0
 30
0.0
  3
*D2
  1

  0
LINE
  5
DBD31
330
D764B
100
AcDbEntity
  8
SIZE
440
 16777216
370
    -2
100
AcDbLine
 10
279.9993230000001
 20
-0.0000005000006224
 30
0.0
 11
710.000000000005
 21
-0.0000005000005532
 31
0.0
  0
LINE
  5
DBD32
330
D764B
100
AcDbEntity
  8
SIZE
440
 16777216
370
    -2
100
AcDbLine
 10
372.5026590000005
 20
714.0000000000002
 30
0.0
 11
710.0000000000049
 21
714.0000000000002
 31
0.0
  0
LINE
  5
DBD33
330
D764B
100
AcDbEntity
  8
SIZE
440
 16777216
100
AcDbLine
 10
700.0000000000049
 20
9.999999499999447
 30
0.0
 11
700.0000000000048
 21
704.0000000000002
 31
0.0
  0
INSERT
  5
DBD34
330
D764B
100
AcDbEntity
  8
SIZE
440
 16777216
100
AcDbBlockReference
  2
_ORIGIN
 10
700.0000000000049
 20
-0.0000005000005549
 30
0.0
 41
10.0
 42
10.0
 43
10.0
 50
270.0
  0
INSERT
  5
DBD35
330
D764B
100
AcDbEntity
  8
SIZE
440
 16777216
100
AcDbBlockReference
  2
_ORIGIN
 10
700.0000000000048
 20
714.0000000000002
 30
0.0
 41
10.0
 42
10.0
 43
10.0
 50
90.0
  0
MTEXT
  5
DBD36
330
D764B
100
AcDbEntity
  8
SIZE
440
 16777216
100
AcDbMText
 10
667.5000000000048
 20
356.9999997499996
 30
0.0
 40
45.0
 41
0.0
 46
0.0
 71
     5
 72
     1
  1
\A1;714
 11
0.0000000000000001
 21
1.0
 31
0.0
 73
     1
 44
1.0
  0
POINT
  5
DBD37
330
D764B
100
AcDbEntity
  8
DEFPOINTS
 62
     0
440
 16777216
100
AcDbPoint
 10
269.9993230000001
 20
-0.000000500000624
 30
0.0
  0
POINT
  5
DBD38
330
D764B
100
AcDbEntity
  8
DEFPOINTS
 62
     0
440
 16777216
100
AcDbPoint
 10
362.5026590000005
 20
714.0000000000002
 30
0.0
  0
POINT
  5
DBD39
330
D764B
100
AcDbEntity
  8
DEFPOINTS
 62
     0
440
 16777216
100
AcDbPoint
 10
700.0000000000048
 20
714.0000000000002
 30
0.0
  0
ENDBLK
  5
D764D
330
D764B
100
AcDbEntity
  8
0
100
AcDbBlockEnd
  0
BLOCK
  5
D7658
330
D7657
100
AcDbEntity
  8
0
100
AcDbBlockBegin
  2
*D3
 70
     1
 10
0.0
 20
0.0
 30
0.0
  3
*D3
  1

  0
LINE
  5
DBD3A
330
D7657
100
AcDbEntity
  8
SIZE
440
 16777216
370
    -2
100
AcDbLine
 10
-280.0004470000005
 20
0.0000004999992582
 30
0.0
 11
-851.6790970224064
 21
0.0000004999991663
 31
0.0
  0
LINE
  5
DBD3B
330
D7657
100
AcDbEntity
  8
SIZE
440
 16777216
370
    -2
100
AcDbLine
 10
-453.8750004951179
 20
117.0
 30
0.0
 11
-851.6790970224064
 21
117.0
 31
0.0
  0
LINE
  5
DBD3C
330
D7657
100
AcDbEntity
  8
SIZE
440
 16777216
100
AcDbLine
 10
-841.6790970224065
 20
10.00000049999917
 30
0.0
 11
-841.6790970224065
 21
107.0
 31
0.0
  0
INSERT
  5
DBD3D
330
D7657
100
AcDbEntity
  8
SIZE
440
 16777216
100
AcDbBlockReference
  2
_ORIGIN
 10
-841.6790970224065
 20
0.0000004999991679
 30
0.0
 41
10.0
 42
10.0
 43
10.0
 50
270.0
  0
INSERT
  5
DBD3E
330
D7657
100
AcDbEntity
  8
SIZE
440
 16777216
100
AcDbBlockReference
  2
_ORIGIN
 10
-841.6790970224065
 20
117.0
 30
0.0
 41
10.0
 42
10.0
 43
10.0
 50
90.0
  0
MTEXT
  5
DBD3F
330
D7657
100
AcDbEntity
  8
SIZE
440
 16777216
100
AcDbMText
 10
-874.1790970224062
 20
67.0000002499998
 30
0.0
 40
45.0
 41
0.0
 46
0.0
 71
     5
 72
     1
  1
\A1;{\W0.9;117}
 11
0.0000000000000001
 21
1.0
 31
0.0
 73
     1
 44
1.0
  0
POINT
  5
DBD40
330
D7657
100
AcDbEntity
  8
DEFPOINTS
 62
     0
440
 16777216
100
AcDbPoint
 10
-270.0004470000005
 20
0.0000004999992598
 30
0.0
  0
POINT
  5
DBD41
330
D7657
100
AcDbEntity
  8
DEFPOINTS
 62
     0
440
 16777216
100
AcDbPoint
 10
-443.8750004951178
 20
117.0
 30
0.0
  0
POINT
  5
DBD42
330
D7657
100
AcDbEntity
  8
DEFPOINTS
 62
     0
440
 16777216
100
AcDbPoint
 10
-841.6790970224065
 20
117.0
 30
0.0
  0
ENDBLK
  5
D7659
330
D7657
100
AcDbEntity
  8
0
100
AcDbBlockEnd
  0
BLOCK
  5
D7665
330
D7664
100
AcDbEntity
  8
0
100
AcDbBlockBegin
  2
*D4
 70
     1
 10
0.0
 20
0.0
 30
0.0
  3
*D4
  1

  0
LINE
  5
DBD43
330
D7664
100
AcDbEntity
  8
SIZE
440
 16777216
370
    -2
100
AcDbLine
 10
-280.0004470000005
 20
0.0000004999992582
 30
0.0
 11
-961.6790970224064
 21
0.0000004999991486
 31
0.0
  0
LINE
  5
DBD44
330
D7664
100
AcDbEntity
  8
SIZE
440
 16777216
370
    -2
100
AcDbLine
 10
-453.8750004951179
 20
179.0
 30
0.0
 11
-961.6790970224064
 21
178.9999999999999
 31
0.0
  0
LINE
  5
DBD45
330
D7664
100
AcDbEntity
  8
SIZE
440
 16777216
100
AcDbLine
 10
-951.6790970224064
 20
10.00000049999915
 30
0.0
 11
-951.6790970224064
 21
168.9999999999999
 31
0.0
  0
INSERT
  5
DBD46
330
D7664
100
AcDbEntity
  8
SIZE
440
 16777216
100
AcDbBlockReference
  2
_ORIGIN
 10
-951.6790970224064
 20
0.0000004999991502
 30
0.0
 41
10.0
 42
10.0
 43
10.0
 50
270.0
  0
INSERT
  5
DBD47
330
D7664
100
AcDbEntity
  8
SIZE
440
 16777216
100
AcDbBlockReference
  2
_ORIGIN
 10
-951.6790970224064
 20
179.0
 30
0.0
 41
10.0
 42
10.0
 43
10.0
 50
90.0
  0
MTEXT
  5
DBD48
330
D7664
100
AcDbEntity
  8
SIZE
440
 16777216
100
AcDbMText
 10
-984.1790970224062
 20
96.50000024999949
 30
0.0
 40
45.0
 41
0.0
 46
0.0
 71
     5
 72
     1
  1
\A1;179
 11
0.0000000000000001
 21
1.0
 31
0.0
 73
     1
 44
1.0
  0
POINT
  5
DBD49
330
D7664
100
AcDbEntity
  8
DEFPOINTS
 62
     0
440
 16777216
100
AcDbPoint
 10
-270.0004470000005
 20
0.0000004999992598
 30
0.0
  0
POINT
  5
DBD4A
330
D7664
100
AcDbEntity
  8
DEFPOINTS
 62
     0
440
 16777216
100
AcDbPoint
 10
-443.8750004951178
 20
179.0
 30
0.0
  0
POINT
  5
DBD4B
330
D7664
100
AcDbEntity
  8
DEFPOINTS
 62
     0
440
 16777216
100
AcDbPoint
 10
-951.6790970224064
 20
179.0
 30
0.0
  0
ENDBLK
  5
D7666
330
D7664
100
AcDbEntity
  8
0
100
AcDbBlockEnd
  0
BLOCK
  5
D7672
330
D7671
100
AcDbEntity
  8
0
100
AcDbBlockBegin
  2
*D5
 70
     1
 10
0.0
 20
0.0
 30
0.0
  3
*D5
  1

  0
LINE
  5
DBD4C
330
D7671
100
AcDbEntity
  8
SIZE
440
 16777216
370
    -2
100
AcDbLine
 10
400.0
 20
20.19856802955037
 30
0.0
 11
400.0
 21
-479.5088854790602
 31
0.0
  0
LINE
  5
DBD4D
330
D7671
100
AcDbEntity
  8
SIZE
440
 16777216
370
    -2
100
AcDbLine
 10
-400.0000000007105
 20
20.19856801769477
 30
0.0
 11
-400.0000000007106
 21
-479.5088854790602
 31
0.0
  0
LINE
  5
DBD4E
330
D7671
100
AcDbEntity
  8
SIZE
440
 16777216
100
AcDbLine
 10
390.0
 20
-469.5088854790602
 30
0.0
 11
-390.0000000007106
 21
-469.5088854790602
 31
0.0
  0
INSERT
  5
DBD4F
330
D7671
100
AcDbEntity
  8
SIZE
440
 16777216
100
AcDbBlockReference
  2
_ORIGIN
 10
400.0
 20
-469.5088854790602
 30
0.0
 41
10.0
 42
10.0
 43
10.0
  0
INSERT
  5
DBD50
330
D7671
100
AcDbEntity
  8
SIZE
440
 16777216
100
AcDbBlockReference
  2
_ORIGIN
 10
-400.0000000007106
 20
-469.5088854790602
 30
0.0
 41
10.0
 42
10.0
 43
10.0
 50
180.0
  0
MTEXT
  5
DBD51
330
D7671
100
AcDbEntity
  8
SIZE
440
 16777216
100
AcDbMText
 10
-0.0000000003553262
 20
-437.0088854790601
 30
0.0
 40
45.0
 41
0.0
 46
0.0
 71
     5
 72
     1
  1
\A1;800
 73
     1
 44
1.0
  0
POINT
  5
DBD52
330
D7671
100
AcDbEntity
  8
DEFPOINTS
 62
     0
440
 16777216
100
AcDbPoint
 10
400.0
 20
30.19856802955037
 30
0.0
  0
POINT
  5
DBD53
330
D7671
100
AcDbEntity
  8
DEFPOINTS
 62
     0
440
 16777216
100
AcDbPoint
 10
-400.0000000007105
 20
30.19856801769477
 30
0.0
  0
POINT
  5
DBD54
330
D7671
100
AcDbEntity
  8
DEFPOINTS
 62
     0
440
 16777216
100
AcDbPoint
 10
-400.0000000007106
 20
-469.5088854790602
 30
0.0
  0
ENDBLK
  5
D7673
330
D7671
100
AcDbEntity
  8
0
100
AcDbBlockEnd
  0
BLOCK
  5
D767E
330
D767D
100
AcDbEntity
  8
0
100
AcDbBlockBegin
  2
*D6
 70
     1
 10
0.0
 20
0.0
 30
0.0
  3
*D6
  1

  0
LINE
  5
DBD55
330
D767D
100
AcDbEntity
  8
SIZE
440
 16777216
370
    -2
100
AcDbLine
 10
-400.0000000007105
 20
20.19856801769477
 30
0.0
 11
-400.0000000007105
 21
-379.5088854790602
 31
0.0
  0
LINE
  5
DBD56
330
D767D
100
AcDbEntity
  8
SIZE
440
 16777216
370
    -2
100
AcDbLine
 10
-462.0
 20
66.14080635419745
 30
0.0
 11
-462.0
 21
-379.5088854790602
 31
0.0
  0
LINE
  5
DBD57
330
D767D
100
AcDbEntity
  8
SIZE
440
 16777216
100
AcDbLine
 10
-410.0000000007105
 20
-369.5088854790602
 30
0.0
 11
-452.0
 21
-369.5088854790602
 31
0.0
  0
LINE
  5
DBD58
330
D767D
100
AcDbEntity
  8
SIZE
440
 16777216
100
AcDbLine
 10
-462.0
 20
-369.5088854790602
 30
0.0
 11
-564.8571428571428
 21
-369.5088854790602
 31
0.0
  0
INSERT
  5
DBD59
330
D767D
100
AcDbEntity
  8
SIZE
440
 16777216
100
AcDbBlockReference
  2
_ORIGIN
 10
-400.0000000007105
 20
-369.5088854790602
 30
0.0
 41
10.0
 42
10.0
 43
10.0
  0
INSERT
  5
DBD5A
330
D767D
100
AcDbEntity
  8
SIZE
440
 16777216
100
AcDbBlockReference
  2
_ORIGIN
 10
-462.0
 20
-369.5088854790602
 30
0.0
 41
10.0
 42
10.0
 43
10.0
 50
180.0
  0
MTEXT
  5
DBD5B
330
D767D
100
AcDbEntity
  8
SIZE
440
 16777216
100
AcDbMText
 10
-518.4285714285714
 20
-337.0088854790602
 30
0.0
 40
45.0
 41
0.0
 46
0.0
 71
     5
 72
     1
  1
\A1;62
 73
     1
 44
1.0
  0
POINT
  5
DBD5C
330
D767D
100
AcDbEntity
  8
DEFPOINTS
 62
     0
440
 16777216
100
AcDbPoint
 10
-400.0000000007105
 20
30.19856801769477
 30
0.0
  0
POINT
  5
DBD5D
330
D767D
100
AcDbEntity
  8
DEFPOINTS
 62
     0
440
 16777216
100
AcDbPoint
 10
-462.0
 20
76.14080635419745
 30
0.0
  0
POINT
  5
DBD5E
330
D767D
100
AcDbEntity
  8
DEFPOINTS
 62
     0
440
 16777216
100
AcDbPoint
 10
-462.0
 20
-369.5088854790602
 30
0.0
  0
ENDBLK
  5
D767F
330
D767D
100
AcDbEntity
  8
0
100
AcDbBlockEnd
  0
BLOCK
  5
D768A
330
D7689
100
AcDbEntity
  8
0
100
AcDbBlockBegin
  2
*D7
 70
     1
 10
0.0
 20
0.0
 30
0.0
  3
*D7
  1

  0
LINE
  5
DBD5F
330
D7689
100
AcDbEntity
  8
SIZE
440
 16777216
370
    -2
100
AcDbLine
 10
372.5026590000008
 20
714.0000000000002
 30
0.0
 11
710.0000000000053
 21
714.0000000000002
 31
0.0
  0
LINE
  5
DBD60
330
D7689
100
AcDbEntity
  8
SIZE
440
 16777216
370
    -2
100
AcDbLine
 10
510.0000000000002
 20
814.0
 30
0.0
 11
710.0000000000052
 21
814.0
 31
0.0
  0
LINE
  5
DBD61
330
D7689
100
AcDbEntity
  8
SIZE
440
 16777216
100
AcDbLine
 10
700.0000000000053
 20
724.0000000000001
 30
0.0
 11
700.0000000000052
 21
804.0
 31
0.0
  0
LINE
  5
DBD62
330
D7689
100
AcDbEntity
  8
SIZE
440
 16777216
100
AcDbLine
 10
700.0000000000052
 20
814.0
 30
0.0
 11
700.0000000000052
 21
1060.0
 31
0.0
  0
INSERT
  5
DBD63
330
D7689
100
AcDbEntity
  8
SIZE
440
 16777216
100
AcDbBlockReference
  2
_ORIGIN
 10
700.0000000000053
 20
714.0000000000002
 30
0.0
 41
10.0
 42
10.0
 43
10.0
 50
270.0
  0
INSERT
  5
DBD64
330
D7689
100
AcDbEntity
  8
SIZE
440
 16777216
100
AcDbBlockReference
  2
_ORIGIN
 10
700.0000000000052
 20
814.0
 30
0.0
 41
10.0
 42
10.0
 43
10.0
 50
90.0
  0
MTEXT
  5
DBD65
330
D7689
100
AcDbEntity
  8
SIZE
440
 16777216
100
AcDbMText
 10
667.5000000000054
 20
941.9999999999998
 30
0.0
 40
45.0
 41
0.0
 46
0.0
 71
     5
 72
     1
  1
\A1;100以上
 11
0.0000000000000001
 21
1.0
 31
0.0
 73
     1
 44
1.0
  0
POINT
  5
DBD66
330
D7689
100
AcDbEntity
  8
DEFPOINTS
 62
     0
440
 16777216
100
AcDbPoint
 10
362.5026590000008
 20
714.0000000000002
 30
0.0
  0
POINT
  5
DBD67
330
D7689
100
AcDbEntity
  8
DEFPOINTS
 62
     0
440
 16777216
100
AcDbPoint
 10
500.0000000000002
 20
814.0
 30
0.0
  0
POINT
  5
DBD68
330
D7689
100
AcDbEntity
  8
DEFPOINTS
 62
     0
440
 16777216
100
AcDbPoint
 10
700.0000000000052
 20
814.0
 30
0.0
  0
ENDBLK
  5
D768B
330
D7689
100
AcDbEntity
  8
0
100
AcDbBlockEnd
  0
BLOCK
  5
D7697
330
D7696
100
AcDbEntity
  8
0
100
AcDbBlockBegin
  2
*D8
 70
     1
 10
0.0
 20
0.0
 30
0.0
  3
*D8
  1

  0
LINE
  5
DBD14
330
D7696
100
AcDbEntity
  8
SIZE
440
 16777216
370
    -2
100
AcDbLine
 10
400.0
 20
20.19856802955037
 30
0.0
 11
400.0
 21
-379.5088854790602
 31
0.0
  0
LINE
  5
DBD15
330
D7696
100
AcDbEntity
  8
SIZE
440
 16777216
370
    -2
100
AcDbLine
 10
249.9999999999999
 20
-38.31308347208869
 30
0.0
 11
249.9999999999999
 21
-379.5088854790602
 31
0.0
  0
LINE
  5
DBD16
330
D7696
100
AcDbEntity
  8
SIZE
440
 16777216
100
AcDbLine
 10
390.0
 20
-369.5088854790602
 30
0.0
 11
259.9999999999999
 21
-369.5088854790602
 31
0.0
  0
INSERT
  5
DBD17
330
D7696
100
AcDbEntity
  8
SIZE
440
 16777216
100
AcDbBlockReference
  2
_ORIGIN
 10
400.0
 20
-369.5088854790602
 30
0.0
 41
10.0
 42
10.0
 43
10.0
  0
INSERT
  5
DBD18
330
D7696
100
AcDbEntity
  8
SIZE
440
 16777216
100
AcDbBlockReference
  2
_ORIGIN
 10
249.9999999999999
 20
-369.5088854790602
 30
0.0
 41
10.0
 42
10.0
 43
10.0
 50
180.0
  0
MTEXT
  5
DBD19
330
D7696
100
AcDbEntity
  8
SIZE
440
 16777216
100
AcDbMText
 10
325.0
 20
-337.0088854790602
 30
0.0
 40
45.0
 41
0.0
 46
0.0
 71
     5
 72
     1
  1
\A1;150
 73
     1
 44
1.0
  0
POINT
  5
DBD1A
330
D7696
100
AcDbEntity
  8
DEFPOINTS
 62
     0
440
 16777216
100
AcDbPoint
 10
400.0
 20
30.19856802955037
 30
0.0
  0
POINT
  5
DBD1B
330
D7696
100
AcDbEntity
  8
DEFPOINTS
 62
     0
440
 16777216
100
AcDbPoint
 10
249.9999999999999
 20
-28.31308347208869
 30
0.0
  0
POINT
  5
DBD1C
330
D7696
100
AcDbEntity
  8
DEFPOINTS
 62
     0
440
 16777216
100
AcDbPoint
 10
249.9999999999999
 20
-369.5088854790602
 30
0.0
  0
ENDBLK
  5
D7698
330
D7696
100
AcDbEntity
  8
0
100
AcDbBlockEnd
  0
BLOCK
  5
D76A3
330
D76A2
100
AcDbEntity
  8
0
100
AcDbBlockBegin
  2
*D9
 70
     1
 10
0.0
 20
0.0
 30
0.0
  3
*D9
  1

  0
LINE
  5
DBD1D
330
D76A2
100
AcDbEntity
  8
SIZE
440
 16777216
370
    -2
100
AcDbLine
 10
249.9999999999999
 20
-38.31308347208869
 30
0.0
 11
249.9999999999999
 21
-379.5088854790602
 31
0.0
  0
LINE
  5
DBD1E
330
D76A2
100
AcDbEntity
  8
SIZE
440
 16777216
370
    -2
100
AcDbLine
 10
-250.0
 20
-36.2747739894885
 30
0.0
 11
-250.0
 21
-379.5088854790602
 31
0.0
  0
LINE
  5
DBD1F
330
D76A2
100
AcDbEntity
  8
SIZE
440
 16777216
100
AcDbLine
 10
239.9999999999999
 20
-369.5088854790602
 30
0.0
 11
-240.0
 21
-369.5088854790602
 31
0.0
  0
INSERT
  5
DBD20
330
D76A2
100
AcDbEntity
  8
SIZE
440
 16777216
100
AcDbBlockReference
  2
_ORIGIN
 10
249.9999999999999
 20
-369.5088854790602
 30
0.0
 41
10.0
 42
10.0
 43
10.0
  0
INSERT
  5
DBD21
330
D76A2
100
AcDbEntity
  8
SIZE
440
 16777216
100
AcDbBlockReference
  2
_ORIGIN
 10
-250.0
 20
-369.5088854790602
 30
0.0
 41
10.0
 42
10.0
 43
10.0
 50
180.0
  0
MTEXT
  5
DBD22
330
D76A2
100
AcDbEntity
  8
SIZE
440
 16777216
100
AcDbMText
 10
-0.0000000000000691
 20
-337.0088854790602
 30
0.0
 40
45.0
 41
0.0
 46
0.0
 71
     5
 72
     1
  1
\A1;500
 73
     1
 44
1.0
  0
POINT
  5
DBD23
330
D76A2
100
AcDbEntity
  8
DEFPOINTS
 62
     0
440
 16777216
100
AcDbPoint
 10
249.9999999999999
 20
-28.31308347208869
 30
0.0
  0
POINT
  5
DBD24
330
D76A2
100
AcDbEntity
  8
DEFPOINTS
 62
     0
440
 16777216
100
AcDbPoint
 10
-250.0
 20
-26.2747739894885
 30
0.0
  0
POINT
  5
DBD25
330
D76A2
100
AcDbEntity
  8
DEFPOINTS
 62
     0
440
 16777216
100
AcDbPoint
 10
-250.0
 20
-369.5088854790602
 30
0.0
  0
ENDBLK
  5
D76A4
330
D76A2
100
AcDbEntity
  8
0
100
AcDbBlockEnd
  0
BLOCK
  5
D7E58
330
D7E57
100
AcDbEntity
  8
0
100
AcDbBlockBegin
  2
*D10
 70
     1
 10
0.0
 20
0.0
 30
0.0
  3
*D10
  1

  0
LINE
  5
DBD69
330
D7E57
100
AcDbEntity
  8
SIZE
440
 16777216
370
    -2
100
AcDbLine
 10
-400.0000000007105
 20
20.19856801769477
 30
0.0
 11
-400.0000000007106
 21
-479.5088854790602
 31
0.0
  0
LINE
  5
DBD6A
330
D7E57
100
AcDbEntity
  8
SIZE
440
 16777216
370
    -2
100
AcDbLine
 10
-750.0
 20
-10.0
 30
0.0
 11
-750.0
 21
-479.5088854790602
 31
0.0
  0
LINE
  5
DBD6B
330
D7E57
100
AcDbEntity
  8
SIZE
440
 16777216
100
AcDbLine
 10
-410.0000000007105
 20
-469.5088854790602
 30
0.0
 11
-740.0
 21
-469.5088854790602
 31
0.0
  0
INSERT
  5
DBD6C
330
D7E57
100
AcDbEntity
  8
SIZE
440
 16777216
100
AcDbBlockReference
  2
_ORIGIN
 10
-400.0000000007106
 20
-469.5088854790602
 30
0.0
 41
10.0
 42
10.0
 43
10.0
  0
INSERT
  5
DBD6D
330
D7E57
100
AcDbEntity
  8
SIZE
440
 16777216
100
AcDbBlockReference
  2
_ORIGIN
 10
-750.0
 20
-469.5088854790602
 30
0.0
 41
10.0
 42
10.0
 43
10.0
 50
180.0
  0
MTEXT
  5
DBD6E
330
D7E57
100
AcDbEntity
  8
SIZE
440
 16777216
100
AcDbMText
 10
-575.0000000003552
 20
-437.0088854790601
 30
0.0
 40
45.0
 41
0.0
 46
0.0
 71
     5
 72
     1
  1
\A1;350以上
 73
     1
 44
1.0
  0
POINT
  5
DBD6F
330
D7E57
100
AcDbEntity
  8
DEFPOINTS
 62
     0
440
 16777216
100
AcDbPoint
 10
-400.0000000007105
 20
30.19856801769477
 30
0.0
  0
POINT
  5
DBD70
330
D7E57
100
AcDbEntity
  8
DEFPOINTS
 62
     0
440
 16777216
100
AcDbPoint
 10
-750.0
 20
0.0
 30
0.0
  0
POINT
  5
DBD71
330
D7E57
100
AcDbEntity
  8
DEFPOINTS
 62
     0
440
 16777216
100
AcDbPoint
 10
-750.0
 20
-469.5088854790602
 30
0.0
  0
ENDBLK
  5
D7E59
330
D7E57
100
AcDbEntity
  8
0
100
AcDbBlockEnd
  0
BLOCK
  5
D7E80
330
D7E7F
100
AcDbEntity
  8
0
100
AcDbBlockBegin
  2
*D11
 70
     1
 10
0.0
 20
0.0
 30
0.0
  3
*D11
  1

  0
LINE
  5
DBD72
330
D7E7F
100
AcDbEntity
  8
SIZE
440
 16777216
370
    -2
100
AcDbLine
 10
500.0
 20
-10.00000050000058
 30
0.0
 11
499.9999999999999
 21
-479.5088854790602
 31
0.0
  0
LINE
  5
DBD73
330
D7E7F
100
AcDbEntity
  8
SIZE
440
 16777216
370
    -2
100
AcDbLine
 10
400.0
 20
20.19856802955037
 30
0.0
 11
400.0
 21
-479.5088854790602
 31
0.0
  0
LINE
  5
DBD74
330
D7E7F
100
AcDbEntity
  8
SIZE
440
 16777216
100
AcDbLine
 10
409.9999999999999
 20
-469.5088854790602
 30
0.0
 11
489.9999999999999
 21
-469.5088854790602
 31
0.0
  0
LINE
  5
DBD75
330
D7E7F
100
AcDbEntity
  8
SIZE
440
 16777216
100
AcDbLine
 10
499.9999999999999
 20
-469.5088854790602
 30
0.0
 11
746.0
 21
-469.5088854790602
 31
0.0
  0
INSERT
  5
DBD76
330
D7E7F
100
AcDbEntity
  8
SIZE
440
 16777216
100
AcDbBlockReference
  2
_ORIGIN
 10
400.0
 20
-469.5088854790602
 30
0.0
 41
10.0
 42
10.0
 43
10.0
 50
180.0
  0
INSERT
  5
DBD77
330
D7E7F
100
AcDbEntity
  8
SIZE
440
 16777216
100
AcDbBlockReference
  2
_ORIGIN
 10
499.9999999999999
 20
-469.5088854790602
 30
0.0
 41
10.0
 42
10.0
 43
10.0
  0
MTEXT
  5
DBD78
330
D7E7F
100
AcDbEntity
  8
SIZE
440
 16777216
100
AcDbMText
 10
628.0
 20
-437.0088854790601
 30
0.0
 40
45.0
 41
0.0
 46
0.0
 71
     5
 72
     1
  1
\A1;100以上
 73
     1
 44
1.0
  0
POINT
  5
DBD79
330
D7E7F
100
AcDbEntity
  8
DEFPOINTS
 62
     0
440
 16777216
100
AcDbPoint
 10
500.0
 20
-0.0000005000005869
 30
0.0
  0
POINT
  5
DBD7A
330
D7E7F
100
AcDbEntity
  8
DEFPOINTS
 62
     0
440
 16777216
100
AcDbPoint
 10
400.0
 20
30.19856802955037
 30
0.0
  0
POINT
  5
DBD7B
330
D7E7F
100
AcDbEntity
  8
DEFPOINTS
 62
     0
440
 16777216
100
AcDbPoint
 10
400.0
 20
-469.5088854790602
 30
0.0
  0
ENDBLK
  5
D7E81
330
D7E7F
100
AcDbEntity
  8
0
100
AcDbBlockEnd
  0
BLOCK
  5
D7F3C
330
D7F38
100
AcDbEntity
  8
0
100
AcDbBlockBegin
  2
_Open30
 70
     0
 10
0.0
 20
0.0
 30
0.0
  3
_Open30
  1

  0
LINE
  5
D7F39
330
D7F38
100
AcDbEntity
  8
0
  6
ByBlock
 62
     0
370
    -2
100
AcDbLine
 10
-1.0
 20
0.26794919
 30
0.0
 11
0.0
 21
0.0
 31
0.0
  0
LINE
  5
D7F3A
330
D7F38
100
AcDbEntity
  8
0
  6
ByBlock
 62
     0
370
    -2
100
AcDbLine
 10
0.0
 20
0.0
 30
0.0
 11
-1.0
 21
-0.26794919
 31
0.0
  0
LINE
  5
D7F3B
330
D7F38
100
AcDbEntity
  8
0
  6
ByBlock
 62
     0
370
    -2
100
AcDbLine
 10
0.0
 20
0.0
 30
0.0
 11
-1.0
 21
0.0
 31
0.0
  0
ENDBLK
  5
D7F3D
330
D7F38
100
AcDbEntity
  8
0
100
AcDbBlockEnd
  0
BLOCK
  5
DAA02
330
DAA01
100
AcDbEntity
  8
0
100
AcDbBlockBegin
  2
*D13
 70
     1
 10
0.0
 20
0.0
 30
0.0
  3
*D13
  1

  0
LINE
  5
DBD7C
330
DAA01
100
AcDbEntity
  8
SIZE
440
 16777216
370
    -2
100
AcDbLine
 10
-429.0
 20
49.89451973785206
 30
0.0
 11
-429.0
 21
-279.5088854790601
 31
0.0
  0
LINE
  5
DBD7D
330
DAA01
100
AcDbEntity
  8
SIZE
440
 16777216
370
    -2
100
AcDbLine
 10
-400.0000000007105
 20
20.19856801769477
 30
0.0
 11
-400.0000000007105
 21
-279.5088854790601
 31
0.0
  0
LINE
  5
DBD7E
330
DAA01
100
AcDbEntity
  8
SIZE
440
 16777216
100
AcDbLine
 10
-390.0000000007105
 20
-269.5088854790601
 30
0.0
 11
-380.0000000007106
 21
-269.5088854790601
 31
0.0
  0
LINE
  5
DBD7F
330
DAA01
100
AcDbEntity
  8
SIZE
440
 16777216
100
AcDbLine
 10
-439.0
 20
-269.5088854790601
 30
0.0
 11
-560.2288944082487
 21
-269.5088854790601
 31
0.0
  0
LINE
  5
DBD80
330
DAA01
100
AcDbEntity
  8
SIZE
440
 16777216
100
AcDbLine
 10
-400.0000000007105
 20
-269.5088854790601
 30
0.0
 11
-429.0
 21
-269.5088854790601
 31
0.0
  0
INSERT
  5
DBD81
330
DAA01
100
AcDbEntity
  8
SIZE
440
 16777216
100
AcDbBlockReference
  2
_ORIGIN
 10
-400.0000000007105
 20
-269.5088854790601
 30
0.0
 41
10.0
 42
10.0
 43
10.0
 50
180.0
  0
INSERT
  5
DBD82
330
DAA01
100
AcDbEntity
  8
SIZE
440
 16777216
100
AcDbBlockReference
  2
_ORIGIN
 10
-429.0
 20
-269.5088854790601
 30
0.0
 41
10.0
 42
10.0
 43
10.0
  0
MTEXT
  5
DBD83
330
DAA01
100
AcDbEntity
  8
SIZE
440
 16777216
100
AcDbMText
 10
-514.8717515511058
 20
-237.0088854790601
 30
0.0
 40
45.0
 41
0.0
 46
0.0
 71
     5
 72
     1
  1
\A1;29
 73
     1
 44
1.0
  0
POINT
  5
DBD84
330
DAA01
100
AcDbEntity
  8
DEFPOINTS
 62
     0
440
 16777216
100
AcDbPoint
 10
-429.0
 20
59.89451973785206
 30
0.0
  0
POINT
  5
DBD85
330
DAA01
100
AcDbEntity
  8
DEFPOINTS
 62
     0
440
 16777216
100
AcDbPoint
 10
-400.0000000007105
 20
30.19856801769477
 30
0.0
  0
POINT
  5
DBD86
330
DAA01
100
AcDbEntity
  8
DEFPOINTS
 62
     0
440
 16777216
100
AcDbPoint
 10
-400.0000000007105
 20
-269.5088854790601
 30
0.0
  0
ENDBLK
  5
DAA03
330
DAA01
100
AcDbEntity
  8
0
100
AcDbBlockEnd
  0
ENDSEC
  0
SECTION
  2
ENTITIES
  0
MTEXT
  5
38341
330
1E
100
AcDbEntity
  8
0
100
AcDbMText
 10
383.199063035614
 20
4023.282340837186
 30
0.0
 40
64.0
 41
187.9848
 46
0.0
 71
     1
 72
     5
  1

 73
     1
 44
1.0
  0
CIRCLE
  5
D737D
102
{ACAD_REACTORS
330
D8321
102
}
330
1E
100
AcDbEntity
  8
ARRANGE
100
AcDbCircle
 10
0.0
 20
0.0
 30
0.0
 40
40.0
  0
POINT
  5
D737E
102
{ACAD_REACTORS
330
D8321
102
}
330
1E
100
AcDbEntity
  8
ARRANGE
100
AcDbPoint
 10
0.0
 20
0.0
 30
0.0
 50
180.0
  0
LINE
  5
D73BE
330
1E
100
AcDbEntity
  8
NOTE
100
AcDbLine
 10
-1106.1318492598
 20
470.191154151659
 30
0.0
 11
-793.8862132745216
 21
470.1911455778903
 31
0.0
  0
TEXT
  5
D73BF
330
1E
100
AcDbEntity
  8
NOTE
100
AcDbText
 10
-1095.082082646636
 20
479.3037319930801
 30
0.0
 40
45.0
  1
RLφ6.35
 50
359.9999982924527
100
AcDbText
  0
TEXT
  5
D73C0
330
1E
100
AcDbEntity
  8
NOTE
100
AcDbText
 10
-1094.750305071973
 20
386.4659862366262
 30
0.0
 40
45.0
  1
RG%%C12.7
100
AcDbText
  0
LINE
  5
D73C4
330
1E
100
AcDbEntity
  8
NOTE
100
AcDbLine
 10
-1106.131849168421
 20
370.1911569377054
 30
0.0
 11
-793.8862132745216
 21
370.1911455778904
 31
0.0
  0
LINE
  5
D73C7
330
1E
100
AcDbEntity
  8
NOTE
100
AcDbLine
 10
-429.0
 20
59.89451973785206
 30
0.0
 11
-429.0
 21
228.1189688712775
 31
0.0
  0
LINE
  5
D73C8
330
1E
100
AcDbEntity
  8
NOTE
100
AcDbLine
 10
-414.1249995048823
 20
117.0
 30
0.0
 11
-443.8750004951176
 21
117.0
 31
0.0
  0
LINE
  5
D73C9
330
1E
100
AcDbEntity
  8
NOTE
100
AcDbLine
 10
-414.1249995048823
 20
179.0
 30
0.0
 11
-443.8750004951176
 21
179.0
 31
0.0
  0
LINE
  5
D7478
330
1E
100
AcDbEntity
  8
BASIS
100
AcDbLine
 10
249.9999999999999
 20
-28.31308347208869
 30
0.0
 11
249.9999999999999
 21
33.23882400968888
 31
0.0
  0
LINE
  5
D7479
330
1E
100
AcDbEntity
  8
BASIS
100
AcDbLine
 10
0.0
 20
750.0
 30
0.0
 11
0.0
 21
-60.0
 31
0.0
  0
DIMENSION
  5
D747A
330
1E
100
AcDbEntity
  8
SIZE
100
AcDbDimension
280
     0
  2
*D8
 10
249.9999999999999
 20
-369.5088854790602
 30
0.0
 11
325.0
 21
-337.0088854790602
 31
0.0
 70
    32
 71
     5
 42
150.0000000000001
 73
     0
 74
     0
 75
     0
 52
-270.0
  3
STANDARD
100
AcDbAlignedDimension
 13
400.0
 23
30.19856802955037
 33
0.0
 14
249.9999999999999
 24
-28.31308347208869
 34
0.0
 50
180.0
100
AcDbRotatedDimension
1001
ACAD
1000
DSTYLE
1002
{
1070
    43
1040
200.0
1070
   141
1040
0.082
1070
   271
1070
     5
1070
   272
1070
     3
1070
   341
1005
46
1002
}
  0
LINE
  5
D747B
330
1E
100
AcDbEntity
  8
BASIS
100
AcDbLine
 10
-250.0
 20
-26.2747739894885
 30
0.0
 11
-250.0
 21
34.81830811904547
 31
0.0
  0
DIMENSION
  5
D747C
330
1E
100
AcDbEntity
  8
SIZE
100
AcDbDimension
280
     0
  2
*D9
 10
-250.0
 20
-369.5088854790602
 30
0.0
 11
-0.0000000000000691
 21
-337.0088854790602
 31
0.0
 70
    32
 71
     5
 42
499.9999999999999
 73
     0
 74
     0
 75
     0
 52
-270.0
  3
STANDARD
100
AcDbAlignedDimension
 13
249.9999999999999
 23
-28.31308347208869
 33
0.0
 14
-250.0
 24
-26.2747739894885
 34
0.0
 50
180.0
100
AcDbRotatedDimension
1001
ACAD
1000
DSTYLE
1002
{
1070
    43
1040
200.0
1070
   141
1040
0.082
1070
   271
1070
     5
1070
   272
1070
     3
1070
   341
1005
46
1002
}
  0
DIMENSION
  5
D7480
330
1E
100
AcDbEntity
  8
SIZE
100
AcDbDimension
280
     0
  2
*D1
 10
600.0
 20
10.00000000000009
 30
0.0
 11
599.9999999999999
 21
-62.14285764285787
 31
0.0
 70
   160
 71
     5
 42
10.00000050000067
 73
     0
 74
     0
 75
     0
  3
STANDARD
100
AcDbAlignedDimension
 13
269.999323
 23
-0.000000500000624
 33
0.0
 14
69.889228
 24
10.0
 34
0.0
 50
90.0
100
AcDbRotatedDimension
1001
ACAD
1000
DSTYLE
1002
{
1070
    43
1040
200.0
1070
   141
1040
0.082
1070
   272
1070
     3
1070
   341
1005
46
1002
}
  0
DIMENSION
  5
D7482
330
1E
100
AcDbEntity
  8
SIZE
100
AcDbDimension
280
     0
  2
*D2
 10
700.0000000000048
 20
714.0000000000002
 30
0.0
 11
667.5000000000048
 21
356.9999997499996
 31
0.0
 70
    32
 71
     5
 42
714.0000005000007
 73
     0
 74
     0
 75
     0
  3
STANDARD
100
AcDbAlignedDimension
 13
269.999323
 23
-0.000000500000624
 33
0.0
 14
362.5026590000004
 24
714.0
 34
0.0
 50
90.0
100
AcDbRotatedDimension
1001
ACAD
1000
DSTYLE
1002
{
1070
    43
1040
200.0
1070
   141
1040
0.082
1070
   271
1070
     5
1070
   272
1070
     3
1070
   341
1005
46
1002
}
  0
DIMENSION
  5
D7483
330
1E
100
AcDbEntity
  8
SIZE
100
AcDbDimension
280
     0
  2
*D3
 10
-841.6790970224065
 20
117.0
 30
0.0
 11
-841.6790970224063
 21
67.0000002499998
 31
0.0
 70
   160
  1
{\W0.9;<>}
 71
     5
 42
116.9999995000008
 73
     0
 74
     0
 75
     0
  3
STANDARD
100
AcDbAlignedDimension
 13
-270.0004470000004
 23
0.0000004999992598
 33
0.0
 14
-443.8750004951176
 24
117.0
 34
0.0
 50
90.0
100
AcDbRotatedDimension
1001
ACAD
1000
DSTYLE
1002
{
1070
    43
1040
200.0
1070
   141
1040
0.082
1070
   271
1070
     5
1070
   272
1070
     3
1070
   341
1005
46
1002
}
  0
DIMENSION
  5
D7484
330
1E
100
AcDbEntity
  8
SIZE
100
AcDbDimension
280
     0
  2
*D4
 10
-951.6790970224064
 20
179.0
 30
0.0
 11
-951.6790970224063
 21
96.50000024999949
 31
0.0
 70
   160
 71
     5
 42
178.9999995000008
 73
     0
 74
     0
 75
     0
  3
STANDARD
100
AcDbAlignedDimension
 13
-270.0004470000004
 23
0.0000004999992598
 33
0.0
 14
-443.8750004951176
 24
179.0
 34
0.0
 50
90.0
100
AcDbRotatedDimension
1001
ACAD
1000
DSTYLE
1002
{
1070
    43
1040
200.0
1070
   141
1040
0.082
1070
   271
1070
     5
1070
   272
1070
     3
1070
   341
1005
46
1002
}
  0
DIMENSION
  5
D7485
330
1E
100
AcDbEntity
  8
SIZE
100
AcDbDimension
280
     0
  2
*D5
 10
-400.0000000007106
 20
-469.5088854790602
 30
0.0
 11
-0.0000000003553262
 21
-437.0088854790601
 31
0.0
 70
    32
 71
     5
 42
800.0000000007105
 73
     0
 74
     0
 75
     0
 52
-270.0
  3
STANDARD
100
AcDbAlignedDimension
 13
400.0
 23
30.19856802955037
 33
0.0
 14
-400.0000000007105
 24
30.19856801769477
 34
0.0
 50
180.0
100
AcDbRotatedDimension
1001
ACAD
1000
DSTYLE
1002
{
1070
    43
1040
200.0
1070
   141
1040
0.082
1070
   271
1070
     5
1070
   272
1070
     3
1070
   341
1005
46
1002
}
  0
DIMENSION
  5
D748B
330
1E
100
AcDbEntity
  8
SIZE
100
AcDbDimension
280
     0
  2
*D6
 10
-462.0
 20
-369.5088854790602
 30
0.0
 11
-518.4285714285714
 21
-337.0088854790602
 31
0.0
 70
    32
 71
     5
 42
61.99999999928945
 73
     0
 74
     0
 75
     0
 52
-270.0
  3
STANDARD
100
AcDbAlignedDimension
 13
-400.0000000007105
 23
30.19856801769477
 33
0.0
 14
-462.0
 24
76.14080635419745
 34
0.0
 50
180.0
100
AcDbRotatedDimension
1001
ACAD
1000
DSTYLE
1002
{
1070
    43
1040
200.0
1070
   141
1040
0.082
1070
   271
1070
     5
1070
   272
1070
     3
1070
   341
1005
46
1002
}
  0
DIMENSION
  5
D7624
330
1E
100
AcDbEntity
  8
SIZE
100
AcDbDimension
280
     0
  2
*D7
 10
700.0000000000052
 20
814.0
 30
0.0
 11
667.5000000000054
 21
941.9999999999998
 31
0.0
 70
    32
 71
     5
 42
99.99999999999978
 73
     0
 74
     0
 75
     0
  3
STANDARD
100
AcDbAlignedDimension
 13
362.5026590000007
 23
714.0
 33
0.0
 14
500.0
 24
813.9999999999997
 34
0.0
 50
90.0
100
AcDbRotatedDimension
1001
ACAD
1000
DSTYLE
1002
{
1070
     3
1000
以上
1070
    43
1040
200.0
1070
   141
1040
0.082
1070
   271
1070
     5
1070
   272
1070
     3
1070
   341
1005
46
1002
}
  0
LINE
  5
D7E0A
330
1E
100
AcDbEntity
  8
SERVICE_SPACE
100
AcDbLine
 10
-750.0
 20
0.0000000000001137
 30
0.0
 11
-750.0
 21
813.9999999999997
 31
0.0
  0
LINE
  5
D7E0B
330
1E
100
AcDbEntity
  8
SERVICE_SPACE
100
AcDbLine
 10
500.0
 20
0.0000000000000568
 30
0.0
 11
500.0
 21
813.9999999999997
 31
0.0
  0
LINE
  5
D7E0C
330
1E
100
AcDbEntity
  8
SERVICE_SPACE
100
AcDbLine
 10
500.0
 20
0.0000000000000568
 30
0.0
 11
-750.0
 21
0.0
 31
0.0
  0
LINE
  5
D7E0D
330
1E
100
AcDbEntity
  8
SERVICE_SPACE
100
AcDbLine
 10
500.0
 20
814.0
 30
0.0
 11
-750.0
 21
813.9999999999997
 31
0.0
  0
DIMENSION
  5
D7E56
330
1E
100
AcDbEntity
  8
SIZE
100
AcDbDimension
280
     0
  2
*D10
 10
-750.0
 20
-469.5088854790602
 30
0.0
 11
-575.0000000003552
 21
-437.0088854790601
 31
0.0
 70
    32
 71
     5
 42
349.9999999992895
 73
     0
 74
     0
 75
     0
  3
STANDARD
100
AcDbAlignedDimension
 13
-400.0000000007105
 23
30.19856801769477
 33
0.0
 14
-750.0
 24
0.0
 34
0.0
100
AcDbRotatedDimension
1001
ACAD
1000
DSTYLE
1002
{
1070
     3
1000
以上
1070
    43
1040
200.0
1070
   141
1040
0.082
1070
   271
1070
     5
1070
   272
1070
     3
1070
   341
1005
46
1002
}
  0
DIMENSION
  5
D7E7E
330
1E
100
AcDbEntity
  8
SIZE
100
AcDbDimension
280
     0
  2
*D11
 10
400.0
 20
-469.5088854790602
 30
0.0
 11
628.0
 21
-469.5088854790602
 31
0.0
 70
   160
 71
     5
 42
100.0
 73
     0
 74
     0
 75
     0
  3
STANDARD
100
AcDbAlignedDimension
 13
500.0
 23
-0.0000005000005869
 33
0.0
 14
400.0
 24
30.19856802955037
 34
0.0
100
AcDbRotatedDimension
1001
ACAD
1000
DSTYLE
1002
{
1070
     3
1000
以上
1070
    43
1040
200.0
1070
   141
1040
0.082
1070
   271
1070
     5
1070
   272
1070
     3
1070
   341
1005
46
1002
}
  0
LINE
  5
D7F16
330
1E
100
AcDbEntity
  8
NOTE
100
AcDbLine
 10
80.48373008381133
 20
-191.9766942582209
 30
0.0
 11
239.0506831988302
 21
-191.9766942582209
 31
0.0
  0
MTEXT
  5
D7F18
330
1E
100
AcDbEntity
  8
NOTE
100
AcDbMText
 10
90.61550293670702
 20
-134.64492624389
 30
0.0
 40
45.0
 41
314.2888543038243
 46
0.0
 71
     1
 72
     5
  1
{\W0.8;D%%C33}
 73
     1
 44
1.0
1001
ACAD
1000
ACAD_MTEXT_COLUMN_INFO_BEGIN
1070
    75
1070
     2
1070
    79
1070
     0
1070
    76
1070
     1
1070
    78
1070
     0
1070
    48
1040
314.2888543038243
1070
    49
1040
320.0
1070
    50
1070
     1
1040
0.0
1000
ACAD_MTEXT_COLUMN_INFO_END
  0
MTEXT
  5
D8214
330
1E
100
AcDbEntity
  8
NOTE
100
AcDbMText
 10
-789.5747458007272
 20
369.8711455778903
 30
0.0
 40
0.18
 41
0.0
 46
0.0
 71
     3
 72
     5
  1

 73
     1
 44
1.0
  0
LWPOLYLINE
  5
D8216
330
1E
100
AcDbEntity
  8
NOTE
100
AcDbPolyline
 90
        2
 70
     0
 43
0.0
 10
-429.0
 20
117.0
 10
-793.8862132745216
 20
370.1911455778904
  0
MTEXT
  5
D8219
330
1E
100
AcDbEntity
  8
NOTE
100
AcDbMText
 10
-789.5747458007272
 20
469.8711455778903
 30
0.0
 40
0.18
 41
0.0
 46
0.0
 71
     3
 72
     5
  1

 73
     1
 44
1.0
  0
LWPOLYLINE
  5
D821B
330
1E
100
AcDbEntity
  8
NOTE
100
AcDbPolyline
 90
        2
 70
     0
 43
0.0
 10
-429.0
 20
179.0
 10
-793.8862132745216
 20
470.1911455778903
  0
MTEXT
  5
D821E
330
1E
100
AcDbEntity
  8
NOTE
100
AcDbMText
 10
577.2059843943362
 20
-256.9411490324175
 30
0.0
 40
0.18
 41
0.0
 46
0.0
 71
     1
 72
     5
  1

 73
     1
 44
1.0
  0
MTEXT
  5
D8222
330
1E
100
AcDbEntity
  8
NOTE
100
AcDbMText
 10
70.69898856684559
 20
-168.3897543923905
 30
0.0
 40
0.18
 41
0.0
 46
0.0
 71
     1
 72
     5
  1

 73
     1
 44
1.0
  0
MTEXT
  5
D8226
330
1E
100
AcDbEntity
  8
NOTE
100
AcDbMText
 10
-449.8081140577931
 20
936.3371421651773
 30
0.0
 40
0.18
 41
0.0
 46
0.0
 71
     1
 72
     5
  1

 73
     1
 44
1.0
  0
LINE
  5
D822D
330
1E
100
AcDbEntity
  8
NOTE
100
AcDbLine
 10
-454.7681053806678
 20
149.4172727811184
 30
0.0
 11
-429.0
 21
117.0
 31
0.0
  0
LINE
  5
D822E
330
1E
100
AcDbEntity
  8
NOTE
100
AcDbLine
 10
-429.0
 20
117.0
 30
0.0
 11
-467.5244701887016
 21
132.1901292342921
 31
0.0
  0
LINE
  5
D8230
330
1E
100
AcDbEntity
  8
NOTE
100
AcDbLine
 10
-452.8061646550232
 20
212.8842345921016
 30
0.0
 11
-429.0
 21
179.0
 31
0.0
  0
LINE
  5
D8231
330
1E
100
AcDbEntity
  8
NOTE
100
AcDbLine
 10
-429.0
 20
179.0
 30
0.0
 11
-466.5588605748521
 21
196.441525787427
 31
0.0
  0
LINE
  5
D8233
330
1E
100
AcDbEntity
  8
NOTE
100
AcDbLine
 10
4.835612049516138
 20
-31.1277834602393
 30
0.0
 11
0.0002984999998415
 21
10.00000000000218
 31
0.0
  0
LINE
  5
D8234
330
1E
100
AcDbEntity
  8
NOTE
100
AcDbLine
 10
0.0002984999998415
 20
10.00000000000218
 30
0.0
 11
24.75169444865157
 21
-23.20004861543987
 31
0.0
  0
TEXT
  5
D85B9
330
1E
100
AcDbEntity
  8
ETC
100
AcDbText
 10
1126.787834976836
 20
903.7687151591686
 30
0.0
 40
64.0
  1
SMUZ7403
 41
0.8750000068359394
 72
     5
 11
1553.454504976837
 21
903.7687151591686
 31
0.0
100
AcDbText
  0
TEXT
  5
D85BA
330
1E
100
AcDbEntity
  8
ETC
100
AcDbText
 10
1131.395696168072
 20
992.7049851591688
 30
0.0
 40
64.0
  1
室外機
100
AcDbText
  0
LINE
  5
D8E95
330
1E
100
AcDbEntity
  8
DETAIL
100
AcDbLine
 10
-302.5807150000001
 20
658.0683604999992
 30
0.0
 11
-302.5807150000001
 21
660.5384934999997
 31
0.0
  0
LINE
  5
D8E96
330
1E
100
AcDbEntity
  8
DETAIL
100
AcDbLine
 10
-305.9999729999999
 20
658.4714364999994
 30
0.0
 11
-305.9999729999999
 21
640.481147499999
 31
0.0
  0
LINE
  5
D8E97
330
1E
100
AcDbEntity
  8
DETAIL
100
AcDbLine
 10
-303.4540469999992
 20
658.1713124179982
 30
0.0
 11
-303.72621
 21
687.4998104999989
 31
0.0
  0
LINE
  5
D8E98
330
1E
100
AcDbEntity
  8
DETAIL
100
AcDbLine
 10
-303.4540469999992
 20
639.8817004999995
 30
0.0
 11
-303.4540469999992
 21
640.3605694999987
 31
0.0
  0
LINE
  5
D8E99
330
1E
100
AcDbEntity
  8
DETAIL
100
AcDbLine
 10
-297.2253139999994
 20
662.23125955175
 30
0.0
 11
-297.2253139999994
 21
668.2776397163144
 31
0.0
  0
LINE
  5
D8E9E
330
1E
100
AcDbEntity
  8
DETAIL
100
AcDbLine
 10
-300.7255310000001
 20
684.0547144999995
 30
0.0
 11
-297.022054
 21
684.0512694999992
 31
0.0
  0
LINE
  5
D8E9F
330
1E
100
AcDbEntity
  8
DETAIL
100
AcDbLine
 10
-297.022054
 20
687.4998104999995
 30
0.0
 11
-297.022054
 21
684.0512694999992
 31
0.0
  0
SPLINE
  5
D8EA0
330
1E
100
AcDbEntity
  8
DETAIL
100
AcDbSpline
210
0.0
220
0.0
230
1.0
 70
     8
 71
     3
 72
     8
 73
     4
 74
     0
 42
0.00000001
 43
0.0000000001
 40
0.0
 40
0.0
 40
0.0
 40
0.0
 40
1.0
 40
1.0
 40
1.0
 40
1.0
 10
-300.7255313961587
 20
684.0547146597214
 30
0.0
 10
-302.382622324978
 20
684.0547146597214
 30
0.0
 10
-303.7262095645619
 20
682.7111274201382
 30
0.0
 10
-303.6659973678661
 20
681.0112500930249
 30
0.0
  0
LINE
  5
D8F62
330
1E
100
AcDbEntity
  8
DETAIL
100
AcDbLine
 10
-269.235268564739
 20
16.75018169417245
 30
0.0
 11
-269.9814989999995
 21
8.216553499999461
 31
0.0
  0
LINE
  5
D8F63
330
1E
100
AcDbEntity
  8
DETAIL
100
AcDbLine
 10
-270.0004470000004
 20
7.782470499999361
 30
0.0
 11
-270.0004470000004
 21
0.0000004999992598
 31
0.0
  0
LINE
  5
D8F64
330
1E
100
AcDbEntity
  8
DETAIL
100
AcDbLine
 10
-229.9994429999999
 20
0.0000004999992598
 30
0.0
 11
-270.0004470000004
 21
0.0000004999992598
 31
0.0
  0
LINE
  5
D8F65
330
1E
100
AcDbEntity
  8
DETAIL
100
AcDbLine
 10
-229.9994429999999
 20
0.0000004999992598
 30
0.0
 11
-229.9994429999999
 21
7.782470499999361
 31
0.0
  0
LINE
  5
D8F67
330
1E
100
AcDbEntity
  8
DETAIL
100
AcDbLine
 10
-230.0201139999999
 20
8.216553499999461
 30
0.0
 11
-230.766080628594
 21
16.74716489412928
 31
0.0
  0
SPLINE
  5
D8F6D
330
1E
100
AcDbEntity
  8
DETAIL
100
AcDbSpline
210
0.0
220
0.0
230
1.0
 70
     8
 71
     3
 72
     8
 73
     4
 74
     0
 42
0.00000001
 43
0.0000000001
 40
0.0
 40
0.0
 40
0.0
 40
0.0
 40
1.0
 40
1.0
 40
1.0
 40
1.0
 10
-269.9814988194439
 20
8.216553008679966
 30
0.0
 10
-269.9935566536463
 20
8.071858998263451
 30
0.0
 10
-270.0004468446177
 20
7.927164987846481
 30
0.0
 10
-270.0004468446177
 20
7.782470977429963
 30
0.0
  0
SPLINE
  5
D8F6E
330
1E
100
AcDbEntity
  8
DETAIL
100
AcDbSpline
210
0.0
220
0.0
230
1.0
 70
     8
 71
     3
 72
     8
 73
     4
 74
     0
 42
0.00000001
 43
0.0000000001
 40
0.0
 40
0.0
 40
0.0
 40
0.0
 40
1.0
 40
1.0
 40
1.0
 40
1.0
 10
-229.9994431553816
 20
7.782470977429963
 30
0.0
 10
-229.9994431553816
 20
7.927164987846481
 30
0.0
 10
-230.006333346354
 20
8.071858998263451
 30
0.0
 10
-230.0201137282986
 20
8.216553008679966
 30
0.0
  0
LINE
  5
D8F97
330
1E
100
AcDbEntity
  8
DETAIL
100
AcDbLine
 10
269.9803750000001
 20
8.216552499999579
 30
0.0
 11
269.2332341117191
 21
16.7605811100736
 31
0.0
  0
LINE
  5
D8F99
330
1E
100
AcDbEntity
  8
DETAIL
100
AcDbLine
 10
230.7661298882822
 20
16.7605811100739
 30
0.0
 11
230.0189890000002
 21
8.216552499999579
 31
0.0
  0
LINE
  5
D8F9A
330
1E
100
AcDbEntity
  8
DETAIL
100
AcDbLine
 10
269.999323
 20
-0.000000500000624
 30
0.0
 11
269.999323
 21
7.782470499999361
 31
0.0
  0
LINE
  5
D8F9C
330
1E
100
AcDbEntity
  8
DETAIL
100
AcDbLine
 10
269.999323
 20
-0.000000500000624
 30
0.0
 11
230.0000410000002
 21
-0.000000500000624
 31
0.0
  0
LINE
  5
D8F9E
330
1E
100
AcDbEntity
  8
DETAIL
100
AcDbLine
 10
230.0000410000002
 20
7.782470499999361
 30
0.0
 11
230.0000410000002
 21
-0.000000500000624
 31
0.0
  0
SPLINE
  5
D8FA3
330
1E
100
AcDbEntity
  8
DETAIL
100
AcDbSpline
210
0.0
220
0.0
230
1.0
 70
     8
 71
     3
 72
     8
 73
     4
 74
     0
 42
0.00000001
 43
0.0000000001
 40
0.0
 40
0.0
 40
0.0
 40
0.0
 40
1.0
 40
1.0
 40
1.0
 40
1.0
 10
269.9993225707467
 20
7.782470429686782
 30
0.0
 10
269.9993225707467
 20
7.927164440103751
 30
0.0
 10
269.9941549275172
 20
8.071858450520267
 30
0.0
 10
269.9803745455729
 20
8.216552460936782
 30
0.0
  0
SPLINE
  5
D8FA4
330
1E
100
AcDbEntity
  8
DETAIL
100
AcDbSpline
210
0.0
220
0.0
230
1.0
 70
     8
 71
     3
 72
     8
 73
     4
 74
     0
 42
0.00000001
 43
0.0000000001
 40
0.0
 40
0.0
 40
0.0
 40
0.0
 40
1.0
 40
1.0
 40
1.0
 40
1.0
 10
230.0189894544274
 20
8.216552460936782
 30
0.0
 10
230.0069316202262
 20
8.071858450520267
 30
0.0
 10
230.0000414292536
 20
7.927164440103751
 30
0.0
 10
230.0000414292536
 20
7.782470429686782
 30
0.0
  0
LINE
  5
D8FBA
330
1E
100
AcDbEntity
  8
DETAIL
100
AcDbLine
 10
-309.9997290000001
 20
687.4998104999989
 30
0.0
 11
-309.9997290000001
 21
51.50073249999969
 31
0.0
  0
LINE
  5
D9068
330
1E
100
AcDbEntity
  8
DETAIL
100
AcDbLine
 10
370.8504918488034
 20
684.9986714999994
 30
0.0
 11
370.8504918488034
 21
52.37845386407025
 31
0.0
  0
LINE
  5
D91A6
330
1E
100
AcDbEntity
  8
DETAIL
100
AcDbLine
 10
370.0001087560768
 20
51.50073274305487
 30
0.0
 11
-309.9997290000001
 21
51.50073249999923
 31
0.0
  0
LINE
  5
D91A8
330
1E
100
AcDbEntity
  8
DETAIL
100
AcDbLine
 10
-307.0472819999995
 20
51.50073249999923
 30
0.0
 11
-307.0472819999995
 21
28.29801406163142
 31
0.0
  0
LINE
  5
D91AB
330
1E
100
AcDbEntity
  8
DETAIL
100
AcDbLine
 10
-172.0718859999997
 20
40.72791849999929
 30
0.0
 11
-172.0718859999997
 21
28.29801406163142
 31
0.0
  0
LINE
  5
D91AC
330
1E
100
AcDbEntity
  8
DETAIL
100
AcDbLine
 10
-227.579264
 20
28.29801406163142
 30
0.0
 11
-227.579264
 21
40.5797794999994
 31
0.0
  0
LINE
  5
D91AD
330
1E
100
AcDbEntity
  8
DETAIL
100
AcDbLine
 10
289.8999160000003
 20
51.50073249999923
 30
0.0
 11
289.8999160000003
 21
28.29801406163142
 31
0.0
  0
LINE
  5
D91AE
330
1E
100
AcDbEntity
  8
DETAIL
100
AcDbLine
 10
214.2938510000004
 20
47.09790049999947
 30
0.0
 11
214.2938510000004
 21
28.29801406163142
 31
0.0
  0
LINE
  5
D91AF
330
1E
100
AcDbEntity
  8
DETAIL
100
AcDbLine
 10
214.2938510000004
 20
47.09790049999947
 30
0.0
 11
285.7055120000005
 21
47.09790049999947
 31
0.0
  0
LINE
  5
D91B0
330
1E
100
AcDbEntity
  8
DETAIL
100
AcDbLine
 10
285.7055120000005
 20
47.09790049999947
 30
0.0
 11
285.7055120000005
 21
29.89998349999952
 31
0.0
  0
LINE
  5
D91B1
330
1E
100
AcDbEntity
  8
DETAIL
100
AcDbLine
 10
222.0711540000002
 20
40.72791849999929
 30
0.0
 11
222.0711540000002
 21
28.29801406163142
 31
0.0
  0
LINE
  5
D91B3
330
1E
100
AcDbEntity
  8
DETAIL
100
AcDbLine
 10
277.9282089999997
 20
40.72791849999929
 30
0.0
 11
277.9282089999997
 21
28.29801406163142
 31
0.0
  0
LINE
  5
D91B4
330
1E
100
AcDbEntity
  8
DETAIL
100
AcDbLine
 10
270.507474
 20
28.29801406163142
 30
0.0
 11
270.507474
 21
40.11813649999932
 31
0.0
  0
LINE
  5
D91B5
330
1E
100
AcDbEntity
  8
DETAIL
100
AcDbLine
 10
229.4918889999999
 20
28.29801406163142
 30
0.0
 11
229.4918889999999
 21
40.11813649999932
 31
0.0
  0
LINE
  5
D91B9
330
1E
100
AcDbEntity
  8
DETAIL
100
AcDbLine
 10
-229.822021
 20
19.48545949999925
 30
0.0
 11
-227.9031029999996
 21
19.37177149999934
 31
0.0
  0
LINE
  5
D91BB
330
1E
100
AcDbEntity
  8
DETAIL
100
AcDbLine
 10
-229.822021
 20
19.48545949999925
 30
0.0
 11
-378.2447818561296
 21
19.49924017909857
 31
0.0
  0
LINE
  5
D91BE
330
1E
100
AcDbEntity
  8
DETAIL
100
AcDbLine
 10
230.2377530000003
 20
19.49924049999936
 30
0.0
 11
380.9201535862194
 21
19.49924049999973
 31
0.0
  0
LINE
  5
D91BF
330
1E
100
AcDbEntity
  8
DETAIL
100
AcDbLine
 10
-388.5151769999995
 20
27.69856749999917
 30
0.0
 11
-381.780315773167
 21
20.963706273166
 31
0.0
  0
LINE
  5
D91C0
330
1E
100
AcDbEntity
  8
DETAIL
100
AcDbLine
 10
-69.88863099999981
 20
9.999999999999998
 30
0.0
 11
-227.9031029999996
 21
19.37177149999934
 31
0.0
  0
LINE
  5
D91C3
330
1E
100
AcDbEntity
  8
DETAIL
100
AcDbLine
 10
230.2377530000003
 20
19.49924049999936
 30
0.0
 11
69.889228
 21
9.999999999999998
 31
0.0
  0
LINE
  5
D91D0
330
1E
100
AcDbEntity
  8
DETAIL
100
AcDbLine
 10
-69.88863099999981
 20
10.0
 30
0.0
 11
69.889228
 21
10.0
 31
0.0
  0
LINE
  5
D91D4
330
1E
100
AcDbEntity
  8
DETAIL
100
AcDbLine
 10
-235.7062439999999
 20
28.29801406163142
 30
0.0
 11
-235.7062439999999
 21
47.09790049999947
 31
0.0
  0
LINE
  5
D91D6
330
1E
100
AcDbEntity
  8
DETAIL
100
AcDbLine
 10
-164.2945820000004
 20
47.09790049999947
 30
0.0
 11
-164.2945820000004
 21
28.29801406163142
 31
0.0
  0
LINE
  5
D91D7
330
1E
100
AcDbEntity
  8
DETAIL
100
AcDbLine
 10
-172.4215629999999
 20
40.5797794999994
 30
0.0
 11
-172.0718859999997
 21
40.72791849999929
 31
0.0
  0
LINE
  5
D91D8
330
1E
100
AcDbEntity
  8
DETAIL
100
AcDbLine
 10
-235.7062439999999
 20
47.09790049999947
 30
0.0
 11
-164.2945820000004
 21
47.09790049999947
 31
0.0
  0
SPLINE
  5
D9209
330
1E
100
AcDbEntity
  8
DETAIL
100
AcDbSpline
210
0.0
220
0.0
230
1.0
 70
     8
 71
     3
 72
     8
 73
     4
 74
     0
 42
0.00000001
 43
0.0000000001
 40
0.0
 40
0.0
 40
0.0
 40
0.0
 40
1.0
 40
1.0
 40
1.0
 40
1.0
 10
285.7055124835069
 20
47.09790012933946
 30
0.0
 10
282.8874243758682
 20
44.56920004253425
 30
0.0
 10
286.6494686467013
 20
47.93850342795075
 30
0.0
 10
283.8262128958331
 20
45.41324843663142
 30
0.0
  0
SPLINE
  5
D920A
330
1E
100
AcDbEntity
  8
DETAIL
100
AcDbSpline
210
0.0
220
0.0
230
1.0
 70
     8
 71
     3
 72
     8
 73
     4
 74
     0
 42
0.00000001
 43
0.0000000001
 40
1.0
 40
1.0
 40
1.0
 40
1.0
 40
2.0
 40
2.0
 40
2.0
 40
2.0
 10
283.8262128958331
 20
45.41324843663142
 30
0.0
 10
280.6911760034727
 20
42.66406223871443
 30
0.0
 10
284.87868956684
 20
46.31930854947859
 30
0.0
 10
281.7315948402775
 20
43.58734782899228
 30
0.0
  0
SPLINE
  5
D920B
330
1E
100
AcDbEntity
  8
DETAIL
100
AcDbSpline
210
0.0
220
0.0
230
1.0
 70
     8
 71
     3
 72
     8
 73
     4
 74
     0
 42
0.00000001
 43
0.0000000001
 40
2.0
 40
2.0
 40
2.0
 40
2.0
 40
3.0
 40
3.0
 40
3.0
 40
3.0
 10
281.7315948402775
 20
43.58734782899228
 30
0.0
 10
278.2692738767364
 20
40.73480876649226
 30
0.0
 10
282.9304880694444
 20
44.47618246440924
 30
0.0
 10
279.4009877439239
 20
41.71321588454794
 30
0.0
  0
SPLINE
  5
D920C
330
1E
100
AcDbEntity
  8
DETAIL
100
AcDbSpline
210
0.0
220
0.0
230
1.0
 70
     8
 71
     3
 72
     8
 73
     4
 74
     0
 42
0.00000001
 43
0.0000000001
 40
3.0
 40
3.0
 40
3.0
 40
3.0
 40
4.0
 40
4.0
 40
4.0
 40
4.0
 10
279.4009877439239
 20
41.71321588454794
 30
0.0
 10
277.2012942760412
 20
40.22148953906206
 30
0.0
 10
280.1485734644101
 20
42.19208415711728
 30
0.0
 10
277.9282094236114
 20
40.72791857552011
 30
0.0
  0
SPLINE
  5
D920D
330
1E
100
AcDbEntity
  8
DETAIL
100
AcDbSpline
210
0.0
220
0.0
230
1.0
 70
     8
 71
     3
 72
     8
 73
     4
 74
     0
 42
0.00000001
 43
0.0000000001
 40
0.0
 40
0.0
 40
0.0
 40
0.0
 40
1.0
 40
1.0
 40
1.0
 40
1.0
 10
285.7055124835069
 20
47.09790012933946
 30
0.0
 10
282.1174455347227
 20
45.65096002517292
 30
0.0
 10
286.9026831649307
 20
47.57676840190924
 30
0.0
 10
283.3128936684025
 20
46.13671848871446
 30
0.0
  0
SPLINE
  5
D920E
330
1E
100
AcDbEntity
  8
DETAIL
100
AcDbSpline
210
0.0
220
0.0
230
1.0
 70
     8
 71
     3
 72
     8
 73
     4
 74
     0
 42
0.00000001
 43
0.0000000001
 40
1.0
 40
1.0
 40
1.0
 40
1.0
 40
2.0
 40
2.0
 40
2.0
 40
2.0
 10
283.3128936684025
 20
46.13671848871446
 30
0.0
 10
279.3183054522569
 20
44.56230985156206
 30
0.0
 10
284.6495907170139
 20
46.65348281163142
 30
0.0
 10
280.6481123098956
 20
45.09285455642292
 30
0.0
  0
SPLINE
  5
D920F
330
1E
100
AcDbEntity
  8
DETAIL
100
AcDbSpline
210
0.0
220
0.0
230
1.0
 70
     8
 71
     3
 72
     8
 73
     4
 74
     0
 42
0.00000001
 43
0.0000000001
 40
2.0
 40
2.0
 40
2.0
 40
2.0
 40
3.0
 40
3.0
 40
3.0
 40
3.0
 10
280.6481123098956
 20
45.09285455642292
 30
0.0
 10
277.3304853567706
 20
43.85262018142292
 30
0.0
 10
281.7626006996525
 20
45.47870525086726
 30
0.0
 10
278.4329159123263
 20
44.27636692621446
 30
0.0
  0
SPLINE
  5
D9210
330
1E
100
AcDbEntity
  8
DETAIL
100
AcDbSpline
210
0.0
220
0.0
230
1.0
 70
     8
 71
     3
 72
     8
 73
     4
 74
     0
 42
0.00000001
 43
0.0000000001
 40
3.0
 40
3.0
 40
3.0
 40
3.0
 40
4.0
 40
4.0
 40
4.0
 40
4.0
 10
278.4329159123263
 20
44.27636692621446
 30
0.0
 10
274.5003394149307
 20
43.02924236024227
 30
0.0
 10
279.7523874835069
 20
44.6656627161451
 30
0.0
 10
275.8060306041662
 20
43.4598792960064
 30
0.0
  0
SPLINE
  5
D9211
330
1E
100
AcDbEntity
  8
DETAIL
100
AcDbSpline
210
0.0
220
0.0
230
1.0
 70
     8
 71
     3
 72
     8
 73
     4
 74
     0
 42
0.00000001
 43
0.0000000001
 40
0.0
 40
0.0
 40
0.0
 40
0.0
 40
1.0
 40
1.0
 40
1.0
 40
1.0
 10
229.4918894366319
 20
40.11813667447859
 30
0.0
 10
226.7203101180558
 20
40.12847196093706
 30
0.0
 10
230.4151750269102
 20
40.10780138802011
 30
0.0
 10
227.6435957083331
 20
40.12847196093706
 30
0.0
  0
SPLINE
  5
D9212
330
1E
100
AcDbEntity
  8
DETAIL
100
AcDbSpline
210
0.0
220
0.0
230
1.0
 70
     8
 71
     3
 72
     8
 73
     4
 74
     0
 42
0.00000001
 43
0.0000000001
 40
1.0
 40
1.0
 40
1.0
 40
1.0
 40
2.0
 40
2.0
 40
2.0
 40
2.0
 10
227.6435957083331
 20
40.12847196093706
 30
0.0
 10
224.8013919322921
 20
40.18703858420074
 30
0.0
 10
228.5909969670138
 20
40.09402100607576
 30
0.0
 10
225.7487931909726
 20
40.17325820225642
 30
0.0
  0
SPLINE
  5
D9213
330
1E
100
AcDbEntity
  8
DETAIL
100
AcDbSpline
210
0.0
220
0.0
230
1.0
 70
     8
 71
     3
 72
     8
 73
     4
 74
     0
 42
0.00000001
 43
0.0000000001
 40
2.0
 40
2.0
 40
2.0
 40
2.0
 40
3.0
 40
3.0
 40
3.0
 40
3.0
 10
225.7487931909726
 20
40.17325820225642
 30
0.0
 10
222.9065894149307
 20
40.34206788107574
 30
0.0
 10
226.6910268064239
 20
40.06301514670076
 30
0.0
 10
223.8574357690977
 20
40.31450711718706
 30
0.0
  0
SPLINE
  5
D9214
330
1E
100
AcDbEntity
  8
DETAIL
100
AcDbSpline
210
0.0
220
0.0
230
1.0
 70
     8
 71
     3
 72
     8
 73
     4
 74
     0
 42
0.00000001
 43
0.0000000001
 40
3.0
 40
3.0
 40
3.0
 40
3.0
 40
4.0
 40
4.0
 40
4.0
 40
4.0
 10
223.8574357690977
 20
40.31450711718706
 30
0.0
 10
221.7008059947921
 20
40.69346762065925
 30
0.0
 10
224.572293082465
 20
40.15947782031206
 30
0.0
 10
222.4208309513888
 20
40.57977946961726
 30
0.0
  0
SPLINE
  5
D9215
330
1E
100
AcDbEntity
  8
DETAIL
100
AcDbSpline
210
0.0
220
0.0
230
1.0
 70
     8
 71
     3
 72
     8
 73
     4
 74
     0
 42
0.00000001
 43
0.0000000001
 40
0.0
 40
0.0
 40
0.0
 40
0.0
 40
1.0
 40
1.0
 40
1.0
 40
1.0
 10
229.4918894366319
 20
43.10847955642294
 30
0.0
 10
227.4971791501739
 20
43.1153697473951
 30
0.0
 10
230.1567928654513
 20
43.10503446093706
 30
0.0
 10
228.1620825789933
 20
43.1153697473951
 30
0.0
  0
SPLINE
  5
D9216
330
1E
100
AcDbEntity
  8
DETAIL
100
AcDbSpline
210
0.0
220
0.0
230
1.0
 70
     8
 71
     3
 72
     8
 73
     4
 74
     0
 42
0.00000001
 43
0.0000000001
 40
1.0
 40
1.0
 40
1.0
 40
1.0
 40
2.0
 40
2.0
 40
2.0
 40
2.0
 10
228.1620825789933
 20
43.1153697473951
 30
0.0
 10
226.2259389157989
 20
43.1498207022564
 30
0.0
 10
228.8080379826388
 20
43.09814426996445
 30
0.0
 10
226.8718943194445
 20
43.13948541579793
 30
0.0
  0
SPLINE
  5
D9217
330
1E
100
AcDbEntity
  8
DETAIL
100
AcDbSpline
210
0.0
220
0.0
230
1.0
 70
     8
 71
     3
 72
     8
 73
     4
 74
     0
 42
0.00000001
 43
0.0000000001
 40
2.0
 40
2.0
 40
2.0
 40
2.0
 40
3.0
 40
3.0
 40
3.0
 40
3.0
 10
226.8718943194445
 20
43.13948541579793
 30
0.0
 10
224.8461781736114
 20
43.24283828038142
 30
0.0
 10
227.5436879392364
 20
43.07402860156206
 30
0.0
 10
225.5231394366319
 20
43.22561280295075
 30
0.0
  0
SPLINE
  5
D9218
330
1E
100
AcDbEntity
  8
DETAIL
100
AcDbSpline
210
0.0
220
0.0
230
1.0
 70
     8
 71
     3
 72
     8
 73
     4
 74
     0
 42
0.00000001
 43
0.0000000001
 40
3.0
 40
3.0
 40
3.0
 40
3.0
 40
4.0
 40
4.0
 40
4.0
 40
4.0
 10
225.5231394366319
 20
43.22561280295075
 30
0.0
 10
224.0503611163195
 20
43.43920872308943
 30
0.0
 10
226.0123429956601
 20
43.13604032031206
 30
0.0
 10
224.5430097708331
 20
43.37375190885359
 30
0.0
  0
SPLINE
  5
D9219
330
1E
100
AcDbEntity
  8
DETAIL
100
AcDbSpline
210
0.0
220
0.0
230
1.0
 70
    24
 71
     3
 72
    35
 73
    31
 74
     0
 42
0.00000001
 43
0.0000000001
 40
0.0
 40
0.0
 40
0.0
 40
0.0
 40
1.0
 40
1.0
 40
1.0
 40
2.0
 40
2.0
 40
2.0
 40
3.0
 40
3.0
 40
3.0
 40
4.0
 40
4.0
 40
4.0
 40
5.0
 40
5.0
 40
5.0
 40
6.0
 40
6.0
 40
6.0
 40
7.0
 40
7.0
 40
7.0
 40
8.0
 40
8.0
 40
8.0
 40
9.0
 40
9.0
 40
9.0
 40
10.0
 40
10.0
 40
10.0
 40
10.0
 10
229.4918894366319
 20
43.10847955642294
 30
0.0
 10
229.4918894366319
 20
43.04302274218708
 30
0.0
 10
229.4918894366319
 20
43.13259522482575
 30
0.0
 10
229.4918894366319
 20
43.06369331510359
 30
0.0
 10
229.4918894366319
 20
42.93277968663142
 30
0.0
 10
229.4918894366319
 20
43.10847955642294
 30
0.0
 10
229.4918894366319
 20
42.97756592795075
 30
0.0
 10
229.4918894366319
 20
42.7743052942701
 30
0.0
 10
229.4918894366319
 20
43.04302274218708
 30
0.0
 10
229.4918894366319
 20
42.8397621085064
 30
0.0
 10
229.4918894366319
 20
42.56759956510359
 30
0.0
 10
229.4918894366319
 20
42.93277968663142
 30
0.0
 10
229.4918894366319
 20
42.65717204774228
 30
0.0
 10
229.4918894366319
 20
42.31610759461728
 30
0.0
 10
229.4918894366319
 20
42.77086019878423
 30
0.0
 10
229.4918894366319
 20
42.42979574565924
 30
0.0
 10
229.4918894366319
 20
42.02671957378425
 30
0.0
 10
229.4918894366319
 20
42.56415446961727
 30
0.0
 10
229.4918894366319
 20
42.16107829774228
 30
0.0
 10
229.4918894366319
 20
41.46172391406206
 30
0.0
 10
229.4918894366319
 20
42.39534479079792
 30
0.0
 10
229.4918894366319
 20
41.69599040711728
 30
0.0
 10
229.4918894366319
 20
40.91739882725642
 30
0.0
 10
229.4918894366319
 20
41.95437256857576
 30
0.0
 10
229.4918894366319
 20
41.17578098871445
 30
0.0
 10
229.4918894366319
 20
40.37307374045076
 30
0.0
 10
229.4918894366319
 20
41.4444984366314
 30
0.0
 10
229.4918894366319
 20
40.64179118836728
 30
0.0
 10
229.4918894366319
 20
39.85630941753425
 30
0.0
 10
229.4918894366319
 20
40.90361844531206
 30
0.0
 10
229.4918894366319
 20
40.11813667447859
 30
0.0
  0
SPLINE
  5
D921A
330
1E
100
AcDbEntity
  8
DETAIL
100
AcDbSpline
210
0.0
220
0.0
230
1.0
 70
    24
 71
     3
 72
    17
 73
    13
 74
     0
 42
0.00000001
 43
0.0000000001
 40
0.0
 40
0.0
 40
0.0
 40
0.0
 40
1.0
 40
1.0
 40
1.0
 40
2.0
 40
2.0
 40
2.0
 40
3.0
 40
3.0
 40
3.0
 40
4.0
 40
4.0
 40
4.0
 40
4.0
 10
249.9988203177081
 20
43.10847955642294
 30
0.0
 10
235.0005971189239
 20
43.10847955642294
 30
0.0
 10
254.9993764157989
 20
43.10847955642294
 30
0.0
 10
239.9994306692706
 20
43.10847955642294
 30
0.0
 10
225.0012074704864
 20
43.10847955642294
 30
0.0
 10
244.9999867673614
 20
43.10847955642294
 30
0.0
 10
230.0000410208331
 20
43.10847955642294
 30
0.0
 10
229.6193579696183
 20
43.10847955642294
 30
0.0
 10
230.1275095538194
 20
43.10847955642294
 30
0.0
 10
229.7468265026046
 20
43.10847955642294
 30
0.0
 10
229.3644209036456
 20
43.10847955642294
 30
0.0
 10
229.8725724878476
 20
43.10847955642294
 30
0.0
 10
229.4918894366319
 20
43.10847955642294
 30
0.0
  0
SPLINE
  5
D921B
330
1E
100
AcDbEntity
  8
DETAIL
100
AcDbSpline
210
0.0
220
0.0
230
1.0
 70
    24
 71
     3
 72
    11
 73
     7
 74
     0
 42
0.00000001
 43
0.0000000001
 40
0.0
 40
0.0
 40
0.0
 40
0.0
 40
1.0
 40
1.0
 40
1.0
 40
2.0
 40
2.0
 40
2.0
 40
2.0
 10
249.9988203177081
 20
43.10847955642294
 30
0.0
 10
257.6899959904513
 20
43.10847955642294
 30
0.0
 10
247.4356692760421
 20
43.10847955642294
 30
0.0
 10
255.1268449487852
 20
43.10847955642294
 30
0.0
 10
262.8180206215275
 20
43.10847955642294
 30
0.0
 10
252.5636939071183
 20
43.10847955642294
 30
0.0
 10
260.2531470321182
 20
43.10847955642294
 30
0.0
  0
SPLINE
  5
D921C
330
1E
100
AcDbEntity
  8
DETAIL
100
AcDbSpline
210
0.0
220
0.0
230
1.0
 70
    24
 71
     3
 72
    17
 73
    13
 74
     0
 42
0.00000001
 43
0.0000000001
 40
0.0
 40
0.0
 40
0.0
 40
0.0
 40
1.0
 40
1.0
 40
1.0
 40
2.0
 40
2.0
 40
2.0
 40
3.0
 40
3.0
 40
3.0
 40
4.0
 40
4.0
 40
4.0
 40
4.0
 10
270.5074737465275
 20
43.10847955642294
 30
0.0
 10
270.1250681475694
 20
43.10847955642294
 30
0.0
 10
270.6349422795138
 20
43.10847955642294
 30
0.0
 10
270.2525366805557
 20
43.10847955642294
 30
0.0
 10
269.87185362934
 20
43.10847955642294
 30
0.0
 10
270.3800052135412
 20
43.10847955642294
 30
0.0
 10
269.9993221623263
 20
43.10847955642294
 30
0.0
 10
262.6905520885411
 20
43.10847955642294
 30
0.0
 10
272.4350046710069
 20
43.10847955642294
 30
0.0
 10
265.1262345972227
 20
43.10847955642294
 30
0.0
 10
257.8174645234376
 20
43.10847955642294
 30
0.0
 10
267.5619171059025
 20
43.10847955642294
 30
0.0
 10
260.2531470321182
 20
43.10847955642294
 30
0.0
  0
SPLINE
  5
D9220
330
1E
100
AcDbEntity
  8
DETAIL
100
AcDbSpline
210
0.0
220
0.0
230
1.0
 70
     8
 71
     3
 72
     8
 73
     4
 74
     0
 42
0.00000001
 43
0.0000000001
 40
0.0
 40
0.0
 40
0.0
 40
0.0
 40
1.0
 40
1.0
 40
1.0
 40
1.0
 10
270.5074737465275
 20
43.10847955642294
 30
0.0
 10
272.2472469670139
 20
43.1153697473951
 30
0.0
 10
269.9269751571183
 20
43.10503446093706
 30
0.0
 10
271.6684709253477
 20
43.1153697473951
 30
0.0
  0
SPLINE
  5
D9221
330
1E
100
AcDbEntity
  8
DETAIL
100
AcDbSpline
210
0.0
220
0.0
230
1.0
 70
     8
 71
     3
 72
     8
 73
     4
 74
     0
 42
0.00000001
 43
0.0000000001
 40
1.0
 40
1.0
 40
1.0
 40
1.0
 40
2.0
 40
2.0
 40
2.0
 40
2.0
 10
271.6684709253477
 20
43.1153697473951
 30
0.0
 10
273.8578291067706
 20
43.1498207022564
 30
0.0
 10
270.9381106822911
 20
43.09469917447859
 30
0.0
 10
273.1291914114581
 20
43.13948541579793
 30
0.0
  0
SPLINE
  5
D9222
330
1E
100
AcDbEntity
  8
DETAIL
100
AcDbSpline
210
0.0
220
0.0
230
1.0
 70
     8
 71
     3
 72
     8
 73
     4
 74
     0
 42
0.00000001
 43
0.0000000001
 40
2.0
 40
2.0
 40
2.0
 40
2.0
 40
3.0
 40
3.0
 40
3.0
 40
3.0
 10
273.1291914114581
 20
43.13948541579793
 30
0.0
 10
275.2306996579864
 20
43.24628337586728
 30
0.0
 10
272.4298370277775
 20
43.07058350607575
 30
0.0
 10
274.5279001788194
 20
43.22905789843706
 30
0.0
  0
SPLINE
  5
D9223
330
1E
100
AcDbEntity
  8
DETAIL
100
AcDbSpline
210
0.0
220
0.0
230
1.0
 70
     8
 71
     3
 72
     8
 73
     4
 74
     0
 42
0.00000001
 43
0.0000000001
 40
3.0
 40
3.0
 40
3.0
 40
3.0
 40
4.0
 40
4.0
 40
4.0
 40
4.0
 10
274.5279001788194
 20
43.22905789843706
 30
0.0
 10
275.9231638506944
 20
43.4357636276036
 30
0.0
 10
274.0662573836807
 20
43.1463756067701
 30
0.0
 10
275.4563534123263
 20
43.37375190885359
 30
0.0
  0
SPLINE
  5
D9224
330
1E
100
AcDbEntity
  8
DETAIL
100
AcDbSpline
210
0.0
220
0.0
230
1.0
 70
    24
 71
     3
 72
    35
 73
    31
 74
     0
 42
0.00000001
 43
0.0000000001
 40
0.0
 40
0.0
 40
0.0
 40
0.0
 40
1.0
 40
1.0
 40
1.0
 40
2.0
 40
2.0
 40
2.0
 40
3.0
 40
3.0
 40
3.0
 40
4.0
 40
4.0
 40
4.0
 40
5.0
 40
5.0
 40
5.0
 40
6.0
 40
6.0
 40
6.0
 40
7.0
 40
7.0
 40
7.0
 40
8.0
 40
8.0
 40
8.0
 40
9.0
 40
9.0
 40
9.0
 40
10.0
 40
10.0
 40
10.0
 40
10.0
 10
270.5074737465275
 20
40.11813667447859
 30
0.0
 10
270.5074737465275
 20
40.90361844531206
 30
0.0
 10
270.5074737465275
 20
39.85630941753425
 30
0.0
 10
270.5074737465275
 20
40.64179118836728
 30
0.0
 10
270.5074737465275
 20
41.4444984366314
 30
0.0
 10
270.5074737465275
 20
40.37307374045076
 30
0.0
 10
270.5074737465275
 20
41.17578098871445
 30
0.0
 10
270.5074737465275
 20
41.95437256857576
 30
0.0
 10
270.5074737465275
 20
40.91739882725642
 30
0.0
 10
270.5074737465275
 20
41.69599040711728
 30
0.0
 10
270.5074737465275
 20
42.39534479079792
 30
0.0
 10
270.5074737465275
 20
41.46172391406206
 30
0.0
 10
270.5074737465275
 20
42.16107829774228
 30
0.0
 10
270.5074737465275
 20
42.56415446961727
 30
0.0
 10
270.5074737465275
 20
42.02671957378425
 30
0.0
 10
270.5074737465275
 20
42.42979574565924
 30
0.0
 10
270.5074737465275
 20
42.77086019878423
 30
0.0
 10
270.5074737465275
 20
42.31610759461728
 30
0.0
 10
270.5074737465275
 20
42.65717204774228
 30
0.0
 10
270.5074737465275
 20
42.93277968663142
 30
0.0
 10
270.5074737465275
 20
42.56759956510359
 30
0.0
 10
270.5074737465275
 20
42.8397621085064
 30
0.0
 10
270.5074737465275
 20
43.04302274218708
 30
0.0
 10
270.5074737465275
 20
42.7743052942701
 30
0.0
 10
270.5074737465275
 20
42.97756592795075
 30
0.0
 10
270.5074737465275
 20
43.10847955642294
 30
0.0
 10
270.5074737465275
 20
42.93277968663142
 30
0.0
 10
270.5074737465275
 20
43.06369331510359
 30
0.0
 10
270.5074737465275
 20
43.13259522482575
 30
0.0
 10
270.5074737465275
 20
43.04302274218708
 30
0.0
 10
270.5074737465275
 20
43.10847955642294
 30
0.0
  0
SPLINE
  5
D9225
330
1E
100
AcDbEntity
  8
DETAIL
100
AcDbSpline
210
0.0
220
0.0
230
1.0
 70
     8
 71
     3
 72
     8
 73
     4
 74
     0
 42
0.00000001
 43
0.0000000001
 40
0.0
 40
0.0
 40
0.0
 40
0.0
 40
1.0
 40
1.0
 40
1.0
 40
1.0
 10
270.5074737465275
 20
40.11813667447859
 30
0.0
 10
272.9224856822912
 20
40.12502686545075
 30
0.0
 10
269.7030439505206
 20
40.11124648350642
 30
0.0
 10
272.1180558862851
 20
40.12502686545075
 30
0.0
  0
SPLINE
  5
D9226
330
1E
100
AcDbEntity
  8
DETAIL
100
AcDbSpline
210
0.0
220
0.0
230
1.0
 70
     8
 71
     3
 72
     8
 73
     4
 74
     0
 42
0.00000001
 43
0.0000000001
 40
1.0
 40
1.0
 40
1.0
 40
1.0
 40
2.0
 40
2.0
 40
2.0
 40
2.0
 10
272.1180558862851
 20
40.12502686545075
 30
0.0
 10
275.3219946883683
 20
40.18359348871443
 30
0.0
 10
271.0483537378477
 20
40.08713081510359
 30
0.0
 10
274.2540150876739
 20
40.17325820225642
 30
0.0
  0
SPLINE
  5
D9227
330
1E
100
AcDbEntity
  8
DETAIL
100
AcDbSpline
210
0.0
220
0.0
230
1.0
 70
     8
 71
     3
 72
     8
 73
     4
 74
     0
 42
0.00000001
 43
0.0000000001
 40
2.0
 40
2.0
 40
2.0
 40
2.0
 40
3.0
 40
3.0
 40
3.0
 40
3.0
 10
274.2540150876739
 20
40.17325820225642
 30
0.0
 10
277.2994794973956
 20
40.36273845399228
 30
0.0
 10
273.2463246579864
 20
40.04578966927009
 30
0.0
 10
276.2814537812501
 20
40.33173259461728
 30
0.0
  0
SPLINE
  5
D9228
330
1E
100
AcDbEntity
  8
DETAIL
100
AcDbSpline
210
0.0
220
0.0
230
1.0
 70
     8
 71
     3
 72
     8
 73
     4
 74
     0
 42
0.00000001
 43
0.0000000001
 40
3.0
 40
3.0
 40
3.0
 40
3.0
 40
4.0
 40
4.0
 40
4.0
 40
4.0
 10
276.2814537812501
 20
40.33173259461728
 30
0.0
 10
278.2296552786456
 20
40.68657742968706
 30
0.0
 10
275.6337758298614
 20
40.18703858420074
 30
0.0
 10
277.5785322317706
 20
40.57977946961726
 30
0.0
  0
SPLINE
  5
D9238
330
1E
100
AcDbEntity
  8
DETAIL
100
AcDbSpline
210
0.0
220
0.0
230
1.0
 70
    24
 71
     3
 72
    41
 73
    37
 74
     0
 42
0.00000001
 43
0.0000000001
 40
0.0
 40
0.0
 40
0.0
 40
0.0
 40
1.0
 40
1.0
 40
1.0
 40
2.0
 40
2.0
 40
2.0
 40
3.0
 40
3.0
 40
3.0
 40
4.0
 40
4.0
 40
4.0
 40
5.0
 40
5.0
 40
5.0
 40
6.0
 40
6.0
 40
6.0
 40
7.0
 40
7.0
 40
7.0
 40
8.0
 40
8.0
 40
8.0
 40
9.0
 40
9.0
 40
9.0
 40
10.0
 40
10.0
 40
10.0
 40
11.0
 40
11.0
 40
11.0
 40
12.0
 40
12.0
 40
12.0
 40
12.0
 10
285.7055124835069
 20
29.89998346267294
 30
0.0
 10
285.7055124835069
 20
29.46245633593708
 30
0.0
 10
285.7055124835069
 20
30.04467747308945
 30
0.0
 10
285.7055124835069
 20
29.60715034635359
 30
0.0
 10
285.7055124835069
 20
29.16273302864511
 30
0.0
 10
285.7055124835069
 20
29.75873454774228
 30
0.0
 10
285.7055124835069
 20
29.31087213454794
 30
0.0
 10
285.7055124835069
 20
29.02148411371445
 30
0.0
 10
285.7055124835069
 20
29.40733480815925
 30
0.0
 10
285.7055124835069
 20
29.11794678732576
 30
0.0
 10
285.7055124835069
 20
28.84233914843708
 30
0.0
 10
285.7055124835069
 20
29.20751926996445
 30
0.0
 10
285.7055124835069
 20
28.93535672656208
 30
0.0
 10
285.7055124835069
 20
28.68386475607577
 30
0.0
 10
285.7055124835069
 20
29.01803901822859
 30
0.0
 10
285.7055124835069
 20
28.76654704774228
 30
0.0
 10
285.7055124835069
 20
28.54950603211728
 30
0.0
 10
285.7055124835069
 20
28.83889405295077
 30
0.0
 10
285.7055124835069
 20
28.62185303732577
 30
0.0
 10
285.7055124835069
 20
28.44270807204793
 30
0.0
 10
285.7055124835069
 20
28.68386475607577
 30
0.0
 10
285.7055124835069
 20
28.50471979079794
 30
0.0
 10
285.7055124835069
 20
28.36691597135359
 30
0.0
 10
285.7055124835069
 20
28.54950603211728
 30
0.0
 10
285.7055124835069
 20
28.41170221267294
 30
0.0
 10
285.7055124835069
 20
28.33591011197859
 30
0.0
 10
285.7055124835069
 20
28.43581788107576
 30
0.0
 10
285.7055124835069
 20
28.36002578038142
 30
0.0
 10
285.7055124835069
 20
28.30834934808945
 30
0.0
 10
285.7055124835069
 20
28.37725125781208
 30
0.0
 10
285.7055124835069
 20
28.32557482552011
 30
0.0
 10
285.7055124835069
 20
28.31179444357577
 30
0.0
 10
285.7055124835069
 20
28.32901992100643
 30
0.0
 10
285.7055124835069
 20
28.31523953906208
 30
0.0
 10
285.7055124835069
 20
28.29112387065925
 30
0.0
 10
285.7055124835069
 20
28.32557482552011
 30
0.0
 10
285.7055124835069
 20
28.29801406163142
 30
0.0
  0
SPLINE
  5
D923E
330
1E
100
AcDbEntity
  8
DETAIL
100
AcDbSpline
210
0.0
220
0.0
230
1.0
 70
    24
 71
     3
 72
    17
 73
    13
 74
     0
 42
0.00000001
 43
0.0000000001
 40
0.0
 40
0.0
 40
0.0
 40
0.0
 40
1.0
 40
1.0
 40
1.0
 40
2.0
 40
2.0
 40
2.0
 40
3.0
 40
3.0
 40
3.0
 40
4.0
 40
4.0
 40
4.0
 40
4.0
 10
270.5074737465275
 20
40.11813667447859
 30
0.0
 10
270.1250681475694
 20
40.11813667447859
 30
0.0
 10
270.6349422795138
 20
40.11813667447859
 30
0.0
 10
270.2525366805557
 20
40.11813667447859
 30
0.0
 10
269.87185362934
 20
40.11813667447859
 30
0.0
 10
270.3800052135412
 20
40.11813667447859
 30
0.0
 10
269.9993221623263
 20
40.11813667447859
 30
0.0
 10
262.6905520885411
 20
40.11813667447859
 30
0.0
 10
272.4350046710069
 20
40.11813667447859
 30
0.0
 10
265.1262345972227
 20
40.11813667447859
 30
0.0
 10
257.8174645234376
 20
40.11813667447859
 30
0.0
 10
267.5619171059025
 20
40.11813667447859
 30
0.0
 10
260.2531470321182
 20
40.11813667447859
 30
0.0
  0
SPLINE
  5
D923F
330
1E
100
AcDbEntity
  8
DETAIL
100
AcDbSpline
210
0.0
220
0.0
230
1.0
 70
    24
 71
     3
 72
    11
 73
     7
 74
     0
 42
0.00000001
 43
0.0000000001
 40
0.0
 40
0.0
 40
0.0
 40
0.0
 40
1.0
 40
1.0
 40
1.0
 40
2.0
 40
2.0
 40
2.0
 40
2.0
 10
249.9988203177081
 20
40.11813667447859
 30
0.0
 10
257.6899959904513
 20
40.11813667447859
 30
0.0
 10
247.4356692760421
 20
40.11813667447859
 30
0.0
 10
255.1268449487852
 20
40.11813667447859
 30
0.0
 10
262.8180206215275
 20
40.11813667447859
 30
0.0
 10
252.5636939071183
 20
40.11813667447859
 30
0.0
 10
260.2531470321182
 20
40.11813667447859
 30
0.0
  0
SPLINE
  5
D9240
330
1E
100
AcDbEntity
  8
DETAIL
100
AcDbSpline
210
0.0
220
0.0
230
1.0
 70
    24
 71
     3
 72
    17
 73
    13
 74
     0
 42
0.00000001
 43
0.0000000001
 40
0.0
 40
0.0
 40
0.0
 40
0.0
 40
1.0
 40
1.0
 40
1.0
 40
2.0
 40
2.0
 40
2.0
 40
3.0
 40
3.0
 40
3.0
 40
4.0
 40
4.0
 40
4.0
 40
4.0
 10
249.9988203177081
 20
40.11813667447859
 30
0.0
 10
235.0005971189239
 20
40.11813667447859
 30
0.0
 10
254.9993764157989
 20
40.11813667447859
 30
0.0
 10
239.9994306692706
 20
40.11813667447859
 30
0.0
 10
225.0012074704864
 20
40.11813667447859
 30
0.0
 10
244.9999867673614
 20
40.11813667447859
 30
0.0
 10
230.0000410208331
 20
40.11813667447859
 30
0.0
 10
229.6193579696183
 20
40.11813667447859
 30
0.0
 10
230.1275095538194
 20
40.11813667447859
 30
0.0
 10
229.7468265026046
 20
40.11813667447859
 30
0.0
 10
229.3644209036456
 20
40.11813667447859
 30
0.0
 10
229.8725724878476
 20
40.11813667447859
 30
0.0
 10
229.4918894366319
 20
40.11813667447859
 30
0.0
  0
SPLINE
  5
D9246
330
1E
100
AcDbEntity
  8
DETAIL
100
AcDbSpline
210
0.0
220
0.0
230
1.0
 70
    24
 71
     3
 72
    17
 73
    13
 74
     0
 42
0.00000001
 43
0.0000000001
 40
0.0
 40
0.0
 40
0.0
 40
0.0
 40
1.0
 40
1.0
 40
1.0
 40
2.0
 40
2.0
 40
2.0
 40
3.0
 40
3.0
 40
3.0
 40
4.0
 40
4.0
 40
4.0
 40
4.0
 10
-210.2538787925352
 20
40.11813667447859
 30
0.0
 10
-217.5626488663192
 20
40.11813667447859
 30
0.0
 10
-207.8181962838534
 20
40.11813667447859
 30
0.0
 10
-215.1269663576388
 20
40.11813667447859
 30
0.0
 10
-222.4357364314237
 20
40.11813667447859
 30
0.0
 10
-212.6912838489579
 20
40.11813667447859
 30
0.0
 10
-220.0000539227433
 20
40.11813667447859
 30
0.0
 10
-220.3807369739579
 20
40.11813667447859
 30
0.0
 10
-219.8725853897567
 20
40.11813667447859
 30
0.0
 10
-220.2532684409728
 20
40.11813667447859
 30
0.0
 10
-220.6356740399306
 20
40.11813667447859
 30
0.0
 10
-220.1257999079862
 20
40.11813667447859
 30
0.0
 10
-220.5082055069443
 20
40.11813667447859
 30
0.0
  0
SPLINE
  5
D9247
330
1E
100
AcDbEntity
  8
DETAIL
100
AcDbSpline
210
0.0
220
0.0
230
1.0
 70
    24
 71
     3
 72
    17
 73
    13
 74
     0
 42
0.00000001
 43
0.0000000001
 40
0.0
 40
0.0
 40
0.0
 40
0.0
 40
1.0
 40
1.0
 40
1.0
 40
2.0
 40
2.0
 40
2.0
 40
3.0
 40
3.0
 40
3.0
 40
4.0
 40
4.0
 40
4.0
 40
4.0
 10
-210.2538787925352
 20
43.10847955642294
 30
0.0
 10
-217.5626488663192
 20
43.10847955642294
 30
0.0
 10
-207.8181962838534
 20
43.10847955642294
 30
0.0
 10
-215.1269663576388
 20
43.10847955642294
 30
0.0
 10
-222.4357364314237
 20
43.10847955642294
 30
0.0
 10
-212.6912838489579
 20
43.10847955642294
 30
0.0
 10
-220.0000539227433
 20
43.10847955642294
 30
0.0
 10
-220.3807369739579
 20
43.10847955642294
 30
0.0
 10
-219.8725853897567
 20
43.10847955642294
 30
0.0
 10
-220.2532684409728
 20
43.10847955642294
 30
0.0
 10
-220.6356740399306
 20
43.10847955642294
 30
0.0
 10
-220.1257999079862
 20
43.10847955642294
 30
0.0
 10
-220.5082055069443
 20
43.10847955642294
 30
0.0
  0
SPLINE
  5
D9248
330
1E
100
AcDbEntity
  8
DETAIL
100
AcDbSpline
210
0.0
220
0.0
230
1.0
 70
     8
 71
     3
 72
     8
 73
     4
 74
     0
 42
0.00000001
 43
0.0000000001
 40
0.0
 40
0.0
 40
0.0
 40
0.0
 40
1.0
 40
1.0
 40
1.0
 40
1.0
 10
-220.5082055069443
 20
40.11813667447859
 30
0.0
 10
-223.2797848255204
 20
40.12847196093706
 30
0.0
 10
-219.5849199166659
 20
40.10780138802011
 30
0.0
 10
-222.356499235243
 20
40.12847196093706
 30
0.0
  0
SPLINE
  5
D9249
330
1E
100
AcDbEntity
  8
DETAIL
100
AcDbSpline
210
0.0
220
0.0
230
1.0
 70
     8
 71
     3
 72
     8
 73
     4
 74
     0
 42
0.00000001
 43
0.0000000001
 40
1.0
 40
1.0
 40
1.0
 40
1.0
 40
2.0
 40
2.0
 40
2.0
 40
2.0
 10
-222.356499235243
 20
40.12847196093706
 30
0.0
 10
-225.1987030112853
 20
40.18703858420074
 30
0.0
 10
-221.4073754288193
 20
40.09402100607576
 30
0.0
 10
-224.2513017526035
 20
40.17325820225642
 30
0.0
  0
SPLINE
  5
D924A
330
1E
100
AcDbEntity
  8
DETAIL
100
AcDbSpline
210
0.0
220
0.0
230
1.0
 70
     8
 71
     3
 72
     8
 73
     4
 74
     0
 42
0.00000001
 43
0.0000000001
 40
2.0
 40
2.0
 40
2.0
 40
2.0
 40
3.0
 40
3.0
 40
3.0
 40
3.0
 10
-224.2513017526035
 20
40.17325820225642
 30
0.0
 10
-227.0935055286454
 20
40.34206788107574
 30
0.0
 10
-223.3090681371525
 20
40.06301514670076
 30
0.0
 10
-226.1426591744794
 20
40.31450711718706
 30
0.0
  0
SPLINE
  5
D924B
330
1E
100
AcDbEntity
  8
DETAIL
100
AcDbSpline
210
0.0
220
0.0
230
1.0
 70
     8
 71
     3
 72
     8
 73
     4
 74
     0
 42
0.00000001
 43
0.0000000001
 40
3.0
 40
3.0
 40
3.0
 40
3.0
 40
4.0
 40
4.0
 40
4.0
 40
4.0
 10
-226.1426591744794
 20
40.31450711718706
 30
0.0
 10
-228.3010114965273
 20
40.69346762065925
 30
0.0
 10
-225.4278018611112
 20
40.15947782031206
 30
0.0
 10
-227.5792639921876
 20
40.57977946961726
 30
0.0
  0
SPLINE
  5
D924E
330
1E
100
AcDbEntity
  8
DETAIL
100
AcDbSpline
210
0.0
220
0.0
230
1.0
 70
     8
 71
     3
 72
     8
 73
     4
 74
     0
 42
0.00000001
 43
0.0000000001
 40
0.0
 40
0.0
 40
0.0
 40
0.0
 40
1.0
 40
1.0
 40
1.0
 40
1.0
 10
-220.5082055069443
 20
43.10847955642294
 30
0.0
 10
-222.5029157934025
 20
43.1153697473951
 30
0.0
 10
-219.8433020781251
 20
43.10503446093706
 30
0.0
 10
-221.8380123645829
 20
43.1153697473951
 30
0.0
  0
SPLINE
  5
D924F
330
1E
100
AcDbEntity
  8
DETAIL
100
AcDbSpline
210
0.0
220
0.0
230
1.0
 70
     8
 71
     3
 72
     8
 73
     4
 74
     0
 42
0.00000001
 43
0.0000000001
 40
1.0
 40
1.0
 40
1.0
 40
1.0
 40
2.0
 40
2.0
 40
2.0
 40
2.0
 10
-221.8380123645829
 20
43.1153697473951
 30
0.0
 10
-223.7741560277773
 20
43.1498207022564
 30
0.0
 10
-221.1920569609376
 20
43.09814426996445
 30
0.0
 10
-223.1282006241317
 20
43.13948541579793
 30
0.0
  0
SPLINE
  5
D9250
330
1E
100
AcDbEntity
  8
DETAIL
100
AcDbSpline
210
0.0
220
0.0
230
1.0
 70
     8
 71
     3
 72
     8
 73
     4
 74
     0
 42
0.00000001
 43
0.0000000001
 40
2.0
 40
2.0
 40
2.0
 40
2.0
 40
3.0
 40
3.0
 40
3.0
 40
3.0
 10
-223.1282006241317
 20
43.13948541579793
 30
0.0
 10
-225.1539167699649
 20
43.24283828038142
 30
0.0
 10
-222.4564070043399
 20
43.07402860156206
 30
0.0
 10
-224.4769555069443
 20
43.22561280295075
 30
0.0
  0
SPLINE
  5
D9251
330
1E
100
AcDbEntity
  8
DETAIL
100
AcDbSpline
210
0.0
220
0.0
230
1.0
 70
     8
 71
     3
 72
     8
 73
     4
 74
     0
 42
0.00000001
 43
0.0000000001
 40
3.0
 40
3.0
 40
3.0
 40
3.0
 40
4.0
 40
4.0
 40
4.0
 40
4.0
 10
-224.4769555069443
 20
43.22561280295075
 30
0.0
 10
-225.9497338272567
 20
43.43920872308943
 30
0.0
 10
-223.987751947916
 20
43.13604032031206
 30
0.0
 10
-225.4588077204862
 20
43.37375190885359
 30
0.0
  0
SPLINE
  5
D9252
330
1E
100
AcDbEntity
  8
DETAIL
100
AcDbSpline
210
0.0
220
0.0
230
1.0
 70
     8
 71
     3
 72
     8
 73
     4
 74
     0
 42
0.00000001
 43
0.0000000001
 40
0.0
 40
0.0
 40
0.0
 40
0.0
 40
1.0
 40
1.0
 40
1.0
 40
1.0
 10
-172.4215627118056
 20
40.57977946961726
 30
0.0
 10
-174.3663191137148
 20
40.18703858420074
 30
0.0
 10
-171.7704396649305
 20
40.68657742968706
 30
0.0
 10
-173.7186411623261
 20
40.33173259461728
 30
0.0
  0
SPLINE
  5
D9253
330
1E
100
AcDbEntity
  8
DETAIL
100
AcDbSpline
210
0.0
220
0.0
230
1.0
 70
     8
 71
     3
 72
     8
 73
     4
 74
     0
 42
0.00000001
 43
0.0000000001
 40
1.0
 40
1.0
 40
1.0
 40
1.0
 40
2.0
 40
2.0
 40
2.0
 40
2.0
 10
-173.7186411623261
 20
40.33173259461728
 30
0.0
 10
-176.7537702855898
 20
40.04578966927009
 30
0.0
 10
-172.7006154461805
 20
40.36273845399228
 30
0.0
 10
-175.7460798559023
 20
40.17325820225642
 30
0.0
  0
SPLINE
  5
D9254
330
1E
100
AcDbEntity
  8
DETAIL
100
AcDbSpline
210
0.0
220
0.0
230
1.0
 70
     8
 71
     3
 72
     8
 73
     4
 74
     0
 42
0.00000001
 43
0.0000000001
 40
2.0
 40
2.0
 40
2.0
 40
2.0
 40
3.0
 40
3.0
 40
3.0
 40
3.0
 10
-175.7460798559023
 20
40.17325820225642
 30
0.0
 10
-178.9517412057294
 20
40.08713081510359
 30
0.0
 10
-174.6781002552079
 20
40.18359348871443
 30
0.0
 10
-177.8820390572918
 20
40.12502686545075
 30
0.0
  0
SPLINE
  5
D9255
330
1E
100
AcDbEntity
  8
DETAIL
100
AcDbSpline
210
0.0
220
0.0
230
1.0
 70
     8
 71
     3
 72
     8
 73
     4
 74
     0
 42
0.00000001
 43
0.0000000001
 40
3.0
 40
3.0
 40
3.0
 40
3.0
 40
4.0
 40
4.0
 40
4.0
 40
4.0
 10
-177.8820390572918
 20
40.12502686545075
 30
0.0
 10
-180.2970509930555
 20
40.11124648350642
 30
0.0
 10
-177.077609261285
 20
40.12502686545075
 30
0.0
 10
-179.4926211970487
 20
40.11813667447859
 30
0.0
  0
SPLINE
  5
D9256
330
1E
100
AcDbEntity
  8
DETAIL
100
AcDbSpline
210
0.0
220
0.0
230
1.0
 70
     8
 71
     3
 72
     8
 73
     4
 74
     0
 42
0.00000001
 43
0.0000000001
 40
0.0
 40
0.0
 40
0.0
 40
0.0
 40
1.0
 40
1.0
 40
1.0
 40
1.0
 10
-174.5437415312499
 20
43.37375190885359
 30
0.0
 10
-175.9338375598954
 20
43.1463756067701
 30
0.0
 10
-174.0786536406249
 20
43.4357636276036
 30
0.0
 10
-175.4704722170136
 20
43.22905789843706
 30
0.0
  0
SPLINE
  5
D9257
330
1E
100
AcDbEntity
  8
DETAIL
100
AcDbSpline
210
0.0
220
0.0
230
1.0
 70
     8
 71
     3
 72
     8
 73
     4
 74
     0
 42
0.00000001
 43
0.0000000001
 40
1.0
 40
1.0
 40
1.0
 40
1.0
 40
2.0
 40
2.0
 40
2.0
 40
2.0
 10
-175.4704722170136
 20
43.22905789843706
 30
0.0
 10
-177.5685353680555
 20
43.07058350607575
 30
0.0
 10
-174.7693952855898
 20
43.24628337586728
 30
0.0
 10
-176.8726260798612
 20
43.13948541579793
 30
0.0
  0
SPLINE
  5
D9258
330
1E
100
AcDbEntity
  8
DETAIL
100
AcDbSpline
210
0.0
220
0.0
230
1.0
 70
     8
 71
     3
 72
     8
 73
     4
 74
     0
 42
0.00000001
 43
0.0000000001
 40
2.0
 40
2.0
 40
2.0
 40
2.0
 40
3.0
 40
3.0
 40
3.0
 40
3.0
 10
-176.8726260798612
 20
43.13948541579793
 30
0.0
 10
-179.061984261285
 20
43.09469917447859
 30
0.0
 10
-176.1422658368055
 20
43.1498207022564
 30
0.0
 10
-178.3316240182293
 20
43.1153697473951
 30
0.0
  0
SPLINE
  5
D9259
330
1E
100
AcDbEntity
  8
DETAIL
100
AcDbSpline
210
0.0
220
0.0
230
1.0
 70
     8
 71
     3
 72
     8
 73
     4
 74
     0
 42
0.00000001
 43
0.0000000001
 40
3.0
 40
3.0
 40
3.0
 40
3.0
 40
4.0
 40
4.0
 40
4.0
 40
4.0
 10
-178.3316240182293
 20
43.1153697473951
 30
0.0
 10
-180.0731197864579
 20
43.10503446093706
 30
0.0
 10
-177.7511254288192
 20
43.1153697473951
 30
0.0
 10
-179.4926211970487
 20
43.10847955642294
 30
0.0
  0
SPLINE
  5
D925A
330
1E
100
AcDbEntity
  8
DETAIL
100
AcDbSpline
210
0.0
220
0.0
230
1.0
 70
    24
 71
     3
 72
    17
 73
    13
 74
     0
 42
0.00000001
 43
0.0000000001
 40
0.0
 40
0.0
 40
0.0
 40
0.0
 40
1.0
 40
1.0
 40
1.0
 40
2.0
 40
2.0
 40
2.0
 40
3.0
 40
3.0
 40
3.0
 40
4.0
 40
4.0
 40
4.0
 40
4.0
 10
-210.2538787925352
 20
40.11813667447859
 30
0.0
 10
-198.7179765572919
 20
40.11813667447859
 30
0.0
 10
-214.1003279027775
 20
40.11813667447859
 30
0.0
 10
-202.564425667535
 20
40.11813667447859
 30
0.0
 10
-191.0285234322919
 20
40.11813667447859
 30
0.0
 10
-206.409152230035
 20
40.11813667447859
 30
0.0
 10
-194.8732499947919
 20
40.11813667447859
 30
0.0
 10
-183.3373477595486
 20
40.11813667447859
 30
0.0
 10
-198.7179765572919
 20
40.11813667447859
 30
0.0
 10
-187.1837968697919
 20
40.11813667447859
 30
0.0
 10
-175.6478946345487
 20
40.11813667447859
 30
0.0
 10
-191.0285234322919
 20
40.11813667447859
 30
0.0
 10
-179.4926211970487
 20
40.11813667447859
 30
0.0
  0
SPLINE
  5
D925B
330
1E
100
AcDbEntity
  8
DETAIL
100
AcDbSpline
210
0.0
220
0.0
230
1.0
 70
    24
 71
     3
 72
    17
 73
    13
 74
     0
 42
0.00000001
 43
0.0000000001
 40
0.0
 40
0.0
 40
0.0
 40
0.0
 40
1.0
 40
1.0
 40
1.0
 40
2.0
 40
2.0
 40
2.0
 40
3.0
 40
3.0
 40
3.0
 40
4.0
 40
4.0
 40
4.0
 40
4.0
 10
-210.2538787925352
 20
43.10847955642294
 30
0.0
 10
-198.7179765572919
 20
43.10847955642294
 30
0.0
 10
-214.1003279027775
 20
43.10847955642294
 30
0.0
 10
-202.564425667535
 20
43.10847955642294
 30
0.0
 10
-191.0285234322919
 20
43.10847955642294
 30
0.0
 10
-206.409152230035
 20
43.10847955642294
 30
0.0
 10
-194.8732499947919
 20
43.10847955642294
 30
0.0
 10
-183.3373477595486
 20
43.10847955642294
 30
0.0
 10
-198.7179765572919
 20
43.10847955642294
 30
0.0
 10
-187.1837968697919
 20
43.10847955642294
 30
0.0
 10
-175.6478946345487
 20
43.10847955642294
 30
0.0
 10
-191.0285234322919
 20
43.10847955642294
 30
0.0
 10
-179.4926211970487
 20
43.10847955642294
 30
0.0
  0
SPLINE
  5
D925D
330
1E
100
AcDbEntity
  8
DETAIL
100
AcDbSpline
210
0.0
220
0.0
230
1.0
 70
     8
 71
     3
 72
     8
 73
     4
 74
     0
 42
0.00000001
 43
0.0000000001
 40
4.0
 40
4.0
 40
4.0
 40
4.0
 40
5.0
 40
5.0
 40
5.0
 40
5.0
 10
-172.8745927682284
 20
42.42635065017291
 30
0.0
 10
-172.4542911189237
 20
41.83379422656206
 30
0.0
 10
-173.0020613012148
 20
42.63305637933945
 30
0.0
 10
-172.6007076770829
 20
42.02671957378425
 30
0.0
  0
SPLINE
  5
D925E
330
1E
100
AcDbEntity
  8
DETAIL
100
AcDbSpline
210
0.0
220
0.0
230
1.0
 70
     8
 71
     3
 72
     8
 73
     4
 74
     0
 42
0.00000001
 43
0.0000000001
 40
5.0
 40
5.0
 40
5.0
 40
5.0
 40
6.0
 40
6.0
 40
6.0
 40
6.0
 10
-172.6007076770829
 20
42.02671957378425
 30
0.0
 10
-172.2475853897567
 20
41.38937690885359
 30
0.0
 10
-172.7040605416659
 20
42.24720568489511
 30
0.0
 10
-172.3716088272567
 20
41.5995277335064
 30
0.0
  0
SPLINE
  5
D925F
330
1E
100
AcDbEntity
  8
DETAIL
100
AcDbSpline
210
0.0
220
0.0
230
1.0
 70
     8
 71
     3
 72
     8
 73
     4
 74
     0
 42
0.00000001
 43
0.0000000001
 40
6.0
 40
6.0
 40
6.0
 40
6.0
 40
7.0
 40
7.0
 40
7.0
 40
7.0
 10
-172.3716088272567
 20
41.5995277335064
 30
0.0
 10
-172.096001188368
 20
40.94495959114509
 30
0.0
 10
-172.4491234756942
 20
41.82345894010359
 30
0.0
 10
-172.1959089574648
 20
41.16200060677011
 30
0.0
  0
SPLINE
  5
D9260
330
1E
100
AcDbEntity
  8
DETAIL
100
AcDbSpline
210
0.0
220
0.0
230
1.0
 70
     8
 71
     3
 72
     8
 73
     4
 74
     0
 42
0.00000001
 43
0.0000000001
 40
7.0
 40
7.0
 40
7.0
 40
7.0
 40
8.0
 40
8.0
 40
8.0
 40
8.0
 10
-172.1959089574648
 20
41.16200060677011
 30
0.0
 10
-172.0047061579862
 20
40.5143226553814
 30
0.0
 10
-172.251030485243
 20
41.3790416223951
 30
0.0
 10
-172.0718855199646
 20
40.72791857552011
 30
0.0
  0
LINE
  5
D9319
330
1E
100
AcDbEntity
  8
DETAIL
100
AcDbLine
 10
376.5991890000005
 20
684.9986713562525
 30
0.0
 11
376.5991890000005
 21
687.4998102604162
 31
0.0
  0
LINE
  5
D933C
330
1E
100
AcDbEntity
  8
DETAIL
100
AcDbLine
 10
-399.0000030986016
 20
686.5007327430553
 30
0.0
 11
-321.3065319999996
 21
686.5007327430553
 31
0.0
  0
LINE
  5
D933E
330
1E
100
AcDbEntity
  8
DETAIL
100
AcDbLine
 10
-400.0000000007105
 20
30.19856801769477
 30
0.0
 11
-400.0000030985825
 21
685.5007265712571
 31
0.0
  0
LINE
  5
D9344
330
1E
100
AcDbEntity
  8
DETAIL
100
AcDbLine
 10
385.4995930000005
 20
46.49845449999928
 30
0.0
 11
373.9998649999998
 21
46.49845449999928
 31
0.0
  0
LINE
  5
D9346
330
1E
100
AcDbEntity
  8
DETAIL
100
AcDbLine
 10
370.999186
 20
49.49913249999962
 30
0.0
 11
370.999186
 21
50.49820949999958
 31
0.0
  0
LINE
  5
D9349
330
1E
100
AcDbEntity
  8
DETAIL
100
AcDbLine
 10
397.4999998414225
 20
27.69856802955037
 30
0.0
 11
390.0832929999997
 21
27.69856849999952
 31
0.0
  0
LINE
  5
D934A
330
1E
100
AcDbEntity
  8
DETAIL
100
AcDbLine
 10
386.5003940000006
 20
32.44246449999946
 30
0.0
 11
386.5003940000006
 21
45.49937649999946
 31
0.0
  0
LINE
  5
D934C
330
1E
100
AcDbEntity
  8
DETAIL
100
AcDbLine
 10
387.3724949137121
 20
30.32668358628689
 30
0.0
 11
390.0832929999997
 21
27.69856849999952
 31
0.0
  0
LINE
  5
D9350
330
1E
100
AcDbEntity
  8
DETAIL
100
AcDbLine
 10
400.0
 20
30.19856802955037
 30
0.0
 11
400.0
 21
687.4998104999995
 31
0.0
  0
LINE
  5
D9359
330
1E
100
AcDbEntity
  8
DETAIL
100
AcDbLine
 10
362.8773739999997
 20
51.50073249999923
 30
0.0
 11
362.8773739999997
 21
684.9986714999994
 31
0.0
  0
SPLINE
  5
D9360
330
1E
100
AcDbEntity
  8
DETAIL
100
AcDbSpline
210
0.0
220
0.0
230
1.0
 70
     8
 71
     3
 72
     8
 73
     4
 74
     0
 42
0.00000001
 43
0.0000000001
 40
0.0
 40
0.0
 40
0.0
 40
0.0
 40
1.0
 40
1.0
 40
1.0
 40
1.0
 10
370.9991864470485
 20
49.49913226562467
 30
0.0
 10
370.9991864470485
 20
47.84204133680487
 30
0.0
 10
372.3427736866324
 20
46.49845409722138
 30
0.0
 10
373.9998646154518
 20
46.49845409722138
 30
0.0
  0
SPLINE
  5
D9361
330
1E
100
AcDbEntity
  8
DETAIL
100
AcDbSpline
210
0.0
220
0.0
230
1.0
 70
     8
 71
     3
 72
     8
 73
     4
 74
     0
 42
0.00000001
 43
0.0000000001
 40
0.0
 40
0.0
 40
0.0
 40
0.0
 40
1.0
 40
1.0
 40
1.0
 40
1.0
 10
386.5003935868062
 20
32.44246451388836
 30
0.0
 10
386.5003935868062
 20
31.64664745659639
 30
0.0
 10
386.8156198237848
 20
30.88183625867988
 30
0.0
 10
387.3788929357642
 20
30.32028569444401
 30
0.0
  0
SPLINE
  5
D9362
330
1E
100
AcDbEntity
  8
DETAIL
100
AcDbSpline
210
0.0
220
0.0
230
1.0
 70
     8
 71
     3
 72
     8
 73
     4
 74
     0
 42
0.00000001
 43
0.0000000001
 40
0.0
 40
0.0
 40
0.0
 40
0.0
 40
1.0
 40
1.0
 40
1.0
 40
1.0
 10
370.9991864470485
 20
50.49820995659638
 30
0.0
 10
370.9991864470485
 20
51.05287032986052
 30
0.0
 10
370.5513240338541
 20
51.50073274305487
 30
0.0
 10
370.0001087560768
 20
51.50073274305487
 30
0.0
  0
SPLINE
  5
D9363
330
1E
100
AcDbEntity
  8
DETAIL
100
AcDbSpline
210
0.0
220
0.0
230
1.0
 70
     8
 71
     3
 72
     8
 73
     4
 74
     0
 42
0.00000001
 43
0.0000000001
 40
0.0
 40
0.0
 40
0.0
 40
0.0
 40
1.0
 40
1.0
 40
1.0
 40
1.0
 10
386.5003935868062
 20
45.49937640624967
 30
0.0
 10
386.5003935868062
 20
46.05059168402704
 30
0.0
 10
386.052531173611
 20
46.49845409722138
 30
0.0
 10
385.4995933480905
 20
46.49845409722138
 30
0.0
  0
LINE
  5
D9372
330
1E
100
AcDbEntity
  8
DETAIL
100
AcDbLine
 10
-314.5007459999999
 20
585.8005914999994
 30
0.0
 11
-314.5007459999999
 21
681.329644499999
 31
0.0
  0
LINE
  5
D9373
330
1E
100
AcDbEntity
  8
DETAIL
100
AcDbLine
 10
-317.4997009999998
 20
585.8005914999994
 30
0.0
 11
-317.4997009999998
 21
681.329644499999
 31
0.0
  0
LINE
  5
D9374
330
1E
100
AcDbEntity
  8
DETAIL
100
AcDbLine
 10
-321.3065319999996
 20
687.4998104999995
 30
0.0
 11
-321.3065319999996
 21
52.4998104999995
 31
0.0
  0
LINE
  5
D9376
330
1E
100
AcDbEntity
  8
DETAIL
100
AcDbLine
 10
-314.5007459999999
 20
228.0480964999993
 30
0.0
 11
-314.5007459999999
 21
555.8007004999995
 31
0.0
  0
LINE
  5
D9377
330
1E
100
AcDbEntity
  8
DETAIL
100
AcDbLine
 10
-317.4997009999998
 20
228.0480964999993
 30
0.0
 11
-317.4997009999998
 21
555.8007004999995
 31
0.0
  0
LINE
  5
D9378
330
1E
100
AcDbEntity
  8
DETAIL
100
AcDbLine
 10
-323.8972439999998
 20
52.4998104999995
 30
0.0
 11
-309.999728
 21
52.4998104999995
 31
0.0
  0
LINE
  5
D9379
330
1E
100
AcDbEntity
  8
DETAIL
100
AcDbLine
 10
-324.2228049999994
 20
33.50010949999933
 30
0.0
 11
-324.2228049999994
 21
52.0002714999996
 31
0.0
  0
LINE
  5
D937E
330
1E
100
AcDbEntity
  8
DETAIL
100
AcDbLine
 10
-326.2502439999999
 20
31.49850849999939
 30
0.0
 11
-326.2502439999999
 21
685.5007327430553
 31
0.0
  0
LINE
  5
D9380
330
1E
100
AcDbEntity
  8
DETAIL
100
AcDbLine
 10
-328.65492
 20
31.49850849999939
 30
0.0
 11
-325.5284959999999
 21
31.49850849999939
 31
0.0
  0
SPLINE
  5
D939B
330
1E
100
AcDbEntity
  8
DETAIL
100
AcDbSpline
210
0.0
220
0.0
230
1.0
 70
     8
 71
     3
 72
     8
 73
     4
 74
     0
 42
0.00000001
 43
0.0000000001
 40
0.0
 40
0.0
 40
0.0
 40
0.0
 40
1.0
 40
1.0
 40
1.0
 40
1.0
 10
-400.0011254419487
 20
581.8008360928811
 30
0.0
 10
-401.1052785452474
 20
581.8008360928811
 30
0.0
 10
-401.999280823893
 20
580.9051112664922
 30
0.0
 10
-401.999280823893
 20
579.7992356154502
 30
0.0
  0
SPLINE
  5
D939D
330
1E
100
AcDbEntity
  8
DETAIL
100
AcDbSpline
210
0.0
220
0.0
230
1.0
 70
     8
 71
     3
 72
     8
 73
     4
 74
     0
 42
0.00000001
 43
0.0000000001
 40
0.0
 40
0.0
 40
0.0
 40
0.0
 40
1.0
 40
1.0
 40
1.0
 40
1.0
 10
-328.6549204723306
 20
31.4985086189231
 30
0.0
 10
-328.9305281112192
 20
31.4985086189231
 30
0.0
 10
-329.1544593178169
 20
31.27457741232593
 30
0.0
 10
-329.1544593178169
 20
30.99896977343679
 30
0.0
  0
SPLINE
  5
D93C3
330
1E
100
AcDbEntity
  8
DETAIL
100
AcDbSpline
210
0.0
220
0.0
230
1.0
 70
     8
 71
     3
 72
     8
 73
     4
 74
     0
 42
0.00000001
 43
0.0000000001
 40
0.0
 40
0.0
 40
0.0
 40
0.0
 40
1.0
 40
1.0
 40
1.0
 40
1.0
 10
-323.8972436060112
 20
52.49981070225612
 30
0.0
 10
-324.2641462752818
 20
52.29655006857592
 30
0.0
 10
-323.8025034801431
 20
52.58938318489525
 30
0.0
 10
-324.1280650035806
 20
52.35167159635375
 30
0.0
  0
SPLINE
  5
D93C4
330
1E
100
AcDbEntity
  8
DETAIL
100
AcDbSpline
210
0.0
220
0.0
230
1.0
 70
     8
 71
     3
 72
     8
 73
     4
 74
     0
 42
0.00000001
 43
0.0000000001
 40
1.0
 40
1.0
 40
1.0
 40
1.0
 40
2.0
 40
2.0
 40
2.0
 40
2.0
 10
-324.1280650035806
 20
52.35167159635375
 30
0.0
 10
-324.3089325166021
 20
51.85213275086743
 30
0.0
 10
-324.1177297171225
 20
52.55837732552027
 30
0.0
 10
-324.2228051294487
 20
52.00027185677027
 30
0.0
  0
LINE
  5
D93D8
330
1E
100
AcDbEntity
  8
DETAIL
100
AcDbLine
 10
-439.7635076424489
 20
47.16274656604677
 30
0.0
 11
-402.3716112059585
 21
37.14508921173861
 31
0.0
  0
LINE
  5
D93D9
330
1E
100
AcDbEntity
  8
DETAIL
100
AcDbLine
 10
-423.2951386223957
 20
253.9758844704857
 30
0.0
 11
-402.0009028825236
 21
258.8649926869371
 31
0.0
  0
LINE
  5
D93DA
330
1E
100
AcDbEntity
  8
DETAIL
100
AcDbLine
 10
-429.32918006396
 20
557.0940729427084
 30
0.0
 11
-402.2972819999997
 21
569.1297744999991
 31
0.0
  0
LINE
  5
D93DC
330
1E
100
AcDbEntity
  8
DETAIL
100
AcDbLine
 10
-405.239393
 20
525.9780697188944
 30
0.0
 11
-405.239393
 21
539.3548195608077
 31
0.0
  0
LINE
  5
D93E7
330
1E
100
AcDbEntity
  8
DETAIL
100
AcDbLine
 10
-410.1385540011851
 20
543.252448262204
 30
0.0
 11
-427.3962899988147
 21
539.2711857134496
 31
0.0
  0
LINE
  5
D93E9
330
1E
100
AcDbEntity
  8
DETAIL
100
AcDbLine
 10
-429.6654055895131
 20
512.0406763007975
 30
0.0
 11
-407.5490444104865
 21
522.3527805378868
 31
0.0
  0
LINE
  5
D93EA
330
1E
100
AcDbEntity
  8
DETAIL
100
AcDbLine
 10
-402.0000618271293
 20
425.2350264999995
 30
0.0
 11
-421.9084879999998
 21
425.2350264999995
 31
0.0
  0
LINE
  5
D93EC
330
1E
100
AcDbEntity
  8
DETAIL
100
AcDbLine
 10
-431.0379907274309
 20
335.34903985243
 30
0.0
 11
-416.144843
 21
309.5556094999993
 31
0.0
  0
LINE
  5
D93EF
330
1E
100
AcDbEntity
  8
DETAIL
100
AcDbLine
 10
-402.000783152106
 20
282.5543901130822
 30
0.0
 11
-423.5936673643191
 21
276.6317493243578
 31
0.0
  0
LINE
  5
D93F1
330
1E
100
AcDbEntity
  8
DETAIL
100
AcDbLine
 10
-429.9458954583331
 20
283.9930014409715
 30
0.0
 11
-416.9740124089915
 21
287.714243009837
 31
0.0
  0
LINE
  5
D93F2
330
1E
100
AcDbEntity
  8
DETAIL
100
AcDbLine
 10
-414.8012559999997
 20
304.5464414999992
 30
0.0
 11
-414.8012559999997
 21
290.597933014178
 31
0.0
  0
LINE
  5
D93F3
330
1E
100
AcDbEntity
  8
DETAIL
100
AcDbLine
 10
-428.3611519999992
 20
415.9332684999993
 30
0.0
 11
-428.3611519999992
 21
408.8329264999991
 31
0.0
  0
LINE
  5
D93F7
330
1E
100
AcDbEntity
  8
DETAIL
100
AcDbLine
 10
-432.2954509999998
 20
552.5263660678746
 30
0.0
 11
-432.2954509999998
 21
543.1688144148457
 31
0.0
  0
LINE
  5
D93F8
330
1E
100
AcDbEntity
  8
DETAIL
100
AcDbLine
 10
-431.9750569999991
 20
281.3023814999992
 30
0.0
 11
-431.9750569999991
 21
234.6213384999992
 31
0.0
  0
LINE
  5
D93F9
330
1E
100
AcDbEntity
  8
DETAIL
100
AcDbLine
 10
-431.9750569999991
 20
508.4153871197901
 30
0.0
 11
-431.9750569999991
 21
393.3403324999995
 31
0.0
  0
LINE
  5
D93FA
330
1E
100
AcDbEntity
  8
DETAIL
100
AcDbLine
 10
-431.9750569999991
 20
340.0343694999993
 30
0.0
 11
-431.9750569999991
 21
338.8492564999992
 31
0.0
  0
LINE
  5
D93FB
330
1E
100
AcDbEntity
  8
DETAIL
100
AcDbLine
 10
-431.9750569999991
 20
349.5324974999995
 30
0.0
 11
-431.9750569999991
 21
345.8393554999994
 31
0.0
  0
LINE
  5
D93FC
330
1E
100
AcDbEntity
  8
DETAIL
100
AcDbLine
 10
-431.9750569999991
 20
359.0340714999993
 30
0.0
 11
-431.9750569999991
 21
355.3409284999994
 31
0.0
  0
LINE
  5
D93FD
330
1E
100
AcDbEntity
  8
DETAIL
100
AcDbLine
 10
-431.9750569999991
 20
368.5321994999995
 30
0.0
 11
-431.9750569999991
 21
364.8425024999992
 31
0.0
  0
LINE
  5
D93FE
330
1E
100
AcDbEntity
  8
DETAIL
100
AcDbLine
 10
-431.9750569999991
 20
378.0337724999995
 30
0.0
 11
-431.9750569999991
 21
374.3406304999995
 31
0.0
  0
LINE
  5
D93FF
330
1E
100
AcDbEntity
  8
DETAIL
100
AcDbLine
 10
-431.9750569999991
 20
387.5319014999995
 30
0.0
 11
-431.9750569999991
 21
383.8387584999992
 31
0.0
  0
LINE
  5
D9404
330
1E
100
AcDbEntity
  8
DETAIL
100
AcDbLine
 10
-455.7460303533786
 20
216.9226567250189
 30
0.0
 11
-402.3127845642354
 21
238.5108508333328
 31
0.0
  0
LINE
  5
D9405
330
1E
100
AcDbEntity
  8
DETAIL
100
AcDbLine
 10
-462.0
 20
207.650803803862
 30
0.0
 11
-462.0
 21
76.14080635419748
 31
0.0
  0
LINE
  5
D9407
330
1E
100
AcDbEntity
  8
DETAIL
100
AcDbLine
 10
-402.0010029999991
 20
36.66212154860277
 30
0.0
 11
-402.0010029999991
 21
29.10836112266036
 31
0.0
  0
SPLINE
  5
D9409
330
1E
100
AcDbEntity
  8
DETAIL
100
AcDbSpline
210
0.0
220
0.0
230
1.0
 70
     8
 71
     3
 72
     8
 73
     4
 74
     0
 42
0.00000001
 43
0.0000000001
 40
0.0
 40
0.0
 40
0.0
 40
0.0
 40
1.0
 40
1.0
 40
1.0
 40
1.0
 10
-402.3127845642354
 20
238.5108508333328
 30
0.0
 10
-402.1250268602432
 20
238.5866429340272
 30
0.0
 10
-402.0010034227434
 20
238.7692329947909
 30
0.0
 10
-402.0010034227434
 20
238.9724936284715
 30
0.0
  0
SPLINE
  5
D940B
330
1E
100
AcDbEntity
  8
DETAIL
100
AcDbSpline
210
0.0
220
0.0
230
1.0
 70
     8
 71
     3
 72
     8
 73
     4
 74
     0
 42
0.00000001
 43
0.0000000001
 40
0.0
 40
0.0
 40
0.0
 40
0.0
 40
1.0
 40
1.0
 40
1.0
 40
1.0
 10
-402.2972816345482
 20
569.1297744444432
 30
0.0
 10
-402.1164141215276
 20
569.2090116406242
 30
0.0
 10
-402.0010034227434
 20
569.388156605902
 30
0.0
 10
-401.9993324508686
 20
569.5845270486102
 30
0.0
  0
SPLINE
  5
D9411
330
1E
100
AcDbEntity
  8
DETAIL
100
AcDbSpline
210
0.0
220
0.0
230
1.0
 70
     8
 71
     3
 72
     8
 73
     4
 74
     0
 42
0.00000001
 43
0.0000000001
 40
0.0
 40
0.0
 40
0.0
 40
0.0
 40
1.0
 40
1.0
 40
1.0
 40
1.0
 10
-414.8012557013887
 20
304.5464411111106
 30
0.0
 10
-414.8012557013887
 20
306.306884904513
 30
0.0
 10
-415.2628984965276
 20
308.032877743055
 30
0.0
 10
-416.144842940972
 20
309.5556099479158
 30
0.0
  0
SPLINE
  5
D9413
330
1E
100
AcDbEntity
  8
DETAIL
100
AcDbSpline
210
0.0
220
0.0
230
1.0
 70
     8
 71
     3
 72
     8
 73
     4
 74
     0
 42
0.00000001
 43
0.0000000001
 40
0.0
 40
0.0
 40
0.0
 40
0.0
 40
1.0
 40
1.0
 40
1.0
 40
1.0
 10
-431.9750566996527
 20
338.8492568663187
 30
0.0
 10
-431.9750566996527
 20
337.622802873263
 30
0.0
 10
-431.6512177239582
 20
336.413574357638
 30
0.0
 10
-431.0379907274309
 20
335.34903985243
 30
0.0
  0
SPLINE
  5
D9415
330
1E
100
AcDbEntity
  8
DETAIL
100
AcDbSpline
210
0.0
220
0.0
230
1.0
 70
     8
 71
     3
 72
     8
 73
     4
 74
     0
 42
0.00000001
 43
0.0000000001
 40
0.0
 40
0.0
 40
0.0
 40
0.0
 40
1.0
 40
1.0
 40
1.0
 40
1.0
 10
-429.9458954583331
 20
283.9930014409715
 30
0.0
 10
-431.1482337829857
 20
283.6484918923606
 30
0.0
 10
-431.9750566996527
 20
282.5495064322908
 30
0.0
 10
-431.9750566996527
 20
281.3023818663186
 30
0.0
  0
SPLINE
  5
D9418
330
1E
100
AcDbEntity
  8
DETAIL
100
AcDbSpline
210
0.0
220
0.0
230
1.0
 70
     8
 71
     3
 72
     8
 73
     4
 74
     0
 42
0.00000001
 43
0.0000000001
 40
0.0
 40
0.0
 40
0.0
 40
0.0
 40
1.0
 40
1.0
 40
1.0
 40
1.0
 10
-439.4801972161458
 20
223.4936796093744
 30
0.0
 10
-434.9481741041663
 20
225.3264704079857
 30
0.0
 10
-431.978501795139
 20
229.722412248263
 30
0.0
 10
-431.9750566996527
 20
234.611002743055
 30
0.0
  0
LINE
  5
D941F
330
1E
100
AcDbEntity
  8
DETAIL
100
AcDbLine
 10
-302.5807150000001
 20
658.0683604999992
 30
0.0
 11
-305.9999729999999
 21
658.4714364999994
 31
0.0
  0
LINE
  5
D9420
330
1E
100
AcDbEntity
  8
DETAIL
100
AcDbLine
 10
-299.3352823111916
 20
670.2746141704657
 30
0.0
 11
-303.5642023412747
 21
670.0417382851941
 31
0.0
  0
LINE
  5
D9422
330
1E
100
AcDbEntity
  8
DETAIL
100
AcDbLine
 10
-303.4767973417184
 20
660.6229070633848
 30
0.0
 11
-299.4128893669862
 21
660.2400751098412
 31
0.0
  0
LINE
  5
D9423
330
1E
100
AcDbEntity
  8
DETAIL
100
AcDbLine
 10
-305.9999729999999
 20
640.481147499999
 30
0.0
 11
-303.4540469999992
 21
640.3605694999987
 31
0.0
  0
ARC
  5
D9424
330
1E
100
AcDbEntity
  8
DETAIL
100
AcDbCircle
 10
-300.4599185443713
 20
639.8782317979652
 30
0.0
 40
2.994130464875891
100
AcDbArc
 50
179.9336227884103
 51
269.1034538826106
  0
LINE
  5
D942F
330
1E
100
AcDbEntity
  8
DETAIL
100
AcDbLine
 10
-300.5067678327905
 20
636.8844678819432
 30
0.0
 11
-276.4944522945961
 21
636.8844678819432
 31
0.0
  0
LINE
  5
D9430
330
1E
100
AcDbEntity
  8
DETAIL
100
AcDbLine
 10
-274.4205051273866
 20
658.0683604999998
 30
0.0
 11
-274.4205051273866
 21
660.5384934999997
 31
0.0
  0
LINE
  5
D9431
330
1E
100
AcDbEntity
  8
DETAIL
100
AcDbLine
 10
-271.001247127387
 20
658.4714364999994
 30
0.0
 11
-271.001247127387
 21
640.4811474999992
 31
0.0
  0
LINE
  5
D9432
330
1E
100
AcDbEntity
  8
DETAIL
100
AcDbLine
 10
-273.5471731273867
 20
658.1713124179982
 30
0.0
 11
-273.2750101273869
 21
687.4998104999995
 31
0.0
  0
LINE
  5
D9433
330
1E
100
AcDbEntity
  8
DETAIL
100
AcDbLine
 10
-273.5471731273867
 20
639.8817004999995
 30
0.0
 11
-273.5471731273867
 21
640.3605694999994
 31
0.0
  0
LINE
  5
D9434
330
1E
100
AcDbEntity
  8
DETAIL
100
AcDbLine
 10
-279.7759061273866
 20
662.2312595517501
 30
0.0
 11
-279.7759061273866
 21
668.2776397163146
 31
0.0
  0
LINE
  5
D9439
330
1E
100
AcDbEntity
  8
DETAIL
100
AcDbLine
 10
-276.2756891273866
 20
684.0547144999995
 30
0.0
 11
-279.9791661273866
 21
684.0512694999992
 31
0.0
  0
LINE
  5
D943A
330
1E
100
AcDbEntity
  8
DETAIL
100
AcDbLine
 10
-279.9791661273866
 20
687.4998104999997
 30
0.0
 11
-279.9791661273866
 21
684.0512694999992
 31
0.0
  0
SPLINE
  5
D943B
330
1E
100
AcDbEntity
  8
DETAIL
100
AcDbSpline
210
0.0
220
0.0
230
1.0
 70
     8
 71
     3
 72
     8
 73
     4
 74
     0
 42
0.00000001
 43
0.0000000001
 40
0.0
 40
0.0
 40
0.0
 40
0.0
 40
1.0
 40
1.0
 40
1.0
 40
1.0
 10
-276.275688731228
 20
684.0547146597217
 30
0.0
 10
-274.6185978024087
 20
684.0547146597217
 30
0.0
 10
-273.2750105628256
 20
682.7111274201382
 30
0.0
 10
-273.3352227595205
 20
681.0112500930249
 30
0.0
  0
LINE
  5
D943C
330
1E
100
AcDbEntity
  8
DETAIL
100
AcDbLine
 10
-274.4205051273866
 20
658.0683604999998
 30
0.0
 11
-271.001247127387
 21
658.4714364999994
 31
0.0
  0
LINE
  5
D943D
330
1E
100
AcDbEntity
  8
DETAIL
100
AcDbLine
 10
-277.6659378161942
 20
670.2746141704657
 30
0.0
 11
-273.4370177861129
 21
670.0417382851941
 31
0.0
  0
LINE
  5
D943F
330
1E
100
AcDbEntity
  8
DETAIL
100
AcDbLine
 10
-273.5244227856677
 20
660.6229070633848
 30
0.0
 11
-277.5883307604
 21
660.2400751098415
 31
0.0
  0
LINE
  5
D9440
330
1E
100
AcDbEntity
  8
DETAIL
100
AcDbLine
 10
-271.001247127387
 20
640.4811474999992
 30
0.0
 11
-273.5471731273867
 21
640.3605694999994
 31
0.0
  0
ARC
  5
D9441
330
1E
100
AcDbEntity
  8
DETAIL
100
AcDbCircle
 10
-276.5413015830154
 20
639.8782317979652
 30
0.0
 40
2.994130464875891
100
AcDbArc
 50
270.8965461173893
 51
0.066377211589673
  0
LINE
  5
D9442
330
1E
100
AcDbEntity
  8
DETAIL
100
AcDbLine
 10
362.8773739999997
 20
684.9986714999994
 30
0.0
 11
400.0000002491323
 21
684.9986711111105
 31
0.0
  0
LINE
  5
D9443
330
1E
100
AcDbEntity
  8
DETAIL
100
AcDbLine
 10
374.7061091901041
 20
51.93136967881901
 30
0.0
 11
374.7061091901041
 21
678.0292429427077
 31
0.0
  0
LINE
  5
D9444
330
1E
100
AcDbEntity
  8
DETAIL
100
AcDbLine
 10
377.236531824653
 20
678.0292429427077
 30
0.0
 11
377.236531824653
 21
51.93136967881901
 31
0.0
  0
LINE
  5
D9445
330
1E
100
AcDbEntity
  8
DETAIL
100
AcDbLine
 10
375.572550704861
 20
51.13210752604118
 30
0.0
 11
376.3700903098961
 21
51.13210752604118
 31
0.0
  0
ARC
  5
D9446
330
1E
100
AcDbEntity
  8
DETAIL
100
AcDbCircle
 10
375.5143499745482
 20
51.93827970935718
 30
0.0
 40
0.8082703224548584
100
AcDbArc
 50
180.4898366278061
 51
274.1292430610101
  0
ARC
  5
D9447
330
1E
100
AcDbEntity
  8
DETAIL
100
AcDbCircle
 10
376.347612716705
 20
52.0257391850514
 30
0.0
 40
0.893914304719455
100
AcDbArc
 50
271.4408618037232
 51
353.9400585075575
  0
LINE
  5
D9448
330
1E
100
AcDbEntity
  8
DETAIL
100
AcDbLine
 10
375.572550704861
 20
678.8285050954854
 30
0.0
 11
376.3700903098961
 21
678.8285050954854
 31
0.0
  0
ARC
  5
D9449
330
1E
100
AcDbEntity
  8
DETAIL
100
AcDbCircle
 10
375.5143499745482
 20
678.0223329121695
 30
0.0
 40
0.8082703224548584
100
AcDbArc
 50
85.87075693898983
 51
179.510163372246
  0
ARC
  5
D944A
330
1E
100
AcDbEntity
  8
DETAIL
100
AcDbCircle
 10
376.347612716705
 20
677.9348734364751
 30
0.0
 40
0.893914304719455
100
AcDbArc
 50
6.059941492442548
 51
88.55913819627678
  0
LINE
  5
D9571
330
1E
100
AcDbEntity
  8
DETAIL
100
AcDbLine
 10
-397.4999999835007
 20
27.69856802951327
 30
0.0
 11
-329.1544589999994
 21
27.69856849999952
 31
0.0
  0
LINE
  5
D9572
330
1E
100
AcDbEntity
  8
DETAIL
100
AcDbLine
 10
-329.1544593178169
 20
30.99896977343679
 30
0.0
 11
-329.1544589999994
 21
27.69856849999952
 31
0.0
  0
ARC
  5
D9573
330
1E
100
AcDbEntity
  8
DETAIL
100
AcDbCircle
 10
-325.9678934886961
 20
33.21180473912818
 30
0.0
 40
1.76874347165508
100
AcDbArc
 50
284.3842334747137
 51
9.381056107407372
  0
ARC
  5
D9575
330
1E
100
AcDbEntity
  8
DETAIL
100
AcDbCircle
 10
-223.9379689481923
 20
40.017891835751
 30
0.0
 40
3.684392406022582
100
AcDbArc
 50
114.3795094317624
 51
171.2278864460559
  0
LINE
  5
D9576
330
1E
100
AcDbEntity
  8
DETAIL
100
AcDbLine
 10
-227.5792639921876
 20
40.57977946961726
 30
0.0
 11
-235.7062439999999
 21
47.09790049999947
 31
0.0
  0
LINE
  5
D9577
330
1E
100
AcDbEntity
  8
DETAIL
100
AcDbLine
 10
-225.4588077204862
 20
43.37375190885359
 30
0.0
 11
-235.7062428238187
 21
47.09789955666153
 31
0.0
  0
ARC
  5
D9578
330
1E
100
AcDbEntity
  8
DETAIL
100
AcDbCircle
 10
-175.8915152655991
 20
39.95107315149926
 30
0.0
 40
3.89782762658299
100
AcDbArc
 50
11.49615360516416
 51
64.18375161182453
  0
LINE
  5
D9579
330
1E
100
AcDbEntity
  8
DETAIL
100
AcDbLine
 10
-164.2945820000004
 20
47.09790049999947
 30
0.0
 11
-174.19406433941
 21
43.4598792960064
 31
0.0
  0
LINE
  5
D957A
330
1E
100
AcDbEntity
  8
DETAIL
100
AcDbLine
 10
-164.2945820000004
 20
47.09790049999947
 30
0.0
 11
-172.0718855199646
 21
40.72791857552011
 31
0.0
  0
LINE
  5
D957B
330
1E
100
AcDbEntity
  8
DETAIL
100
AcDbLine
 10
-174.1940643394091
 20
43.4598792960064
 30
0.0
 11
-174.5437415312499
 21
43.37375190885359
 31
0.0
  0
ARC
  5
D957C
330
1E
100
AcDbEntity
  8
DETAIL
100
AcDbCircle
 10
225.856174724765
 20
39.97795714738504
 30
0.0
 40
3.858604132431138
100
AcDbArc
 50
115.5274811539481
 51
168.7926136290895
  0
LINE
  5
D957D
330
1E
100
AcDbEntity
  8
DETAIL
100
AcDbLine
 10
214.2938510000004
 20
47.09790049999947
 30
0.0
 11
224.1933325789933
 21
43.4598792960064
 31
0.0
  0
LINE
  5
D957E
330
1E
100
AcDbEntity
  8
DETAIL
100
AcDbLine
 10
214.2938510000004
 20
47.09790049999947
 30
0.0
 11
222.0711540000002
 21
40.72791849999929
 31
0.0
  0
LINE
  5
D957F
330
1E
100
AcDbEntity
  8
DETAIL
100
AcDbLine
 10
222.0711540000002
 20
40.72791849999929
 30
0.0
 11
222.4208310000004
 21
40.5797794999994
 31
0.0
  0
LINE
  5
D9580
330
1E
100
AcDbEntity
  8
DETAIL
100
AcDbLine
 10
224.1933325789923
 20
43.4598792960064
 30
0.0
 11
224.5430097708331
 21
43.37375190885359
 31
0.0
  0
ARC
  5
D9582
330
1E
100
AcDbEntity
  8
DETAIL
100
AcDbCircle
 10
274.1431884583954
 20
39.97795714738458
 30
0.0
 40
3.858604132431471
100
AcDbArc
 50
11.20738637096249
 51
64.47251884605188
  0
LINE
  5
D9583
330
1E
100
AcDbEntity
  8
DETAIL
100
AcDbLine
 10
275.4563534123263
 20
43.37375190885359
 30
0.0
 11
275.8060306041662
 21
43.4598792960064
 31
0.0
  0
LINE
  5
D9584
330
1E
100
AcDbEntity
  8
DETAIL
100
AcDbLine
 10
277.5785322317706
 20
40.57977946961726
 30
0.0
 11
277.9282094236114
 21
40.72791857552011
 31
0.0
  0
LINE
  5
D9587
330
1E
100
AcDbEntity
  8
DETAIL
100
AcDbLine
 10
389.4011644383681
 20
28.29801406163142
 30
0.0
 11
-329.1544590577241
 21
28.29801406163142
 31
0.0
  0
ARC
  5
D9588
330
1E
100
AcDbEntity
  8
DETAIL
100
AcDbCircle
 10
389.1713012139535
 20
26.92236820041626
 30
0.0
 40
6.37510970911383
100
AcDbArc
 50
291.8463689901604
 51
6.993272741167254
  0
ARC
  5
D9589
330
1E
100
AcDbEntity
  8
DETAIL
100
AcDbCircle
 10
381.4647310952572
 20
53.88343190173722
 30
0.0
 40
34.38850364605399
100
AcDbArc
 50
269.0926241661135
 51
287.0429428605713
  0
LINE
  5
D958A
330
1E
100
AcDbEntity
  8
DETAIL
100
AcDbLine
 10
-398.173533361448
 20
27.79100643902929
 30
0.0
 11
-401.6183878787772
 21
28.62233561897326
 31
0.0
  0
ARC
  5
D958F
330
1E
100
AcDbEntity
  8
DETAIL
100
AcDbCircle
 10
-434.4889862065508
 20
391.307446356694
 30
0.0
 40
6.579795778296757
100
AcDbArc
 50
334.1443411827229
 51
26.06126546087793
  0
LINE
  5
D9590
330
1E
100
AcDbEntity
  8
DETAIL
100
AcDbLine
 10
-431.9750569999991
 20
393.3403324999995
 30
0.0
 11
-428.578192550347
 21
394.1981609461801
 31
0.0
  0
LINE
  5
D9591
330
1E
100
AcDbEntity
  8
DETAIL
100
AcDbLine
 10
-431.9750569999991
 20
387.5319014999995
 30
0.0
 11
-428.5678572638889
 21
388.4379612934021
 31
0.0
  0
ARC
  5
D9592
330
1E
100
AcDbEntity
  8
DETAIL
100
AcDbCircle
 10
-434.4889862065508
 20
381.8058723566937
 30
0.0
 40
6.579795778296757
100
AcDbArc
 50
334.1443411827229
 51
26.06126546087793
  0
LINE
  5
D9593
330
1E
100
AcDbEntity
  8
DETAIL
100
AcDbLine
 10
-431.9750569999991
 20
383.8387584999992
 30
0.0
 11
-428.578192550347
 21
384.6965869461797
 31
0.0
  0
LINE
  5
D9594
330
1E
100
AcDbEntity
  8
DETAIL
100
AcDbLine
 10
-431.9750569999991
 20
378.0303274999992
 30
0.0
 11
-428.5678572638889
 21
378.9363872934018
 31
0.0
  0
ARC
  5
D9595
330
1E
100
AcDbEntity
  8
DETAIL
100
AcDbCircle
 10
-434.4889862065508
 20
372.307744356694
 30
0.0
 40
6.579795778296757
100
AcDbArc
 50
334.1443411827229
 51
26.06126546087793
  0
LINE
  5
D9596
330
1E
100
AcDbEntity
  8
DETAIL
100
AcDbLine
 10
-431.9750569999991
 20
374.3406304999995
 30
0.0
 11
-428.578192550347
 21
375.19845894618
 31
0.0
  0
LINE
  5
D9597
330
1E
100
AcDbEntity
  8
DETAIL
100
AcDbLine
 10
-431.9750569999991
 20
368.5321994999995
 30
0.0
 11
-428.5678572638889
 21
369.4382592934021
 31
0.0
  0
ARC
  5
D9598
330
1E
100
AcDbEntity
  8
DETAIL
100
AcDbCircle
 10
-434.4889862065508
 20
362.8096163566938
 30
0.0
 40
6.579795778296757
100
AcDbArc
 50
334.1443411827229
 51
26.06126546087793
  0
LINE
  5
D9599
330
1E
100
AcDbEntity
  8
DETAIL
100
AcDbLine
 10
-431.9750569999991
 20
364.8425024999992
 30
0.0
 11
-428.578192550347
 21
365.7003309461796
 31
0.0
  0
LINE
  5
D959A
330
1E
100
AcDbEntity
  8
DETAIL
100
AcDbLine
 10
-431.9750569999991
 20
359.0340714999993
 30
0.0
 11
-428.5678572638889
 21
359.940131293402
 31
0.0
  0
ARC
  5
D959B
330
1E
100
AcDbEntity
  8
DETAIL
100
AcDbCircle
 10
-434.4889862065508
 20
353.3080423566939
 30
0.0
 40
6.579795778296757
100
AcDbArc
 50
334.1443411827229
 51
26.06126546087793
  0
LINE
  5
D959C
330
1E
100
AcDbEntity
  8
DETAIL
100
AcDbLine
 10
-431.9750569999991
 20
355.3409284999994
 30
0.0
 11
-428.578192550347
 21
356.1987569461798
 31
0.0
  0
LINE
  5
D959D
330
1E
100
AcDbEntity
  8
DETAIL
100
AcDbLine
 10
-431.9750569999991
 20
349.5324974999995
 30
0.0
 11
-428.5678572638889
 21
350.438557293402
 31
0.0
  0
ARC
  5
D959E
330
1E
100
AcDbEntity
  8
DETAIL
100
AcDbCircle
 10
-434.4889862065508
 20
343.806469356694
 30
0.0
 40
6.579795778296757
100
AcDbArc
 50
334.1443411827229
 51
26.06126546087793
  0
LINE
  5
D959F
330
1E
100
AcDbEntity
  8
DETAIL
100
AcDbLine
 10
-431.9750569999991
 20
345.8393554999994
 30
0.0
 11
-428.578192550347
 21
346.6971839461798
 31
0.0
  0
LINE
  5
D95A0
330
1E
100
AcDbEntity
  8
DETAIL
100
AcDbLine
 10
-431.9750569999991
 20
340.0309244999994
 30
0.0
 11
-428.5678572638889
 21
340.936984293402
 31
0.0
  0
ARC
  5
D95A1
330
1E
100
AcDbEntity
  8
DETAIL
100
AcDbCircle
 10
-421.7357818050295
 20
418.476644904018
 30
0.0
 40
6.760587934986224
100
AcDbArc
 50
91.46383905678469
 51
155.8859194121588
  0
LINE
  5
D95A2
330
1E
100
AcDbEntity
  8
DETAIL
100
AcDbLine
 10
-427.9063989305559
 20
421.2387154166655
 30
0.0
 11
-428.3611519999992
 21
415.9332684999993
 31
0.0
  0
ARC
  5
D95A3
330
1E
100
AcDbEntity
  8
DETAIL
100
AcDbCircle
 10
-424.787960245472
 20
403.3082973280833
 30
0.0
 40
3.025073046768937
100
AcDbArc
 50
187.1260102693005
 51
287.0745160332313
  0
LINE
  5
D95A4
330
1E
100
AcDbEntity
  8
DETAIL
100
AcDbLine
 10
-428.3611519999992
 20
408.8329264999991
 30
0.0
 11
-427.7896667958636
 21
402.9330311244049
 31
0.0
  0
LINE
  5
D95A5
330
1E
100
AcDbEntity
  8
DETAIL
100
AcDbLine
 10
-402.0010029999991
 20
406.1404554167149
 30
0.0
 11
-423.8997528802082
 21
400.4165582986101
 31
0.0
  0
ARC
  5
D95AA
330
1E
100
AcDbEntity
  8
DETAIL
100
AcDbCircle
 10
-420.9580788320653
 20
270.6527089225484
 30
0.0
 40
6.534160316201174
100
AcDbArc
 50
113.7881060001453
 51
182.1073491840584
  0
LINE
  5
D95AB
330
1E
100
AcDbEntity
  8
DETAIL
100
AcDbLine
 10
-427.4878200000001
 20
270.4124354999994
 30
0.0
 11
-427.4378659444446
 21
257.2039389409715
 31
0.0
  0
ARC
  5
D95AC
330
1E
100
AcDbEntity
  8
DETAIL
100
AcDbCircle
 10
-424.2553495340597
 20
257.0159108317763
 30
0.0
 40
3.188066070867975
100
AcDbArc
 50
176.6188051310292
 51
287.52904025878
  0
ARC
  5
D97E0
330
1E
100
AcDbEntity
  8
DETAIL
100
AcDbCircle
 10
-399.0000030986016
 20
685.5007327430553
 30
0.0
 40
1.0
100
AcDbArc
 50
90.0
 51
180.0003536179827
  0
LINE
  5
D97E4
330
1E
100
AcDbEntity
  8
DETAIL
100
AcDbLine
 10
-402.0010034227434
 20
238.9724936284715
 30
0.0
 11
-401.9992808238668
 21
579.7992459863267
 31
0.0
  0
LINE
  5
D97E5
330
1E
100
AcDbEntity
  8
DETAIL
100
AcDbLine
 10
-364.2559317577455
 20
44.91026534635375
 30
0.0
 11
-346.3658444089624
 21
44.91026534635375
 31
0.0
  0
LINE
  5
D97E6
330
1E
100
AcDbEntity
  8
DETAIL
100
AcDbLine
 10
-337.3658444089624
 20
53.91026534635376
 30
0.0
 11
-337.3658444089624
 21
661.2881136536453
 31
0.0
  0
LINE
  5
D97E7
330
1E
100
AcDbEntity
  8
DETAIL
100
AcDbLine
 10
-346.3658444089624
 20
670.2881136536452
 30
0.0
 11
-364.2895826519264
 21
670.2881136536452
 31
0.0
  0
LINE
  5
D97E8
330
1E
100
AcDbEntity
  8
DETAIL
100
AcDbLine
 10
-373.2895826381134
 20
661.2876150216192
 30
0.0
 11
-373.2559317439325
 21
53.9097667143276
 31
0.0
  0
ARC
  5
D97E9
330
1E
100
AcDbEntity
  8
DETAIL
100
AcDbCircle
 10
-364.2895826519264
 20
661.2881136536453
 30
0.0
 40
9.0
100
AcDbArc
 50
90.0
 51
180.0031743900716
  0
ARC
  5
D97EA
330
1E
100
AcDbEntity
  8
DETAIL
100
AcDbCircle
 10
-346.3658444089624
 20
53.91026534635376
 30
0.0
 40
9.0
100
AcDbArc
 50
270.0
 51
0.0
  0
ARC
  5
D97EB
330
1E
100
AcDbEntity
  8
DETAIL
100
AcDbCircle
 10
-364.2559317577455
 20
53.91026534635376
 30
0.0
 40
9.0
100
AcDbArc
 50
180.0031743900716
 51
270.0
  0
ARC
  5
D97EC
330
1E
100
AcDbEntity
  8
DETAIL
100
AcDbCircle
 10
-346.3658444089624
 20
661.2881136536453
 30
0.0
 40
9.0
100
AcDbArc
 50
0.0
 51
90.0
  0
ARC
  5
D97EF
330
1E
100
AcDbEntity
  8
DETAIL
100
AcDbCircle
 10
-299.2253139999994
 20
668.2776397163144
 30
0.0
 40
2.0
100
AcDbArc
 50
0.0
 51
93.15194961077756
  0
ARC
  5
D97F0
330
1E
100
AcDbEntity
  8
DETAIL
100
AcDbCircle
 10
-299.2253139999994
 20
662.23125955175
 30
0.0
 40
2.0
100
AcDbArc
 50
264.618452348629
 51
0.0
  0
ARC
  5
D97F1
330
1E
100
AcDbEntity
  8
DETAIL
100
AcDbCircle
 10
-277.7759061273866
 20
662.2312595517501
 30
0.0
 40
2.0
100
AcDbArc
 50
180.0
 51
275.3815476513647
  0
ARC
  5
D97F2
330
1E
100
AcDbEntity
  8
DETAIL
100
AcDbCircle
 10
-277.7759061273866
 20
668.2776397163146
 30
0.0
 40
2.0
100
AcDbArc
 50
86.84805038921776
 51
180.0
  0
ARC
  5
D97F4
330
1E
100
AcDbEntity
  8
DETAIL
100
AcDbCircle
 10
-378.2447818672341
 20
24.49924017909858
 30
0.0
 40
5.0
100
AcDbArc
 50
224.9999999999971
 51
270.0000001272481
  0
ARC
  5
D97F6
330
1E
100
AcDbEntity
  8
DETAIL
100
AcDbCircle
 10
-327.2502439999998
 20
685.5007327430553
 30
0.0
 40
1.0
100
AcDbArc
 50
0.0
 51
90.0
  0
ARC
  5
D97F7
330
1E
100
AcDbEntity
  8
DETAIL
100
AcDbCircle
 10
-427.2954509999998
 20
552.5263660678746
 30
0.0
 40
5.0
100
AcDbArc
 50
114.000575107904
 51
180.0
  0
ARC
  5
D97F8
330
1E
100
AcDbEntity
  8
DETAIL
100
AcDbCircle
 10
-428.2954509999998
 20
543.1688144148457
 30
0.0
 40
4.0
100
AcDbArc
 50
180.0
 51
282.9905444367438
  0
ARC
  5
D97F9
330
1E
100
AcDbEntity
  8
DETAIL
100
AcDbCircle
 10
-409.239393
 20
539.3548195608077
 30
0.0
 40
4.0
100
AcDbArc
 50
0.0
 51
102.9905444367436
  0
ARC
  5
D97FB
330
1E
100
AcDbEntity
  8
DETAIL
100
AcDbCircle
 10
-409.239393
 20
525.9780697188944
 30
0.0
 40
4.0
100
AcDbArc
 50
294.9980330000482
 51
0.0
  0
ARC
  5
D97FD
330
1E
100
AcDbEntity
  8
DETAIL
100
AcDbCircle
 10
-427.9750569999996
 20
508.4153871197901
 30
0.0
 40
4.0
100
AcDbArc
 50
114.998033000048
 51
180.0
  0
ARC
  5
D97FE
330
1E
100
AcDbEntity
  8
DETAIL
100
AcDbCircle
 10
-417.8012559999997
 20
290.597933014178
 30
0.0
 40
3.0
100
AcDbArc
 50
286.0065869033887
 51
0.0
  0
ARC
  5
D9800
330
1E
100
AcDbEntity
  8
DETAIL
100
AcDbCircle
 10
-402.5010029999994
 20
36.66212154860277
 30
0.0
 40
0.5
100
AcDbArc
 50
0.0
 51
75.00210319219707
  0
ARC
  5
D9801
330
1E
100
AcDbEntity
  8
DETAIL
100
AcDbCircle
 10
-401.5010029999992
 20
29.10836112266036
 30
0.0
 40
0.5
100
AcDbArc
 50
180.0
 51
256.4219488366998
  0
LINE
  5
D99E1
330
1E
100
AcDbEntity
  8
DETAIL
100
AcDbLine
 10
362.5026590000004
 20
714.0
 30
0.0
 11
-363.4973409999998
 21
714.0
 31
0.0
  0
LINE
  5
D99E2
330
1E
100
AcDbEntity
  8
DETAIL
100
AcDbLine
 10
-363.4973409999998
 20
712.4029299999993
 30
0.0
 11
-363.4973409999998
 21
714.0
 31
0.0
  0
LINE
  5
D99E3
330
1E
100
AcDbEntity
  8
DETAIL
100
AcDbLine
 10
362.5026590000004
 20
712.4029299999997
 30
0.0
 11
-363.4973409999998
 21
712.4029299999993
 31
0.0
  0
ARC
  5
D99E4
330
1E
100
AcDbEntity
  8
DETAIL
100
AcDbCircle
 10
-357.0438881327684
 20
593.5335693818313
 30
0.0
 40
119.044411660866
100
AcDbArc
 50
93.10755416457165
 51
108.6413125534287
  0
ARC
  5
D99E5
330
1E
100
AcDbEntity
  8
DETAIL
100
AcDbCircle
 10
-393.4973409999998
 20
701.5950037843484
 30
0.0
 40
5.0
100
AcDbArc
 50
108.6413125534287
 51
180.0
  0
LINE
  5
D99E6
330
1E
100
AcDbEntity
  8
DETAIL
100
AcDbLine
 10
362.5026590000004
 20
712.4029299999993
 30
0.0
 11
362.5026590000004
 21
714.0
 31
0.0
  0
ARC
  5
D99E7
330
1E
100
AcDbEntity
  8
DETAIL
100
AcDbCircle
 10
356.4294265124532
 20
596.3112885591421
 30
0.0
 40
116.2503908177535
100
AcDbArc
 50
67.90232762462578
 51
87.00535139951233
  0
ARC
  5
D99E8
330
1E
100
AcDbEntity
  8
DETAIL
100
AcDbCircle
 10
398.3
 20
699.3817255808074
 30
0.0
 40
5.0
100
AcDbArc
 50
0.0
 51
68.14532461742761
  0
LINE
  5
D99E9
330
1E
100
AcDbEntity
  8
DETAIL
100
AcDbLine
 10
424.1417497855421
 20
691.3278077825777
 30
0.0
 11
403.0190966380065
 21
701.034035152635
 31
0.0
  0
ARC
  5
D99EA
330
1E
100
AcDbEntity
  8
DETAIL
100
AcDbCircle
 10
423.2999999999998
 20
689.5135703949851
 30
0.0
 40
2.0
100
AcDbArc
 50
0.0
 51
65.11016454691158
  0
LINE
  5
D99EB
330
1E
100
AcDbEntity
  8
DETAIL
100
AcDbLine
 10
403.2999999999998
 20
687.5029299999995
 30
0.0
 11
403.2999999999998
 21
699.3817255808074
 31
0.0
  0
LINE
  5
D99EC
330
1E
100
AcDbEntity
  8
DETAIL
100
AcDbLine
 10
423.3000071427182
 20
687.5029298799139
 30
0.0
 11
-397.0823214221359
 21
687.5
 31
0.0
  0
ARC
  5
D99ED
330
1E
100
AcDbEntity
  8
DETAIL
100
AcDbCircle
 10
423.2999999999998
 20
689.5029298799013
 30
0.0
 40
2.0
100
AcDbArc
 50
270.000204623811
 51
0.0
  0
LINE
  5
D99EE
330
1E
100
AcDbEntity
  8
DETAIL
100
AcDbLine
 10
-398.4973409999998
 20
688.9976207523219
 30
0.0
 11
-398.4973409999998
 21
701.5950037843484
 31
0.0
  0
ARC
  5
D99EF
330
1E
100
AcDbEntity
  8
DETAIL
100
AcDbCircle
 10
-396.9973093433341
 20
688.9976207523219
 30
0.0
 40
1.500031656775254
100
AcDbArc
 50
180.0006926041663
 51
266.7511055479718
  0
LINE
  5
D99F1
330
1E
100
AcDbEntity
  8
DETAIL
100
AcDbLine
 10
425.2999999999998
 20
689.5135703949851
 30
0.0
 11
425.2999999999998
 21
689.5029298799013
 31
0.0
  0
ARC
  5
D99FF
330
1E
100
AcDbEntity
  8
DETAIL
100
AcDbCircle
 10
-397.7010488431857
 20
689.0079423678507
 30
0.0
 40
2.507211921563075
100
AcDbArc
 50
270.0678613195625
 51
323.026762035646
  0
ARC
  5
D9A07
330
1E
100
AcDbEntity
  8
DETAIL
100
AcDbCircle
 10
-316.0002234999998
 20
228.0480964999993
 30
0.0
 40
1.498616457670834
100
AcDbArc
 50
180.0
 51
0.0
  0
ARC
  5
D9A09
330
1E
100
AcDbEntity
  8
DETAIL
100
AcDbCircle
 10
-316.0002234999998
 20
585.8005914999994
 30
0.0
 40
1.499477499999954
100
AcDbArc
 50
180.0
 51
0.0
  0
ARC
  5
D9A0B
330
1E
100
AcDbEntity
  8
DETAIL
100
AcDbCircle
 10
-316.0002234999998
 20
555.8007004999995
 30
0.0
 40
1.499477499999954
100
AcDbArc
 50
0.0
 51
180.0
  0
ARC
  5
D9A0E
330
1E
100
AcDbEntity
  8
DETAIL
100
AcDbCircle
 10
-316.0002233338214
 20
681.2174593344607
 30
0.0
 40
1.503668455680715
100
AcDbArc
 50
355.721144148883
 51
184.2786861118483
  0
ARC
  5
D9A12
330
1E
100
AcDbEntity
  8
DETAIL
100
AcDbCircle
 10
233.7547250575089
 20
16.49924049999936
 30
0.0
 40
3.0
100
AcDbArc
 50
90.0
 51
175.0024274616301
  0
ARC
  5
D9A13
330
1E
100
AcDbEntity
  8
DETAIL
100
AcDbCircle
 10
266.2446389424922
 20
16.49924049999936
 30
0.0
 40
3.0
100
AcDbArc
 50
4.997572538363851
 51
90.0
  0
ARC
  5
D9A14
330
1E
100
AcDbEntity
  8
DETAIL
100
AcDbCircle
 10
-266.2466733657719
 20
16.48884142419612
 30
0.0
 40
3.0
100
AcDbArc
 50
89.99468023135809
 51
175.0024339818148
  0
ARC
  5
D9A15
330
1E
100
AcDbEntity
  8
DETAIL
100
AcDbCircle
 10
-233.754675827561
 20
16.48582462415286
 30
0.0
 40
3.0
100
AcDbArc
 50
4.997566018186806
 51
89.99468023135809
  0
ARC
  5
DA1C3
330
1E
100
AcDbEntity
  8
DETAIL
100
AcDbCircle
 10
397.5
 20
30.19856802955037
 30
0.0
 40
2.5
100
AcDbArc
 50
269.9999963656714
 51
0.0
  0
ARC
  5
DA911
330
1E
100
AcDbEntity
  8
DETAIL
100
AcDbCircle
 10
-397.5000000007105
 20
30.19856802951327
 30
0.0
 40
2.5
100
AcDbArc
 50
180.0000002708597
 51
270.0000003944205
  0
ARC
  5
DA95D
330
1E
100
AcDbEntity
  8
DETAIL
100
AcDbCircle
 10
-432.0
 20
76.1408063541975
 30
0.0
 40
30.0
100
AcDbArc
 50
180.0
 51
255.0021031921971
  0
ARC
  5
DA95E
330
1E
100
AcDbEntity
  8
DETAIL
100
AcDbCircle
 10
-452.0
 20
207.650803803862
 30
0.0
 40
10.0
100
AcDbArc
 50
111.9997801269984
 51
180.0
  0
DIMENSION
  5
DAA00
330
1E
100
AcDbEntity
  8
SIZE
100
AcDbDimension
280
     0
  2
*D13
 10
-400.0000000007105
 20
-269.5088854790601
 30
0.0
 11
-514.8717515511058
 21
-269.5088854790601
 31
0.0
 70
   160
 71
     5
 42
28.99999999928946
 73
     0
 74
     0
 75
     0
  3
STANDARD
100
AcDbAlignedDimension
 13
-429.0
 23
59.89451973785206
 33
0.0
 14
-400.0000000007105
 24
30.19856801769477
 34
0.0
100
AcDbRotatedDimension
  0
TEXT
  5
DAB3D
330
1E
100
AcDbEntity
  8
NOTE
100
AcDbText
 10
574.9686801078507
 20
-251.6258262575875
 30
0.0
 40
45.0
  1
AH 2XUcut
100
AcDbText
  0
LINE
  5
DAB40
330
1E
100
AcDbEntity
  8
NOTE
100
AcDbLine
 10
910.3915938329356
 20
-269.6184685329008
 30
0.0
 11
560.7050895039791
 21
-269.6184685329008
 31
0.0
  0
TEXT
  5
DAB41
330
1E
100
AcDbEntity
  8
NOTE
100
AcDbText
 10
595.5684697868036
 20
-335.2235838761337
 30
0.0
 40
45.0
  1
(基礎ボルト M8)
 41
0.7
 11
595.5684697868036
 21
-290.2235838761337
 31
0.0
100
AcDbText
 73
     3
  0
LINE
  5
DAB42
330
1E
100
AcDbEntity
  8
NOTE
100
AcDbLine
 10
-420.7719279467506
 20
915.1636414294117
 30
0.0
 11
-67.47525718483121
 21
915.1636414294117
 31
0.0
  0
TEXT
  5
DAB46
330
1E
100
AcDbEntity
  8
NOTE
100
AcDbText
 10
-411.9877853272257
 20
925.3659068540912
 30
0.0
 40
45.0
  1
設置必要スペ－ス
 50
359.9999974955313
 41
0.8
100
AcDbText
  0
TEXT
  5
DAB53
330
1E
100
AcDbEntity
  8
SIZE
100
AcDbText
 10
-140.0933207207383
 20
-294.3052210813213
 30
0.0
 40
45.0
  1
ボルトピッチ
 50
0.0000025044687019
 41
0.9
100
AcDbText
  0
LINE
  5
DABB7
330
1E
100
AcDbEntity
  8
NOTE
100
AcDbLine
 10
0.000298499998527
 20
10.00000000000395
 30
0.0
 11
80.48373008381133
 21
-191.9766942582209
 31
0.0
  0
MTEXT
  5
DABB8
330
1E
100
AcDbEntity
  8
NOTE
100
AcDbMText
 10
560.7050895039791
 20
-269.6184685329009
 30
0.0
 40
0.18
 41
0.0
 46
0.0
 71
     1
 72
     5
  1

 73
     1
 44
1.0
  0
LWPOLYLINE
  5
DABBA
330
1E
100
AcDbEntity
  8
NOTE
100
AcDbPolyline
 90
        2
 70
     0
 43
0.0
 10
249.9999999999999
 20
-0.0004719684949919
 10
560.2550895039792
 20
-269.7084685329008
  0
LINE
  5
DABBC
330
1E
100
AcDbEntity
  8
NOTE
100
AcDbLine
 10
273.1559694993259
 20
-34.3316357468574
 30
0.0
 11
249.9996820000001
 21
-0.000000500000624
 31
0.0
  0
LINE
  5
DABBD
330
1E
100
AcDbEntity
  8
NOTE
100
AcDbLine
 10
249.9996820000001
 20
-0.000000500000624
 30
0.0
 11
287.2194327728247
 21
-18.1539251964257
 31
0.0
  0
MTEXT
  5
DABBF
330
1E
100
AcDbEntity
  8
NOTE
100
AcDbMText
 10
-420.3219279467504
 20
915.2536414294122
 30
0.0
 40
0.18
 41
0.0
 46
0.0
 71
     1
 72
     5
  1

 73
     1
 44
1.0
  0
LWPOLYLINE
  5
DABC1
330
1E
100
AcDbEntity
  8
NOTE
100
AcDbPolyline
 90
        2
 70
     0
 43
0.0
 10
-526.6919430403103
 20
813.9999999999997
 10
-420.7719279467506
 20
915.1636414294117
  0
LINE
  5
DABC3
330
1E
100
AcDbEntity
  8
NOTE
100
AcDbLine
 10
-490.3629334786685
 20
833.8765664475726
 30
0.0
 11
-526.6919430403103
 21
813.9999999999997
 31
0.0
  0
LINE
  5
DABC4
330
1E
100
AcDbEntity
  8
NOTE
100
AcDbLine
 10
-526.6919430403103
 20
813.9999999999997
 30
0.0
 11
-505.1683809288928
 21
849.3781161667858
 31
0.0
  0
CIRCLE
  5
DACA7
330
1E
100
AcDbEntity
  8
FIX
100
AcDbCircle
 10
-249.9999450000002
 20
0.0000004999992598
 30
0.0
 40
5.0
  0
CIRCLE
  5
DACA8
330
1E
100
AcDbEntity
  8
FIX
100
AcDbCircle
 10
250.0000549999997
 20
-0.0004714684957548
 30
0.0
 40
5.0
  0
LINE
  5
DB0EB
330
1E
100
AcDbEntity
  8
DETAIL
100
AcDbLine
 10
370.0001087560768
 20
533.5007327430546
 30
0.0
 11
-309.9997290000001
 21
533.5007324999991
 31
0.0
  0
LINE
  5
DB0EC
330
1E
100
AcDbEntity
  8
DETAIL
100
AcDbLine
 10
370.0001087560768
 20
573.5007327430547
 30
0.0
 11
-309.9997290000001
 21
573.5007324999992
 31
0.0
  0
LINE
  5
DB0ED
330
1E
100
AcDbEntity
  8
DETAIL
100
AcDbLine
 10
370.0001087560768
 20
613.5007327430549
 30
0.0
 11
-309.9997290000001
 21
613.5007324999992
 31
0.0
  0
LINE
  5
DB0EE
330
1E
100
AcDbEntity
  8
DETAIL
100
AcDbLine
 10
370.0001087560768
 20
653.5007327430547
 30
0.0
 11
-309.9997290000001
 21
653.5007324999992
 31
0.0
  0
LINE
  5
DB0EF
330
1E
100
AcDbEntity
  8
DETAIL
100
AcDbLine
 10
287.8773739999996
 20
51.50073271370136
 30
0.0
 11
287.8773739999997
 21
684.9986714999994
 31
0.0
  0
LINE
  5
DB0F0
330
1E
100
AcDbEntity
  8
DETAIL
100
AcDbLine
 10
212.8773739999997
 20
533.500732713701
 30
0.0
 11
212.8773739999997
 21
684.9986714999994
 31
0.0
  0
LINE
  5
DB0F1
330
1E
100
AcDbEntity
  8
DETAIL
100
AcDbLine
 10
137.8773739999997
 20
533.500732713701
 30
0.0
 11
137.8773739999997
 21
684.9986714999994
 31
0.0
  0
LINE
  5
DB0F2
330
1E
100
AcDbEntity
  8
DETAIL
100
AcDbLine
 10
-234.9997290000001
 20
687.4998104999989
 30
0.0
 11
-234.9997290000001
 21
533.5007325268068
 31
0.0
  0
LINE
  5
DB0F3
330
1E
100
AcDbEntity
  8
DETAIL
100
AcDbLine
 10
-159.9997290000001
 20
687.4998104999989
 30
0.0
 11
-159.9997290000001
 21
533.5007325268068
 31
0.0
  0
LINE
  5
DB0F4
330
1E
100
AcDbEntity
  8
DETAIL
100
AcDbLine
 10
-84.9997290000001
 20
687.4998104999989
 30
0.0
 11
-84.99972900000008
 21
533.5007325268068
 31
0.0
  0
LINE
  5
DB0F5
330
1E
100
AcDbEntity
  8
DETAIL
100
AcDbLine
 10
-9.999729000000117
 20
687.4998104999989
 30
0.0
 11
-9.999729000000087
 21
533.5007325268068
 31
0.0
  0
LINE
  5
DB0F6
330
1E
100
AcDbEntity
  8
DETAIL
100
AcDbLine
 10
65.00027099999988
 20
687.4998104999989
 30
0.0
 11
65.00027099999989
 21
533.5007325268068
 31
0.0
  0
LINE
  5
DB7A3
330
1E
100
AcDbEntity
  8
OUTLINE
100
AcDbLine
 10
-416.1391029338566
 20
309.547727339157
 30
0.0
 11
-431.0362687274301
 21
335.3524853524305
 31
0.0
  0
LINE
  5
DB7A4
330
1E
100
AcDbEntity
  8
OUTLINE
100
AcDbLine
 10
-431.9733349999999
 20
340.0343699999999
 30
0.0
 11
-431.9733349999999
 21
338.8527019999997
 31
0.0
  0
LINE
  5
DB7A5
330
1E
100
AcDbEntity
  8
OUTLINE
100
AcDbLine
 10
-431.9733349999999
 20
281.1539092502075
 30
0.0
 11
-431.9733349999999
 21
234.6234664921585
 31
0.0
  0
ARC
  5
DB7A6
330
1E
100
AcDbEntity
  8
OUTLINE
100
AcDbCircle
 10
-428.9733349999998
 20
281.1539092502075
 30
0.0
 40
3.0
100
AcDbArc
 50
105.9916135084273
 51
180.0
  0
LINE
  5
DB7A7
330
1E
100
AcDbEntity
  8
OUTLINE
100
AcDbLine
 10
-414.7995339999998
 20
304.5480339737014
 30
0.0
 11
-414.7995339999998
 21
290.5977099098464
 31
0.0
  0
ARC
  5
DB7A8
330
1E
100
AcDbEntity
  8
OUTLINE
100
AcDbCircle
 10
-417.7995339999998
 20
290.5977099098464
 30
0.0
 40
3.0
100
AcDbArc
 50
285.9916135084273
 51
0.000000000000007
  0
ARC
  5
DB7A9
330
1E
100
AcDbEntity
  8
OUTLINE
100
AcDbCircle
 10
-424.799534
 20
304.5480339737014
 30
0.0
 40
10.0
100
AcDbArc
 50
0.000000000000007
 51
29.99797134291976
  0
LINE
  5
DB7AA
330
1E
100
AcDbEntity
  8
OUTLINE
100
AcDbLine
 10
-439.478920116195
 20
223.4969111019116
 30
0.0
 11
-455.7453457365046
 21
216.6421146146249
 31
0.0
  0
ARC
  5
DB7AB
330
1E
100
AcDbEntity
  8
OUTLINE
100
AcDbCircle
 10
-443.9733349999998
 20
234.6234664921585
 30
0.0
 40
12.0
100
AcDbArc
 50
291.9955495732287
 51
0.000000000000007
  0
LINE
  5
DB7AC
330
1E
100
AcDbEntity
  8
OUTLINE
100
AcDbLine
 10
-462.0000000000001
 20
207.3699851227526
 30
0.0
 11
-462.0000000000001
 21
76.32945835418112
 31
0.0
  0
ARC
  5
DB7AD
330
1E
100
AcDbEntity
  8
OUTLINE
100
AcDbCircle
 10
-452.0000000000002
 20
207.3699851227526
 30
0.0
 40
10.0
100
AcDbArc
 50
111.9955495732286
 51
180.0
  0
ARC
  5
DB7AE
330
1E
100
AcDbEntity
  8
OUTLINE
100
AcDbCircle
 10
-432.0000000000002
 20
76.32945835418112
 30
0.0
 40
30.0
100
AcDbArc
 50
180.0
 51
255.0073689955242
  0
LINE
  5
DB7AF
330
1E
100
AcDbEntity
  8
OUTLINE
100
AcDbLine
 10
-401.9975589999996
 20
29.1111792534707
 30
0.0
 11
-401.9975589925953
 21
36.66304977332205
 31
0.0
  0
LINE
  5
DB7B0
330
1E
100
AcDbEntity
  8
OUTLINE
100
AcDbLine
 10
-401.6272160978092
 20
28.62828274544756
 30
0.0
 11
-398.1774055385333
 21
27.70201300000008
 31
0.0
  0
ARC
  5
DB7B1
330
1E
100
AcDbEntity
  8
OUTLINE
100
AcDbCircle
 10
-401.4975589999997
 20
29.11117925298048
 30
0.0
 40
0.5
100
AcDbArc
 50
179.9999999438235
 51
254.9706271599749
  0
LINE
  5
DB7B2
330
1E
100
AcDbEntity
  8
OUTLINE
100
AcDbLine
 10
-402.2938369999994
 20
569.1263300000001
 30
0.0
 11
-429.3261482366694
 21
557.0997311382479
 31
0.0
  0
ARC
  5
DB7B3
330
1E
100
AcDbEntity
  8
OUTLINE
100
AcDbCircle
 10
-427.2937289999998
 20
552.5314412999809
 30
0.0
 40
5.0
100
AcDbArc
 50
113.9841461232135
 51
180.0
  0
LINE
  5
DB7B4
330
1E
100
AcDbEntity
  8
OUTLINE
100
AcDbLine
 10
-405.2359490000001
 20
540.6172900198733
 30
0.0
 11
-405.2359490000001
 21
525.341693206288
 31
0.0
  0
LINE
  5
DB7B5
330
1E
100
AcDbEntity
  8
OUTLINE
100
AcDbLine
 10
-429.0860778038807
 20
512.3110554841916
 30
0.0
 11
-406.9683033176718
 21
522.6226723486861
 31
0.0
  0
ARC
  5
DB7B6
330
1E
100
AcDbEntity
  8
OUTLINE
100
AcDbCircle
 10
-408.2359489999998
 20
525.341693206288
 30
0.0
 40
3.0
100
AcDbArc
 50
294.9955936608449
 51
0.000000000000007
  0
LINE
  5
DB7B7
330
1E
100
AcDbEntity
  8
OUTLINE
100
AcDbLine
 10
-402.369629
 20
37.14846499999976
 30
0.0
 11
-439.760844363531
 21
47.35068517854363
 31
0.0
  0
LINE
  5
DB7B8
330
1E
100
AcDbEntity
  8
OUTLINE
100
AcDbLine
 10
-408.9105701999265
 20
543.5404537574375
 30
0.0
 11
-427.3942340667638
 21
539.2747086208758
 31
0.0
  0
ARC
  5
DB7B9
330
1E
100
AcDbEntity
  8
OUTLINE
100
AcDbCircle
 10
-408.2359489999998
 20
540.6172900198733
 30
0.0
 40
3.0
100
AcDbArc
 50
0.000000000000007
 51
102.9954533410283
  0
ARC
  5
DB7BA
330
1E
100
AcDbEntity
  8
OUTLINE
100
AcDbCircle
 10
-428.2937289999996
 20
543.1722602709611
 30
0.0
 40
4.0
100
AcDbArc
 50
180.0
 51
282.9954533410283
  0
LINE
  5
DB7BB
330
1E
100
AcDbEntity
  8
OUTLINE
100
AcDbLine
 10
-432.2937289999996
 20
552.5314412999809
 30
0.0
 11
-432.2937289999996
 21
543.1722602709611
 31
0.0
  0
LINE
  5
DB7BC
330
1E
100
AcDbEntity
  8
OUTLINE
100
AcDbLine
 10
-431.9733349999999
 20
507.7793540548553
 30
0.0
 11
-431.9733349999999
 21
393.3403329999996
 31
0.0
  0
ARC
  5
DB7BD
330
1E
100
AcDbEntity
  8
OUTLINE
100
AcDbCircle
 10
-426.9733349999998
 20
507.7793540548553
 30
0.0
 40
5.0
100
AcDbArc
 50
114.9955936608449
 51
180.0
  0
SPLINE
  5
DB7BE
330
1E
100
AcDbEntity
  8
OUTLINE
100
AcDbSpline
210
0.0
220
0.0
230
1.0
 70
     8
 71
     3
 72
     8
 73
     4
 74
     0
 42
0.00000001
 43
0.0000000001
 40
0.0
 40
0.0
 40
0.0
 40
0.0
 40
1.0
 40
1.0
 40
1.0
 40
1.0
 10
-402.3696291874996
 20
37.14846517013848
 30
0.0
 10
-402.1525881718746
 20
37.08989854687479
 30
0.0
 10
-401.9975588749996
 20
36.89008300868046
 30
0.0
 10
-401.9975588749996
 20
36.66270670659697
 30
0.0
  0
SPLINE
  5
DB7BF
330
1E
100
AcDbEntity
  8
OUTLINE
100
AcDbSpline
210
0.0
220
0.0
230
1.0
 70
     8
 71
     3
 72
     8
 73
     4
 74
     0
 42
0.00000001
 43
0.0000000001
 40
0.0
 40
0.0
 40
0.0
 40
0.0
 40
1.0
 40
1.0
 40
1.0
 40
1.0
 10
-416.1396758454858
 20
309.5487201614584
 30
0.0
 10
-415.2611764965278
 20
308.0294330520833
 30
0.0
 10
-414.7995337013886
 20
306.3068853090276
 30
0.0
 10
-414.7995337013886
 20
304.5498866111111
 30
0.0
  0
SPLINE
  5
DB7C0
330
1E
100
AcDbEntity
  8
OUTLINE
100
AcDbSpline
210
0.0
220
0.0
230
1.0
 70
     8
 71
     3
 72
     8
 73
     4
 74
     0
 42
0.00000001
 43
0.0000000001
 40
0.0
 40
0.0
 40
0.0
 40
0.0
 40
1.0
 40
1.0
 40
1.0
 40
1.0
 10
-431.0362687274301
 20
335.3524853524305
 30
0.0
 10
-431.652940819444
 20
336.4170198576385
 30
0.0
 10
-431.9733346996526
 20
337.6228032777776
 30
0.0
 10
-431.9733346996526
 20
338.8527023663191
 30
0.0
  0
SPLINE
  5
DB7C1
330
1E
100
AcDbEntity
  8
OUTLINE
100
AcDbSpline
210
0.0
220
0.0
230
1.0
 70
     8
 71
     3
 72
     8
 73
     4
 74
     0
 42
0.00000001
 43
0.0000000001
 40
0.0
 40
0.0
 40
0.0
 40
0.0
 40
1.0
 40
1.0
 40
1.0
 40
1.0
 10
-401.9975588749996
 20
569.5879725486109
 30
0.0
 10
-401.9975588749996
 20
569.3881570104163
 30
0.0
 10
-402.1146921215279
 20
569.2055669496526
 30
0.0
 10
-402.2938370868051
 20
569.1263297534719
 30
0.0
  0
SPLINE
  5
DB7C2
330
1E
100
AcDbEntity
  8
OUTLINE
100
AcDbSpline
210
0.0
220
0.0
230
1.0
 70
    24
 71
     3
 72
    11
 73
     7
 74
     0
 42
0.00000001
 43
0.0000000001
 40
6.0
 40
6.0
 40
6.0
 40
6.0
 40
7.0
 40
7.0
 40
7.0
 40
8.0
 40
8.0
 40
8.0
 40
8.0
 10
-428.5936960277778
 20
394.1706005868054
 30
0.0
 10
-428.583360741319
 20
394.1706005868054
 30
0.0
 10
-428.6005862187496
 20
394.1706005868054
 30
0.0
 10
-428.5868058368047
 20
394.1706005868054
 30
0.0
 10
-428.5730254548608
 20
394.1706005868054
 30
0.0
 10
-428.5936960277778
 20
394.1706005868054
 30
0.0
 10
-428.5799156458331
 20
394.1706005868054
 30
0.0
  0
LINE
  5
DB7C3
330
1E
100
AcDbEntity
  8
OUTLINE
100
AcDbLine
 10
-230.7659774487845
 20
16.76383486197892
 30
0.0
 11
-230.0183919999997
 21
8.219998000000032
 31
0.0
  0
LINE
  5
DB7C4
330
1E
100
AcDbEntity
  8
OUTLINE
100
AcDbLine
 10
-229.997721
 20
0.0
 30
0.0
 11
-269.9987249999997
 21
0.0
 31
0.0
  0
LINE
  5
DB7C5
330
1E
100
AcDbEntity
  8
OUTLINE
100
AcDbLine
 10
-229.997721
 20
0.0
 30
0.0
 11
-229.997721
 21
7.782470999999986
 31
0.0
  0
LINE
  5
DB7C6
330
1E
100
AcDbEntity
  8
OUTLINE
100
AcDbLine
 10
-269.9814989999997
 20
8.219998000000032
 30
0.0
 11
-269.233913646701
 21
16.76383486197892
 31
0.0
  0
LINE
  5
DB7C7
330
1E
100
AcDbEntity
  8
OUTLINE
100
AcDbLine
 10
-269.9987249999997
 20
0.0
 30
0.0
 11
-269.9987249999997
 21
7.782470999999986
 31
0.0
  0
SPLINE
  5
DB7C8
330
1E
100
AcDbEntity
  8
OUTLINE
100
AcDbSpline
210
0.0
220
0.0
230
1.0
 70
     8
 71
     3
 72
     8
 73
     4
 74
     0
 42
0.00000001
 43
0.0000000001
 40
0.0
 40
0.0
 40
0.0
 40
0.0
 40
1.0
 40
1.0
 40
1.0
 40
1.0
 10
-269.233913646701
 20
16.76383486197892
 30
0.0
 10
-269.099554922743
 20
18.31412783072892
 30
0.0
 10
-267.8007539244788
 20
19.5026857734374
 30
0.0
 10
-266.247015860243
 20
19.5026857734374
 30
0.0
  0
SPLINE
  5
DB7C9
330
1E
100
AcDbEntity
  8
OUTLINE
100
AcDbSpline
210
0.0
220
0.0
230
1.0
 70
     8
 71
     3
 72
     8
 73
     4
 74
     0
 42
0.00000001
 43
0.0000000001
 40
0.0
 40
0.0
 40
0.0
 40
0.0
 40
1.0
 40
1.0
 40
1.0
 40
1.0
 10
-233.752875235243
 20
19.5026857734374
 30
0.0
 10
-232.1991371710067
 20
19.5026857734374
 30
0.0
 10
-230.900336172743
 20
18.31412783072892
 30
0.0
 10
-230.7659774487845
 20
16.76383486197892
 30
0.0
  0
SPLINE
  5
DB7CA
330
1E
100
AcDbEntity
  8
OUTLINE
100
AcDbSpline
210
0.0
220
0.0
230
1.0
 70
     8
 71
     3
 72
     8
 73
     4
 74
     0
 42
0.00000001
 43
0.0000000001
 40
0.0
 40
0.0
 40
0.0
 40
0.0
 40
1.0
 40
1.0
 40
1.0
 40
1.0
 10
-230.0183917282986
 20
8.219998056423719
 30
0.0
 10
-230.0046113463539
 20
8.075304046006749
 30
0.0
 10
-229.9977211553817
 20
7.927164940103919
 30
0.0
 10
-229.9977211553817
 20
7.782470929687406
 30
0.0
  0
SPLINE
  5
DB7CB
330
1E
100
AcDbEntity
  8
OUTLINE
100
AcDbSpline
210
0.0
220
0.0
230
1.0
 70
     8
 71
     3
 72
     8
 73
     4
 74
     0
 42
0.00000001
 43
0.0000000001
 40
0.0
 40
0.0
 40
0.0
 40
0.0
 40
1.0
 40
1.0
 40
1.0
 40
1.0
 10
-269.998724844618
 20
7.782470929687406
 30
0.0
 10
-269.998724844618
 20
7.927164940103919
 30
0.0
 10
-269.9952797491317
 20
8.075304046006749
 30
0.0
 10
-269.9814993671873
 20
8.219998056423719
 30
0.0
  0
LINE
  5
DB7CC
330
1E
100
AcDbEntity
  8
OUTLINE
100
AcDbLine
 10
-381.7785941409422
 20
20.96715214094203
 30
0.0
 11
-388.5134549999996
 21
27.70201300000008
 31
0.0
  0
LINE
  5
DB7CD
330
1E
100
AcDbEntity
  8
OUTLINE
100
AcDbLine
 10
-230.0543109225989
 20
19.50268599999982
 30
0.0
 11
-233.752875235243
 21
19.50268600116974
 31
0.0
  0
LINE
  5
DB7CE
330
1E
100
AcDbEntity
  8
OUTLINE
100
AcDbLine
 10
-266.247015860243
 20
19.50268601144821
 30
0.0
 11
-378.2430602366314
 21
19.50268604687453
 31
0.0
  0
ARC
  5
DB7CF
330
1E
100
AcDbEntity
  8
OUTLINE
100
AcDbCircle
 10
-378.2430602350093
 20
24.50268604687453
 30
0.0
 40
5.0
100
AcDbArc
 50
224.9999999999908
 51
269.9999999814227
  0
LINE
  5
DB7D0
330
1E
100
AcDbEntity
  8
OUTLINE
100
AcDbLine
 10
387.5007050000002
 20
19.50268599999981
 30
0.0
 11
266.2476123125005
 21
19.50268599999981
 31
0.0
  0
LINE
  5
DB7D1
330
1E
100
AcDbEntity
  8
OUTLINE
100
AcDbLine
 10
233.7534717495903
 20
19.50268599999979
 30
0.0
 11
230.2394750000001
 21
19.50268599999981
 31
0.0
  0
LINE
  5
DB7D2
330
1E
100
AcDbEntity
  8
OUTLINE
100
AcDbLine
 10
395.5007050000002
 20
27.50268599999981
 30
0.0
 11
395.5007050000002
 21
27.70201300000008
 31
0.0
  0
ARC
  5
DB7D3
330
1E
100
AcDbEntity
  8
OUTLINE
100
AcDbCircle
 10
387.5007050000002
 20
27.50268599999981
 30
0.0
 40
8.0
100
AcDbArc
 50
270.0
 51
0.000000000000007
  0
LINE
  5
DB7D4
330
1E
100
AcDbEntity
  8
OUTLINE
100
AcDbLine
 10
69.8909500000002
 20
10.0
 30
0.0
 11
-69.89035399999989
 21
10.0
 31
0.0
  0
LINE
  5
DB7D5
330
1E
100
AcDbEntity
  8
OUTLINE
100
AcDbLine
 10
230.0189879999996
 20
8.219998000000032
 30
0.0
 11
230.7665739010424
 21
16.76383486197892
 31
0.0
  0
LINE
  5
DB7D6
330
1E
100
AcDbEntity
  8
OUTLINE
100
AcDbLine
 10
269.2345100989586
 20
16.76383486197892
 30
0.0
 11
269.9820960000004
 21
8.219998000000032
 31
0.0
  0
LINE
  5
DB7D7
330
1E
100
AcDbEntity
  8
OUTLINE
100
AcDbLine
 10
270.0027660000003
 20
0.0
 30
0.0
 11
229.9983179999997
 21
0.0
 31
0.0
  0
LINE
  5
DB7D8
330
1E
100
AcDbEntity
  8
OUTLINE
100
AcDbLine
 10
229.9983179999997
 20
0.0
 30
0.0
 11
229.9983179999997
 21
7.782470999999986
 31
0.0
  0
LINE
  5
DB7D9
330
1E
100
AcDbEntity
  8
OUTLINE
100
AcDbLine
 10
270.0027660000003
 20
0.0
 30
0.0
 11
270.0027660000003
 21
7.782470999999986
 31
0.0
  0
SPLINE
  5
DB7DA
330
1E
100
AcDbEntity
  8
OUTLINE
100
AcDbSpline
210
0.0
220
0.0
230
1.0
 70
     8
 71
     3
 72
     8
 73
     4
 74
     0
 42
0.00000001
 43
0.0000000001
 40
0.0
 40
0.0
 40
0.0
 40
0.0
 40
1.0
 40
1.0
 40
1.0
 40
1.0
 10
269.9820958194448
 20
8.219998056423719
 30
0.0
 10
269.9958762013892
 20
8.075304046006749
 30
0.0
 10
270.0027663923608
 20
7.927164940103919
 30
0.0
 10
270.0027663923608
 20
7.782470929687406
 30
0.0
  0
SPLINE
  5
DB7DB
330
1E
100
AcDbEntity
  8
OUTLINE
100
AcDbSpline
210
0.0
220
0.0
230
1.0
 70
     8
 71
     3
 72
     8
 73
     4
 74
     0
 42
0.00000001
 43
0.0000000001
 40
0.0
 40
0.0
 40
0.0
 40
0.0
 40
1.0
 40
1.0
 40
1.0
 40
1.0
 10
229.9983176076391
 20
7.782470929687406
 30
0.0
 10
229.9983176076391
 20
7.927164940103919
 30
0.0
 10
230.0052077986109
 20
8.075304046006749
 30
0.0
 10
230.0189881805561
 20
8.219998056423719
 30
0.0
  0
SPLINE
  5
DB7DC
330
1E
100
AcDbEntity
  8
OUTLINE
100
AcDbSpline
210
0.0
220
0.0
230
1.0
 70
     8
 71
     3
 72
     8
 73
     4
 74
     0
 42
0.00000001
 43
0.0000000001
 40
0.0
 40
0.0
 40
0.0
 40
0.0
 40
1.0
 40
1.0
 40
1.0
 40
1.0
 10
266.2476123125005
 20
19.5026857734374
 30
0.0
 10
267.8013503767358
 20
19.5026857734374
 30
0.0
 10
269.1001513750005
 20
18.31412783072892
 30
0.0
 10
269.2345100989586
 20
16.76383486197892
 30
0.0
  0
SPLINE
  5
DB7DD
330
1E
100
AcDbEntity
  8
OUTLINE
100
AcDbSpline
210
0.0
220
0.0
230
1.0
 70
     8
 71
     3
 72
     8
 73
     4
 74
     0
 42
0.00000001
 43
0.0000000001
 40
0.0
 40
0.0
 40
0.0
 40
0.0
 40
1.0
 40
1.0
 40
1.0
 40
1.0
 10
230.7665739010424
 20
16.76383486197892
 30
0.0
 10
230.9009326250004
 20
18.31412783072892
 30
0.0
 10
232.1997336232641
 20
19.5026857734374
 30
0.0
 10
233.7534716875004
 20
19.5026857734374
 30
0.0
  0
SPLINE
  5
DB7DE
330
1E
100
AcDbEntity
  8
OUTLINE
100
AcDbSpline
210
0.0
220
0.0
230
1.0
 70
     8
 71
     3
 72
     8
 73
     4
 74
     0
 42
0.00000001
 43
0.0000000001
 40
0.0
 40
0.0
 40
0.0
 40
0.0
 40
1.0
 40
1.0
 40
1.0
 40
1.0
 10
-401.9975584600691
 20
579.8026799045137
 30
0.0
 10
-401.9975584600691
 20
580.9051104600692
 30
0.0
 10
-401.1018336336803
 20
581.800835286458
 30
0.0
 10
-399.9994030781247
 20
581.800835286458
 30
0.0
  0
LINE
  5
DB7DF
330
1E
100
AcDbEntity
  8
OUTLINE
100
AcDbLine
 10
397.4999999999998
 20
27.70201300000008
 30
0.0
 11
395.5007050000002
 21
27.70201300000008
 31
0.0
  0
LINE
  5
DB7E0
330
1E
100
AcDbEntity
  8
OUTLINE
100
AcDbLine
 10
-388.5134549999996
 20
27.70201300000007
 30
0.0
 11
-398.1774055385333
 21
27.70201300000008
 31
0.0
  0
ARC
  5
DB7E1
330
1E
100
AcDbEntity
  8
OUTLINE
100
AcDbCircle
 10
397.4999999999998
 20
30.20201300000008
 30
0.0
 40
2.5
100
AcDbArc
 50
270.0
 51
0.000000000000007
  0
LINE
  5
DB7E2
330
1E
100
AcDbEntity
  8
OUTLINE
100
AcDbLine
 10
-400.0000000000001
 20
685.501655
 30
0.0
 11
-400.0000000000001
 21
581.8008351989202
 31
0.0
  0
LINE
  5
DB7E3
330
1E
100
AcDbEntity
  8
OUTLINE
100
AcDbLine
 10
-397.6980792934027
 20
686.5007322048605
 30
0.0
 11
-399.00032591493
 21
686.5007324157986
 31
0.0
  0
LINE
  5
DB7E4
330
1E
100
AcDbEntity
  8
OUTLINE
100
AcDbLine
 10
399.9999999999998
 20
30.20201300000008
 30
0.0
 11
399.9999999999998
 21
687.503256
 31
0.0
  0
SPLINE
  5
DB7E5
330
1E
100
AcDbEntity
  8
OUTLINE
100
AcDbSpline
210
0.0
220
0.0
230
1.0
 70
     8
 71
     3
 72
     8
 73
     4
 74
     0
 42
0.00000001
 43
0.0000000001
 40
0.0
 40
0.0
 40
0.0
 40
0.0
 40
1.0
 40
1.0
 40
1.0
 40
1.0
 10
-400.0000000000001
 20
685.5016547248259
 30
0.0
 10
-399.9994036059027
 20
686.0528700026041
 30
0.0
 10
-399.5515411927079
 20
686.5007324157986
 30
0.0
 10
-399.00032591493
 20
686.5007324157986
 30
0.0
  0
LINE
  5
DB7E6
330
1E
100
AcDbEntity
  8
OUTLINE
100
AcDbLine
 10
230.2394750000001
 20
19.50268599999981
 30
0.0
 11
69.8909500000002
 21
10.0
 31
0.0
  0
LINE
  5
DB7E7
330
1E
100
AcDbEntity
  8
OUTLINE
100
AcDbLine
 10
-69.89035399999989
 20
10.0
 30
0.0
 11
-230.0543109225989
 21
19.50268599999982
 31
0.0
  0
ARC
  5
DB7E8
330
1E
100
AcDbEntity
  8
OUTLINE
100
AcDbCircle
 10
-428.5653438230347
 20
393.9061196752282
 30
0.0
 40
0.2659962407676653
100
AcDbArc
 50
30.1416652990622
 51
96.11870852593641
  0
ARC
  5
DB7E9
330
1E
100
AcDbEntity
  8
OUTLINE
100
AcDbCircle
 10
-428.9734311409238
 20
389.0840350669347
 30
0.0
 40
0.7600891471310817
100
AcDbArc
 50
301.7886749098258
 51
347.2920886998681
  0
ARC
  5
DB7EA
330
1E
100
AcDbEntity
  8
OUTLINE
100
AcDbCircle
 10
-436.9171465212523
 20
391.3040787249233
 30
0.0
 40
9.007297270767347
100
AcDbArc
 50
344.6309693188951
 51
17.68058445979673
  0
LINE
  5
DB7EB
330
1E
100
AcDbEntity
  8
OUTLINE
100
AcDbLine
 10
-428.5936960277778
 20
394.1706005868054
 30
0.0
 11
-431.9733349999999
 21
393.3403329999996
 31
0.0
  0
LINE
  5
DB7EC
330
1E
100
AcDbEntity
  8
OUTLINE
100
AcDbLine
 10
-428.5730254548608
 20
388.4379616979164
 30
0.0
 11
-431.9733349999999
 21
387.535347
 31
0.0
  0
SPLINE
  5
DB7ED
330
1E
100
AcDbEntity
  8
OUTLINE
100
AcDbSpline
210
0.0
220
0.0
230
1.0
 70
    24
 71
     3
 72
    11
 73
     7
 74
     0
 42
0.00000001
 43
0.0000000001
 40
6.0
 40
6.0
 40
6.0
 40
6.0
 40
7.0
 40
7.0
 40
7.0
 40
8.0
 40
8.0
 40
8.0
 40
8.0
 10
-428.5936957274302
 20
384.6724719062498
 30
0.0
 10
-428.5833604409718
 20
384.6724719062498
 30
0.0
 10
-428.6005859184026
 20
384.6724719062498
 30
0.0
 10
-428.5868055364582
 20
384.6724719062498
 30
0.0
 10
-428.5730251545138
 20
384.6724719062498
 30
0.0
 10
-428.5936957274302
 20
384.6724719062498
 30
0.0
 10
-428.5799153454856
 20
384.6724719062498
 30
0.0
  0
ARC
  5
DB7EE
330
1E
100
AcDbEntity
  8
OUTLINE
100
AcDbCircle
 10
-428.5653435226874
 20
384.4079909946727
 30
0.0
 40
0.2659962407676653
100
AcDbArc
 50
30.1416652990622
 51
96.11870852593641
  0
ARC
  5
DB7EF
330
1E
100
AcDbEntity
  8
OUTLINE
100
AcDbCircle
 10
-428.973430840577
 20
379.5859063863791
 30
0.0
 40
0.7600891471310817
100
AcDbArc
 50
301.7886749098258
 51
347.2920886998681
  0
ARC
  5
DB7F0
330
1E
100
AcDbEntity
  8
OUTLINE
100
AcDbCircle
 10
-436.9171462209044
 20
381.8059500443678
 30
0.0
 40
9.007297270767347
100
AcDbArc
 50
344.6309693188951
 51
17.68058445979673
  0
LINE
  5
DB7F1
330
1E
100
AcDbEntity
  8
OUTLINE
100
AcDbLine
 10
-428.5936957274302
 20
384.6724719062498
 30
0.0
 11
-431.9733346996526
 21
383.8422043194441
 31
0.0
  0
LINE
  5
DB7F2
330
1E
100
AcDbEntity
  8
OUTLINE
100
AcDbLine
 10
-428.5730251545138
 20
378.9398330173609
 30
0.0
 11
-431.9733346996526
 21
378.0372183194445
 31
0.0
  0
SPLINE
  5
DB7F3
330
1E
100
AcDbEntity
  8
OUTLINE
100
AcDbSpline
210
0.0
220
0.0
230
1.0
 70
    24
 71
     3
 72
    11
 73
     7
 74
     0
 42
0.00000001
 43
0.0000000001
 40
6.0
 40
6.0
 40
6.0
 40
6.0
 40
7.0
 40
7.0
 40
7.0
 40
8.0
 40
8.0
 40
8.0
 40
8.0
 10
-428.5936957274302
 20
375.1708985555556
 30
0.0
 10
-428.5833604409718
 20
375.1708985555556
 30
0.0
 10
-428.6005859184026
 20
375.1708985555556
 30
0.0
 10
-428.5868055364582
 20
375.1708985555556
 30
0.0
 10
-428.5730251545138
 20
375.1708985555556
 30
0.0
 10
-428.5936957274302
 20
375.1708985555556
 30
0.0
 10
-428.5799153454856
 20
375.1708985555556
 30
0.0
  0
ARC
  5
DB7F4
330
1E
100
AcDbEntity
  8
OUTLINE
100
AcDbCircle
 10
-428.5653435226874
 20
374.9064176439783
 30
0.0
 40
0.2659962407676653
100
AcDbArc
 50
30.1416652990622
 51
96.11870852593641
  0
ARC
  5
DB7F5
330
1E
100
AcDbEntity
  8
OUTLINE
100
AcDbCircle
 10
-428.973430840577
 20
370.0843330356847
 30
0.0
 40
0.7600891471310817
100
AcDbArc
 50
301.7886749098258
 51
347.2920886998681
  0
ARC
  5
DB7F6
330
1E
100
AcDbEntity
  8
OUTLINE
100
AcDbCircle
 10
-436.9171462209044
 20
372.3043766936735
 30
0.0
 40
9.007297270767347
100
AcDbArc
 50
344.6309693188951
 51
17.68058445979673
  0
LINE
  5
DB7F7
330
1E
100
AcDbEntity
  8
OUTLINE
100
AcDbLine
 10
-428.5936957274302
 20
375.1708985555556
 30
0.0
 11
-431.9733346996526
 21
374.3406309687498
 31
0.0
  0
LINE
  5
DB7F8
330
1E
100
AcDbEntity
  8
OUTLINE
100
AcDbLine
 10
-428.5730251545138
 20
369.4382596666665
 30
0.0
 11
-431.9733346996526
 21
368.5356449687501
 31
0.0
  0
SPLINE
  5
DB7F9
330
1E
100
AcDbEntity
  8
OUTLINE
100
AcDbSpline
210
0.0
220
0.0
230
1.0
 70
    24
 71
     3
 72
    11
 73
     7
 74
     0
 42
0.00000001
 43
0.0000000001
 40
6.0
 40
6.0
 40
6.0
 40
6.0
 40
7.0
 40
7.0
 40
7.0
 40
8.0
 40
8.0
 40
8.0
 40
8.0
 10
-428.5936960277778
 20
365.6727705868056
 30
0.0
 10
-428.583360741319
 20
365.6727705868056
 30
0.0
 10
-428.6005862187496
 20
365.6727705868056
 30
0.0
 10
-428.5868058368047
 20
365.6727705868056
 30
0.0
 10
-428.5730254548608
 20
365.6727705868056
 30
0.0
 10
-428.5936960277778
 20
365.6727705868056
 30
0.0
 10
-428.5799156458331
 20
365.6727705868056
 30
0.0
  0
ARC
  5
DB7FA
330
1E
100
AcDbEntity
  8
OUTLINE
100
AcDbCircle
 10
-428.5653438230347
 20
365.4082896752283
 30
0.0
 40
0.2659962407676653
100
AcDbArc
 50
30.1416652990622
 51
96.11870852593641
  0
ARC
  5
DB7FB
330
1E
100
AcDbEntity
  8
OUTLINE
100
AcDbCircle
 10
-428.9734311409238
 20
360.5862050669348
 30
0.0
 40
0.7600891471310817
100
AcDbArc
 50
301.7886749098258
 51
347.2920886998681
  0
ARC
  5
DB7FC
330
1E
100
AcDbEntity
  8
OUTLINE
100
AcDbCircle
 10
-436.9171465212523
 20
362.8062487249235
 30
0.0
 40
9.007297270767347
100
AcDbArc
 50
344.6309693188951
 51
17.68058445979673
  0
LINE
  5
DB7FD
330
1E
100
AcDbEntity
  8
OUTLINE
100
AcDbLine
 10
-428.5936960277778
 20
365.6727705868056
 30
0.0
 11
-431.9733349999999
 21
364.8425029999998
 31
0.0
  0
LINE
  5
DB7FE
330
1E
100
AcDbEntity
  8
OUTLINE
100
AcDbLine
 10
-428.5730254548608
 20
359.9401316979165
 30
0.0
 11
-431.9733349999999
 21
359.0375170000001
 31
0.0
  0
SPLINE
  5
DB7FF
330
1E
100
AcDbEntity
  8
OUTLINE
100
AcDbSpline
210
0.0
220
0.0
230
1.0
 70
    24
 71
     3
 72
    11
 73
     7
 74
     0
 42
0.00000001
 43
0.0000000001
 40
6.0
 40
6.0
 40
6.0
 40
6.0
 40
7.0
 40
7.0
 40
7.0
 40
8.0
 40
8.0
 40
8.0
 40
8.0
 10
-428.5936960277778
 20
356.1711965868058
 30
0.0
 10
-428.583360741319
 20
356.1711965868058
 30
0.0
 10
-428.6005862187496
 20
356.1711965868058
 30
0.0
 10
-428.5868058368047
 20
356.1711965868058
 30
0.0
 10
-428.5730254548608
 20
356.1711965868058
 30
0.0
 10
-428.5936960277778
 20
356.1711965868058
 30
0.0
 10
-428.5799156458331
 20
356.1711965868058
 30
0.0
  0
ARC
  5
DB800
330
1E
100
AcDbEntity
  8
OUTLINE
100
AcDbCircle
 10
-428.5653438230347
 20
355.9067156752285
 30
0.0
 40
0.2659962407676653
100
AcDbArc
 50
30.1416652990622
 51
96.11870852593641
  0
ARC
  5
DB801
330
1E
100
AcDbEntity
  8
OUTLINE
100
AcDbCircle
 10
-428.9734311409238
 20
351.0846310669349
 30
0.0
 40
0.7600891471310817
100
AcDbArc
 50
301.7886749098258
 51
347.2920886998681
  0
ARC
  5
DB802
330
1E
100
AcDbEntity
  8
OUTLINE
100
AcDbCircle
 10
-436.9171465212523
 20
353.3046747249236
 30
0.0
 40
9.007297270767347
100
AcDbArc
 50
344.6309693188951
 51
17.68058445979673
  0
LINE
  5
DB803
330
1E
100
AcDbEntity
  8
OUTLINE
100
AcDbLine
 10
-428.5936960277778
 20
356.1711965868058
 30
0.0
 11
-431.9733349999999
 21
355.340929
 31
0.0
  0
LINE
  5
DB804
330
1E
100
AcDbEntity
  8
OUTLINE
100
AcDbLine
 10
-428.5730254548608
 20
350.4385576979166
 30
0.0
 11
-431.9733349999999
 21
349.5359430000003
 31
0.0
  0
SPLINE
  5
DB805
330
1E
100
AcDbEntity
  8
OUTLINE
100
AcDbSpline
210
0.0
220
0.0
230
1.0
 70
    24
 71
     3
 72
    11
 73
     7
 74
     0
 42
0.00000001
 43
0.0000000001
 40
6.0
 40
6.0
 40
6.0
 40
6.0
 40
7.0
 40
7.0
 40
7.0
 40
8.0
 40
8.0
 40
8.0
 40
8.0
 10
-428.5936960277778
 20
346.6730685868057
 30
0.0
 10
-428.583360741319
 20
346.6730685868057
 30
0.0
 10
-428.6005862187496
 20
346.6730685868057
 30
0.0
 10
-428.5868058368047
 20
346.6730685868057
 30
0.0
 10
-428.5730254548608
 20
346.6730685868057
 30
0.0
 10
-428.5936960277778
 20
346.6730685868057
 30
0.0
 10
-428.5799156458331
 20
346.6730685868057
 30
0.0
  0
ARC
  5
DB806
330
1E
100
AcDbEntity
  8
OUTLINE
100
AcDbCircle
 10
-428.5653438230347
 20
346.4085876752284
 30
0.0
 40
0.2659962407676653
100
AcDbArc
 50
30.1416652990622
 51
96.11870852593641
  0
ARC
  5
DB807
330
1E
100
AcDbEntity
  8
OUTLINE
100
AcDbCircle
 10
-428.9734311409238
 20
341.5865030669347
 30
0.0
 40
0.7600891471310817
100
AcDbArc
 50
301.7886749098258
 51
347.2920886998681
  0
ARC
  5
DB808
330
1E
100
AcDbEntity
  8
OUTLINE
100
AcDbCircle
 10
-436.9171465212523
 20
343.8065467249235
 30
0.0
 40
9.007297270767347
100
AcDbArc
 50
344.6309693188951
 51
17.68058445979673
  0
LINE
  5
DB809
330
1E
100
AcDbEntity
  8
OUTLINE
100
AcDbLine
 10
-428.5936960277778
 20
346.6730685868057
 30
0.0
 11
-431.9733349999999
 21
345.8428009999999
 31
0.0
  0
LINE
  5
DB80A
330
1E
100
AcDbEntity
  8
OUTLINE
100
AcDbLine
 10
-428.5730254548608
 20
340.9404296979165
 30
0.0
 11
-431.9733349999999
 21
340.0378150000002
 31
0.0
  0
LINE
  5
DB80B
330
1E
100
AcDbEntity
  8
OUTLINE
100
AcDbLine
 10
-431.9733349999999
 20
387.535347
 30
0.0
 11
-431.9733346996526
 21
383.8422043194441
 31
0.0
  0
LINE
  5
DB80C
330
1E
100
AcDbEntity
  8
OUTLINE
100
AcDbLine
 10
-431.9733342275585
 20
378.0372184447624
 30
0.0
 11
-431.9733339272112
 21
374.3440757642066
 31
0.0
  0
LINE
  5
DB80D
330
1E
100
AcDbEntity
  8
OUTLINE
100
AcDbLine
 10
-431.9733346996526
 20
368.5356449687501
 30
0.0
 11
-431.9733343993052
 21
364.8425022881943
 31
0.0
  0
LINE
  5
DB80E
330
1E
100
AcDbEntity
  8
OUTLINE
100
AcDbLine
 10
-431.9733349999999
 20
359.0375170000001
 30
0.0
 11
-431.9733346996526
 21
355.3443743194443
 31
0.0
  0
LINE
  5
DB80F
330
1E
100
AcDbEntity
  8
OUTLINE
100
AcDbLine
 10
-431.9733342272781
 20
349.53594320512
 30
0.0
 11
-431.9733339269308
 21
345.8428005245642
 31
0.0
  0
LINE
  5
DB810
330
1E
100
AcDbEntity
  8
OUTLINE
100
AcDbLine
 10
362.5026590000004
 20
714.0
 30
0.0
 11
-363.497341
 21
714.0
 31
0.0
  0
LINE
  5
DB811
330
1E
100
AcDbEntity
  8
OUTLINE
100
AcDbLine
 10
-363.497341
 20
712.4029299999993
 30
0.0
 11
-363.497341
 21
714.0
 31
0.0
  0
ARC
  5
DB812
330
1E
100
AcDbEntity
  8
OUTLINE
100
AcDbCircle
 10
-357.0438881327689
 20
593.5335693818313
 30
0.0
 40
119.044411660866
100
AcDbArc
 50
93.10755416457165
 51
108.6413125534286
  0
ARC
  5
DB813
330
1E
100
AcDbEntity
  8
OUTLINE
100
AcDbCircle
 10
-393.497341
 20
701.5950037843484
 30
0.0
 40
5.0
100
AcDbArc
 50
108.6413125534286
 51
180.0
  0
LINE
  5
DB814
330
1E
100
AcDbEntity
  8
OUTLINE
100
AcDbLine
 10
362.5026590000004
 20
712.4029299999993
 30
0.0
 11
362.5026590000004
 21
714.0
 31
0.0
  0
ARC
  5
DB815
330
1E
100
AcDbEntity
  8
OUTLINE
100
AcDbCircle
 10
356.4294265124515
 20
596.3112885591347
 30
0.0
 40
116.2503908177609
100
AcDbArc
 50
67.90232762462593
 51
87.00535139951229
  0
LINE
  5
DB81A
330
1E
100
AcDbEntity
  8
OUTLINE
100
AcDbLine
 10
-398.497341
 20
688.9976207523219
 30
0.0
 11
-398.497341
 21
701.5950037843484
 31
0.0
  0
ARC
  5
DB81B
330
1E
100
AcDbEntity
  8
OUTLINE
100
AcDbCircle
 10
-396.9973093433343
 20
688.9976207523219
 30
0.0
 40
1.500031656775254
100
AcDbArc
 50
180.000692604168
 51
266.7511055479979
  0
LINE
  5
DB81C
330
1E
100
AcDbEntity
  8
OUTLINE
100
AcDbLine
 10
-416.9730440464807
 20
287.7138038162414
 30
0.0
 11
-429.7998249535192
 21
284.0378153438124
 31
0.0
  0
ARC
  5
DB81D
330
1E
100
AcDbEntity
  8
OUTLINE
100
AcDbCircle
 10
-397.7010488431858
 20
689.007942367851
 30
0.0
 40
2.507211921563075
100
AcDbArc
 50
270.0678613195625
 51
323.0267620356465
  0
LINE
  5
DB81E
330
1E
100
AcDbEntity
  8
OUTLINE
100
AcDbLine
 10
-401.9975584600691
 20
579.8026799045137
 30
0.0
 11
-401.9975588749996
 21
569.5879725486109
 31
0.0
  0
LINE
  5
DB81F
330
1E
100
AcDbEntity
  8
OUTLINE
100
AcDbLine
 10
425.2999999999998
 20
689.5135703949851
 30
0.0
 11
425.2999999999998
 21
689.5029298799013
 31
0.0
  0
ARC
  5
DB827
330
1E
100
AcDbEntity
  8
OUTLINE
100
AcDbCircle
 10
398.3
 20
699.3817255808074
 30
0.0
 40
5.0
100
AcDbArc
 50
0.0
 51
68.14532461742761
  0
LINE
  5
DB828
330
1E
100
AcDbEntity
  8
OUTLINE
100
AcDbLine
 10
403.2999999999998
 20
687.5029299999995
 30
0.0
 11
403.2999999999998
 21
699.3817255808074
 31
0.0
  0
LINE
  5
DB82F
330
1E
100
AcDbEntity
  8
OUTLINE
100
AcDbLine
 10
399.9999999999998
 20
687.503256
 30
0.0
 11
403.2999999999998
 21
687.503256
 31
0.0
  0
LINE
  5
DBD8D
330
1E
100
AcDbEntity
  8
OUTLINE
  6
Continuous
100
AcDbLine
 10
-397.0823214221358
 20
687.4999999999999
 30
0.0
 11
-395.6979958147144
 21
687.5
 31
0.0
  0
ENDSEC
  0
SECTION
  2
OBJECTS
  0
DICTIONARY
  5
C
330
0
100
AcDbDictionary
281
     1
  3
ACAD_CIP_PREVIOUS_PRODUCT_INFO
350
CE03B
  3
ACAD_COLOR
350
CE01E
  3
ACAD_DETAILVIEWSTYLE
350
CE037
  3
ACAD_GROUP
350
D
  3
ACAD_LAYOUT
350
19
  3
ACAD_MATERIAL
350
CDFEC
  3
ACAD_MLEADERSTYLE
350
CE033
  3
ACAD_MLINESTYLE
350
16
  3
ACAD_PLOTSETTINGS
350
18
  3
ACAD_PLOTSTYLENAME
350
E
  3
ACAD_SCALELIST
350
CE021
  3
ACAD_SECTIONVIEWSTYLE
350
CE035
  3
ACAD_TABLESTYLE
350
CE01F
  3
ACAD_VISUALSTYLE
350
CE005
  3
ACDB_RECOMPOSE_DATA
350
DBD8F
  3
AcDbVariableDictionary
350
CF14E
  0
DICTIONARY
  5
CE08E
330
2
100
AcDbDictionary
280
     1
281
     1
  3
ACAD_LAYERSTATES
360
CE08F
  0
DICTIONARY
  5
CE03C
330
10
100
AcDbDictionary
280
     1
281
     1
  3
ADSK_XREC_LAYER_RECONCILED
360
CE03D
  0
DICTIONARY
  5
CE03E
330
22
100
AcDbDictionary
280
     1
281
     1
  3
ADSK_XREC_LAYER_RECONCILED
360
CE03F
  0
DICTIONARY
  5
CE040
330
31
100
AcDbDictionary
280
     1
281
     1
  3
ADSK_XREC_LAYER_RECONCILED
360
CE041
  0
DICTIONARY
  5
CE042
330
32
100
AcDbDictionary
280
     1
281
     1
  3
ADSK_XREC_LAYER_RECONCILED
360
CE043
  0
DICTIONARY
  5
CE044
330
33
100
AcDbDictionary
280
     1
281
     1
  3
ADSK_XREC_LAYER_RECONCILED
360
CE045
  0
DICTIONARY
  5
CE046
330
34
100
AcDbDictionary
280
     1
281
     1
  3
ADSK_XREC_LAYER_RECONCILED
360
CE047
  0
DICTIONARY
  5
CE048
330
35
100
AcDbDictionary
280
     1
281
     1
  3
ADSK_XREC_LAYER_RECONCILED
360
CE049
  0
DICTIONARY
  5
CE04A
330
37
100
AcDbDictionary
280
     1
281
     1
  3
ADSK_XREC_LAYER_RECONCILED
360
CE04B
  0
DICTIONARY
  5
DAC9F
330
DAC9E
100
AcDbDictionary
280
     1
281
     1
  0
DICTIONARY
  5
66E76
330
1E
100
AcDbDictionary
280
     1
281
     1
  3
ACAD_SORTENTS
360
CF3CE
  0
XRECORD
  5
CE03B
102
{ACAD_REACTORS
330
C
102
}
330
C
100
AcDbXrecord
280
     1
300
ACDLT
300
2021
300
87396ACDLT_2021_0F
  0
DICTIONARY
  5
CE01E
102
{ACAD_REACTORS
330
C
102
}
330
C
100
AcDbDictionary
281
     1
  0
DICTIONARY
  5
CE037
102
{ACAD_REACTORS
330
C
102
}
330
C
100
AcDbDictionary
281
     1
  3
Imperial24
350
CE038
  3
Metric50
350
CE091
  0
DICTIONARY
  5
D
102
{ACAD_REACTORS
330
C
102
}
330
C
100
AcDbDictionary
281
     1
  3
*A1
350
D8321
  0
DICTIONARY
  5
19
102
{ACAD_REACTORS
330
C
102
}
330
C
100
AcDbDictionary
281
     1
  3
Model
350
CE039
  3
レイアウト1
350
CE03A
  0
DICTIONARY
  5
CDFEC
102
{ACAD_REACTORS
330
C
102
}
330
C
100
AcDbDictionary
281
     1
  3
ByBlock
350
CDFF5
  3
ByLayer
350
CDFED
  3
Global
350
CDFFD
  0
DICTIONARY
  5
CE033
102
{ACAD_REACTORS
330
C
102
}
330
C
100
AcDbDictionary
281
     1
  3
Standard
350
CE034
  0
DICTIONARY
  5
16
102
{ACAD_REACTORS
330
C
102
}
330
C
100
AcDbDictionary
281
     1
  3
STANDARD
350
17
  0
DICTIONARY
  5
18
102
{ACAD_REACTORS
330
C
102
}
330
C
100
AcDbDictionary
281
     1
  0
ACDBDICTIONARYWDFLT
  5
E
102
{ACAD_REACTORS
330
C
102
}
330
C
100
AcDbDictionary
281
     1
  3
Normal
350
F
100
AcDbDictionaryWithDefault
340
F
  0
DICTIONARY
  5
CE021
102
{ACAD_REACTORS
330
C
102
}
330
C
100
AcDbDictionary
281
     1
  3
A0
350
CE022
  3
A1
350
CE023
  3
A2
350
CE024
  3
A3
350
CE025
  3
A4
350
CE026
  3
A5
350
CE027
  3
A6
350
CE028
  3
A7
350
CE029
  3
A8
350
CE02A
  3
A9
350
CE02B
  3
B0
350
CE02C
  3
B1
350
CE02D
  3
B2
350
CE02E
  3
B3
350
CE02F
  3
B4
350
CE030
  3
B5
350
CE031
  3
B6
350
CE032
  0
DICTIONARY
  5
CE035
102
{ACAD_REACTORS
330
C
102
}
330
C
100
AcDbDictionary
281
     1
  3
Imperial24
350
CE036
  3
Metric50
350
CE090
  0
DICTIONARY
  5
CE01F
102
{ACAD_REACTORS
330
C
102
}
330
C
100
AcDbDictionary
281
     1
  3
Standard
350
CE020
  0
DICTIONARY
  5
CE005
102
{ACAD_REACTORS
330
C
102
}
330
C
100
AcDbDictionary
281
     1
  3
2dWireframe
350
CE00B
  3
Basic
350
CE00A
  3
Brighten
350
CE011
  3
ColorChange
350
CE015
  3
Conceptual
350
CE00E
  3
Dim
350
CE010
  3
EdgeColorOff
350
CE01D
  3
Facepattern
350
CE014
  3
Flat
350
CE006
  3
FlatWithEdges
350
CE007
  3
Gouraud
350
CE008
  3
GouraudWithEdges
350
CE009
  3
Hidden
350
CE00D
  3
JitterOff
350
CE01B
  3
Linepattern
350
CE013
  3
OverhangOff
350
CE01C
  3
Realistic
350
CE00F
  3
Shaded
350
CE01A
  3
Shaded with edges
350
CE019
  3
Shades of Gray
350
CE016
  3
Sketchy
350
CE017
  3
Thicken
350
CE012
  3
Wireframe
350
CE00C
  3
X-Ray
350
CE018
  0
XRECORD
  5
DBD8F
102
{ACAD_REACTORS
330
C
102
}
330
C
100
AcDbXrecord
280
     1
 90
        1
330
CE020
330
D7F18
  0
DICTIONARY
  5
CF14E
102
{ACAD_REACTORS
330
C
102
}
330
C
100
AcDbDictionary
281
     1
  3
CANNOSCALE
350
CF153
  3
CMLEADERSTYLE
350
CF150
  3
CTABLESTYLE
350
CF14F
  3
CVIEWDETAILSTYLE
350
CF151
  3
CVIEWSECTIONSTYLE
350
CF152
  3
DIMASSOC
350
CF621
  3
INDEXCTL
350
CF620
  3
LAYEREVAL
350
D165F
  3
LAYERNOTIFY
350
D1660
  3
LIGHTINGUNITS
350
D165E
  3
MSLTSCALE
350
D165D
  3
SORTENTS
350
CF61F
  0
DICTIONARY
  5
CE08F
102
{ACAD_REACTORS
330
CE08E
102
}
330
CE08E
100
AcDbDictionary
281
     1
  0
XRECORD
  5
CE03D
102
{ACAD_REACTORS
330
CE03C
102
}
330
CE03C
100
AcDbXrecord
280
     1
290
     1
  0
XRECORD
  5
CE03F
102
{ACAD_REACTORS
330
CE03E
102
}
330
CE03E
100
AcDbXrecord
280
     1
290
     1
  0
XRECORD
  5
CE041
102
{ACAD_REACTORS
330
CE040
102
}
330
CE040
100
AcDbXrecord
280
     1
290
     1
  0
XRECORD
  5
CE043
102
{ACAD_REACTORS
330
CE042
102
}
330
CE042
100
AcDbXrecord
280
     1
290
     1
  0
XRECORD
  5
CE045
102
{ACAD_REACTORS
330
CE044
102
}
330
CE044
100
AcDbXrecord
280
     1
290
     1
  0
XRECORD
  5
CE047
102
{ACAD_REACTORS
330
CE046
102
}
330
CE046
100
AcDbXrecord
280
     1
290
     1
  0
XRECORD
  5
CE049
102
{ACAD_REACTORS
330
CE048
102
}
330
CE048
100
AcDbXrecord
280
     1
290
     1
  0
XRECORD
  5
CE04B
102
{ACAD_REACTORS
330
CE04A
102
}
330
CE04A
100
AcDbXrecord
280
     1
290
     1
  0
SORTENTSTABLE
  5
CF3CE
102
{ACAD_REACTORS
330
66E76
102
}
330
66E76
100
AcDbSortentsTable
330
1E
331
38341
  5
D3EFD
331
D7478
  5
D748F
331
D7479
  5
D7490
331
D747A
  5
D7492
331
D747B
  5
D7493
331
D747C
  5
D7494
331
D7480
  5
D7495
331
D7482
  5
D7496
331
D7483
  5
D7497
331
D7484
  5
D7498
331
D7485
  5
D7499
331
D748B
  5
D749B
331
D7624
  5
D7C52
331
D7E0A
  5
D7E0B
331
D7E0B
  5
D7E0C
331
D7E0C
  5
D7E0D
331
D7E0D
  5
D7E0E
331
D8214
  5
D80EB
331
D8216
  5
D80ED
331
D8219
  5
D80F4
331
D821B
  5
D80F6
331
D821E
  5
D80FC
331
D8222
  5
D8104
331
D8226
  5
D85B9
331
D822D
  5
D80EF
331
D822E
  5
D80F0
331
D8230
  5
D80F7
331
D8231
  5
D80F9
331
D8233
  5
D8108
331
D8234
  5
D810A
331
D85B9
  5
D85BA
331
D85BA
  5
D8E95
331
D8E95
  5
D8E96
331
D8E96
  5
D8E97
331
D8E97
  5
D8E98
331
D8E98
  5
D8E99
331
D8E99
  5
D8E9A
331
D8E9E
  5
D8EA0
331
D8E9F
  5
D8EA7
331
D8EA0
  5
D8F64
331
D8F62
  5
D8F65
331
D8F63
  5
D8F67
331
D8F64
  5
D8F69
331
D8F65
  5
D8F6C
331
D8F67
  5
D8F6F
331
D8F6D
  5
D8F70
331
D8F6E
  5
D8F9A
331
D8F97
  5
D8F9C
331
D8F99
  5
D8F9E
331
D8F9A
  5
D8FA1
331
D8F9C
  5
D8FA2
331
D8F9E
  5
D8FAB
331
D8FA3
  5
D8FBA
331
D8FA4
  5
D901D
331
D8FBA
  5
D91A8
331
D9068
  5
D91A9
331
D91A6
  5
D91AC
331
D91A8
  5
D91AD
331
D91AB
  5
D91AE
331
D91AC
  5
D91AF
331
D91AD
  5
D91B0
331
D91AE
  5
D91B1
331
D91AF
  5
D91B2
331
D91B0
  5
D91B3
331
D91B1
  5
D91B5
331
D91B3
  5
D91B7
331
D91B4
  5
D91B9
331
D91B5
  5
D91BC
331
D91B9
  5
D91BE
331
D91BB
  5
D91C0
331
D91BE
  5
D91D4
331
D91BF
  5
D91DE
331
D91C0
  5
D91DF
331
D91C3
  5
D920B
331
D91D0
  5
D920C
331
D91D4
  5
D920D
331
D91D6
  5
D920E
331
D91D7
  5
D920F
331
D91D8
  5
D9210
331
D9209
  5
D9211
331
D920A
  5
D9212
331
D920B
  5
D9213
331
D920C
  5
D9214
331
D920D
  5
D9215
331
D920E
  5
D9216
331
D920F
  5
D9217
331
D9210
  5
D9218
331
D9211
  5
D9219
331
D9212
  5
D921A
331
D9213
  5
D921B
331
D9214
  5
D921C
331
D9215
  5
D9220
331
D9216
  5
D9221
331
D9217
  5
D9222
331
D9218
  5
D9223
331
D9219
  5
D9224
331
D921A
  5
D9225
331
D921B
  5
D9226
331
D921C
  5
D9227
331
D9220
  5
D9228
331
D9221
  5
D9238
331
D9222
  5
D923E
331
D9223
  5
D923F
331
D9224
  5
D9240
331
D9225
  5
D9246
331
D9226
  5
D9247
331
D9227
  5
D9248
331
D9228
  5
D9249
331
D9238
  5
D924A
331
D923E
  5
D924B
331
D923F
  5
D924E
331
D9240
  5
D924F
331
D9246
  5
D9250
331
D9247
  5
D9251
331
D9248
  5
D9252
331
D9249
  5
D9253
331
D924A
  5
D9254
331
D924B
  5
D9255
331
D924E
  5
D9256
331
D924F
  5
D9257
331
D9250
  5
D9258
331
D9251
  5
D9259
331
D9252
  5
D925A
331
D9253
  5
D925B
331
D9254
  5
D925D
331
D9255
  5
D925E
331
D9256
  5
D925F
331
D9257
  5
D9260
331
D9258
  5
D9264
331
D9259
  5
D9266
331
D925A
  5
D9267
331
D925B
  5
D9348
331
D925D
  5
D934A
331
D925E
  5
D934C
331
D925F
  5
D9350
331
D9260
  5
D9359
331
D9319
  5
D935A
331
D933C
  5
D935D
331
D933E
  5
D9361
331
D9344
  5
D9366
331
D9346
  5
D9376
331
D9349
  5
D9377
331
D934A
  5
D937E
331
D934C
  5
D9380
331
D9350
  5
D9386
331
D9359
  5
D9387
331
D9360
  5
D938E
331
D9361
  5
D939A
331
D9362
  5
D939B
331
D9363
  5
D939C
331
D9372
  5
D939D
331
D9373
  5
D939E
331
D9374
  5
D93B4
331
D9376
  5
D93DE
331
D9377
  5
D93E2
331
D9378
  5
D93E3
331
D9379
  5
D93E6
331
D937E
  5
D93E7
331
D9380
  5
D93EA
331
D939B
  5
D93EE
331
D939D
  5
D93F0
331
D93C3
  5
D93F3
331
D93C4
  5
D93F5
331
D93D8
  5
D93FB
331
D93D9
  5
D93FD
331
D93DA
  5
D93FE
331
D93DC
  5
D9400
331
D93E7
  5
D9401
331
D93E9
  5
D9405
331
D93EA
  5
D940A
331
D93EC
  5
D940B
331
D93EF
  5
D940E
331
D93F1
  5
D940F
331
D93F2
  5
D9411
331
D93F3
  5
D9412
331
D93F7
  5
D9413
331
D93F8
  5
D9415
331
D93F9
  5
D9416
331
D93FA
  5
D941A
331
D93FB
  5
D941C
331
D93FC
  5
D941E
331
D93FD
  5
D9420
331
D93FE
  5
D9430
331
D93FF
  5
D9431
331
D9404
  5
D9437
331
D9405
  5
D9438
331
D9407
  5
D9442
331
D9409
  5
D9444
331
D940B
  5
D9445
331
D9411
  5
D9446
331
D9413
  5
D9447
331
D9415
  5
D9448
331
D9418
  5
D9449
331
D941F
  5
D944C
331
D9420
  5
D944D
331
D9422
  5
D944F
331
D9423
  5
D9451
331
D9424
  5
D9452
331
D942F
  5
D9453
331
D9430
  5
D9454
331
D9431
  5
D9455
331
D9432
  5
D9456
331
D9433
  5
D9457
331
D9434
  5
D9458
331
D9439
  5
D947D
331
D943A
  5
D947E
331
D943B
  5
D9481
331
D943C
  5
D9482
331
D943D
  5
D9483
331
D943F
  5
D9485
331
D9440
  5
D9495
331
D9441
  5
D9497
331
D9442
  5
D94B2
331
D9443
  5
D94B3
331
D9444
  5
D94B6
331
D9445
  5
D94BD
331
D9446
  5
D94C4
331
D9447
  5
D94C6
331
D9448
  5
D94C7
331
D9449
  5
D94C9
331
D944A
  5
D9598
331
D9571
  5
D9599
331
D9572
  5
D959A
331
D9573
  5
D959B
331
D9575
  5
D959C
331
D9576
  5
D959D
331
D9577
  5
D959E
331
D9578
  5
D959F
331
D9579
  5
D95A0
331
D957A
  5
D95A1
331
D957B
  5
D95A2
331
D957C
  5
D95A3
331
D957D
  5
D95A4
331
D957E
  5
D95A5
331
D957F
  5
D95A6
331
D9580
  5
D95A7
331
D9582
  5
D95A8
331
D9583
  5
D95A9
331
D9584
  5
D95B0
331
D9587
  5
D95B2
331
D9588
  5
D95B3
331
D9589
  5
D95BC
331
D958A
  5
D95BE
331
D958F
  5
D95C5
331
D9590
  5
D95C6
331
D9591
  5
D95C7
331
D9592
  5
D95C8
331
D9593
  5
D95C9
331
D9594
  5
D95CA
331
D9595
  5
D95CB
331
D9596
  5
D95CC
331
D9597
  5
D95CD
331
D9598
  5
D95D1
331
D9599
  5
D95D2
331
D959A
  5
D95D4
331
D959B
  5
D95D5
331
D959C
  5
D95D6
331
D959D
  5
D95D9
331
D959E
  5
D97D2
331
D959F
  5
D97D4
331
D95A0
  5
D97D5
331
D95A1
  5
D97D6
331
D95A2
  5
D97DD
331
D95A3
  5
D97DE
331
D95A4
  5
D97E0
331
D95A5
  5
D97E3
331
D95AA
  5
D97E4
331
D95AB
  5
D97E5
331
D95AC
  5
D9807
331
D97E0
  5
D9364
331
D97E4
  5
D9808
331
D97E5
  5
D9809
331
D97E6
  5
D980A
331
D97E7
  5
D99E3
331
D97E8
  5
D99E4
331
D97E9
  5
D99EA
331
D97EA
  5
D99E2
331
D97EB
  5
D99E5
331
D97EC
  5
D99E1
331
D97EF
  5
D8E9F
331
D97F0
  5
D9450
331
D97F1
  5
D9486
331
D97F2
  5
D9484
331
D97F4
  5
D91C5
331
D97F6
  5
D9360
331
D97F7
  5
D9414
331
D97F8
  5
D9403
331
D97F9
  5
D9402
331
D97FB
  5
D9407
331
D97FD
  5
D9419
331
D97FE
  5
D9410
331
D9800
  5
D93FC
331
D9801
  5
D95C4
331
D99E1
  5
D99EB
331
D99E2
  5
D99EC
331
D99E3
  5
D99ED
331
D99E4
  5
D99EE
331
D99E5
  5
D99EF
331
D99E6
  5
D99F1
331
D99E7
  5
D99FF
331
D99E8
  5
D9A07
331
D99E9
  5
D9A09
331
D99EA
  5
D9A0B
331
D99EB
  5
D9A0E
331
D99EC
  5
D9A12
331
D99ED
  5
D9A13
331
D99EE
  5
D9A14
331
D99EF
  5
D9A15
331
D99F1
  5
D9FE4
331
D99FF
  5
D9FE5
331
D9A07
  5
DA03B
331
D9A09
  5
DA03C
331
D9A0B
  5
DA03D
331
D9A0E
  5
DA03E
331
D9A12
  5
D91D8
331
D9A13
  5
D91D7
331
D9A14
  5
D91C2
331
D9A15
  5
D91C1
331
DA1C3
  5
D9378
331
DA911
  5
D9363
331
DA95D
  5
D9440
331
DA95E
  5
D943E
331
DAA00
  5
DAB3D
331
DAB3D
  5
DAB40
331
DAB40
  5
DAB41
331
DAB41
  5
DAB42
331
DAB42
  5
DAB46
331
DAB46
  5
DAB4A
331
DAB53
  5
DABBF
331
DABB7
  5
D8107
331
DABB8
  5
DABC0
331
DABBA
  5
DABC2
331
DABBC
  5
DABC3
331
DABBD
  5
DABC4
331
DABBF
  5
DABB7
331
DABC1
  5
DABB9
331
DABC3
  5
DABBC
331
DABC4
  5
DABBD
  0
ACDBDETAILVIEWSTYLE
  5
CE038
102
{ACAD_XDICTIONARY
360
DBD92
102
}
102
{ACAD_REACTORS
330
CE037
102
}
330
CE037
100
AcDbModelDocViewStyle
 70
     0
  3
Imperial24
290
     0
100
AcDbDetailViewStyle
 70
     0
 71
     0
 90
        3
 71
     1
340
11
 62
   256
 40
0.24
340
0
 62
   256
 40
0.24
300

 40
0.36
280
     3
 71
     2
340
15
 90
       25
 62
   256
 71
     3
340
11
 62
   256
 40
0.24
 90
        1
 40
0.75
 90
        1
300
%<\AcVar ViewType \f "%tc1">% %<\AcVar ViewDetailId>%\PSCALE %<\AcVar ViewScale \f "%sn">%
 71
     4
340
15
 90
       25
 62
   256
340
15
 90
       25
 62
   256
280
     0
  0
ACDBDETAILVIEWSTYLE
  5
CE091
102
{ACAD_XDICTIONARY
360
DBD96
102
}
102
{ACAD_REACTORS
330
CE037
102
}
330
CE037
100
AcDbModelDocViewStyle
 70
     0
  3
Metric50
290
     0
100
AcDbDetailViewStyle
 70
     0
 71
     0
 90
        3
 71
     1
340
11
 62
   256
 40
5.0
340
0
 62
   256
 40
5.0
300

 40
0.0
280
     1
 71
     2
340
15
 90
       25
 62
   256
 71
     3
340
11
 62
   256
 40
5.0
 90
        0
 40
15.0
 90
        1
300
%<\AcVar ViewDetailId>% (%<\AcVar ViewScale \f "%sn">%)
 71
     4
340
15
 90
       25
 62
   256
340
15
 90
       25
 62
   256
280
     0
  0
GROUP
  5
D8321
102
{ACAD_REACTORS
330
D
102
}
330
D
100
AcDbGroup
300

 70
     1
 71
     1
340
D737E
340
D737D
  0
LAYOUT
  5
CE039
102
{ACAD_REACTORS
330
19
102
}
330
19
100
AcDbPlotSettings
  1

  2
none_device
  4
Letter_(8.50_x_11.00_Inches)
  6

 40
6.349999904632567
 41
6.349999904632567
 42
6.350006103515625
 43
6.350006103515625
 44
215.8999938964844
 45
279.3999938964844
 46
0.0
 47
0.0
 48
0.0
 49
0.0
140
0.0
141
0.0
142
1.0
143
200.390412514189
 70
 11952
 72
     0
 73
     1
 74
     0
  7

 75
     0
147
0.004990258702767
 76
     0
 77
     2
 78
   300
148
26170.69265086344
149
13346.95154705586
100
AcDbLayout
  1
Model
 70
     1
 71
     0
 10
0.0
 20
0.0
 11
12.0
 21
9.0
 12
0.0
 22
0.0
 32
0.0
 14
0.0
 24
0.0
 34
0.0
 15
0.0
 25
0.0
 35
0.0
146
0.0
 13
0.0
 23
0.0
 33
0.0
 16
1.0
 26
0.0
 36
0.0
 17
0.0
 27
1.0
 37
0.0
 76
     0
330
1E
331
CDFC4
1001
ACAD_PSEXT
1000
なし
1000
なし
1000
適切ではありません
1000
新しいプロッタ環境設定名を選択しない限り、レイアウトは印刷されません。
1070
     0
  0
LAYOUT
  5
CE03A
102
{ACAD_REACTORS
330
19
102
}
330
19
100
AcDbPlotSettings
  1

  2
なし
  4

  6

 40
0.0
 41
0.0
 42
0.0
 43
0.0
 44
0.0
 45
0.0
 46
0.0
 47
0.0
 48
0.0
 49
0.0
140
0.0
141
0.0
142
1.0
143
1.0
 70
   688
 72
     0
 73
     0
 74
     5
  7

 75
    16
147
1.0
 76
     0
 77
     2
 78
   300
148
0.0
149
0.0
100
AcDbLayout
  1
レイアウト1
 70
     1
 71
     1
 10
0.0
 20
0.0
 11
12.0
 21
9.0
 12
0.0
 22
0.0
 32
0.0
 14
1.000000000000000E+20
 24
1.000000000000000E+20
 34
1.000000000000000E+20
 15
-1.000000000000000E+20
 25
-1.000000000000000E+20
 35
-1.000000000000000E+20
146
0.0
 13
0.0
 23
0.0
 33
0.0
 16
1.0
 26
0.0
 36
0.0
 17
0.0
 27
1.0
 37
0.0
 76
     0
330
1A
  0
MATERIAL
  5
CDFF5
102
{ACAD_XDICTIONARY
360
CDFF6
102
}
102
{ACAD_REACTORS
330
CDFEC
102
}
330
CDFEC
100
AcDbMaterial
  1
ByBlock
 72
     0
 43
0.0208333333333333
 43
0.0
 43
0.0
 43
0.0
 43
0.0
 43
0.0208333333333333
 43
0.0
 43
0.0
 43
0.0
 43
0.0
 43
1.0
 43
0.0
 43
0.0
 43
0.0
 43
0.0
 43
1.0
 77
     0
 47
0.0208333333333333
 47
0.0
 47
0.0
 47
0.0
 47
0.0
 47
0.0208333333333333
 47
0.0
 47
0.0
 47
0.0
 47
0.0
 47
1.0
 47
0.0
 47
0.0
 47
0.0
 47
0.0
 47
1.0
171
     0
 49
0.0208333333333333
 49
0.0
 49
0.0
 49
0.0
 49
0.0
 49
0.0208333333333333
 49
0.0
 49
0.0
 49
0.0
 49
0.0
 49
1.0
 49
0.0
 49
0.0
 49
0.0
 49
0.0
 49
1.0
175
     0
142
0.0208333333333333
142
0.0
142
0.0
142
0.0
142
0.0
142
0.0208333333333333
142
0.0
142
0.0
142
0.0
142
0.0
142
1.0
142
0.0
142
0.0
142
0.0
142
0.0
142
1.0
179
     0
144
0.0208333333333333
144
0.0
144
0.0
144
0.0
144
0.0
144
0.0208333333333333
144
0.0
144
0.0
144
0.0
144
0.0
144
1.0
144
0.0
144
0.0
144
0.0
144
0.0
144
1.0
147
0.0208333333333333
147
0.0
147
0.0
147
0.0
147
0.0
147
0.0208333333333333
147
0.0
147
0.0
147
0.0
147
0.0
147
1.0
147
0.0
147
0.0
147
0.0
147
0.0
147
1.0
  0
MATERIAL
  5
CDFED
102
{ACAD_XDICTIONARY
360
CDFEE
102
}
102
{ACAD_REACTORS
330
CDFEC
102
}
330
CDFEC
100
AcDbMaterial
  1
ByLayer
 72
     0
 43
0.0208333333333333
 43
0.0
 43
0.0
 43
0.0
 43
0.0
 43
0.0208333333333333
 43
0.0
 43
0.0
 43
0.0
 43
0.0
 43
1.0
 43
0.0
 43
0.0
 43
0.0
 43
0.0
 43
1.0
 77
     0
 47
0.0208333333333333
 47
0.0
 47
0.0
 47
0.0
 47
0.0
 47
0.0208333333333333
 47
0.0
 47
0.0
 47
0.0
 47
0.0
 47
1.0
 47
0.0
 47
0.0
 47
0.0
 47
0.0
 47
1.0
171
     0
 49
0.0208333333333333
 49
0.0
 49
0.0
 49
0.0
 49
0.0
 49
0.0208333333333333
 49
0.0
 49
0.0
 49
0.0
 49
0.0
 49
1.0
 49
0.0
 49
0.0
 49
0.0
 49
0.0
 49
1.0
175
     0
142
0.0208333333333333
142
0.0
142
0.0
142
0.0
142
0.0
142
0.0208333333333333
142
0.0
142
0.0
142
0.0
142
0.0
142
1.0
142
0.0
142
0.0
142
0.0
142
0.0
142
1.0
179
     0
144
0.0208333333333333
144
0.0
144
0.0
144
0.0
144
0.0
144
0.0208333333333333
144
0.0
144
0.0
144
0.0
144
0.0
144
1.0
144
0.0
144
0.0
144
0.0
144
0.0
144
1.0
147
0.0208333333333333
147
0.0
147
0.0
147
0.0
147
0.0
147
0.0208333333333333
147
0.0
147
0.0
147
0.0
147
0.0
147
1.0
147
0.0
147
0.0
147
0.0
147
0.0
147
1.0
  0
MATERIAL
  5
CDFFD
102
{ACAD_XDICTIONARY
360
CDFFE
102
}
102
{ACAD_REACTORS
330
CDFEC
102
}
330
CDFEC
100
AcDbMaterial
  1
Global
 72
     0
 43
0.0208333333333333
 43
0.0
 43
0.0
 43
0.0
 43
0.0
 43
0.0208333333333333
 43
0.0
 43
0.0
 43
0.0
 43
0.0
 43
1.0
 43
0.0
 43
0.0
 43
0.0
 43
0.0
 43
1.0
 77
     0
 47
0.0208333333333333
 47
0.0
 47
0.0
 47
0.0
 47
0.0
 47
0.0208333333333333
 47
0.0
 47
0.0
 47
0.0
 47
0.0
 47
1.0
 47
0.0
 47
0.0
 47
0.0
 47
0.0
 47
1.0
171
     0
 49
0.0208333333333333
 49
0.0
 49
0.0
 49
0.0
 49
0.0
 49
0.0208333333333333
 49
0.0
 49
0.0
 49
0.0
 49
0.0
 49
1.0
 49
0.0
 49
0.0
 49
0.0
 49
0.0
 49
1.0
175
     0
142
0.0208333333333333
142
0.0
142
0.0
142
0.0
142
0.0
142
0.0208333333333333
142
0.0
142
0.0
142
0.0
142
0.0
142
1.0
142
0.0
142
0.0
142
0.0
142
0.0
142
1.0
179
     0
144
0.0208333333333333
144
0.0
144
0.0
144
0.0
144
0.0
144
0.0208333333333333
144
0.0
144
0.0
144
0.0
144
0.0
144
1.0
144
0.0
144
0.0
144
0.0
144
0.0
144
1.0
147
0.0208333333333333
147
0.0
147
0.0
147
0.0
147
0.0
147
0.0208333333333333
147
0.0
147
0.0
147
0.0
147
0.0
147
1.0
147
0.0
147
0.0
147
0.0
147
0.0
147
1.0
  0
MLEADERSTYLE
  5
CE034
102
{ACAD_REACTORS
330
CE033
102
}
330
CE033
100
AcDbMLeaderStyle
179
     2
170
     2
171
     1
172
     0
 90
        2
 40
0.0
 41
0.0
173
     1
 91
-1056964608
340
13
 92
       -2
290
     1
 42
0.09
291
     1
 43
0.36
  3
Standard
341
D7F38
 44
40.0
300

342
11
174
     1
178
     6
175
     1
176
     0
 93
-1056964608
 45
0.18
292
     0
297
     0
 46
0.18
 94
-1056964608
 47
1.0
 49
1.0
140
1.0
293
     1
141
0.0
294
     1
177
     0
142
1.0
295
     0
296
     0
143
0.125
271
     0
272
     9
273
     9
298
     0
1001
ACAD_MLEADERVER
1070
     2
  0
MLINESTYLE
  5
17
102
{ACAD_REACTORS
330
16
102
}
330
16
100
AcDbMlineStyle
  2
STANDARD
 70
     0
  3

 62
   256
 51
90.0
 52
90.0
 71
     2
 49
0.5
 62
   256
  6
BYLAYER
 49
-0.5
 62
   256
  6
BYLAYER
  0
ACDBPLACEHOLDER
  5
F
102
{ACAD_REACTORS
330
E
102
}
330
E
  0
SCALE
  5
CE022
102
{ACAD_REACTORS
330
CE021
102
}
330
CE021
100
AcDbScale
 70
     0
300
1:1
140
1.0
141
1.0
290
     1
  0
SCALE
  5
CE023
102
{ACAD_REACTORS
330
CE021
102
}
330
CE021
100
AcDbScale
 70
     0
300
1/128" = 1'-0"
140
0.0078125
141
12.0
290
     0
  0
SCALE
  5
CE024
102
{ACAD_REACTORS
330
CE021
102
}
330
CE021
100
AcDbScale
 70
     0
300
1/64" = 1'-0"
140
0.015625
141
12.0
290
     0
  0
SCALE
  5
CE025
102
{ACAD_REACTORS
330
CE021
102
}
330
CE021
100
AcDbScale
 70
     0
300
1/32" = 1'-0"
140
0.03125
141
12.0
290
     0
  0
SCALE
  5
CE026
102
{ACAD_REACTORS
330
CE021
102
}
330
CE021
100
AcDbScale
 70
     0
300
1/16" = 1'-0"
140
0.0625
141
12.0
290
     0
  0
SCALE
  5
CE027
102
{ACAD_REACTORS
330
CE021
102
}
330
CE021
100
AcDbScale
 70
     0
300
3/32" = 1'-0"
140
0.09375
141
12.0
290
     0
  0
SCALE
  5
CE028
102
{ACAD_REACTORS
330
CE021
102
}
330
CE021
100
AcDbScale
 70
     0
300
1/8" = 1'-0"
140
0.125
141
12.0
290
     0
  0
SCALE
  5
CE029
102
{ACAD_REACTORS
330
CE021
102
}
330
CE021
100
AcDbScale
 70
     0
300
3/16" = 1'-0"
140
0.1875
141
12.0
290
     0
  0
SCALE
  5
CE02A
102
{ACAD_REACTORS
330
CE021
102
}
330
CE021
100
AcDbScale
 70
     0
300
1/4" = 1'-0"
140
0.25
141
12.0
290
     0
  0
SCALE
  5
CE02B
102
{ACAD_REACTORS
330
CE021
102
}
330
CE021
100
AcDbScale
 70
     0
300
3/8" = 1'-0"
140
0.375
141
12.0
290
     0
  0
SCALE
  5
CE02C
102
{ACAD_REACTORS
330
CE021
102
}
330
CE021
100
AcDbScale
 70
     0
300
1/2" = 1'-0"
140
0.5
141
12.0
290
     0
  0
SCALE
  5
CE02D
102
{ACAD_REACTORS
330
CE021
102
}
330
CE021
100
AcDbScale
 70
     0
300
3/4" = 1'-0"
140
0.75
141
12.0
290
     0
  0
SCALE
  5
CE02E
102
{ACAD_REACTORS
330
CE021
102
}
330
CE021
100
AcDbScale
 70
     0
300
1" = 1'-0"
140
1.0
141
12.0
290
     0
  0
SCALE
  5
CE02F
102
{ACAD_REACTORS
330
CE021
102
}
330
CE021
100
AcDbScale
 70
     0
300
1-1/2" = 1'-0"
140
1.5
141
12.0
290
     0
  0
SCALE
  5
CE030
102
{ACAD_REACTORS
330
CE021
102
}
330
CE021
100
AcDbScale
 70
     0
300
3" = 1'-0"
140
3.0
141
12.0
290
     0
  0
SCALE
  5
CE031
102
{ACAD_REACTORS
330
CE021
102
}
330
CE021
100
AcDbScale
 70
     0
300
6" = 1'-0"
140
6.0
141
12.0
290
     0
  0
SCALE
  5
CE032
102
{ACAD_REACTORS
330
CE021
102
}
330
CE021
100
AcDbScale
 70
     0
300
1'-0" = 1'-0"
140
12.0
141
12.0
290
     0
  0
ACDBSECTIONVIEWSTYLE
  5
CE036
102
{ACAD_XDICTIONARY
360
DBD90
102
}
102
{ACAD_REACTORS
330
CE035
102
}
330
CE035
100
AcDbModelDocViewStyle
 70
     0
  3
Imperial24
290
     0
100
AcDbSectionViewStyle
 70
     0
 71
     0
 90
       78
 71
     1
340
11
 62
   256
 40
0.24
340
0
340
0
 62
   256
 40
0.24
300
I, O, Q, S, X, Z
 40
0.48
 90
        3
 40
0.18
 90
        1
 71
     2
340
15
 90
       25
 62
   256
340
15
 90
       50
 62
   256
 40
0.24
 40
0.0
 40
0.24
 71
     3
340
11
 62
   256
 40
0.24
 90
        1
 40
0.75
 90
        1
300
%<\AcVar ViewType \f "%tc1">% %<\AcVar ViewSectionStartId>%-%<\AcVar ViewSectionEndId>%\PSCALE %<\AcVar ViewScale \f "%sn">%
 71
     4
 62
   256
 62
   257
300
ANSI31
 40
1.0
 90
        0
290
     0
290
     0
 90
        6
 40
0.0
 40
1.570796326794896
 40
0.2617993877991494
 40
1.308996938995747
 40
-0.2617993877991494
 40
1.832595714594044
  0
ACDBSECTIONVIEWSTYLE
  5
CE090
102
{ACAD_XDICTIONARY
360
DBD94
102
}
102
{ACAD_REACTORS
330
CE035
102
}
330
CE035
100
AcDbModelDocViewStyle
 70
     0
  3
Metric50
290
     0
100
AcDbSectionViewStyle
 70
     0
 71
     0
 90
      102
 71
     1
340
11
 62
   256
 40
5.0
340
0
340
0
 62
   256
 40
5.0
300
I, O, Q, S, X, Z
 40
10.0
 90
        0
 40
2.5
 90
        0
 71
     2
340
15
 90
       25
 62
   256
340
15
 90
       50
 62
   256
 40
5.0
 40
2.5
 40
5.0
 71
     3
340
11
 62
   256
 40
5.0
 90
        0
 40
15.0
 90
        1
300
%<\AcVar ViewSectionStartId>%-%<\AcVar ViewSectionEndId>% (%<\AcVar ViewScale \f "%sn">%)
 71
     4
 62
   256
 62
   257
300
ANSI31
 40
1.0
 90
        0
290
     0
290
     0
 90
        6
 40
0.0
 40
1.570796326794896
 40
0.2617993877991494
 40
1.308996938995747
 40
-0.2617993877991494
 40
1.832595714594044
  0
TABLESTYLE
  5
CE020
102
{ACAD_XDICTIONARY
360
D7884
102
}
102
{ACAD_REACTORS
330
CE01F
102
}
330
CE01F
100
AcDbTableStyle
280
     0
  3
Standard
 70
     0
 71
     0
 40
0.06
 41
0.06
280
     0
281
     0
  7
STANDARD
140
0.18
170
     2
 62
     0
 63
     7
283
     0
 90
      512
 91
        0
  1

274
    -2
284
     1
 64
     0
275
    -2
285
     1
 65
     0
276
    -2
286
     1
 66
     0
277
    -2
287
     1
 67
     0
278
    -2
288
     1
 68
     0
279
    -2
289
     1
 69
     0
  7
STANDARD
140
0.25
170
     5
 62
     0
 63
     7
283
     0
 90
      512
 91
        0
  1

274
    -2
284
     1
 64
     0
275
    -2
285
     1
 65
     0
276
    -2
286
     1
 66
     0
277
    -2
287
     1
 67
     0
278
    -2
288
     1
 68
     0
279
    -2
289
     1
 69
     0
  7
STANDARD
140
0.18
170
     5
 62
     0
 63
     7
283
     0
 90
      512
 91
        0
  1

274
    -2
284
     1
 64
     0
275
    -2
285
     1
 65
     0
276
    -2
286
     1
 66
     0
277
    -2
287
     1
 67
     0
278
    -2
288
     1
 68
     0
279
    -2
289
     1
 69
     0
  0
VISUALSTYLE
  5
CE00B
102
{ACAD_REACTORS
330
CE005
102
}
330
CE005
100
AcDbVisualStyle
  2

 70
     4
177
     3
291
     0
 70
    58
 90
        0
176
     1
 90
        2
176
     1
 90
        0
176
     1
 90
        0
176
     1
 40
0.6
176
     1
 40
30.0
176
     1
 62
     7
176
     1
 90
        1
176
     1
 90
        4
176
     1
 62
     7
176
     1
 62
   257
176
     1
 90
        1
176
     1
 90
        1
176
     1
 40
1.0
176
     1
 90
        0
176
     1
 62
   257
176
     1
 40
1.0
176
     1
 90
        1
176
     1
 90
        6
176
     1
 90
        2
176
     1
 62
     7
176
     1
 90
        5
176
     1
 90
        0
176
     1
 90
        0
176
     1
290
     0
176
     1
 90
        1
176
     1
 40
0.0
176
     1
 90
        0
176
     1
290
     1
176
     1
290
     1
176
     1
290
     0
176
     1
290
     0
176
     1
290
     0
176
     1
290
     0
176
     1
290
     0
176
     1
290
     0
176
     1
290
     0
176
     1
 90
       50
176
     1
 40
0.0
176
     1
 40
1.0
176
     1
 90
        0
176
     1
 62
    18
176
     1
 90
       50
176
     1
 90
        3
176
     1
 62
     5
420
      255
176
     1
290
     0
176
     1
 90
       50
176
     1
 90
       50
176
     1
 90
       50
176
     1
290
     0
176
     1
 90
       50
176
     1
 62
   256
176
     0
 40
1.0
176
     0
 90
        2
176
     1
  1
strokes_ogs.tif
176
     1
290
     0
176
     1
 40
1.0
176
     1
 40
1.0
176
     1
1001
ACAD
1000
AcDbSavedByObjectVersion
1070
     0
  0
VISUALSTYLE
  5
CE00A
102
{ACAD_REACTORS
330
CE005
102
}
330
CE005
100
AcDbVisualStyle
  2

 70
     7
177
     3
291
     1
 70
    58
 90
        1
176
     1
 90
        0
176
     1
 90
        1
176
     1
 90
        0
176
     1
 40
0.6
176
     1
 40
30.0
176
     1
 62
     7
176
     1
 90
        0
176
     1
 90
        4
176
     1
 62
     7
176
     1
 62
   257
176
     1
 90
        1
176
     1
 90
        1
176
     1
 40
1.0
176
     1
 90
        8
176
     1
 62
     7
176
     1
 40
1.0
176
     1
 90
        1
176
     1
 90
        6
176
     1
 90
        2
176
     1
 62
     7
176
     1
 90
        5
176
     1
 90
        0
176
     1
 90
        0
176
     1
290
     0
176
     1
 90
        1
176
     1
 40
0.0
176
     1
 90
        0
176
     1
290
     0
176
     1
290
     1
176
     1
290
     1
176
     1
290
     0
176
     1
290
     0
176
     1
290
     0
176
     1
290
     0
176
     1
290
     0
176
     1
290
     0
176
     1
 90
       50
176
     1
 40
0.0
176
     1
 40
1.0
176
     1
 90
        0
176
     1
 62
    18
176
     1
 90
       50
176
     1
 90
        3
176
     1
 62
     5
420
      255
176
     1
290
     0
176
     1
 90
       50
176
     1
 90
       50
176
     1
 90
       50
176
     1
290
     0
176
     1
 90
       50
176
     1
 62
   256
176
     0
 40
1.0
176
     0
 90
        2
176
     1
  1
strokes_ogs.tif
176
     1
290
     0
176
     1
 40
1.0
176
     1
 40
1.0
176
     1
1001
ACAD
1000
AcDbSavedByObjectVersion
1070
     0
  0
VISUALSTYLE
  5
CE011
102
{ACAD_REACTORS
330
CE005
102
}
330
CE005
100
AcDbVisualStyle
  2

 70
    12
177
     3
291
     1
 70
    58
 90
        2
176
     1
 90
        2
176
     1
 90
        0
176
     1
 90
        0
176
     1
 40
0.6
176
     1
 40
30.0
176
     1
 62
     7
176
     1
 90
        1
176
     1
 90
        4
176
     1
 62
     7
176
     1
 62
   257
176
     1
 90
        1
176
     1
 90
        1
176
     1
 40
1.0
176
     1
 90
        8
176
     1
 62
     7
176
     1
 40
1.0
176
     1
 90
        1
176
     1
 90
        6
176
     1
 90
        2
176
     1
 62
     7
176
     1
 90
        5
176
     1
 90
        0
176
     1
 90
        0
176
     1
290
     0
176
     1
 90
        1
176
     1
 40
50.0
176
     1
 90
        0
176
     1
290
     0
176
     1
290
     1
176
     1
290
     1
176
     1
290
     0
176
     1
290
     0
176
     1
290
     0
176
     1
290
     0
176
     1
290
     0
176
     1
290
     0
176
     1
 90
       50
176
     1
 40
0.0
176
     1
 40
1.0
176
     1
 90
        0
176
     1
 62
    18
176
     1
 90
       50
176
     1
 90
        3
176
     1
 62
     5
420
      255
176
     1
290
     0
176
     1
 90
       50
176
     1
 90
       50
176
     1
 90
       50
176
     1
290
     0
176
     1
 90
       50
176
     1
 62
   256
176
     0
 40
1.0
176
     0
 90
        2
176
     1
  1
strokes_ogs.tif
176
     1
290
     0
176
     1
 40
1.0
176
     1
 40
1.0
176
     1
1001
ACAD
1000
AcDbSavedByObjectVersion
1070
     0
  0
VISUALSTYLE
  5
CE015
102
{ACAD_REACTORS
330
CE005
102
}
330
CE005
100
AcDbVisualStyle
  2

 70
    16
177
     3
291
     1
 70
    58
 90
        2
176
     1
 90
        2
176
     1
 90
        3
176
     1
 90
        0
176
     1
 40
0.6
176
     1
 40
30.0
176
     1
 62
     8
176
     1
 90
        1
176
     1
 90
        4
176
     1
 62
     7
176
     1
 62
   257
176
     1
 90
        1
176
     1
 90
        1
176
     1
 40
1.0
176
     1
 90
        8
176
     1
 62
     8
176
     1
 40
1.0
176
     1
 90
        1
176
     1
 90
        6
176
     1
 90
        2
176
     1
 62
     7
176
     1
 90
        5
176
     1
 90
        0
176
     1
 90
        0
176
     1
290
     0
176
     1
 90
        1
176
     1
 40
0.0
176
     1
 90
        0
176
     1
290
     0
176
     1
290
     1
176
     1
290
     1
176
     1
290
     0
176
     1
290
     0
176
     1
290
     0
176
     1
290
     0
176
     1
290
     0
176
     1
290
     0
176
     1
 90
       50
176
     1
 40
0.0
176
     1
 40
1.0
176
     1
 90
        0
176
     1
 62
    18
176
     1
 90
       50
176
     1
 90
        3
176
     1
 62
     5
420
      255
176
     1
290
     0
176
     1
 90
       50
176
     1
 90
       50
176
     1
 90
       50
176
     1
290
     0
176
     1
 90
       50
176
     1
 62
   256
176
     0
 40
1.0
176
     0
 90
        2
176
     1
  1
strokes_ogs.tif
176
     1
290
     0
176
     1
 40
1.0
176
     1
 40
1.0
176
     1
1001
ACAD
1000
AcDbSavedByObjectVersion
1070
     0
  0
VISUALSTYLE
  5
CE00E
102
{ACAD_REACTORS
330
CE005
102
}
330
CE005
100
AcDbVisualStyle
  2

 70
     9
177
     3
291
     0
 70
    58
 90
        3
176
     1
 90
        2
176
     1
 90
        0
176
     1
 90
        0
176
     1
 40
0.6
176
     1
 40
30.0
176
     1
 62
     7
176
     1
 90
        2
176
     1
 90
        2
176
     1
 62
     7
176
     1
 62
   257
176
     1
 90
        1
176
     1
 90
        1
176
     1
 40
179.0
176
     1
 90
        8
176
     1
 62
     7
176
     1
 40
1.0
176
     1
 90
        1
176
     1
 90
        6
176
     1
 90
        2
176
     1
 62
     7
176
     1
 90
        3
176
     1
 90
        0
176
     1
 90
        0
176
     1
290
     0
176
     1
 90
        1
176
     1
 40
0.0
176
     1
 90
        0
176
     1
290
     0
176
     1
290
     1
176
     1
290
     1
176
     1
290
     0
176
     1
290
     0
176
     1
290
     0
176
     1
290
     0
176
     1
290
     0
176
     1
290
     0
176
     1
 90
       50
176
     1
 40
0.0
176
     1
 40
1.0
176
     1
 90
        0
176
     1
 62
    18
176
     1
 90
       50
176
     1
 90
        3
176
     1
 62
     5
420
      255
176
     1
290
     0
176
     1
 90
       50
176
     1
 90
       50
176
     1
 90
       50
176
     1
290
     0
176
     1
 90
       50
176
     1
 62
   256
176
     0
 40
1.0
176
     0
 90
        2
176
     1
  1
strokes_ogs.tif
176
     1
290
     0
176
     1
 40
1.0
176
     1
 40
1.0
176
     1
1001
ACAD
1000
AcDbSavedByObjectVersion
1070
     0
  0
VISUALSTYLE
  5
CE010
102
{ACAD_REACTORS
330
CE005
102
}
330
CE005
100
AcDbVisualStyle
  2

 70
    11
177
     3
291
     1
 70
    58
 90
        2
176
     1
 90
        2
176
     1
 90
        0
176
     1
 90
        0
176
     1
 40
0.6
176
     1
 40
30.0
176
     1
 62
     7
176
     1
 90
        1
176
     1
 90
        4
176
     1
 62
     7
176
     1
 62
   257
176
     1
 90
        1
176
     1
 90
        1
176
     1
 40
1.0
176
     1
 90
        8
176
     1
 62
     7
176
     1
 40
1.0
176
     1
 90
        1
176
     1
 90
        6
176
     1
 90
        2
176
     1
 62
     7
176
     1
 90
        5
176
     1
 90
        0
176
     1
 90
        0
176
     1
290
     0
176
     1
 90
        1
176
     1
 40
-50.0
176
     1
 90
        0
176
     1
290
     0
176
     1
290
     1
176
     1
290
     1
176
     1
290
     0
176
     1
290
     0
176
     1
290
     0
176
     1
290
     0
176
     1
290
     0
176
     1
290
     0
176
     1
 90
       50
176
     1
 40
0.0
176
     1
 40
1.0
176
     1
 90
        0
176
     1
 62
    18
176
     1
 90
       50
176
     1
 90
        3
176
     1
 62
     5
420
      255
176
     1
290
     0
176
     1
 90
       50
176
     1
 90
       50
176
     1
 90
       50
176
     1
290
     0
176
     1
 90
       50
176
     1
 62
   256
176
     0
 40
1.0
176
     0
 90
        2
176
     1
  1
strokes_ogs.tif
176
     1
290
     0
176
     1
 40
1.0
176
     1
 40
1.0
176
     1
1001
ACAD
1000
AcDbSavedByObjectVersion
1070
     0
  0
VISUALSTYLE
  5
CE01D
102
{ACAD_REACTORS
330
CE005
102
}
330
CE005
100
AcDbVisualStyle
  2

 70
    22
177
     3
291
     1
 70
    58
 90
        2
176
     0
 90
        2
176
     0
 90
        0
176
     0
 90
        0
176
     0
 40
0.6
176
     0
 40
30.0
176
     0
 62
     7
176
     0
 90
        1
176
     0
 90
        4
176
     0
 62
     7
176
     0
 62
   257
176
     0
 90
        1
176
     0
 90
        1
176
     0
 40
1.0
176
     0
 90
        8
176
     2
 62
     7
176
     0
 40
1.0
176
     0
 90
        1
176
     0
 90
        6
176
     0
 90
        2
176
     0
 62
     7
176
     0
 90
        5
176
     0
 90
        0
176
     0
 90
        0
176
     0
290
     0
176
     0
 90
        1
176
     0
 40
0.0
176
     0
 90
        0
176
     0
290
     0
176
     1
290
     1
176
     1
290
     1
176
     1
290
     0
176
     1
290
     0
176
     1
290
     0
176
     1
290
     0
176
     1
290
     0
176
     1
290
     0
176
     1
 90
       50
176
     0
 40
0.0
176
     0
 40
1.0
176
     0
 90
        0
176
     0
 62
    18
176
     0
 90
       50
176
     0
 90
        3
176
     0
 62
     5
420
      255
176
     0
290
     0
176
     1
 90
       50
176
     0
 90
       50
176
     0
 90
       50
176
     0
290
     0
176
     1
 90
       50
176
     0
 62
   256
176
     0
 40
1.0
176
     0
 90
        2
176
     0
  1
strokes_ogs.tif
176
     0
290
     0
176
     1
 40
1.0
176
     0
 40
1.0
176
     0
1001
ACAD
1000
AcDbSavedByObjectVersion
1070
     0
  0
VISUALSTYLE
  5
CE014
102
{ACAD_REACTORS
330
CE005
102
}
330
CE005
100
AcDbVisualStyle
  2

 70
    15
177
     3
291
     1
 70
    58
 90
        2
176
     1
 90
        2
176
     1
 90
        0
176
     1
 90
        0
176
     1
 40
0.6
176
     1
 40
30.0
176
     1
 62
     7
176
     1
 90
        1
176
     1
 90
        4
176
     1
 62
     7
176
     1
 62
   257
176
     1
 90
        1
176
     1
 90
        1
176
     1
 40
1.0
176
     1
 90
        8
176
     1
 62
     7
176
     1
 40
1.0
176
     1
 90
        1
176
     1
 90
        6
176
     1
 90
        2
176
     1
 62
     7
176
     1
 90
        5
176
     1
 90
        0
176
     1
 90
        0
176
     1
290
     0
176
     1
 90
        1
176
     1
 40
0.0
176
     1
 90
        0
176
     1
290
     0
176
     1
290
     1
176
     1
290
     1
176
     1
290
     0
176
     1
290
     0
176
     1
290
     0
176
     1
290
     0
176
     1
290
     0
176
     1
290
     0
176
     1
 90
       50
176
     1
 40
0.0
176
     1
 40
1.0
176
     1
 90
        0
176
     1
 62
    18
176
     1
 90
       50
176
     1
 90
        3
176
     1
 62
     5
420
      255
176
     1
290
     0
176
     1
 90
       50
176
     1
 90
       50
176
     1
 90
       50
176
     1
290
     0
176
     1
 90
       50
176
     1
 62
   256
176
     0
 40
1.0
176
     0
 90
        2
176
     1
  1
strokes_ogs.tif
176
     1
290
     0
176
     1
 40
1.0
176
     1
 40
1.0
176
     1
1001
ACAD
1000
AcDbSavedByObjectVersion
1070
     0
  0
VISUALSTYLE
  5
CE006
102
{ACAD_REACTORS
330
CE005
102
}
330
CE005
100
AcDbVisualStyle
  2

 70
     0
177
     3
291
     1
 70
    58
 90
        2
176
     1
 90
        1
176
     1
 90
        1
176
     1
 90
        2
176
     1
 40
0.6
176
     1
 40
30.0
176
     1
 62
     7
176
     1
 90
        0
176
     1
 90
        0
176
     1
 62
     7
176
     1
 62
   257
176
     1
 90
        1
176
     1
 90
        1
176
     1
 40
1.0
176
     1
 90
        8
176
     1
 62
     7
176
     1
 40
1.0
176
     1
 90
        1
176
     1
 90
        6
176
     1
 90
        2
176
     1
 62
     7
176
     1
 90
        5
176
     1
 90
        0
176
     1
 90
        0
176
     1
290
     0
176
     1
 90
       13
176
     1
 40
0.0
176
     1
 90
        0
176
     1
290
     0
176
     1
290
     1
176
     1
290
     1
176
     1
290
     0
176
     1
290
     0
176
     1
290
     0
176
     1
290
     0
176
     1
290
     0
176
     1
290
     0
176
     1
 90
       50
176
     1
 40
0.0
176
     1
 40
1.0
176
     1
 90
        0
176
     1
 62
    18
176
     1
 90
       50
176
     1
 90
        3
176
     1
 62
     5
420
      255
176
     1
290
     0
176
     1
 90
       50
176
     1
 90
       50
176
     1
 90
       50
176
     1
290
     0
176
     1
 90
       50
176
     1
 62
   256
176
     0
 40
1.0
176
     0
 90
        2
176
     1
  1
strokes_ogs.tif
176
     1
290
     0
176
     1
 40
1.0
176
     1
 40
1.0
176
     1
1001
ACAD
1000
AcDbSavedByObjectVersion
1070
     0
  0
VISUALSTYLE
  5
CE007
102
{ACAD_REACTORS
330
CE005
102
}
330
CE005
100
AcDbVisualStyle
  2

 70
     1
177
     3
291
     1
 70
    58
 90
        2
176
     1
 90
        1
176
     1
 90
        1
176
     1
 90
        2
176
     1
 40
0.6
176
     1
 40
30.0
176
     1
 62
     7
176
     1
 90
        1
176
     1
 90
        0
176
     1
 62
     7
176
     1
 62
   257
176
     1
 90
        1
176
     1
 90
        1
176
     1
 40
1.0
176
     1
 90
        0
176
     1
 62
   257
176
     1
 40
1.0
176
     1
 90
        1
176
     1
 90
        6
176
     1
 90
        2
176
     1
 62
     7
176
     1
 90
        5
176
     1
 90
        0
176
     1
 90
        0
176
     1
290
     0
176
     1
 90
       13
176
     1
 40
0.0
176
     1
 90
        0
176
     1
290
     0
176
     1
290
     1
176
     1
290
     1
176
     1
290
     0
176
     1
290
     0
176
     1
290
     0
176
     1
290
     0
176
     1
290
     0
176
     1
290
     0
176
     1
 90
       50
176
     1
 40
0.0
176
     1
 40
1.0
176
     1
 90
        0
176
     1
 62
    18
176
     1
 90
       50
176
     1
 90
        3
176
     1
 62
     5
420
      255
176
     1
290
     0
176
     1
 90
       50
176
     1
 90
       50
176
     1
 90
       50
176
     1
290
     0
176
     1
 90
       50
176
     1
 62
   256
176
     0
 40
1.0
176
     0
 90
        2
176
     1
  1
strokes_ogs.tif
176
     1
290
     0
176
     1
 40
1.0
176
     1
 40
1.0
176
     1
1001
ACAD
1000
AcDbSavedByObjectVersion
1070
     0
  0
VISUALSTYLE
  5
CE008
102
{ACAD_REACTORS
330
CE005
102
}
330
CE005
100
AcDbVisualStyle
  2

 70
     2
177
     3
291
     1
 70
    58
 90
        2
176
     1
 90
        2
176
     1
 90
        1
176
     1
 90
        2
176
     1
 40
0.6
176
     1
 40
30.0
176
     1
 62
     7
176
     1
 90
        0
176
     1
 90
        0
176
     1
 62
     7
176
     1
 62
   257
176
     1
 90
        1
176
     1
 90
        1
176
     1
 40
1.0
176
     1
 90
        0
176
     1
 62
     7
176
     1
 40
1.0
176
     1
 90
        1
176
     1
 90
        6
176
     1
 90
        2
176
     1
 62
     7
176
     1
 90
        5
176
     1
 90
        0
176
     1
 90
        0
176
     1
290
     0
176
     1
 90
       13
176
     1
 40
0.0
176
     1
 90
        0
176
     1
290
     0
176
     1
290
     1
176
     1
290
     1
176
     1
290
     0
176
     1
290
     0
176
     1
290
     0
176
     1
290
     0
176
     1
290
     0
176
     1
290
     0
176
     1
 90
       50
176
     1
 40
0.0
176
     1
 40
1.0
176
     1
 90
        0
176
     1
 62
    18
176
     1
 90
       50
176
     1
 90
        3
176
     1
 62
     5
420
      255
176
     1
290
     0
176
     1
 90
       50
176
     1
 90
       50
176
     1
 90
       50
176
     1
290
     0
176
     1
 90
       50
176
     1
 62
   256
176
     0
 40
1.0
176
     0
 90
        2
176
     1
  1
strokes_ogs.tif
176
     1
290
     0
176
     1
 40
1.0
176
     1
 40
1.0
176
     1
1001
ACAD
1000
AcDbSavedByObjectVersion
1070
     0
  0
VISUALSTYLE
  5
CE009
102
{ACAD_REACTORS
330
CE005
102
}
330
CE005
100
AcDbVisualStyle
  2

 70
     3
177
     3
291
     1
 70
    58
 90
        2
176
     1
 90
        2
176
     1
 90
        1
176
     1
 90
        2
176
     1
 40
0.6
176
     1
 40
30.0
176
     1
 62
     7
176
     1
 90
        1
176
     1
 90
        0
176
     1
 62
     7
176
     1
 62
   257
176
     1
 90
        1
176
     1
 90
        1
176
     1
 40
1.0
176
     1
 90
        0
176
     1
 62
   257
176
     1
 40
1.0
176
     1
 90
        1
176
     1
 90
        6
176
     1
 90
        2
176
     1
 62
     7
176
     1
 90
        5
176
     1
 90
        0
176
     1
 90
        0
176
     1
290
     0
176
     1
 90
       13
176
     1
 40
0.0
176
     1
 90
        0
176
     1
290
     0
176
     1
290
     1
176
     1
290
     1
176
     1
290
     0
176
     1
290
     0
176
     1
290
     0
176
     1
290
     0
176
     1
290
     0
176
     1
290
     0
176
     1
 90
       50
176
     1
 40
0.0
176
     1
 40
1.0
176
     1
 90
        0
176
     1
 62
    18
176
     1
 90
       50
176
     1
 90
        3
176
     1
 62
     5
420
      255
176
     1
290
     0
176
     1
 90
       50
176
     1
 90
       50
176
     1
 90
       50
176
     1
290
     0
176
     1
 90
       50
176
     1
 62
   256
176
     0
 40
1.0
176
     0
 90
        2
176
     1
  1
strokes_ogs.tif
176
     1
290
     0
176
     1
 40
1.0
176
     1
 40
1.0
176
     1
1001
ACAD
1000
AcDbSavedByObjectVersion
1070
     0
  0
VISUALSTYLE
  5
CE00D
102
{ACAD_REACTORS
330
CE005
102
}
330
CE005
100
AcDbVisualStyle
  2

 70
     6
177
     3
291
     0
 70
    58
 90
        1
176
     1
 90
        2
176
     1
 90
        2
176
     1
 90
        0
176
     1
 40
0.6
176
     1
 40
30.0
176
     1
 62
     7
176
     1
 90
        2
176
     1
 90
        2
176
     1
 62
     7
176
     1
 62
   257
176
     1
 90
        2
176
     1
 90
        1
176
     1
 40
40.0
176
     1
 90
        0
176
     1
 62
   257
176
     1
 40
1.0
176
     1
 90
        1
176
     1
 90
        6
176
     1
 90
        2
176
     1
 62
     7
176
     1
 90
        3
176
     1
 90
        0
176
     1
 90
        0
176
     1
290
     0
176
     1
 90
        1
176
     1
 40
0.0
176
     1
 90
        0
176
     1
290
     0
176
     1
290
     1
176
     1
290
     1
176
     1
290
     0
176
     1
290
     0
176
     1
290
     0
176
     1
290
     0
176
     1
290
     0
176
     1
290
     0
176
     1
 90
       50
176
     1
 40
0.0
176
     1
 40
1.0
176
     1
 90
        0
176
     1
 62
    18
176
     1
 90
       50
176
     1
 90
        3
176
     1
 62
     5
420
      255
176
     1
290
     0
176
     1
 90
       50
176
     1
 90
       50
176
     1
 90
       50
176
     1
290
     0
176
     1
 90
       50
176
     1
 62
   256
176
     0
 40
1.0
176
     0
 90
        2
176
     1
  1
strokes_ogs.tif
176
     1
290
     0
176
     1
 40
1.0
176
     1
 40
1.0
176
     1
1001
ACAD
1000
AcDbSavedByObjectVersion
1070
     0
  0
VISUALSTYLE
  5
CE01B
102
{ACAD_REACTORS
330
CE005
102
}
330
CE005
100
AcDbVisualStyle
  2

 70
    20
177
     3
291
     1
 70
    58
 90
        2
176
     0
 90
        2
176
     0
 90
        0
176
     0
 90
        0
176
     0
 40
0.6
176
     0
 40
30.0
176
     0
 62
     7
176
     0
 90
        1
176
     0
 90
        4
176
     0
 62
     7
176
     0
 62
   257
176
     0
 90
        1
176
     0
 90
        1
176
     0
 40
1.0
176
     0
 90
       10
176
     2
 62
     7
176
     0
 40
1.0
176
     0
 90
        1
176
     0
 90
        6
176
     0
 90
        2
176
     0
 62
     7
176
     0
 90
        5
176
     0
 90
        0
176
     0
 90
        0
176
     0
290
     0
176
     0
 90
        1
176
     0
 40
0.0
176
     0
 90
        0
176
     0
290
     0
176
     1
290
     1
176
     1
290
     1
176
     1
290
     0
176
     1
290
     0
176
     1
290
     0
176
     1
290
     0
176
     1
290
     0
176
     1
290
     0
176
     1
 90
       50
176
     0
 40
0.0
176
     0
 40
1.0
176
     0
 90
        0
176
     0
 62
    18
176
     0
 90
       50
176
     0
 90
        3
176
     0
 62
     5
420
      255
176
     0
290
     0
176
     1
 90
       50
176
     0
 90
       50
176
     0
 90
       50
176
     0
290
     0
176
     1
 90
       50
176
     0
 62
   256
176
     0
 40
1.0
176
     0
 90
        2
176
     0
  1
strokes_ogs.tif
176
     0
290
     0
176
     1
 40
1.0
176
     0
 40
1.0
176
     0
1001
ACAD
1000
AcDbSavedByObjectVersion
1070
     0
  0
VISUALSTYLE
  5
CE013
102
{ACAD_REACTORS
330
CE005
102
}
330
CE005
100
AcDbVisualStyle
  2

 70
    14
177
     3
291
     1
 70
    58
 90
        2
176
     1
 90
        2
176
     1
 90
        0
176
     1
 90
        0
176
     1
 40
0.6
176
     1
 40
30.0
176
     1
 62
     7
176
     1
 90
        1
176
     1
 90
        4
176
     1
 62
     7
176
     1
 62
   257
176
     1
 90
        7
176
     1
 90
        7
176
     1
 40
1.0
176
     1
 90
        8
176
     1
 62
     7
176
     1
 40
1.0
176
     1
 90
        1
176
     1
 90
        6
176
     1
 90
        2
176
     1
 62
     7
176
     1
 90
        5
176
     1
 90
        0
176
     1
 90
        0
176
     1
290
     0
176
     1
 90
        1
176
     1
 40
0.0
176
     1
 90
        0
176
     1
290
     0
176
     1
290
     1
176
     1
290
     1
176
     1
290
     0
176
     1
290
     0
176
     1
290
     0
176
     1
290
     0
176
     1
290
     0
176
     1
290
     0
176
     1
 90
       50
176
     1
 40
0.0
176
     1
 40
1.0
176
     1
 90
        0
176
     1
 62
    18
176
     1
 90
       50
176
     1
 90
        3
176
     1
 62
     5
420
      255
176
     1
290
     0
176
     1
 90
       50
176
     1
 90
       50
176
     1
 90
       50
176
     1
290
     0
176
     1
 90
       50
176
     1
 62
   256
176
     0
 40
1.0
176
     0
 90
        2
176
     1
  1
strokes_ogs.tif
176
     1
290
     0
176
     1
 40
1.0
176
     1
 40
1.0
176
     1
1001
ACAD
1000
AcDbSavedByObjectVersion
1070
     0
  0
VISUALSTYLE
  5
CE01C
102
{ACAD_REACTORS
330
CE005
102
}
330
CE005
100
AcDbVisualStyle
  2

 70
    21
177
     3
291
     1
 70
    58
 90
        2
176
     0
 90
        2
176
     0
 90
        0
176
     0
 90
        0
176
     0
 40
0.6
176
     0
 40
30.0
176
     0
 62
     7
176
     0
 90
        1
176
     0
 90
        4
176
     0
 62
     7
176
     0
 62
   257
176
     0
 90
        1
176
     0
 90
        1
176
     0
 40
1.0
176
     0
 90
        9
176
     2
 62
     7
176
     0
 40
1.0
176
     0
 90
        1
176
     0
 90
        6
176
     0
 90
        2
176
     0
 62
     7
176
     0
 90
        5
176
     0
 90
        0
176
     0
 90
        0
176
     0
290
     0
176
     0
 90
        1
176
     0
 40
0.0
176
     0
 90
        0
176
     0
290
     0
176
     1
290
     1
176
     1
290
     1
176
     1
290
     0
176
     1
290
     0
176
     1
290
     0
176
     1
290
     0
176
     1
290
     0
176
     1
290
     0
176
     1
 90
       50
176
     0
 40
0.0
176
     0
 40
1.0
176
     0
 90
        0
176
     0
 62
    18
176
     0
 90
       50
176
     0
 90
        3
176
     0
 62
     5
420
      255
176
     0
290
     0
176
     1
 90
       50
176
     0
 90
       50
176
     0
 90
       50
176
     0
290
     0
176
     1
 90
       50
176
     0
 62
   256
176
     0
 40
1.0
176
     0
 90
        2
176
     0
  1
strokes_ogs.tif
176
     0
290
     0
176
     1
 40
1.0
176
     0
 40
1.0
176
     0
1001
ACAD
1000
AcDbSavedByObjectVersion
1070
     0
  0
VISUALSTYLE
  5
CE00F
102
{ACAD_REACTORS
330
CE005
102
}
330
CE005
100
AcDbVisualStyle
  2

 70
     8
177
     3
291
     0
 70
    58
 90
        2
176
     1
 90
        3
176
     1
 90
        0
176
     1
 90
        2
176
     1
 40
0.6
176
     1
 40
30.0
176
     1
 62
     7
176
     1
 90
        0
176
     1
 90
        0
176
     1
 62
     7
176
     1
 62
   257
176
     1
 90
        1
176
     1
 90
        1
176
     1
 40
1.0
176
     1
 90
        8
176
     1
 62
   257
176
     1
 40
1.0
176
     1
 90
        1
176
     1
 90
        6
176
     1
 90
        2
176
     1
 62
     7
176
     1
 90
        3
176
     1
 90
        0
176
     1
 90
        0
176
     1
290
     0
176
     1
 90
       13
176
     1
 40
0.0
176
     1
 90
        0
176
     1
290
     0
176
     1
290
     1
176
     1
290
     1
176
     1
290
     0
176
     1
290
     0
176
     1
290
     0
176
     1
290
     0
176
     1
290
     0
176
     1
290
     0
176
     1
 90
       50
176
     1
 40
0.0
176
     1
 40
1.0
176
     1
 90
        0
176
     1
 62
    18
176
     1
 90
       50
176
     1
 90
        3
176
     1
 62
     5
420
      255
176
     1
290
     0
176
     1
 90
       50
176
     1
 90
       50
176
     1
 90
       50
176
     1
290
     0
176
     1
 90
       50
176
     1
 62
   256
176
     0
 40
1.0
176
     0
 90
        2
176
     1
  1
strokes_ogs.tif
176
     1
290
     0
176
     1
 40
1.0
176
     1
 40
1.0
176
     1
1001
ACAD
1000
AcDbSavedByObjectVersion
1070
     0
  0
VISUALSTYLE
  5
CE01A
102
{ACAD_REACTORS
330
CE005
102
}
330
CE005
100
AcDbVisualStyle
  2

 70
    27
177
     3
291
     0
 70
    58
 90
        2
176
     1
 90
        2
176
     1
 90
        1
176
     1
 90
        2
176
     1
 40
0.6
176
     1
 40
30.0
176
     1
 62
     7
176
     1
 90
        0
176
     1
 90
        4
176
     1
 62
     7
176
     1
 62
   257
176
     1
 90
        1
176
     1
 90
        1
176
     1
 40
1.0
176
     1
 90
        8
176
     1
 62
   257
176
     1
 40
1.0
176
     1
 90
        1
176
     1
 90
        6
176
     1
 90
        2
176
     1
 62
     8
176
     1
 90
        3
176
     1
 90
        0
176
     1
 90
        0
176
     1
290
     0
176
     1
 90
        5
176
     1
 40
0.0
176
     1
 90
        0
176
     1
290
     0
176
     1
290
     1
176
     1
290
     1
176
     1
290
     0
176
     1
290
     0
176
     1
290
     0
176
     1
290
     0
176
     1
290
     0
176
     1
290
     0
176
     1
 90
       50
176
     1
 40
0.0
176
     1
 40
1.0
176
     1
 90
        0
176
     1
 62
    18
176
     1
 90
       50
176
     1
 90
        3
176
     1
 62
     5
420
      255
176
     1
290
     0
176
     1
 90
       50
176
     1
 90
       50
176
     1
 90
       50
176
     1
290
     0
176
     1
 90
       50
176
     1
 62
   256
176
     0
 40
1.0
176
     0
 90
        2
176
     1
  1
strokes_ogs.tif
176
     1
290
     0
176
     1
 40
1.0
176
     1
 40
1.0
176
     1
1001
ACAD
1000
AcDbSavedByObjectVersion
1070
     0
  0
VISUALSTYLE
  5
CE019
102
{ACAD_REACTORS
330
CE005
102
}
330
CE005
100
AcDbVisualStyle
  2

 70
    26
177
     3
291
     0
 70
    58
 90
        2
176
     1
 90
        2
176
     1
 90
        1
176
     1
 90
        2
176
     1
 40
0.6
176
     1
 40
30.0
176
     1
 62
     7
176
     1
 90
        1
176
     1
 90
        2
176
     1
 62
     7
176
     1
 62
   257
176
     1
 90
        2
176
     1
 90
        1
176
     1
 40
1.0
176
     1
 90
        8
176
     1
 62
   257
176
     1
 40
1.0
176
     1
 90
        1
176
     1
 90
        6
176
     1
 90
        2
176
     1
 62
     7
176
     1
 90
        3
176
     1
 90
        0
176
     1
 90
        0
176
     1
290
     0
176
     1
 90
        5
176
     1
 40
0.0
176
     1
 90
        0
176
     1
290
     0
176
     1
290
     1
176
     1
290
     1
176
     1
290
     0
176
     1
290
     0
176
     1
290
     0
176
     1
290
     0
176
     1
290
     0
176
     1
290
     0
176
     1
 90
       50
176
     1
 40
0.0
176
     1
 40
1.0
176
     1
 90
        0
176
     1
 62
    18
176
     1
 90
       50
176
     1
 90
        3
176
     1
 62
     5
420
      255
176
     1
290
     0
176
     1
 90
       50
176
     1
 90
       50
176
     1
 90
       50
176
     1
290
     0
176
     1
 90
       50
176
     1
 62
   256
176
     0
 40
1.0
176
     0
 90
        2
176
     1
  1
strokes_ogs.tif
176
     1
290
     0
176
     1
 40
1.0
176
     1
 40
1.0
176
     1
1001
ACAD
1000
AcDbSavedByObjectVersion
1070
     0
  0
VISUALSTYLE
  5
CE016
102
{ACAD_REACTORS
330
CE005
102
}
330
CE005
100
AcDbVisualStyle
  2

 70
    23
177
     3
291
     0
 70
    58
 90
        2
176
     1
 90
        2
176
     1
 90
        3
176
     1
 90
        0
176
     1
 40
0.6
176
     1
 40
30.0
176
     1
 62
     7
176
     1
 90
        2
176
     1
 90
        2
176
     1
 62
     7
176
     1
 62
     7
176
     1
 90
        1
176
     1
 90
        1
176
     1
 40
40.0
176
     1
 90
        8
176
     1
 62
     7
176
     1
 40
1.0
176
     1
 90
        1
176
     1
 90
        6
176
     1
 90
        2
176
     1
 62
     7
176
     1
 90
        3
176
     1
 90
        0
176
     1
 90
        0
176
     1
290
     0
176
     1
 90
        1
176
     1
 40
0.0
176
     1
 90
        0
176
     1
290
     0
176
     1
290
     1
176
     1
290
     1
176
     1
290
     0
176
     1
290
     0
176
     1
290
     0
176
     1
290
     0
176
     1
290
     0
176
     1
290
     0
176
     1
 90
       50
176
     1
 40
0.0
176
     1
 40
1.0
176
     1
 90
        0
176
     1
 62
    18
176
     1
 90
       50
176
     1
 90
        3
176
     1
 62
     5
420
      255
176
     1
290
     0
176
     1
 90
       50
176
     1
 90
       50
176
     1
 90
       50
176
     1
290
     0
176
     1
 90
       50
176
     1
 62
   256
176
     0
 40
1.0
176
     0
 90
        2
176
     1
  1
strokes_ogs.tif
176
     1
290
     0
176
     1
 40
1.0
176
     1
 40
1.0
176
     1
1001
ACAD
1000
AcDbSavedByObjectVersion
1070
     0
  0
VISUALSTYLE
  5
CE017
102
{ACAD_REACTORS
330
CE005
102
}
330
CE005
100
AcDbVisualStyle
  2

 70
    24
177
     3
291
     0
 70
    58
 90
        1
176
     1
 90
        2
176
     1
 90
        2
176
     1
 90
        0
176
     1
 40
0.6
176
     1
 40
30.0
176
     1
 62
     7
176
     1
 90
        2
176
     1
 90
        2
176
     1
 62
     7
176
     1
 62
     7
176
     1
 90
        1
176
     1
 90
        1
176
     1
 40
40.0
176
     1
 90
       11
176
     1
 62
     7
176
     1
 40
1.0
176
     1
 90
        1
176
     1
 90
        6
176
     1
 90
        2
176
     1
 62
     7
176
     1
 90
        6
176
     1
 90
        0
176
     1
 90
        0
176
     1
290
     0
176
     1
 90
        1
176
     1
 40
0.0
176
     1
 90
        0
176
     1
290
     0
176
     1
290
     1
176
     1
290
     1
176
     1
290
     0
176
     1
290
     0
176
     1
290
     0
176
     1
290
     0
176
     1
290
     0
176
     1
290
     0
176
     1
 90
       50
176
     1
 40
0.0
176
     1
 40
1.0
176
     1
 90
        0
176
     1
 62
    18
176
     1
 90
       50
176
     1
 90
        3
176
     1
 62
     5
420
      255
176
     1
290
     0
176
     1
 90
       50
176
     1
 90
       50
176
     1
 90
       50
176
     1
290
     0
176
     1
 90
       50
176
     1
 62
   256
176
     0
 40
1.0
176
     0
 90
        2
176
     1
  1
strokes_ogs.tif
176
     1
290
     0
176
     1
 40
1.0
176
     1
 40
1.0
176
     1
1001
ACAD
1000
AcDbSavedByObjectVersion
1070
     0
  0
VISUALSTYLE
  5
CE012
102
{ACAD_REACTORS
330
CE005
102
}
330
CE005
100
AcDbVisualStyle
  2

 70
    13
177
     3
291
     1
 70
    58
 90
        2
176
     1
 90
        2
176
     1
 90
        0
176
     1
 90
        0
176
     1
 40
0.6
176
     1
 40
30.0
176
     1
 62
     7
176
     1
 90
        1
176
     1
 90
        4
176
     1
 62
     7
176
     1
 62
   257
176
     1
 90
        1
176
     1
 90
        1
176
     1
 40
1.0
176
     1
 90
       12
176
     1
 62
     7
176
     1
 40
1.0
176
     1
 90
        1
176
     1
 90
        6
176
     1
 90
        2
176
     1
 62
     7
176
     1
 90
        5
176
     1
 90
        0
176
     1
 90
        0
176
     1
290
     0
176
     1
 90
        1
176
     1
 40
0.0
176
     1
 90
        0
176
     1
290
     0
176
     1
290
     1
176
     1
290
     1
176
     1
290
     0
176
     1
290
     0
176
     1
290
     0
176
     1
290
     0
176
     1
290
     0
176
     1
290
     0
176
     1
 90
       50
176
     1
 40
0.0
176
     1
 40
1.0
176
     1
 90
        0
176
     1
 62
    18
176
     1
 90
       50
176
     1
 90
        3
176
     1
 62
     5
420
      255
176
     1
290
     0
176
     1
 90
       50
176
     1
 90
       50
176
     1
 90
       50
176
     1
290
     0
176
     1
 90
       50
176
     1
 62
   256
176
     0
 40
1.0
176
     0
 90
        2
176
     1
  1
strokes_ogs.tif
176
     1
290
     0
176
     1
 40
1.0
176
     1
 40
1.0
176
     1
1001
ACAD
1000
AcDbSavedByObjectVersion
1070
     0
  0
VISUALSTYLE
  5
CE00C
102
{ACAD_REACTORS
330
CE005
102
}
330
CE005
100
AcDbVisualStyle
  2

 70
     5
177
     3
291
     0
 70
    58
 90
        0
176
     1
 90
        2
176
     1
 90
        0
176
     1
 90
        0
176
     1
 40
0.6
176
     1
 40
30.0
176
     1
 62
     7
176
     1
 90
        1
176
     1
 90
        4
176
     1
 62
     7
176
     1
 62
   257
176
     1
 90
        1
176
     1
 90
        1
176
     1
 40
1.0
176
     1
 90
        0
176
     1
 62
   257
176
     1
 40
1.0
176
     1
 90
        1
176
     1
 90
        6
176
     1
 90
        2
176
     1
 62
     7
176
     1
 90
        3
176
     1
 90
        0
176
     1
 90
        0
176
     1
290
     0
176
     1
 90
        1
176
     1
 40
0.0
176
     1
 90
        0
176
     1
290
     0
176
     1
290
     1
176
     1
290
     1
176
     1
290
     0
176
     1
290
     0
176
     1
290
     0
176
     1
290
     0
176
     1
290
     0
176
     1
290
     0
176
     1
 90
       50
176
     1
 40
0.0
176
     1
 40
1.0
176
     1
 90
        0
176
     1
 62
    18
176
     1
 90
       50
176
     1
 90
        3
176
     1
 62
     5
420
      255
176
     1
290
     0
176
     1
 90
       50
176
     1
 90
       50
176
     1
 90
       50
176
     1
290
     0
176
     1
 90
       50
176
     1
 62
   256
176
     0
 40
1.0
176
     0
 90
        2
176
     1
  1
strokes_ogs.tif
176
     1
290
     0
176
     1
 40
1.0
176
     1
 40
1.0
176
     1
1001
ACAD
1000
AcDbSavedByObjectVersion
1070
     0
  0
VISUALSTYLE
  5
CE018
102
{ACAD_REACTORS
330
CE005
102
}
330
CE005
100
AcDbVisualStyle
  2

 70
    25
177
     3
291
     0
 70
    58
 90
        2
176
     1
 90
        2
176
     1
 90
        1
176
     1
 90
        1
176
     1
 40
0.5
176
     1
 40
30.0
176
     1
 62
     7
176
     1
 90
        1
176
     1
 90
        0
176
     1
 62
     7
176
     1
 62
   257
176
     1
 90
        1
176
     1
 90
        1
176
     1
 40
1.0
176
     1
 90
        8
176
     1
 62
     7
176
     1
 40
1.0
176
     1
 90
        1
176
     1
 90
        6
176
     1
 90
        2
176
     1
 62
     7
176
     1
 90
        3
176
     1
 90
        0
176
     1
 90
        0
176
     1
290
     0
176
     1
 90
       13
176
     1
 40
0.0
176
     1
 90
        0
176
     1
290
     0
176
     1
290
     1
176
     1
290
     1
176
     1
290
     0
176
     1
290
     0
176
     1
290
     0
176
     1
290
     0
176
     1
290
     0
176
     1
290
     0
176
     1
 90
       50
176
     1
 40
0.0
176
     1
 40
1.0
176
     1
 90
        0
176
     1
 62
    18
176
     1
 90
       50
176
     1
 90
        3
176
     1
 62
     5
420
      255
176
     1
290
     0
176
     1
 90
       50
176
     1
 90
       50
176
     1
 90
       50
176
     1
290
     0
176
     1
 90
       50
176
     1
 62
   256
176
     0
 40
1.0
176
     0
 90
        2
176
     1
  1
strokes_ogs.tif
176
     1
290
     0
176
     1
 40
1.0
176
     1
 40
1.0
176
     1
1001
ACAD
1000
AcDbSavedByObjectVersion
1070
     0
  0
DICTIONARYVAR
  5
CF153
102
{ACAD_REACTORS
330
CF14E
102
}
330
CF14E
100
DictionaryVariables
280
     0
  1
1:1
  0
DICTIONARYVAR
  5
CF150
102
{ACAD_REACTORS
330
CF14E
102
}
330
CF14E
100
DictionaryVariables
280
     0
  1
STANDARD
  0
DICTIONARYVAR
  5
CF14F
102
{ACAD_REACTORS
330
CF14E
102
}
330
CF14E
100
DictionaryVariables
280
     0
  1
STANDARD
  0
DICTIONARYVAR
  5
CF151
102
{ACAD_REACTORS
330
CF14E
102
}
330
CF14E
100
DictionaryVariables
280
     0
  1
Imperial24
  0
DICTIONARYVAR
  5
CF152
102
{ACAD_REACTORS
330
CF14E
102
}
330
CF14E
100
DictionaryVariables
280
     0
  1
Imperial24
  0
DICTIONARYVAR
  5
CF621
102
{ACAD_REACTORS
330
CF14E
102
}
330
CF14E
100
DictionaryVariables
280
     0
  1
1
  0
DICTIONARYVAR
  5
CF620
102
{ACAD_REACTORS
330
CF14E
102
}
330
CF14E
100
DictionaryVariables
280
     0
  1
0
  0
DICTIONARYVAR
  5
D165F
102
{ACAD_REACTORS
330
CF14E
102
}
330
CF14E
100
DictionaryVariables
280
     0
  1
1
  0
DICTIONARYVAR
  5
D1660
102
{ACAD_REACTORS
330
CF14E
102
}
330
CF14E
100
DictionaryVariables
280
     0
  1
15
  0
DICTIONARYVAR
  5
D165E
102
{ACAD_REACTORS
330
CF14E
102
}
330
CF14E
100
DictionaryVariables
280
     0
  1
0
  0
DICTIONARYVAR
  5
D165D
102
{ACAD_REACTORS
330
CF14E
102
}
330
CF14E
100
DictionaryVariables
280
     0
  1
0
  0
DICTIONARYVAR
  5
CF61F
102
{ACAD_REACTORS
330
CF14E
102
}
330
CF14E
100
DictionaryVariables
280
     0
  1
127
  0
DICTIONARY
  5
DBD92
330
CE038
100
AcDbDictionary
280
     1
281
     1
  3
ACAD_XREC_ROUNDTRIP
360
DBD93
  0
DICTIONARY
  5
DBD96
330
CE091
100
AcDbDictionary
280
     1
281
     1
  3
ACAD_XREC_ROUNDTRIP
360
DBD97
  0
DICTIONARY
  5
CDFF6
330
CDFF5
100
AcDbDictionary
280
     1
281
     1
  3
ACAD_XREC_ROUNDTRIP
360
CF159
  0
DICTIONARY
  5
CDFEE
330
CDFED
100
AcDbDictionary
280
     1
281
     1
  3
ACAD_XREC_ROUNDTRIP
360
CF158
  0
DICTIONARY
  5
CDFFE
330
CDFFD
100
AcDbDictionary
280
     1
281
     1
  3
ACAD_XREC_ROUNDTRIP
360
CF15A
  3
FBXASSET
360
D6767
  0
DICTIONARY
  5
DBD90
330
CE036
100
AcDbDictionary
280
     1
281
     1
  3
ACAD_XREC_ROUNDTRIP
360
DBD91
  0
DICTIONARY
  5
DBD94
330
CE090
100
AcDbDictionary
280
     1
281
     1
  3
ACAD_XREC_ROUNDTRIP
360
DBD95
  0
DICTIONARY
  5
D7884
330
CE020
100
AcDbDictionary
280
     1
281
     1
  3
ACAD_ROUNDTRIP_2008_TABLESTYLE_CELLSTYLEMAP
360
DBD8E
  0
XRECORD
  5
DBD93
102
{ACAD_REACTORS
330
DBD92
102
}
330
DBD92
100
AcDbXrecord
280
     1
102
DISPLAYNAME
  1
Imperial24
102
FLAGS
 90
        0
  0
XRECORD
  5
DBD97
102
{ACAD_REACTORS
330
DBD96
102
}
330
DBD96
100
AcDbXrecord
280
     1
102
DISPLAYNAME
  1
Metric50
102
FLAGS
 90
        0
  0
XRECORD
  5
CF159
102
{ACAD_REACTORS
330
CDFF6
102
}
330
CDFF6
100
AcDbXrecord
280
     1
102
MATERIAL
148
0.0
149
0.0
149
0.0
 93
        0
 94
      127
282
     0
 72
     0
 77
     0
171
     0
175
     0
179
     0
273
     0
  0
XRECORD
  5
CF158
102
{ACAD_REACTORS
330
CDFEE
102
}
330
CDFEE
100
AcDbXrecord
280
     1
102
MATERIAL
148
0.0
149
0.0
149
0.0
 93
        0
 94
      127
282
     0
 72
     0
 77
     0
171
     0
175
     0
179
     0
273
     0
  0
XRECORD
  5
CF15A
102
{ACAD_REACTORS
330
CDFFE
102
}
330
CDFFE
100
AcDbXrecord
280
     1
102
MATERIAL
148
0.0
149
0.0
149
0.0
 93
        0
 94
      127
282
     0
 72
     0
 77
     0
171
     0
175
     0
179
     0
273
     0
  0
XRECORD
  5
D6767
102
{ACAD_REACTORS
330
CDFFE
102
}
330
CDFFE
100
AcDbXrecord
280
     1
 70
     1
 90
652598616
 71
     1
  1
605D1981-8E57-451B-BB05-E200FA60BB43
311
504B0304140006080800248F2950EE3F3DCB33010000A80100004F00000038303633463738432D423941462D343138362D413643312D3039463737443543323642432F4173736574446174612F446566696E6974696F6E4974657261746F7250726F706572746965732E62696E4550BD4EC33010360C540C0821F5013AB09A
311
383F761C44D5C64EC2C4020F80DC60DA4A6E5AD589105B27CA333030F3088C8C8C3C028F80C403C059B4E1A4F3DD7DF7F9EEB31F11423F1B8314ED80AFE03C8078AE2BBD9C9657E544CF14DA7388998F9439862C2938F7B9CC7098D302473209B01039C54CA432233C60218D7681D701CFF4AD6A4CED465E4C6DA98D51959E
311
37F60880CD8EDE4CD5B04B991377691F211756E068DBB06ED2F84F91137907AE6E16A70365ADAEFB1E272C2C622EB1485210E4738653267D4C92228E332A0326A477A9EDBC5996DA7A8CD0CC4FB88F794E631C515F807E42711E1052A48C0811855E3D69DCD7749D8C51A5A6C623DE46C2F5A21A23F43580D6D6DEBECF3A43
311
287A0FEABDC59D54671FEBFE53D73DEADF807F388412F8AF2D1FEACFFBE72DFED2E2BF504B0304140006080800248F29502FBD7B3B03010000300200004500000038303633463738432D423941462D343138362D413643312D3039463737443543323642432F4173736574446174612F496E7374616E636550726F70657274
311
6965732E62696EEB606060F80F0540260323103700495E20ED9E9A975A94991C9C9C919A9BA802143033307531B4B430D4B5703535D735313574D275723230D5753532307073343370723231664768046931363471713532B5D435353131D635313332D475727372D13534373670367376B67474B5042A03DBCBA019D37FE8
311
ABC6157B20CD04146B0062181F4C03F940F0C11EA29A8141C08141002C0426541C106CAC2CA046088033B02A030AC2157C6006F21A8018AAF50194E6010A610250382264E08660284CD9E98021862280A91564B406929A0FF62C401E28B6F88038B83CB1243943D7A928312F25350524C3C0A0DD70F56A83369809E6AC0A85
311
B251645054A1A983A947A601504B0304140006080800248F295088E57597CD3F0000904100006B00000038303633463738432D423941462D343138362D413643312D3039463737443543323642432F5265736F75726365732F36303544313938312D384535372D343531422D424230352D4532303046413630424234332F74
311
68756D626E61696C2F302F67656E657269635F706E67355B773CD4FF1FBF73E71C0E67EF7576C9DEF3EC995D46C6A1EC5046649CBDF79E192942562825CE965D8A868C2842C8DE9FDFD1F7E7F138F7078FCF6B3F5FCFD7EBFDFEC41B196891913091804020321D6D7513FC77D8C5070EC3FFEE51B21F068154CC75D455CC02
311
8A3EA68992803810109FDDE5D5CEC5521B28A1B422BF80741695D5B529DA1C2D058AD2388BDA9F476F7C2CADC939304173DBF48A452BF8A700C0C70C3D121C1AA15A5270C22E2B9E28763651F7DA0D12CE11077B2ECD0D560B5E3DE2368B1E65C5E1C87384A4CC5F2D9FB8BE39E9B77C753783A37998F5CEF1B4FEE5534632
311
45C9712270880DF339E0B882A6BA713D865F6F384C842D440934EF264F4A304F8DE4EEFA1E2BF5E2D91F5ADD9613D6E31DDB33ED31DB1D7916CAF091286EA3D31B9CFECB78BB0060245B943C4C040119FF780A74DD308BA9D028678674EB5504ECF284EE814DAED07440BAF649BE4B55DA2890F4D73E2D489A59EE54FDB0A8
311
5B59F2F52C4858A02705C4815A792B0C4A996A2023ECB195073E115E3E3647F64243A8338F2000BCB58DA5692C7E7C3D413F963FEDF3CF00FBB0F831A9D51360FECA43819F527B89FA260EB63C5DA676830AA3626A3693B23F1A17A0DFFCE3EE164E31B5365EDF0C89EF64D8E38AB0BA9A1117D7C3A0EC44F44F4023095E80
311
BA610DE336D0F99593A88BFC5306E72DF98F7FD132ED95878DF2964EA7E43071359FD83B2BDF9C6B5BDF768F0F3C0FC351199526F53D9460A34511F75D1B63E488178569472C91A94497807A3FD4A390C6558F26D416365C3656DE6E769DA9D8FC73774E1709812842DD8EF96AED1960F79D21B395CDDFE6F92CB4EB962A46
311
68C76990E2EF29798C8941D67DA50F4A5F947872460F1F6FDB794E8A29FD7AC0C0D6E0714339CE258FB17AE8535221E3464A10F29A0BE5EEECEFC5675926A89F49EB14E5711894F6586DB5754EB4D5DA9C6437EBA57DB97A24F8B8A8DB295FFD73266CF57E82694DF5166DDF93573AFE9C9C5EB05F8FEF8E89E0A8917B0B37
311
24DB7BEBB53252581EFC3E38166BA131A3A5B42FE2AD00A769BBFA4458D2DE7822F8C4F63D0B8E21B285AE13325F3410A435C648C9D91FDEB109E73CEDA7BC796961AF79175E1A3CE4C5E8B0D009B0C9E29EFD98BC8E97554E3D8D838424E270F7685226E5AC268E021EDE3522D583E8F20C0BDE2959EF5BBFEEDAB32FE9A3
311
ED0E39F211A86AA9DEBFC68182EDED132AB8BB794442D2D7EA9F4D8BFF52BC4D55BB165124EE90A42D101E67BBBB292FFB4F66DE5BF2300E44546757DA7CEF8932BFC9F92A0707953491A55C5A5ACEDABD9FA1AEA01BAC3DC5A24E22E7C47213493996EFBC369D086ED9397C9BA6C7F9855C7BD5E15BFC8C53DB3D2A4C5901
311
A57ACD2FBDF4D1676E95338B2C2BCE65FDA4C64F5FEFDC7D9CA5AA1FCF11E193F2FDABF0F4916BF13FB916A224380E6462A9815F2300DC49CC4DF8D055CEF76462F4B7A7ACA7365C2707891370BC1D0AA6203C44CCAB47084FEC057F27FFCD57F89B8B9852459798A675C66BD7CE572CAF71FF7E6D7ECF7BF62CAB7B3F1107
311
DCD04DC55A3F9961700286141C94A4F771FEB2BCDA2DDEE0CB0BAE402FF1DB0100F8E475DFFFC074DDB4498AB7D186A7654DDB1CB680D703D47CEB4E72F8CB13D86A4AA68116E26387B93FD6738779B34FEDB8E517EDF2BAF28D9BE93A1D3A164320E07D42E514725C29515FF361754213EDE06B079A2E99EB1CA82A02019E
311
ADEEB87B9AF005BD04BBCECB14AACD6B24EFBE482194A97DD32400685FF1FEF1544D1B14EFB1E7F08E6D2CD2AF52DE757F35F5E62332EE88EA26417AD5C3E0E319D68F25414E6D672BD4522B278C57D18F0113921C71D96527E091F00CEB15AE23D24667369BD3CEFA10C7549D930890BA4366F4EBC55F01F746109F98ABCD
311
D5A3EE06619C6AD78AB33E48E4C9BD21BF7478B385EC05C4F8987E2C1BFA0A60EBEDAA0AE0B015C2720ECE180FB6F2DEFBEB822D96338C9B63822183BBF52FB664A7AE57003AABCE512BF77E7E31BDA2E739AC4C131657DDFE5225E900FB56CC01CDE808FA4A9C9DA16AC679656BB64796283D89812B8F91136AE18EE5EBBA
311
F47A73BE3C153EB5D4CD491B4BFB4FE690A4CF9ABA08C0D8AA64220C438C96EA6CA80B58FE5761E697B3A292EB9FBDA502FA863E49FE694ADDFFF9D62C520BDD1A22014147A0903A05B9B729F54272EF83931FEEC057BFF8C8055C279EAC5C0011804828734024F6CFA319C9CC6867C727184465CD9BB7ED386AFFD96B294A
311
85E3802FAE47244602D8273615952B98C4F23F7EAE4463D9D638EEE374A20959E0FE519C4CFB0FBFE5DD80C2AA3F9DB961D1BDE57E67C9BB47B77FDD74EE3094F5DBBE3EBC1FBDB7393F5116263009E2EFE1AF9A221B2AE234C902BF70E9F280ED23E73908361565964333A3F01D0B006AF32FB21AA1316744B489D5A198E8
311
5299241735BE559675130955C902A8ED761FC0DBE337A9F91919AF5CE32AF902ADF9AB2615E00E8A94586BA1A90839B61832FF1BFB76D2EFADE6DB1BA04CCAD3DA649E7E2A0219F592E22F2AD54847EEA8E42271011E9074F8F3DD9FBA6CDF88FFC9FC7E811AD1CA8F4557CE4AFC7BBEDCF0114A48689F20A584520C74DA81
311
27124B767E2FB91A6B186246727BE63C9445BAE02088D58B8EFDC0F1072407CD9B89A13F6303B4A928F593AD489B58E6869325790ADC406036C591729FE14021F94B7796BB11848D463536A092A26F077F94639F7CEEE2A724C66EC885F4A24F8B8A0AC321F8FD149BA529460FAA34E4663C02D41FDF80BCA222D42F0ABFF8
311
490F4FA74C673807C2051D8E467B47B616072860069A9A303ABA9B319D58404461401B0A0F9BE5E1E151C14BC33B32ABE03DDE91708DFAEB15E7C0D593C86BB7D7EC17BE56E57975F077BFD5525F3A1A361D584A75E08CF29FC7B44B2B3085014F3A5A14517377C3F6B8F37E59514C3B12F8AACDEDDA4DFC49BE5710101534
311
CD6FB6DE15B50F11A09472AABA727F0C49D9CB906B158030065F48EB3625E010CEC1D511D0053474B11E6A4F01C0D6EF1BED3A944FDEC70E0DDCDC756C86545910E0DAE3BE3AA9A404574C2995CD5CAF9549226BC94B4F4F0F5F9086F418F6B32346464610D8BC7391D3C3A3CCF04CFC1FB2A3A3170E369511868F14EEA4E5
311
E438CC73DB1F3248AA94B6B2FF33B222FF3D1E7BF146CAD229770158063BCE4F5391964DF62F7E52A7BE0EEA829C9E13C4C147D6F93FE59E111DAB5E4594D6F3CD1AD375EE039930EFE5AF2BB2D41C83C7DABD8C659BAFBE8FAB392CA634F3D15C1D945DB4588D2B0824A4EC928AAC565557CA2F0DAA588CA5BE30B3A8004F
311
7BF005E96CBF891D7F18112A3619FDF530DC8AA64954258E1811789B5189B49B4EB53F5F89F7D37523894F3EB57B373763C91E502F52CC99EB7BDDF933FC324C4FFC2561DFFA7339FAFDD0A4BFBE6D3A8FF9ED1FC49898139864602458968913181918F719CCF5A68B2EE9C1FF050E34E63107003B8120FA982C21B30A874E
311
4F5E4B38D5A8290C4B8D9BE48A0BE31EA995BDC37AC6DE90BA17D259DEF53605D55922FEB1855D915B659FBEB350EE0DFB2F9F766E1C84CC8964B75D08667445EAB966015F63A18A9E0A325C1B3DC628C0D3CB60F767FA93CC65F25458BD23C3B312716E5F40E5858AC06EBA9AB14F95DB99147B832069201541D09A0D856E
311
12C629CF32683760EE855537D1901988D5EBC156676C7DD51D7207CF3267AF1D76C2AD867315E44618015313A98B19941C696FED3461CAA9B5415F918556D7802EDACEFD6B2E45853A9735DFC9DBF7E440F9319F8B6805A973BCCDC76C069A9144E51F187EDCC12FC31B5DEAAF0A76137199B106EC84ADA6B6EE697D4E6A96
311
E007417F4E880E8B1E89B4BCE9D81EF611E2ED8F0C1A6C25F620FAFAAB656A7C42D464880E8AFAB0E0FC8EA38CA9A8AEEAEE3E4648BA4680270A89743CDD3E6C6CBF34B7B640EFA285ABC7EA0A1E28F3CC963D114A80123EE66D0AF7D5380EB41909B605AB4765B709B808590458157E69BA1378FEC4B48CAF6A730E3BE3C5
311
EF2DD1A5EAF94B1DDE50CEB55DDFD7EE9A16747FA4B223359FB1FCC69E1194892BABB93A1D5C4E807AC0EA2E30180811E77A2291F6E7F7FAA5E0F60215BC6024E48DE436C511F0628B8CA189982D4D83CCA17D305A7E923C37941CFDFDCD93ACAF735EF5F0E61BBD3E6C41A59B242790D3A3BAC7064DCD89AA2E37214EC839
311
820949D5CAA31E240D2948E48F690298974A96BA9A8432BC90F5071D6537C9666EA4564796B7AFFFA548077BEEA75F63083435074BA182F3699557397F71548383FDA8CA34D99B981E72835ECDA5DDDC151315173D05A21F651AAF8524E88209E2E7A737ED1045800CE3390050BCFB8BE588DF111617874C62575039CA588E
311
EFDEFEFE319B739DE2EDC147092A262611E159650E787917885EF08F1F51B8F2D8A71D60B58B190FEF9541A1BE94BC19FEA50784DA1419FE4B0FB51B8D36B5FF8E1286FD8AF42B91E59A5F1CC4D60174E764045FD8C57B18209B217F89A62252BD20BE0E63E12B8E8F029FE19E0E8D0870F58721A557082250D5424F790936
311
9376E41666C0EE77CD87CB283F661D5FB6D0DA023CB67320A20DC7BE661E9E1BFE5463085C557DA1FF9BE835733766C3D139F2CF9E2208873AD0EB4814DE9E6BF2CAF81614D4D43906ED1C05A3265CABBFE192770FC2F64F940CB6B17B5F166F133C9AEEAD2641807C3E69515171DD74C4A85311513D6EC9530B3B601B6BA3
311
EBFF3B5C3D2F7D69765141E345F75433953D013ADDF8F6AA7DC3F4A7563FE5C7D367937E2900D7EAD0F9FC9A4A1A9B5BDF1FEF08532660C01C5D6DE22199AA774383E306DAB87E301ABB7D213887F9869D4942D0D71E94B27EDF216A318BD488D45DF84529EF575AF3C3938C0AAA0215B01994153E2054A0B894DA5C784980
311
633AAD48576957CF4AEAEAFADC7C587368551C73DBE1E57C58AC713303A8BFC258BD04B51724459FF9E24C03A81E0E0679CEB9B348C0DC998FEB9C6D6EFA77D247CC8F92D3848599ED89A23218D0636465AD1CEEB7DC140D7426F83491C4E8E8281C2FB35240918FFECE880CA2A42D70E8B20B34DF5221C7DB0CF90ECCB9C7
311
45B37A47E9B716FF7A97B7A252C1F3814DC7B1E1A7F72B8751D524EF7CAE45B0C73B3BE7D08ED39781B380DDFC9AA4A4749C9493DB5BAD07A6EA6C092FBD0E85DB004DF06B8C9D3089C5320187E4CE1846158C7EA7DDAE8AD9AFFF21AA3A1026BB06A259845E8232DEE62811A4DA9CEAB3A4887320B76E2AE5615EAB7BDF73
311
8CBDD01F1E64064BC13D9EC53576751CA8CACD58B3CEB0E6CA585BD089B2A59B9FC101403387AADBDBE70586B93D64BF3AD4453EF9C3B6A93817E8346991798601344F79A83C51F3D50F7BF2683A3605F51A72449489E0EE6169C749C60B1035651103AEE24D24E51A759C840DD3FC6504DA6FE107510E447B43461C79D229
311
70B75DE5E1BD3007D1AFC619A4A4A69B5626AF5E9B8374E20677F77E2F8E73DF868E8BEC7EBA7B6A75EEF7205E1AB9486CB642741D6E03FF13FCCEDB1C4AC129886268B01CDF4B124AF797CF784F3C6DEC97A17D4B558070A0F1C04DA4FF9BDBF34159AEFE958479824B3F58EBD1E19088A2AFDE501B6F2052368A3FD0E650
311
A179EFAB1561E1D27527077136E652676C3670F42DCB3352F48F6BC86D2C3B0051727E41A0A4DC6CE2BE9D47F5CAA2935A3C0539AF080665997194ABECD723B08129CC5B6B21D2E7D54CD4D12610E7E9FB8306771A89576C7A982002775ED44F3F744CF21EEBB27A631671D921938AAEE3EB0D19CD1E083727F607823E817B
311
F599DCED5394E37EEBC2E88782E638920CA641EF74D4CDFCDEF06F4278ECB18E31E7E9876F2D783C8BF429C75395F57E98C2B495A3DA077EB3AC3C158608B6B57FE3EA48484D9A480096FCEE0DE880950E7E5A5714131C5C41AAA29FD19AE81AC145FA1B9E85C7169A5AB837B213493DF7E9AA4B5FBF9CDEB36EBD21EF1181
311
B7CF7366AB2A951D01E37AF4EB835D1BE8C117CFBE7625D2EBCDB0B20C5A4B45CED0BCDE3EE8DA9DA78C2E21DEAAFFD1197E463C33CC6A80FB785669B856EFF7A8CCCA2841B5A5369173320B1170C368B2748D81062EA0296E5E2D95D7667A4A46D98A6FF475C76AAB0A8C8D45E226FAFC9FE0133EA9F60111F99CA81ACE03
311
A1D14C89E8B0D69079C91464FA1D99E651D0EAF606F345C42A8A1AA9BA391031582B96D5B4176A77AADB01F12FD298A75DEEBB2C82F0B8650E880722F8DDD90C56A7A058E5FDEF1AC93545BA27367C76F5D8F9690CB6F8DAE141EDD7971F0FB548A2AE435F224D6E5954CA155512F7332029D5A1230854B79F258EC5FFDB09
311
F5F6343A8EB193229B7F7E79B3E48F8E183860B38C8269D1B53738FF1E0BACF6AADA6D4869E9DE708E79B5DADCC09B1BC76F649731CFAF59A83FD8BAE4C749D66FA87A3810D4D62FFE826FA400C0F325D2BC0F3CA35F5847B82A2ACC7961745C823E4D863D54460AF792CE6F79B5C7A33B25C3AEA6CDE15A919B6367D781E9
311
D44F61BF828672594A3E1D9EDD6DF179A81F27EAC05B936575D73E05C209DDD2115CFB705DF9BBF3C911589B3640735E9E618FC9C36A7326C82B2205E244C55D56FDB9D5DC93CE958D4BF8174D2B3DA54CB3C09F2C2A6DFF73D23B2197355761AD421EC581284A7EF8DE2CE3497C0C804D49B41DFD6A7360844E5BEFFB495C
311
FCDB97A4595911CDBA623274CE852B5E278AF0BEB1770E9D37CD977B2766A7DED0E94B840E1E95E8C77DE5CB6354AF7871427C28ADBEEF7BA0A28E19DE9ACD75F379FE373EAE6DDDAE3834692F9C2B03B4FCA8FCA9ABE8EEEBEBB725B88A7C90941E850682CA04061A7DF0CE82ED49BFAFFD42C309818FAE14755CAAE78B0F
311
73243ECCCAD7DF58FCB9CDFAE7A4D3E6671A613639130D056C8383C8F4FCF4808C331E544DD26E4755D09EA05253B3049A1E32587CC25D72E073E2CD96D04A71BBCB0038FEC3F53D254199C3CDC67CD66640269431860225392B2CB3ECD0B4498AAE78BA1994246AE1EE78F2EDFB79F6C6CB6B5E279C4D373FBC21CB2698C9
311
ACBBEB6A4BB6B39E16AB0E421CCBFC7654D81ED86022F9BB522146F9F4772E2D0E4FA70120C95A85A417BF5078B232F4754363EB1750B2AC2148EB46B1EA72AD9B4D23ADCBC589D70106C3EC2ABEEED84DFE28E718C6C83502C28E9FDD3B09DA0A6F6F7B72B706A31C9E2A331EE70DA56A083D2177BFD63C55B11D8D949FAF
311
CF90B23A1E24B9B5018B9A17E99F2890EC302F330FE7936E2C23F0D237EC8916F5166AB84B62A21BB0B950146962D754F92CC2C8877BED8FC7B7B25726DD19545392570B3A2C66B58F027BEF412E552D12A588C4A3CC5C3193FCB3485EFFF700D0B9EEC077754A33DC1FB9E25AF814628F91DDFECB667D3F7690803F38D13F
311
8AE39353523BB08FC6760144AFA2CE28236F65EDBB3D5F59A57D612B99E3D7E5F8A851666BF9B5A6658EFC96EEB37A378ABB0EB3FDDF1303AF32C41BD1C8560745D7BD81066B0D6313359CF488563D3BA3F8E2185D1FAA3EBA1397C9D0E3DD232180A4DCADB6AF25DB3AC3CC26589C8239E66E81547BC7E2F328F9884764CA
311
37EB5DBE390DFC03A5246B456A7C3684C4377D0EEF9A350680FA9A077E8B2957B489E09AB1AD41316944C2254B5984830F691C93CAA767EECF976FA5647538830B5E63236A6F0365C1E0F3E327F24FE35EDDBD7360B0F7374837409F7A6311BECC12B7026D4FA1AE204FA3F5FE904B1F420C7A9044AE58E403E7C4848E7DA2
311
5DC9EDAC79DD756FAA26B9EA83ACE8A214A2612A22AFA19DAE7DBAC5F8CDE1292A485F98DAC731A29FE01A3966E96BCB9FB5A4C8830E1B9AF0C54B87FBE221A097036E5D28D1F869F810C06A9BB0AC0612F69AEBAF893C6E7AD59460208BAB3A6B09CA4F6BDDAB8CF0D1F84B72487498395A70DCD754796E271099A567A55C
311
F242BBED64696378BB6CF25EF0FCDB589F3A82F1116D010A9AB9FA4358809EE0C973A2B4229BAA876A70B03AB49CBA7FBE71DB1832FFD32F9BF2C8E98075CACAFB36921235D0F552B6A67E94E094097A5D7DF681B40623DA535ADA7A9AD8E9A62407D7C9A5AE51D62A17A83A23728DE86BB56115804D3F2675F2C6B87541A0
311
FC497BF0CA86420F558C9859EBE9FAD62747E323E3AADC03FDCDDFE7407B09DA90B44E3185723C5381EAEF589765E2F7A099BA46695BAD60CEF3491B8A171F5F56444F7CE9455312C3498C74173AEA0214EC029833B34B650CBB5A5508D5091665309642791708ECF27CF11DB3D797D6CFE474453BD4BFADB768094B214781
311
4D81C7CBAF8228DCAF5564B5891F5EF6A860EB2E323CB82AB868D8EA048880D63B0DE5341F1B3D53297B928A11E15F25E5148990F710747C3509ED14909C552EBE3973246FCE55D00564D8310BC3EBC5085D08D806799B77D6C57FDF5E55837F9E934F09C03C729271B64F12D0A9F9E938107CAF7BF1EC8CF1BB9B42363D33
311
070F4CACB425E605DDB0A34A12BB936DE286B9887A4E2E558F0886498BFF49C311D96C277CF6A9FC0D75AD0ECC5226D7E0E3572012E56D7FDE4410CEC7A6D0F997F225A2055B8B92E3956E875AE4993CB3D4C9063AF98FD45E1BAB165640A43439A2C9181A7C355B297C0A0CCFFAE19B6FA3C2BA238A885FBC98B8F6DAF4B9
311
4B97304878DF4D8BFF6A4AEDF79E90ED4E68F00CD7299F4E0D83E35601AF0CBEF18C1E870E74758FA91F5131075004DB3CFCF09AE1DABC11957FD9808C92E8A678CE9DBE40DDA0E0D1D505AAFBCBA208232BFB6FB3704E8985E61ADE53DE74152F5C7DE74B1DEDCD37DC3E8FB30D7EBA8B9EFFC3606BF90B8D438279CB7709
311
FC7C00D327F41817EEA71CD9E49FE9C8C9A81C70915D9F0F15958EC5AA4C3BBFAF46986B90F188BDB24B89DE3C6F29EC3E6F66D84856EE96A35E657CA41B41EFD8DBFA16AD6E91439EA92B40B21C053249F51AE50EB0B24C770FFAF40DF12C8436366819C48E36547D4E7B72FE2BBF10828583057814A668BDF183F6B2E58D
311
FB151103E56303E63D00F39C27C4661605DB644D19175D02E3F0241E8FC3458D17AAAADB117CE9EEA690D0DB01E634878C04C2C9310B69FCAB831151E3AD293BEF6E46B0ABCECB50F5939B39C613D41E81FAE8D34CAE3C4566B761D37185FE864AC32FCB71AEF39DAA5BAB88609BB980CD2F07A8F941653B529567726E2B2A
311
58D079DD57E1E5E31426CF184A04D7B03B985F276D47406AF276FE32E3328BA866EB1FD39BEF57863A317634AA5FE467409B3873F5069EF0D71AF00AD189D17BA1974ECDB2D623E9E14086386A6AAB5807825C37B015BFE892AFD154920EC437EB945D958E18622E1E0FE2FA06557CE4BB9BBD05A2D40E774DA2B65473791E
311
314B7D6C886820B2FCFE4AA272B3B8B15E7344A145E8AF919B5454D89D36D413E87211186BF6F645E5EC94DCCE8E1C799022E4EC9BC86D7A0F2AFB1FC4B2CE48F84B3F49ECE65BAD24CADCC07EFF39AB06BE9E6B27A059938EA7208838455383DDBCFCD967DDE4650EF92A14FF933C975DB20BD7FEEBC4487576485963D757
311
D16340D9599FEB362F775F38CA4185A86F74B629C81B133644A3B18FD056E997E0734F9BE26D11C0AAFC669E2AC9FC41D281F8B2E1C35AE27BCE05F3DA295488096688719D974DF1B5D182DB7792288697F8763CFB43562C1CDEE11C4AABD5C22B6E33F6F389CFC3477C5919DC0D533F8A7A1846B7ADB60ABDC26C43D0CFC8
311
910B7C15EE22675BD02702ED39DB77A87A192CA7A543E6205B979B9F5A6B512A3CA799E198B2D5797C0AF8D1D872CA455D4D431A7879D4DD76110B5FF7F4176B54477A9EB5E4A5D11214FDA585F0382751D8E2582BA5D2075053298FEB8F1537304E32CB22C2E2B693DC0A760B1DFCA751BDC445AFDCBB12820ED85F6D5298
311
933C7EF1211E9E057684056CDA3FEF3BB6052355E162DF27C59E965A8DDB7F9437EB72CDDA3A090DE65A5B2F50326247B7EC67B73ACC7047FC9B353D6EE990F772207C6EC52B39DC2F3C0754821DAB559F7C1809C7D0DD5B0499D0442E0A6E391B3D5DB46D11E731E6794EC77523FBDAA242ED67F9FA1FB684255671F63C9B
311
CFE6E7E896D51001A6113EF2298BA494E0B0980D1FA5B9D60796554C02256B1E0345FB7C6186B6A19D2DCA270416262845FA4F42DB5D9B0A0B6F07FCA2E56C242522E001E0CEB734AF310FC8BFB57E38E03AACE93B3326A2197891E68452B26A6307FDABFEE0223D3C03C3C73D2D5BC054C8311F12004CAE488E5C29287F81
311
56A2CAA4AD0D7BE6B97264E4139F437CE73ADF52E5134C52B819777C18B323A5924E4F67AFD13B1CDC3A61793A79FAF5C0CEB718E441071E797C6DCCB9EFCF7E4A1E9F3DF3C2F9C9E8294E9586868788C972857FB0556D7A26941A7EEB9B580AD78EC40B85DC906B4120A563CA3B87797ED612D3B035962BB75F6515A393F4
311
CB057F564CDF54F2E5A024514E6A1F901DB80C7E70B1FC05E356A7E72FABF4775B3E3FB8F70A2A8E7B6A94542BB304157978CCC999E707A29CC795E67A59CC546A5D47B368954CA7B6E75EC9E1F6FC73CE3B4F71F8CB1A6B15923D61EAAEB14626AAA9D04A26EB9C66CD1BE86CA31A5D8703DE04CD1EBCE4F5CCB62F93909A
311
D11E55799A781A956ED27D3E738F4538CB04ADABC7DAEF20BC35BA6A90BCC1DC61BA05F20D8832FFB9BC9B15E2DB838A0AFBB7E0C82A562127E0446894F427794C3037186F622BF24DE1B00AA10A23BFA47B2A180D6DA5AD6F7326FEB8C100C2D7142EB2A0B2A9D1008A09BA343D70E054AB69E2A7EDB783CBD92537FAF4A4
311
4D1296AC2792729104B3276C276C951D0CF3CF3F1E6B017720A7B8505A5FF9589365979678C36F1BAF759EAF57C60F1FF5FE9DCF5F8E764FF25A2D06CF25117A8FED51884C13B2B750DB0E4F5E3D64124FCF11F0AD8F1CC3B3DA4B38ED22BF1CB2585EE6BFEBBA63FBFD44F9537B9B37BDD6B358720F98A8125AED4349CCFE
311
B0E135F19E208A04CA7E2B10711185D72E381F448036EF57C9F874E54A971CA37A639E986AC0226DC5AA00D5B14FEA9192234B3DE617814FC221C92F33F1D392F297731B567FD98FD91D989379AF567A65B8ADF177591DB90FBEA99BF4ED11B16E50A0AB1DBF1156D034BBE04D69D08F939D8E92BF525A1DDAFF80ECBC95D8
311
F45D3FDD289FD23F7D8B452F8EBB34EC082DEEE68E18EDDF072060FAD2AB1504DD4879BF67099FC58F6E9DEFBF645D16334A3E9A127C6F1AF6132CF287E433B43A0EE93812B4AA0B194E03EE3FF91EF9C6ED0074A2F6EB18A96A7C9890B1FCDA1F2095E944DB911ED54C60DF16FB74C8CE9BDC7C54C4F14078CF73C2FFF1F1
311
BBCCD7CF64F71407EA1683DBC410D226627F66E509060D5C0AFD611DE681D509DB8DD12FB1265B03C6F5C55FF4C30BD94187FF692B4F152982502F193098A789526A038AB529A52BC0DC4FB6285CBAC10A8B8DB75DCD9BDABBB221E27D1F8DA9F5EE5926A1C8AA9BA9BC09239C6A7F12914EA3B59EFF7AAEC3FFCCE56F1C5C
311
2980AD072793527565E774F4631DB178CEEC691B1F367BEA0CF2907E1D6B854D527065979DDEF002D8B2ACEA7CE21AE297737EDE1D45B31233B73FEA35BCFDD0B09721FDBAF6432681F2FD10C3E9EFB246FD6E854B344ACC9D8A0EEF876A7314B49B6A499FC650B099D650DBFEC7638ADFD245E2B7839DA5AC5F7D5623FC0E
311
CEEC8653FC9B2BDD1AD4D00A566FBA7186DD3C9CD26512551637498CADB950FEC71ADB9A5524285DE328B8EC7EC75D2345AEC6A27C42AF6D9B92155315C80DBFCABBB7DA0FAE425C4FB896B15C9BFAC4FE67DF5A23D30C93DA4D8F36FB15D100050DA6062E22AEC5F4DAC4F6FEEF97AE05DE63C6D38F9E068A20BC5E3B6BCD
311
75320C5090924E7F93640A7735B1A43451C2D91EE62C6238B797349E59890AF3A520DF4A87095F3ABEC2E61F0593416CE46CDCBE0E00E2523FCCD04408588B5B6C9DB6459C786CE378770B54F51DA3A5E1DF2A3349BEAAC234A6CF8993B598B3B25B4B113E353A4D750FA7534749430F3EBF2512E7EA3FD43C6AB9A1F765A5
311
8463B306721A15D224FAFE8C6F5E3432D57EE697DA0DD5A9D4866A8BCCAAA9DFF1F06047851408FEC060471D0E3EB86BFAF46E4B5E60311DC3E3CEA147C75CF971BE74689507154FF2D2E92F15CDB2B9182B11459FD8ACAC5A85F174BC94A7F4EE4C4F5CAFA7C02E37BF0BC77B7DCD0C047BC316F562A01A441AFA7931CC84
311
A28CB9F4AA367EB515778F29BFE61195FA671F4352E5E46E3A64773F1F76EE5EB36D7BCE9BCEAD837A4D77F8DB8C92AEEF6711920D7C7D0F76B0FD0EB7AB83724CD35BCA7D36DDDF5FBB7FF6F04A91F3E2BB3B8F1A43CD659639507FF6331C5F697BCC782AE57D757A27D97F1AB9E0AEDB43F92F1B2AACDF5FEC8ADBAF9F81
311
4E2027003BA2F9E144B1938A7A04050AE5D953B82C45619165C813A10E76DD6906B3C16438064D14CDA713AEC420034613E1AC7241904A49FBF87409AFB1FCB9B72FE7933A87D8FBEDACECE4EDCF6A4FE9FB94D5DEB74FAB7CFEAE17EE965DF980DCCA2D04134994F9A2E94D2265DA4FE6AA7B7AC15FACAC2B5ABBCD7DFF54
311
2C5314FDAB2E1B9D8B65220B8E2B638BE008E8DCA22678C820C5053664D15E89F2D735B51A84955E81A443545E9FF787BE0FA700A76D136C27DA179A7C6E8939E01BE756E19CB292798063D8B97F44E8A27BCF3A614FEB8BE974A718E86F7EC99B53CA35FA24F61F2B07266684623A3D4CF073E511F3A10A8FDAFAF0078C57
311
7F4DF9D339FE7862E5FA47CF4344209E5BF76D783B1B48E152AD281B15FCB934DCDA49CEC5706B1EE8B460F435324A5CAD154725E21AB8044B75A557A79F6C807B9340AA3D92503E866F4274412926C8C504E4D5EF8C0E68DD0B028781A6B4054F11CF18941F101C57CCC796773ABC8DED9CD91FE5788806C05E548895354A
311
EAC96546D55B0E94A59F148D061F42AA398D822CDECA4CDE79E13469BDCC44FDC990F366BA5978C15F97ED80CBFD73B0CD9B8B83A4F6845BDFBFAF034019473FB9A63BD55D3A4A7284757071574029A4D016DCCBE95DD679EF3C4880BF169422F8C89B68A988D2B13793CAED4F74DE7486C72DC94DF46B8E93D8E02EFCB1FF
311
9B3BA10C8AE7F653DF94F4AF466CDDCEF5776687F7C4C14B63E4EED1719DC2EC482D7DBCC7AE518CDE3D5FF86D39000EC3673C0044E1D308BF05F74D1B5F033A7D1BE7F74BC55BBE3E4A20F920946CA0271EB17BD2B80E5660ACB8A29A79F5E4BBA49D4D945B6EEF4A7EFEAA65E5555BBB57A7E15D2F83C69F30BBB978D2B3
311
9F1F26FC097424D39BB33CA3D87ABF64E307938B685BAD44F71556A30B7E712CA4FE600613C3E554B69ADE949A7CFE214DF1FFF05CB82151EC6FC31950239F94CF7AD39DC473F6EA356E5EC2C4EFA04383CEFE985A127484366FBEE3C0EC4FEA363E4F6632AE781392FD45D67B63FB8DF70E82734F431FD3443172A0E30A83
311
D60982D55FA6A2CF86DBA8382502ACC6CDEF3B907982EED1160E14863FA242F9757347E1544275CCDCF71ECD5F8621CBEA326B8BA884AD7F825781923E66971F04010D574C541D8427A438A37EEF8AF88240EED7362C953F5A81DE2D56109CDE2524EA0F5D2F87308C0C47BD97AD605878AB8589E17CA83930CB5E0DCCD758
311
53D68B1AB136594926DE426C367428E9334AFAFF90ECE221BB5DC9E5BB53D2CDEF954EAA9CD814F0E5725F1965DD458E5F8487683AD86B9D0076BE3EE91EB1CECC5331A67A3F79D8B27587C12EC2A6A70474749F27B4C0BBAFB94B34189E88DC18964BE4121B9137FD516C7755356E50D6714E31ACD222621EBBCD1CFF81D8
311
7479056A9DA0E0B8EA19D24CF937DA89F78E8650CCBDC110AAB6C4E46DCBFD0446BA9E2060E81F314AC2031E88135E5476AC0160EF5C0DD2EEF1B8B5CB2D198BE9A554A9093B5F7D7E4B5407DDFCA1D9C152FD97F55BFFFDFE802954DFEC8995B983E28AC92F1971E28F531DC407A1280EB125F64A72E617EFB27DFBCEDCDA
311
2D6F2BDADA36873EE46B9BE1782998C63DA7182BC383FB6FD15DA472B175D7E8B4FC88F38D6E07FEAA3FA3CBB8F6B449ECF14D2175E5C5CCA3A42ABF24CA6C9395AF74535F4DDB38CB84F56614B0FD32D7E19CA5CF988DB4449C40E23DF2B16772594554579094450F56F253CD25EA7F77366FB1CFE79696C428BB64D5A41E
311
986189427E5E4D7E2DAE3D5BB4972B3DC44EAABDDDD63A2264ECFA5C786EB0EE1FDC5BE34FA0F08376869FD1E61EA06CAE15191135445EE8F0394161C3266A596AA035572BB0C8876180D8B9C77D307DF9DCDF7365ABDA6F3A2366436457A4DFC1F259666569A9E4A79C817BDD5610E5200FCE894A358EC72858D50EF67545
311
DA81C6FACE3D457BAF70367E1E6BDD9A952FB4F56247F58F523B97E640246051A72F79BE42FFA0B3187F63097F91C48B868586F714B0EBD5A00A8412C1236E1298F60C72BE6C96B82B404CADAA304AE9F303176B14BA53FBC2D5E86377E35542019E24D97B96A49B2C0E5006E7795954DEAF5DA58958839043C6C70BD3B1B3
311
3B6DC5C31316D8A6923F142E26F6711A2258AF977DDF1F970ECC4F1F2B434B96D81BEB6E89BF3BBB3C7C8CC80505070723D6D7D7D3C8CA27CA164A26024FED94B12A86031867241DA53D929636DA600F050BC40CE48B8BA03D69224720DEE2ED2127390BDF5E6EA64527BBD4C4C63FA76BB801FEEC0E61218EC98A8A86CD83
311
13781617877E66692839B9468CF4DB8E50A73986E558E309C0D6F676F921BE02F1185454DC75B111572FF9D27D85EA14C05AD7271225B391C4275659CA4A43759D0BA44639BE4C30A84DB7F67A41399FB95CBF923B1B1672ABC807C1590557FB18D811983FA97F5E609516D62281D38B1281F68FC75528C35E4CD7DF0F7DBB
311
5E5DD69C414EBEA2F4A5B241B996BA77AE6C772E367408C633EA3E438B68563EA8BE7667F3A4C4FDEEA52ABD78A2820F443B7914A15F180018D231E64519C56A12F6CA7C8DAE18F06F6B769DBF92329EF6A5D18FBCE600F36BD8E8198DE5CDAA96181F3A756EBA5501CEE58F497EA4F418A2B82565B9BCC611713C0B708CCA
311
1F398B78C5F7D03B3437CC18F13061F55C7BEDADD5ACB1DB0E36D3CE47FF6EA1A563A57E9649EA5D14D1A50EAA457463381C073777EF1600607BAF6428A7DDC079D47A204EF1E1F1F0589FB054D45E02CE623B3823C317C601E589E22B1E88B448524B86A82828E32345EC18AE17214B42F8C41C6D428016D9BA31DDCB4757
311
2561E5A402E5BA4FCE55F78AF7268524AA04130F3A20BA5D1E9F9948EA48FC8F5314FDB35E21898198060034ACE5E3E2BBCA34092518F275190AF65F45867FF0900AA4B81F25427414C372BF51DC29AA855C5428EE1EEDD6B849AD60F6E73475C2D2523F8A2772C840A478DED18A8C5C91B085F255DC4F54EA7AA8947354FD
311
17ECF8FB3B4A0DE7B483CAF3A1165EE05BBA413E5C1FEF3DE1D6B8F2F3F3251C17D9FCAB48A9AAF63AC773A0E413BBC46A9ADF84A566FC920E4D8C52C9769EE3301CADEEEDD92B312E02E2A7E35B7F1E7D203FE5A7D75578B06E99D0E46FFADB8FDA17ED8880390DA29094202D6F645F76F6F96409CDA05495A96E84B04A00
311
D1A6C6C81D7F3DE9376E828CCF144EE50E364ACCE7237EA0BFB5607ED1AC3CFE73794E5B61739D14DF1743441B1AC98F00ECEDE9E7301FA29755FBEFA68C91EF2B314CF510537EF1ABFC9A762496280B546F5EDAAF8A5B387D469FC9A878A92828C88608453ACEC6094DCA54111E7AD5B2663DFE2DD151B7F123B9F4FEF8EE
311
36AB125FD7AD52A59B1B765B3E3F73E3F73DEA93875004D2AFFE3CDE9493B87A9904DD052028949041A91DC0E1BA47BA714343FD5B25E0A6A09503AFC17C790058A836A324FE31D7893512E28230332F153181C1E018E1124EBE1BA262AA428A518237D1EA7275E48C5C561BD19ED6912EDD8367DA0F31E40EEAE9683DA925
311
7525AEA7B632B97119E17145A90231768A4F3B9120FF32E8319B015E3CBE26F1A754177D8185345817C096B0CE443A955D13AC15E1FB5DEEA0239EC32A3C92241A237B0B02FFCB4F93CF2B02570C8D192E2F2A68CEEB42F12E6F8CEEFF46C251E22B4341C56FB08CCE550E7A9D6F4D6564B9EA52A83D5BF2C6E03FA19D2775
311
E15A8A7ACF30A13C259EE7F5EF2AC3BA354F1500E1A07FC63FB4686E2F12EC69719F9ECF5FE3F35598DF2CE944008CE78F0911BA5BE5D0A34E0098FF038669C26030BA9B300303039852A8F6F496341737CA7E0D2E3AAA36DE0A70AA7D9CA0D54D9AD84B18A44C9E625475E1C97B93BEBB38DCE7D227E67A2D00F531436136
311
355F243D1FC0D712C5765754FA22FCFFAE97919161F46D6E61ACB37D83777B385889770B50765B127768443A5C4D3A4E35A3151111F146B7CA116F918A049F1C272F2CD7976C69A0068773451659A97E0F4A08FE604C3FF6CE7385DB19F4D3ABC8A0D80DA8A42096AC377DB49382B36E270B6FA7570188B4B7D1DDDDA82ACA
311
487CCA5D38BD3BD039ADBAFA4ACFF27809239B722081E2EB9F145320553D183F28471C388BC8814E5045676767AB58A8E72D1CED2CA731379515D2E533E4CF0B39DFC625F97AC4836831A4DE330E87A8126FA17EBE583D614E71E22A8DBF2825599743E0640037303E8E1B1E8EA4E1ABFA4F62907B5E4E0E5DCFDAB417C36C
311
6848A2B8D15F1E505434C0707E16B1CFC2A1C36A42BBF55734F8F4301DDC2A5110CEE8C0747F69519265012A2174BF4E955ECD4FDE095A3ABC70536B7AD0B9D7892F81287D667C108703C9B66A221E9A0929D030008F77FF6F5D2108EF5706FC87A3069B976F7C9FC3239D13D283CDEA83597461079FEEE049B0F392889898
311
B7D87D31F8D60ED7B56B91823A8E4EDDB36C6172ECEE42BD42B12CD67994FA0F0DFAE9389356F4CD4425A4B8AA55CBF7ECD585C6A2C2316791E43D5C06841ADBB226A87FD61515FFBB0167B74E56BD7F3E90A57A97FEDCBDF483A0D6699A8C0849CAEB4947FAA90D8E332D9DEBD9F4738C37DA0CAF9CF3DAA68BCB67C42045
311
9C7A64498D6E848E5CADE92BB6901F607AA331104A67F7CD650EE169B1DAE94D2C31C2F993632259B6957E246EFE4C5481107B07118607700040E5812A2A2A38DA0076875258C753F60E0F2662C748EDD5F3F3686B8FC3BD6FE631ECCAA1E8B1C1E565AD117E54893E79F4672E32F9E46B2A183DFDCF3EECB4D4D077DBEA0D
311
A254D256045109670050129E9B9B1A9E4A11344D61497A992778095151510C4BB7EF2009B63AA4360635312E4CF668B7E0D3D85A8688E2BD83B569439892ADB63461930D428E0DE42E4AC57CE48DA5CC1449530D8BD3D6A0F08DF20C8E8F570F2CFFFCEA286E30969B4654D498A58D9DA782E19FE3F002181838925592C4A1
311
EF0B332D88B61A92C644547BED490D3A42CFFAB70E36D961F694F6307F72FF15A1C79D5B1B5CEFD353D9E2B52566DEC8F8F09CB3E8359C0F68EBBB7898243E34E12A015B2685AB303C04D3A9E00671FF3DFF0A184E4A2ABEB2B666AF5B3A209C73D8EF29DCDB069C9F391EEE9DD0F74C7BCDE16F8F02E3B8816122BBEB5066
311
5775B600549D8BB33A54A6BF940C028118BC6878C79958D6784F9DEAA6E26748386FFAF8D0D0101E2847B6563F5D8DC1D78F787BE00E2C941AE12148D4A81599FE8F68D4DA5CDED75530ADE138240300EE13B0FC13A1687FED6774662C05A2B7DFB186732F0D7A93545D8B0A6390AE5054D9CB582DA846D7A061B3358B45E2
311
B52DDE63E114397EDB7E09233A579155D795BE76102CF277F4DF8B188C4F2879BEAE3C08347124BF9ED23B128259FE107D31E34A652F090B30B39E0D9AF917B76A2806135621A8A60681F16AF216514BBD02711585B5B1AE823F4B2D0369EA5B6BCB863072727FFC871CA6C9AB79A814D989057E9470A3D238BC87CBB4A0EA
311
49AFE2B86F22E499793CAA9047080450166BDC357524561E258C77CB697F1ABB32562CF87C3B7AA12F911EF19FB3E5C02222E887D08202A60A17151F5E053A86B437771088B4FEE14D652C43E8D939995D34545E12E2FF93D4E366EAD25F10CB7DED141563C3D0C447AF06078A91135FD4B9611583CB4BF3BD167F2399CEAB
311
0E0100F8FFC305F00F1711717173138B4B48C83022295DE657EFEDD97F238ECA80F528AFB4F8D67AD4E2594B9A3AA86D7487EFC313BA95745C186F0CDD84CC12DC9CB0424B42203D351FD9C0A3AF10CC7F388E0329279087386421F194F4A29464C1DEF7EF8BE515E4A199DCD5B909342598D8FE6A231F71336248D5CEC545
311
4455C7BE383B3BC7B260FED27F703FDC39A170F3827239102F59D4DEE7FEF82EAA1A5E4BA94DCC4CC44E7E2EDE20F24244E4454369D2E87C3F823F193FD4FD27E1C23984B01898D15ABC20711A8A558054951A6AE280096BA36CBA439603B7B0B4C45F248C14B2383B4B5CD8ECECE4FF859AD4A6CA2326D020EF090F4041D2
311
8DB66E5256B56232CC52829DE8060BAE6BBF37D4B7469B822454FE93210A3E8D15E69FFCF01123222611C51C4FD0A041A0CFA2471CF6BE38D2B20FA4C3525B5B8B586759475CF80ADFE67A284AC24651E52B8E683D24C2622642F27E7C3C22783BCF63648BC398BD6CD0D9C97E7E7E3EACB6126DB7A6C1FD9F1031302EE67E
311
D96F22B77C7CA0239BB324207559B105E4693EB26EC46182A92C9C0DBD24F29B31C5C5AC1F84300E0E17CEEAC15F5736FA4A98971E2F1423BFCD68D4BBD5F86E74B40A369F39507C88FCDB35D2DD8DEBEA4AF999E23CF2816D204200DF6E611781B9884C1AC8888B4DE397320472959434323A5A36B22A8E1F721A270DF3BD
311
65E4A31C11FF048AFB0D8B7B6881423793963A23CFCE935FC189ED36FAE35C46DA3574C979E4394BE52084F3081837BE033396D2EBD80F1F691B273F660D2B32FA27A33B1DE4ADA5F0FA4651511102DFA410DDA86E065272CA314D5249DF91B06BB92807B28EFD54F08F7B525252782CD276DD02E6B0319B13DF87B1F6361A
311
D6B28FC0D711CF445429B9E5A433CD493051C49A9E03DDB1B147D880253514A5DED88009018620EE229101C041950E2D8AA8E1F5F5438E0C0C0C60EEDEE9E3E0C051948C69F84BB7B2A48A1F3C8EB9E6864687F4F4F6F6E2FA87608ADAF9C5E117B7C1A737E710769DA1D15ECE6A84502AA855398712D5FB51BE92E4EF8249
311
69CE18278798AC303C2C7980DD2500ADF8FB1E6D6C2FAAFF9987178923334A244758BAA01A9A1B70FA5097D01E1CC2A58DAD0EC94CE6430AA9B0C10D75E3C6BAC670EFBADEE1607739CE0FC18A2587E3EC3058562014C64219C69BC269082D5C2F4A659278D585755912176D78A1B641719C2A394CED495A1AC5D583FD2F5E
311
DD93308EA7EAE8A6DD396598BDBD3D4CFED62D18A5BDFDE0DD5C80D1A89BA62697B131AE7CE9A6594138582F1B37D68F1749AC7CB67A70695D48A4A056AC1FBD4E82358CEAE38F54B95A9016F9000F9879C0D9D131768635CA798895F27D6F1614F11F2838A83611AA51C9A3DDB539D42979C29F10465655C17BEC3E2760B8
311
0DCBF609198C7B171A531905F3EC218D696025975E986C6B4C666666787271F202805577DD5A3EF0CAFAF91B62DC4B2DB4217A7606282F31D8DDBC290593BAA93EA6353AFA9939B877978481E15CFC9F2755CDC00C538F63A4BA3E80AE009B73CA0185687D339A507D165B74290D6EE46D5C58148F020C3668ABE9EF2F7549
311
170DC80DB41FFC1D678FF19AEB10C7133832B104B80F691B3138F97A92D26E551F1F110400D45AC71A9B9AC41A1A1B1DAEED0B0810638EFFB511D46B121C6FEA0F38CD00E03CFFEB9713FE1F9C263E4DDEC160D0497FA9A132BA608584057FB15380825DE6C7FC3C667EE947D488A09898D8E939C4953BF4EC9836344D2CC6
311
B2971B2A21A572B06096F4982D2CC7232D46E8EA69DC83722E267754D777F97F96D5DA74E1E75178084D0E70F12AD33E5F71EF2AFA599B2BEBF60A5BE475F444F240CBFE8143C334E7ED9150FEEFEF7EB020C4DBED388DD1D6A167A76F3CBF119B578AE8CFA7736ACAFA4440A1C47185638A0D2F3EB5BDDEFDA958FB13CE4A
311
A4923D5BF840392D45544329525749734866684BF7F8D9D54D892E19BCA9F829A0F8BFCBEEA6CFDFC61D74EA1A645ED7A1FF241739F15694BD835B66FEC5677E40FE69BD3F91AE402F036537218A401CB0828604AD189E575015C6F3F6BBC8AC79CF6C70653847254B31551EFCBEB5978B9DB85D58D0FA41A9DFE9C624834A
311
A04949D24B5AE6D299E072D152D12097920F14AA92C31C3B97E28B6C2E6E9C23D63043ECBBC0A60FDF5BD0C33C127EA8A3308B8B6AFFEB28B4455BF6E7AF4FC6222728357EB8E46E85053E6A8843AB23295BF838ABDA94658FEF3F832F147046B4ACD6F7D48E8FCC9618582961C898D1C7A253C91BFECBDA6BA18A1FCF7075
311
5DCCEE2222F41B76D23CA98D0CB3D95F0CF66D57FFF65E2A90F5DF40FC3187621E981BD0BC1D992787212688976B94A8F0C6EF646624B570B78E068826F87CE27041A95C9A4871FF65CC17FCB1639629AD6A9517000D63AC231F3D741CB8430777E7ECF80CE7A3F73C0F162F7E56AA71F4DA80A33CD6ACEE78E2C11FAC03DA
311
FCE929B106F8F6B3ED2DC71FF994BD9CEF4E9A94896EF1B6E2B7B4978168BCF0847A3D2A4F1B0500B926E634B174548E9FBAD27153FB5FC36799B1E6C7C38A94E1F9E996796D7B485E635D5287A2AE76FBD11A341DB3F8F810385BB7296391973DC6C37C452A9305AEBBE0CDB6C566DB59FE60C8E94B1FD090354BF51439FF
311
D1B48D725228FFA88C84F686F547107A7A235665A4593B7C34D748C1AC8D56DD5DA861EEFBADDECBBD65117E65851F90351AEB65F0EFCFF4BCFEF24CB7A5879699FAC437A7AF9099186CF006BB923A59E37D7A36A29FD8D2CBB914A5E9D0A8FD212FBF796AE9A67958FF1D5D8B85F78F96219D4714EB919929241B6C018AAE
311
0C02069F8D919961EC5DDFBFB7573E3AC8E08BFB7C8534BE6DE045B3CD63DBD71F7638BA2309CAE398EA3A7D8F98BBBC7AEB367EFA5CFA27A9F8F2F52FE878058E6209C026453F8E7E8A237DFC389E9590F6059B397CFD65183BBF936E86896612A5B5FEE49DAC8455D026218AFEBEC12B3523A45B57B82C9C97E02ACFA118
311
4DB18E48CF615DBF39C3CC6F0B4AE6BBEEA2E39D944E290302FA3DE33FA7E40296E2EF7BF1CD855BBECFAD0FD622BEE9746FC4FDFDE545AE6E3BC234CADF83A0FB76DFB145BF3828AE3436368AC24989454F8FF70A177672C711CAA1A76107218CF948CA01F873520E7A2B118EBB161ABAD432932029628B6761590C98AB59
311
0C8C8C79798CE9F715BA696E839E9131A4BB68BE923F1747FBFF165331FFDD4D05997ACD168F12CA75348DAC04C7F509FE83898A8B421181AF492861CE81E4A2DD0A30850CFA95E05F097FF70F9E777310D584A75BA7018922E271DAB1D785671157685B7D383D3E074DDB4F1E44EF04B07BAAC75A062077C54B9752C738C9
311
D804D402E02851F3F89605AF189738C18C021D2139EAF72513824E10DDD3047BACC8521ED7E98B257D1166903B1B08FA6F918FD7E162913FEC7D0EF4787E29C35FBA8C6E2C9C20E9AB30AE42CA2A01A090E7D010C1B5BF9CEE2A304BF3A987FB40D836979B79E18D70F257DA61E808472DD85B82761825779D6B90CAEB0F23
311
360C6F80A7D7D77545E95B3DFF0CF96A827F9B5BCECD2C9698718417EF80FEEDEE938AFF55859D0D540B7FE09435583A6F04874A0C7E8CF234DF4879722000167F5872CEC6BF3EF7E5A8CC8121E6A359227C8A29C95212F9F735BC72A887D56B8F309FC525BFB4FD767AAEC4AEFF249CFBBD2DE1AB9969A6155C7D8DABC307
311
E47324C1F916C7BCFF40ABA5644E9FFB9238D19ADADA49D9610F01ABBA57E4DFCBDCCBB2B93C8953206C91DE01B0E2651A6D6C31721915B31F7B7CBCE55466F6D70402788FA91D73BE4ADCBA99A35F17D6B83383704917D6833F0FA3CD45C926ADB8BC17999A4A0AFBCE2541F7B8CF4C2F5FBA611B3E626D64407CB32C122D
311
FF4EF8674D6EDBB86C8F7C6A16D50FA685E2CCA34F8F7D1D8265BB0042E9D7F1F666F7BE5FAA5184DF58E12122A42EF02F461B3F369AC746F96528AD208512AB56844CF75B97F352DF7995024FB02855385854F3798670D01CAC771AC3E1889EC25F61A20C1F8CAB46898817F9C47E2CDA1F286BF2F358298709FE567C9113
311
3E2638C8B53975E753EA8BFD3578B5F7186B7BF084EBA3F77BAC3132A5779902EC22AF2D2E79F42D324E083386DAEE9810D1B44A5DAA54513C7A71E52A4AB9257D975B621308FE4D2141CC3DCFE946C154A3C1DFCCA7629EC69ACFA831634ADDA93C0388D2A9A2DDAFCF957C6995BCE7FBB6DC4EBAE79E63EB08E9A25F52F6
311
7076F7093CA545CA3053B5BF576DEAD4E0017143C5F759F32B2D6F145B52B67B48909B7C7FCA6586EE385A2189C16932CB6DDFD9152AE317C430492A578ED27B72D85D40C7C93C097939E1B50F4D67F05334FE9DC362C30B7FF561B95259138ECFD9274C8D695C31B14D4EAA9F3D7FA8DDF652F8C5DEFA23284C799B7D9441
311
6DEE81E05A866302DC70192A5368EA65E1CED8BF107A1E2D3119A71E85DC1A7B0C1E93274CE04DD0F2ABC8AC7C987FDB002B6F81757B43502EF7A0D92E416494FAEEA4C9C090CD9557AA4D532F4996A272B94355C5A0E4974EEA9627476F30809B94D8D8D860062E02204643BEC7D0438AF800FC7E2B26955D595421E83C69
311
E1A07E0E3122285835F014AD538188CF9737CE76D464A353FA55A001AB2526B84E985083693BC76FE211CA1D000679C889E3C009832C87E1AC2EDD05C302557422DF0800E316FCAC86978A371F025A6C7DAA9F333E7BD160403A1A06EA75AA9888FF01504B0304140006080800248F295028BB58AF800100009E0500003D00
311
000038303633463738432D423941462D343138362D413643312D3039463737443543323642432F536368656D61732F436F6D6D6F6E536368656D612E786D6CBD544D4FC23018BEFB2B96DE15493C78601010A34B880709DEDFB52FD0D8B54BD70DF6EFED3AC0B12E6442E2716BFB3CEFF3D18E26FB440405EA8C2B1992E1C3
311
23095052C5B8DC842437EBFB673219DF8DA659866649B798C078B48AE6410122242F2A4994AC7F93815DF85C049C8564CA0A901499DD886B2EB9B1E02448F358701A9235880C49A0119892A20C89D1B9FD768815CAD268CB5E0355B40B1E47F3E37A2020464BED06AA57CE8FCC20C3C3446D46761A2632A8C1283D07031EFF
311
2AE7CCB1BFEEE916E406DFAC8E36FFD99A9D60A6944090EEDC3B670C7DC13DE86B6B2C5C240D6E503BB85ACD579D513F1B9F9A69DC9CC22AFA80C426D40AF0B21EA168559156B6276F0F726A6BFF04DCD513A87A62CAD41FB24FCB2858B3952E3D852084DA25B9303C15687973CC8E8AAE11DF2836C38C6A9E765E8C1BA1BF
311
B1DC29CDFE518C8B5A7655A4ED7E77291ABEB80DBD82EC866ADE1B8D05AF9E35CF09D7A061F38A986D9EC412B8F0F65E5D81534D9B231D1E5A8FE577A241F3A5FD01504B0304140006080800248F2950E336299B9F040000341300003E00000038303633463738432D423941462D343138362D413643312D30394637374435
311
43323642432F536368656D61732F47656E65726963536368656D612E786D6CD5585B6FE238147EDF5F61E5BD1498E9A895A02398AA5D1E2A5665BAAF96710C78D6B9C87168D95FBFE7F81242134A968E469A4855437C72AEDFB965F4F53551642B7421B3741C0D7AFD88889467B14CD7E3A834AB8BEBE8EBED1FA3495108B3
311
E01B91B0DBD1F3EC8E6C991A470F22155A72F73CBABC1D4D5921DCD1934863A11F990102A6F61466977B8AC49FB13C174CB3940BE4504A22E3713489B7F82406516225536940BD88E4E552493E8E564C1522225AB0384BD56E1C195DC26FAB13882C2EBD62E1FF9E5B0FCC453132C99548446A1872B62267078F1EF14C3DB1
311
DD1952DDBBB384AD456779F387C51992E0ADCE12FED2622BC5CB1952FC9BDF3295E9206E961AB116DA7ACE45F76F07A26EFC3FD762FD7362FC3C0BAA4DB34C09E682CA5167BADCD16CF94370E331E2F1A3D852008AAD5D64BA2373478338AEB1583B905396D158182655E1B938D07926CF007CC7E85E6709999B0D3827C0BF
311
406BEF55C68CF5579DA32C8C85BE03EFE788787E8FEC95DC85C3E31A615658D81F9A34499612004CE69CAB12531B15A887ACA642C110F8C1A8C1974A85853F407794695C905C688E69B116550ACA946B9B4785FC179E0E229240B62665328E86D5BD2C800CF5D80289F35AC25E3DD51508F4BF9A74A0F5A557BB3D284BC6FF
311
59312E282F956A75C5D453906F48D11A876599E49425602400842995BDF02C4D012E226658F78A710416AC552831FDDEF0E6F0BABEBEA9DC36718CCEF4DAC5A0DF871AECBDD8F448F015F8DA113A473609D1751672B723874B2CAB21ECD6E284E51DCC7D1A47A00F60EC21DC4CC3CDC406DC03760A4E6C772F2F4D561A9AE5
311
8C4B03F5B4838701472139EDCB36819A66C472B52AB1139C648956F43E0DAEC067B56B0818F5961D3D446B8F1E1E78C0EAD7EE02AF2895D813E88AC5014A7B436DBB20F778D40A1D9737EFE45B47D49CC8360F9966B15AABAC802C1005548A93EE469F5D55317CD8BF0AA86CABADB2A009D4D6F60CFE53AE370AFE8C45415B
311
15D362A5A038E766E34B00F8C2E3E7098E2093B1C96349FDAEA158903B4BDAEA665F473FECE72186E3BDDCACCADA31839CD6D4FA7D47DF5469006ED340EBE71DF960DDEE88A3E17557039B58C278A1795BA8079419DA8FC5BA1BAA1A66238BF69C7B2BE4E6274839122B7D00BE8B7D52CF61B2D63216046008C8B330FC10F8
311
907787DEF061F47965BBA02FD8F53BA12F9827614979F53563D0BB1AD67A03DC0E00E2FB2CF3EFB457E70E65A3D7C78E7D700DBB45132AE9BBA5E468CD861408961AD8B00A55C2FCC677F4456039FD9F1907A5B3E2D0EE845FDBA2DAFA88C64195671AD6D282DA2E45B1F50A0D632B0D0B6718757DCC7C84A70A3656F222CD
311
A6DBF07E204AB358961D1BE31E53A82C2C0D56DBF61A5608B5A252A932A1DC6E32462430853353EA30417C8199A662E946A4EF352268B8CDB9A9C6762515ACE8E09BBC031C608A02C4BA89C9DDC074E46E0E26A17BCBD4ED43270D03E3645ADB81F6D62CC07A3243EB81C07E01681DDF2DB4730631E6DDA6CBBD048BE9F06A
311
EB3CF06B31DD6C9575E37E9FF17161342C4C76D95519672A6509E0F5C4E71B4B1916440059F57D0921F496237E473A83E3E4E06353BD9D27593594D7B6707C08D22FEBDFBFFE03504B0304140006080800248F29508DFFFC99640100009B0300004500000038303633463738432D423941462D343138362D413643312D3039
311
463737443543323642432F536368656D61732F52656E6465724D6174657269616C536368656D612E786D6CA5535D6BC230147DDFAF08799F5FDB600FADA20EA430D968A7AF12D36B1B481349529DFF7EF9A85A718860DFDA73EFB987734EA3D16FC5D10E946652C4B8DFE9610482CA9C8922C6B5D93CBFE3D1F0291A6B0D26
311
A3255464182D920FB4233CC629881CD49C18508CF000E3EE309A100D61622AAB4A8A33B2483F11CB639C545B0E1508438C3D3C0361192846DB7ACD198DF186700D182920B914FC1063A36AFBEE8FBA03FFD3CC1D1F4FC9E151A2AF59F628C5B7821D83FDFD3489305080F2EE04BF962195FB285E9D2DD352320A9E827AE357
311
594914E42B1F5FE35F83688F60C4C91A6C946ED0668E8F244BC2EB0BA6E3BCCFC0B6A4B507F9F9F8D51EB315D9BA9E08D308E89F96931666E577837E2B4172199C68C4FE306156D47DF51C698C7B9D97FE5BEFE2190C3C38BB054E6E8163FB039CB4B993C80BF18D969203116D6BBD26238B821F9BB909AD6D9C71B85BCD8C
311
33D66FEA3D31B4BC0AD45BEA46BBEDDFEC0F504B0304140006080800248F2950B356342051000000570000004700000038303633463738432D423941462D343138362D413643312D3039463737443543323642432F4173736574446174612F41737365745461626C654F66436F6E74656E74732E62696E5361606030333075
311
31B4B430D4B5703535D735313574D275723230D57535323070733433707232311602AACB4D2C492DCA4CCC492C28484D2C4ACC4B4E050A82012F90744FCD03CA26072767A4E6260200504B0304140006080800248F2950C55C663656000000680000004500000038303633463738432D423941462D343138362D413643312D
311
3039463737443543323642432F4173736574446174612F53747265616D56657273696F6E5461626C652E696E665D8CBD0A80300C06F73E4B29FE6CDD8A2E82A083B8B7F209014925C9FBA3AEAEC7DD2555D896CB85E51C2A1BD834F6A1F56EC4494C4695278364ABB24ABD2146F88CCEBB89D5321FF8F3F43D672A3B44DF3C
311
B6A1710F504B0304140006080800248F29500FB3064437010000A20400003600000038303633463738432D423941462D343138362D413643312D3039463737443543323642432F4173736574446174612F636E782E786D6CCD94314FC3301085FF4A648931B11309B5548E2B044B2790A818D8AECEA55875ECC8BE20F8F7D8
311
6D0650115387AEA7EFEE9E9FFC4EAE3F075B7C6088C6BB96D59560053AED3BE3F62D9BA82F97AC582B19BCA71F182B1C0CD8B25C664AEE839FC6B9D4610F93CD556BDC612EDEC788B4859DC5A7FEC13B42479115DA428C2D8BFA1D07A86022DF613C541D1054751530FA29684C93C80C384FD20181B063AA118D28455D8ABB
311
6DBD58DD2E5662F926792695DC796F67DEA465C18F378DD0A7BD4C09C933A0E414CC4CE5D730F597CA6A679CE48954325248AECC1DF435A60E18476B3450328F7B4D4865821006C94FB0923CBBF0CB8B47EC8D33B96593A401F9F09C0462208357E8C97F6A2FEFCDC64502A7F19A1D39D778791F5E8EBFE8F514CB636EAE2F
311
2DE71A2BE3FA0B64851FCF498A4EBE2EEA1B504B0304140006080800248F29506DF858C1E7000000600100006700000038303633463738432D423941462D343138362D413643312D3039463737443543323642432F5265736F75726365732F36303544313938312D384535372D343531422D424230352D4532303046413630
311
424234332F7468756D626E61696C2F302F636E782E786D6C4D90C16EC4200C447F2542EA318144AA76BB72D89FE8A9978A126F8A966004A66AFFBED072D8D358E327CB3370FD3EFCF085293B0AAB982725060C963617F65514BE8D67315C3524227EC0C410CC81AB68B6D0B0272AB15B1BDE4CF1CDF52EDCBBB963C0E4EC7B
311
0CBB18AC3739AF22DB4F3CCC640AD386F93E6D86CD344F09339564B11E6077603F60131AC64DE8452D6A54F3A85E5EE7D3E5F97451E737908DD4F041E43BEF0263A2F8B4284B750CF51F05B2011A4A729D6A21847E780E645D6AC89C6AFE0EF14FAC9089D13B6BB8D624C932F258213407C87F58836C79ABFC9551B575A37F
311
01504B0304140006080800248F2950A233C2345D000000800000006500000038303633463738432D423941462D343138362D413643312D3039463737443543323642432F5265736F75726365732F36303544313938312D384535372D343531422D424230352D4532303046413630424234332F7468756D626E61696C2F636E
311
782E786D6C4D8B490E80201004BF42E6EE76F3C0F216234B883063108CCF170C074F95AE5473F5C4C06E932E4F28601967600677D21E9D8092EDB002539227A2FCCB80E1168D80A6417297A89C5D6963B7129A0D1E8F2EE73AA7B62BBEB8B27DE50B504B0304140006080800248F2950BE89762363000000880000005B0000
311
0038303633463738432D423941462D343138362D413643312D3039463737443543323642432F5265736F75726365732F36303544313938312D384535372D343531422D424230352D4532303046413630424234332F636E782E786D6C4DCC3B0E80201004D0AB90EDFD75167CCE820A4A845D83603CBE602CAC26799919AEEE
311
E0D965E2E908050C6D0FCCE04C8BC355404EB6198129C92351FAD580A10E464065907C8D948F8F166375F655BDC3FDC3B4E530A176BE7057BDC43B2A593FE403504B0304140006080800248F2950EE8E16307E000000A30000003600000038303633463738432D423941462D343138362D413643312D303946373744354332
311
3642432F5265736F75726365732F636E782E786D6C4D8CD10AC22018465F45FE7BEBB7E6325047D27A8FD1DC909C86CDE8F1D3D845571F1CBE7364F7593C79DBF4723128603B0462C33D8E2ECC0AF23A5101A4D332C5B8FEDD808461B10A2A062DE714F37343A39D86EC2BF52E3C36D822BFB2B36054F4FC441BCE0C350639
311
ED0F88B74B8BC634C762ECAB52E6D72B5BF3FA0B504B0304140006080800248F295027A0E4F00B010000550300003400000038303633463738432D423941462D343138362D413643312D3039463737443543323642432F536368656D61732F636E782E786D6CCD93BD4E042114855F654262390C3389D975C3B08585958D5A
311
D921DC5DC90277C28FD1B717468ADDC44E8BEDE0E4CBCD39072EDF7F3ADB7D408806FD4C46CA48075EA136FE38939C0EFD96747BC103623AC348E7A583995499087E0C9897266938C86CAB6A8D3F35F11E9D43FFACDEC149D2292B639C495CAF54E6841AE2896A99241D698088392828139271D026A800328126626213EBD9
311
D8B3BB9771B3BBDDECD8F6950F9514FC0DD136DEF80401979B89292C475F0C313E5440F01C4CA36A0A22CEDDD1D2071F0A21784CA1B4D0C8F4B514522E8B354AA652D6B0823F8CE0430D7B11F9013C04A3AE35F385BD7F0BFD045E43782C2F158CB4D79AFD37977FAB605837A07C83BA10E21B504B0304140006080800248F
311
2950E3603EBE7A000000C20000002C00000038303633463738432D423941462D343138362D413643312D3039463737443543323642432F636E782E786D6C6DCD410EC2201085E1AB90D9DBEACE05D09878023D01A1D34A8419C380F1F82DA68B9AB8FDFEC93C3D7C52546FCC12980C9CBA232824CF63A0D9402DD3E10C6AB0
311
3A3397DD192872090D3406ABE7CCF5B5D18893ABB1690CF4DCF02282E5EA8A5BB96FFE536F285CB347F95BEFFE81C9ED5AFF9D5B1FB575BB00504B0304140006080800248F29501AC696F37F000000A300000007000000636E782E786D6C4D8C4D0AC3201805AF22DFDE56FBA306A221B1788FD09820355A6C2C3D7EB564D1
311
D583E1CDB4DD67F5E86DD3CBC520811E08201BEE7172619190B7190B409D6A538CDBDF0D5018572BA16250ED92627EEE68B2F3987DA5DE85C70E056167C385C643D31B7CA182E19E698A496338BF5DF5890DBA18C7AA94F9F5CAD6BCFA02504B0304140006080800248F2950CA1DF9C9A900000073010000130000005B436F
311
6E74656E745F54797065735D2E786D6CA590410EC2300C04BF12E5DEBA70400835E500FC800F84E0B411AD13252E2ABF27A55740421CEDDDD9B55CEFA7A117778CC979527255565220197F75D42A39B22DB652EC9BFAFC089844F65252B2630E3B80643A1C742A7D40CA8AF571D09CC7D842D0E6A65B8475556DC07862242E
311
78CE904D7D44ABC79EC569CAEBA537E3521C16DF5CA5A40EA17746733E0B6615DE7217475F386F18B9481C510F1F021CD9FF027EA0E1F5C4E609504B0304140006080800248F29503DEE336E64000000790000001B0000006175746F6465736B2D64657369676E2D7061636B6167652E786D6C35CBC10E83200C00D05F21DC
311
A56CA76D41FC96062B120735B69A7DBE268BB7777961F8D5AF396893C2ADB70FE7ADA196782C2DF776D7A97B5933C430F15651E5469C55D70F80A4992A3ADC954792C525AE70A1E4D6AD9816CC044FEFDF01FE3FDE907802504B0304140006080800248F295062875D1EF9000000960100003700000038303633463738432D
311
423941462D343138362D413643312D3039463737443543323642432F4173736574446174612F636F72652E786D6C8550CB6E833010FC15B47783810448641C2148BFA0A7DE2CDB2156828DFCA8FAF9B50395DA534FBB9A9D99DD1D72F95A9ED9A7B44E19DD439963C8A4E646283DF710FC0D75905D28B1C6F85F34C8345B64
311
0F09064A666BC2BA43DC682F7542B51172079973D243C69FB1E9C1F1BB5C58CE828F0CF7C857C61F6C9679996F3C4A425062972A11DDD44D490B74C2E3B11AA73774AABB111D86AA46A7A11950DBD4D706D7E3017757522431255E2D3FDBB995CC4B01B4C21546B844F8F45EB6E7637BC6DD0729129312E76DFC795F9ABE03
311
3AA4AB27E61929B6E91FD7B08AFF5D83D2BEAE76D74DE18096F1C8D7809222A514CB2BC25853A2F41B504B0304140006080800248F2950E3986F47F40000008E0100006800000038303633463738432D423941462D343138362D413643312D3039463737443543323642432F5265736F75726365732F36303544313938312D
311
384535372D343531422D424230352D4532303046413630424234332F7468756D626E61696C2F302F636F72652E786D6C8550CB6E833010FC15B47783818447641C21927E414FBD59B643AC041BF951F5F36B072AB5A79E76353B33BB3BE4FCB53CB34F699D327A8032C79049CD8D507A1E20F81BEA203B53628DF1BF689069
311
B6C801120C94CCD6847587B8D15EEA846A23E40E32E7A4878C3F633380E377B9B09C051F19EE91AF8C3FD82CF332DF789484A0C42E5522BAA99B9216E8054FC76ABABCA1BEEE267418AB1AF56333A2B6A9AF0DAEA703EEAEA448624ABC5A7EB6732B99970268852B8C708970FF5EB6A7637BC2DD0729129312E76DFC795F9A
311
BE038A49B1A17FDCC22AFE770B4AFBBADADD3685035AC6E35E034A8A944E2CAFE8624D49D26F504B0304140006080800248F295002496C1CFA000000960100006600000038303633463738432D423941462D343138362D413643312D3039463737443543323642432F5265736F75726365732F36303544313938312D384535
311
372D343531422D424230352D4532303046413630424234332F7468756D626E61696C2F636F72652E786D6C8550CB6E833010FC15B47783818447641C21927E414FBDB9C62156C0467E44FDFCDA814AEDA9A75DCDCECCEE0E397F2D73F214C64AAD3AC8530C89505C8F524D1D7877430D24674A8CD6EE170D12C516D1418481
311
92C968BFEE10D7CA091551A547B183CC5AE120E173683AB0FC2E169632EF02C33ED295F1079B449AA71B8F12EFE5B84BE518DCE44D0A03F4828763315CDE505B36033AF44589DABEEA515D95D70A97C3013757924531254E2E3FDBB911CC891168810B8C708E70FB9ED7A7637DC2CD07C9229312EB4CF8795F1ABF03EAEE7E
311
F9544CCE24DBA67F5CFD3AFEEFEAA57265B1BB6E0A0B340F47BE06946431A5505E11861A13A5DF504B0304140006080800248F29504C71575D0D010000B10100005C00000038303633463738432D423941462D343138362D413643312D3039463737443543323642432F5265736F75726365732F36303544313938312D3845
311
35372D343531422D424230352D4532303046413630424234332F636F72652E786D6C8590CB6EC32014447FC5628F7DF1DB1126F22B5FD05577C826294A0C9181AA9F5F885DA95D7575D130C3E10E3D7FAD8FE8536C466AD52212038A849AF522D5AD45CE5E718DA233A39BD6F6970D458AAFA24541468CDE36ED9E87346B65
311
850AAAD28B38446E8CB0289A1FFED022337F8895C7DC59EF30F7F8C9E73BBF8998C4BB8F51E7E47244E5E25F93572936C446188A74182FB8C9EA01E75D9AE1A62B3B5C95D9544236E4504F34096146AD5C7FE8F326B8150B6229A480816068DE48752AAA13D4EF34094E468DDDFCCE07346C875809C5489A9AE07A2A2A9C17
311
A4C77D0F059E52804B5742DFE7194DF6E01FA07B2EFF039D54364B0FE09E308811FFFFD705A34928D08F57BB7E86B2D937504B0304140006080800248F2950F6DB3A43FB000000960100003700000038303633463738432D423941462D343138362D413643312D3039463737443543323642432F5265736F75726365732F63
311
6F72652E786D6C8550CB6EC23010FC9568EF4E9C0448821C2314E807543DF566D94B6A416CE447D5CFAF0DA9D49E7ADAD5ECCCECEEB0C3D7722B3ED1796DCD087549A14023ADD2661E21860BE9A13870E6AC0DBF685018B1E0081906CE6667E37D85A435014D468D55B882C27B0C50C85B6A46F0F20317518A1812C35FCBBB
311
9057316359974F1E67316AB54AB54A6EFAA2D1013FD169DB4CA71732B4FD4436C7A625C3717724DDAE3DEF683B6D687F6655167316F4F2B35D3A140115F0863694D09AD0E1ADEEF6DB6E4FFB77566526673EB8F4F3BA347F07FC15BD8D4EA267D573FAC735DED5FFAE519BD036ABEB53E181D7E9C8C780B32AA794CA23C254
311
73A2FC1B504B0304140006080800248F295087A049D4F8000000940100003500000038303633463738432D423941462D343138362D413643312D3039463737443543323642432F536368656D61732F636F72652E786D6C8550CB6E833010FC15B47783810448641C2192FE407BEACDB21D6A25D8C88FAA9F5F1BA8D49E7ADA
311
D5ECCCECEE90CBD7FCCC3EA575CAE81ECA1C4326353742E9A987E0EFA883EC428935C6FFA241A6D92C7B483050325913961DE2467BA913AA8D903BC89C931E32FE8C4D0F8E7FC899E52CF8C8708F7C61FCC1269997F9C6A324042576A912D14DDD95B440AF783C56E3F5059DEA6E4487A1AAD1696806D436F5ADC1F578C0DD
311
8D14494C8957F3CF766E25F35200AD7085112E113EBD95EDF9D89E71F74E8AC4A4C4791B7FDE97A6EF80BEAE773A526CB33F9E6111FF7B06A57D5DED9E9BC2012DE389EB8092226514CB1A60AC294FFA0D504B0304140006080800248F29501D78C3A602010000D80100002D00000038303633463738432D423941462D3431
311
38362D413643312D3039463737443543323642432F636F72652E786D6C9591DD6E842010855FC5CCBD0A5A7F76836C766D7C825EF58EC2AC25BB82116CFAF8856AD3F6AEBD821CBE33C39961A7F7E99EBCE1E2B4351DD08C4082465AA5CDD8C1EAAF690BC989B3C55AFF0383C488093B883270362E769D77495AE3D144D558
311
85BB289C430F89BC874B074EBEE22432B1FA40B85B360B7913236634DB38CEBC9EBEAC7241E151012F48415242537278A2CDB16A8EA47D667924395BB5F165B137C3E9055562671F2201AF4A966FCF015BB5DA21ADC227F555E302BC257539346D9F5E0EE7217DA06D9D9EEB3E761A9AE6B1EA8BFAD28722C1CC99F34B18CD
311
5E240EE1AFF6CDF82BDA3AAB7F46DB1C0E38FD0E95C73973967F2E219C7127FC03504B0304140006080800248F2950715AB38A08010000B201000008000000636F72652E786D6C8D50CB6EC32010FC15B4776C6C277E4498C872D22FE8A9376A888B628305386AFFBE10BB527BEB69D1CCECCE30F4FC394FE821AD5346B790
311
250490D483114A8F2DACFE866B406746AD31FE970C90E6B36C21C2C0E868CDBAECD060B4973AA2DA08B983DC39E9010D5378B4E0860F39F384AF3E28DC3D59F870E7A34CB264D331EAD5FCB33A58C9BD14C07292134C324C9AD7AC3A1DAB13A9DF681A958CAEAB12BB9512C15DDD94B4C02EA43FE6FDE5053745DDE3439717
311
B8E9CA0E5765712D49D11F487DA5695C66D4791BFEBC1F09393D72FC117D69BA518CBE1B33ED82104A20A3A72F6084A691F8137A5DC43F422BED8B7C3FB86D38605908F42482716C308C67BD61C6B6D937504B01021400140006080800248F2950EE3F3DCB33010000A80100004F0000000000000000000000000000000000
311
38303633463738432D423941462D343138362D413643312D3039463737443543323642432F4173736574446174612F446566696E6974696F6E4974657261746F7250726F706572746965732E62696E504B01021400140006080800248F29502FBD7B3B03010000300200004500000000000000000000000000A00100003830
311
3633463738432D423941462D343138362D413643312D3039463737443543323642432F4173736574446174612F496E7374616E636550726F706572746965732E62696E504B01021400140006080800248F295088E57597CD3F0000904100006B000000000000000000000000000603000038303633463738432D423941462D
311
343138362D413643312D3039463737443543323642432F5265736F75726365732F36303544313938312D384535372D343531422D424230352D4532303046413630424234332F7468756D626E61696C2F302F67656E657269635F706E67504B01021400140006080800248F295028BB58AF800100009E0500003D0000000000
311
00000000000000005C43000038303633463738432D423941462D343138362D413643312D3039463737443543323642432F536368656D61732F436F6D6D6F6E536368656D612E786D6C504B01021400140006080800248F2950E336299B9F040000341300003E00000000000000000000000000374500003830363346373843
311
2D423941462D343138362D413643312D3039463737443543323642432F536368656D61732F47656E65726963536368656D612E786D6C504B01021400140006080800248F29508DFFFC99640100009B0300004500000000000000000000000000324A000038303633463738432D423941462D343138362D413643312D303946
311
3737443543323642432F536368656D61732F52656E6465724D6174657269616C536368656D612E786D6C504B01021400140006080800248F2950B356342051000000570000004700000000000000000000000000F94B000038303633463738432D423941462D343138362D413643312D3039463737443543323642432F4173
311
736574446174612F41737365745461626C654F66436F6E74656E74732E62696E504B01021400140006080800248F2950C55C663656000000680000004500000000000000000000000000AF4C000038303633463738432D423941462D343138362D413643312D3039463737443543323642432F4173736574446174612F5374
311
7265616D56657273696F6E5461626C652E696E66504B01021400140006080800248F29500FB3064437010000A20400003600000000000000000000000000684D000038303633463738432D423941462D343138362D413643312D3039463737443543323642432F4173736574446174612F636E782E786D6C504B0102140014
311
0006080800248F29506DF858C1E7000000600100006700000000000000000000000000F34E000038303633463738432D423941462D343138362D413643312D3039463737443543323642432F5265736F75726365732F36303544313938312D384535372D343531422D424230352D4532303046413630424234332F7468756D
311
626E61696C2F302F636E782E786D6C504B01021400140006080800248F2950A233C2345D0000008000000065000000000000000000000000005F50000038303633463738432D423941462D343138362D413643312D3039463737443543323642432F5265736F75726365732F36303544313938312D384535372D343531422D
311
424230352D4532303046413630424234332F7468756D626E61696C2F636E782E786D6C504B01021400140006080800248F2950BE89762363000000880000005B000000000000000000000000003F51000038303633463738432D423941462D343138362D413643312D3039463737443543323642432F5265736F7572636573
311
2F36303544313938312D384535372D343531422D424230352D4532303046413630424234332F636E782E786D6C504B01021400140006080800248F2950EE8E16307E000000A300000036000000000000000000000000001B52000038303633463738432D423941462D343138362D413643312D303946373744354332364243
311
2F5265736F75726365732F636E782E786D6C504B01021400140006080800248F295027A0E4F00B010000550300003400000000000000000000000000ED52000038303633463738432D423941462D343138362D413643312D3039463737443543323642432F536368656D61732F636E782E786D6C504B010214001400060808
311
00248F2950E3603EBE7A000000C20000002C000000000000000000000000004A54000038303633463738432D423941462D343138362D413643312D3039463737443543323642432F636E782E786D6C504B01021400140006080800248F29501AC696F37F000000A300000007000000000000000000000000000E550000636E
311
782E786D6C504B01021400140006080800248F2950CA1DF9C9A9000000730100001300000000000000000000000000B25500005B436F6E74656E745F54797065735D2E786D6C504B01021400140006080800248F29503DEE336E64000000790000001B000000000000000000000000008C5600006175746F6465736B2D6465
311
7369676E2D7061636B6167652E786D6C504B01021400140006080800248F295062875D1EF90000009601000037000000000000000000000000002957000038303633463738432D423941462D343138362D413643312D3039463737443543323642432F4173736574446174612F636F72652E786D6C504B0102140014000608
311
0800248F2950E3986F47F40000008E01000068000000000000000000000000007758000038303633463738432D423941462D343138362D413643312D3039463737443543323642432F5265736F75726365732F36303544313938312D384535372D343531422D424230352D4532303046413630424234332F7468756D626E61
311
696C2F302F636F72652E786D6C504B01021400140006080800248F295002496C1CFA000000960100006600000000000000000000000000F159000038303633463738432D423941462D343138362D413643312D3039463737443543323642432F5265736F75726365732F36303544313938312D384535372D343531422D4242
311
30352D4532303046413630424234332F7468756D626E61696C2F636F72652E786D6C504B01021400140006080800248F29504C71575D0D010000B10100005C000000000000000000000000006F5B000038303633463738432D423941462D343138362D413643312D3039463737443543323642432F5265736F75726365732F
311
36303544313938312D384535372D343531422D424230352D4532303046413630424234332F636F72652E786D6C504B01021400140006080800248F2950F6DB3A43FB000000960100003700000000000000000000000000F65C000038303633463738432D423941462D343138362D413643312D303946373744354332364243
311
2F5265736F75726365732F636F72652E786D6C504B01021400140006080800248F295087A049D4F8000000940100003500000000000000000000000000465E000038303633463738432D423941462D343138362D413643312D3039463737443543323642432F536368656D61732F636F72652E786D6C504B01021400140006
311
080800248F29501D78C3A602010000D80100002D00000000000000000000000000915F000038303633463738432D423941462D343138362D413643312D3039463737443543323642432F636F72652E786D6C504B01021400140006080800248F2950715AB38A08010000B20100000800000000000000000000000000DE6000
311
00636F72652E786D6C504B0506000000001A001A00210B00000C6200000000
310
504B0304140006080800248F2950000000000000000000000000370000006662782F30393444443339362D453035342D343946382D413932382D3235384439463939453736362F617474726962757465732E62696E504B0304140006080800248F2950000000000000000000000000350000006662782F3039344444333936
310
2D453035342D343946382D413932382D3235384439463939453736362F76657274696365732E62696E504B0304140006080800248F2950F270F1330600000004000000360000006662782F30393444443339362D453035342D343946382D413932382D3235384439463939453736362F747269616E676C65732E62696E6366
310
60600000504B0304140006080800248F295088E57597CD3F000090410000420000006662782F30393444443339362D453035342D343946382D413932382D3235384439463939453736362F7265736F75726365732F322F305F67656E657269632E706E67355B773CD4FF1FBF73E71C0E67EF7576C9DEF3EC995D46C6A1EC50
310
46649CBDF79E192942562825CE965D8A868C2842C8DE9FDFD1F7E7F138F7078FCF6B3F5FCFD7EBFDFEC41B196891913091804020321D6D7513FC77D8C5070EC3FFEE51B21F068154CC75D455CC028A3EA68992803810109FDDE5D5CEC5521B28A1B422BF80741695D5B529DA1C2D058AD2388BDA9F476F7C2CADC939304173
310
DBF48A452BF8A700C0C70C3D121C1AA15A5270C22E2B9E28763651F7DA0D12CE11077B2ECD0D560B5E3DE2368B1E65C5E1C87384A4CC5F2D9FB8BE39E9B77C753783A37998F5CEF1B4FEE553463245C9712270880DF339E0B882A6BA713D865F6F384C842D440934EF264F4A304F8DE4EEFA1E2BF5E2D91F5ADD9613D6E31D
310
DB33ED31DB1D7916CAF091286EA3D31B9CFECB78BB0060245B943C4C040119FF780A74DD308BA9D028678674EB5504ECF284EE814DAED07440BAF649BE4B55DA2890F4D73E2D489A59EE54FDB0A85B59F2F52C4858A02705C4815A792B0C4A996A2023ECB195073E115E3E3647F64243A8338F2000BCB58DA5692C7E7C3D41
310
3F963FEDF3CF00FBB0F831A9D51360FECA43819F527B89FA260EB63C5DA676830AA3626A3693B23F1A17A0DFFCE3EE164E31B5365EDF0C89EF64D8E38AB0BA9A1117D7C3A0EC44F44F4023095E80BA610DE336D0F99593A88BFC5306E72DF98F7FD132ED95878DF2964EA7E43071359FD83B2BDF9C6B5BDF768F0F3C0FC351
310
199526F53D9460A34511F75D1B63E488178569472C91A94497807A3FD4A390C6558F26D416365C3656DE6E769DA9D8FC73774E1709812842DD8EF96AED1960F79D21B395CDDFE6F92CB4EB962A4668C76990E2EF29798C8941D67DA50F4A5F947872460F1F6FDB794E8A29FD7AC0C0D6E0714339CE258FB17AE8535221E346
310
4A10F29A0BE5EEECEFC5675926A89F49EB14E5711894F6586DB5754EB4D5DA9C6437EBA57DB97A24F8B8A8DB295FFD73266CF57E82694DF5166DDF93573AFE9C9C5EB05F8FEF8E89E0A8917B0B3724DB7BEBB53252581EFC3E38166BA131A3A5B42FE2AD00A769BBFA4458D2DE7822F8C4F63D0B8E21B285AE13325F3410A4
310
35C648C9D91FDEB109E73CEDA7BC796961AF79175E1A3CE4C5E8B0D009B0C9E29EFD98BC8E97554E3D8D838424E270F7685226E5AC268E021EDE3522D583E8F20C0BDE2959EF5BBFEEDAB32FE9A3ED0E39F211A86AA9DEBFC68182EDED132AB8BB794442D2D7EA9F4D8BFF52BC4D55BB165124EE90A42D101E67BBBB292FFB
310
4F66DE5BF2300E44546757DA7CEF8932BFC9F92A0707953491A55C5A5ACEDABD9FA1AEA01BAC3DC5A24E22E7C47213493996EFBC369D086ED9397C9BA6C7F9855C7BD5E15BFC8C53DB3D2A4C5901A57ACD2FBDF4D1676E95338B2C2BCE65FDA4C64F5FEFDC7D9CA5AA1FCF11E193F2FDABF0F4916BF13FB916A224380E6462
310
A9815F2300DC49CC4DF8D055CEF76462F4B7A7ACA7365C2707891370BC1D0AA6203C44CCAB47084FEC057F27FFCD57F89B8B9852459798A675C66BD7CE572CAF71FF7E6D7ECF7BF62CAB7B3F1107DCD04DC55A3F9961700286141C94A4F771FEB2BCDA2DDEE0CB0BAE402FF1DB0100F8E475DFFFC074DDB4498AB7D186A765
310
4DDB1CB680D703D47CEB4E72F8CB13D86A4AA68116E26387B93FD6738779B34FEDB8E517EDF2BAF28D9BE93A1D3A164320E07D42E514725C29515FF361754213EDE06B079A2E99EB1CA82A02019EADEEB87B9AF005BD04BBCECB14AACD6B24EFBE482194A97DD32400685FF1FEF1544D1B14EFB1E7F08E6D2CD2AF52DE757F
310
35F5E62332EE88EA26417AD5C3E0E319D68F25414E6D672BD4522B278C57D18F0113921C71D96527E091F00CEB15AE23D24667369BD3CEFA10C7549D930890BA4366F4EBC55F01F746109F98ABCDD5A3EE06619C6AD78AB33E48E4C9BD21BF7478B385EC05C4F8987E2C1BFA0A60EBEDAA0AE0B015C2720ECE180FB6F2DEFB
310
EB822D96338C9B63822183BBF52FB664A7AE57003AABCE512BF77E7E31BDA2E739AC4C131657DDFE5225E900FB56CC01CDE808FA4A9C9DA16AC679656BB64796283D89812B8F91136AE18EE5EBBAF47A73BE3C153EB5D4CD491B4BFB4FE690A4CF9ABA08C0D8AA64220C438C96EA6CA80B58FE5761E697B3A292EB9FBDA502
310
FA863E49FE694ADDFFF9D62C520BDD1A22014147A0903A05B9B729F54272EF83931FEEC057BFF8C8055C279EAC5C0011804828734024F6CFA319C9CC6867C727184465CD9BB7ED386AFFD96B294A85E3802FAE47244602D8273615952B98C4F23F7EAE4463D9D638EEE374A20959E0FE519C4CFB0FBFE5DD80C2AA3F9DB961
310
D1BDE57E67C9BB47B77FDD74EE3094F5DBBE3EBC1FBDB7393F5116263009E2EFE1AF9A221B2AE234C902BF70E9F280ED23E73908361565964333A3F01D0B006AF32FB21AA1316744B489D5A198E85299241735BE559675130955C902A8ED761FC0DBE337A9F91919AF5CE32AF902ADF9AB2615E00E8A94586BA1A90839B618
310
32FF1BFB76D2EFADE6DB1BA04CCAD3DA649E7E2A0219F592E22F2AD54847EEA8E42271011E9074F8F3DD9FBA6CDF88FFC9FC7E811AD1CA8F4557CE4AFC7BBEDCF0114A48689F20A584520C74DA8127124B767E2FB91A6B186246727BE63C9445BAE02088D58B8EFDC0F1072407CD9B89A13F6303B4A928F593AD489B58E686
310
9325790ADC406036C591729FE14021F94B7796BB11848D463536A092A26F077F94639F7CEEE2A724C66EC885F4A24F8B8A0AC321F8FD149BA529460FAA34E4663C02D41FDF80BCA222D42F0ABFF8490F4FA74C673807C2051D8E467B47B616072860069A9A303ABA9B319D58404461401B0A0F9BE5E1E151C14BC33B32ABE0
310
3DDE91708DFAEB15E7C0D593C86BB7D7EC17BE56E57975F077BFD5525F3A1A361D584A75E08CF29FC7B44B2B3085014F3A5A14517377C3F6B8F37E59514C3B12F8AACDEDDA4DFC49BE5710101534CD6FB6DE15B50F11A09472AABA727F0C49D9CB906B158030065F48EB3625E010CEC1D511D0053474B11E6A4F01C0D6EF1B
310
ED3A944FDEC70E0DDCDC756C86545910E0DAE3BE3AA9A404574C2995CD5CAF9549226BC94B4F4F0F5F9086F418F6B32346464610D8BC7391D3C3A3CCF04CFC1FB2A3A3170E369511868F14EEA4E5E438CC73DB1F3248AA94B6B2FF33B222FF3D1E7BF146CAD229770158063BCE4F5391964DF62F7E52A7BE0EEA829C9E13C4
310
C147D6F93FE59E111DAB5E4594D6F3CD1AD375EE039930EFE5AF2BB2D41C83C7DABD8C659BAFBE8FAB392CA634F3D15C1D945DB4588D2B0824A4EC928AAC565557CA2F0DAA588CA5BE30B3A8004F7BF005E96CBF891D7F18112A3619FDF530DC8AA64954258E1811789B5189B49B4EB53F5F89F7D37523894F3EB57B373763
310
C91E502F52CC99EB7BDDF933FC324C4FFC2561DFFA7339FAFDD0A4BFBE6D3A8FF9ED1FC49898139864602458968913181918F719CCF5A68B2EE9C1FF050E34E63107003B8120FA982C21B30A874E4F5E4B38D5A8290C4B8D9BE48A0BE31EA995BDC37AC6DE90BA17D259DEF53605D55922FEB1855D915B659FBEB350EE0DFB
310
2F9F766E1C84CC8964B75D08667445EAB966015F63A18A9E0A325C1B3DC628C0D3CB60F767FA93CC65F25458BD23C3B312716E5F40E5858AC06EBA9AB14F95DB99147B832069201541D09A0D856E12C629CF32683760EE855537D1901988D5EBC156676C7DD51D7207CF3267AF1D76C2AD867315E44618015313A98B19941C
310
696FED3461CAA9B5415F918556D7802EDACEFD6B2E45853A9735DFC9DBF7E440F9319F8B6805A973BCCDC76C069A9144E51F187EDCC12FC31B5DEAAF0A76137199B106EC84ADA6B6EE697D4E6A96E007417F4E880E8B1E89B4BCE9D81EF611E2ED8F0C1A6C25F620FAFAAB656A7C42D464880E8AFAB0E0FC8EA38CA9A8AEEA
310
EE3E4648BA4680270A89743CDD3E6C6CBF34B7B640EFA285ABC7EA0A1E28F3CC963D114A80123EE66D0AF7D5380EB41909B605AB4765B709B808590458157E69BA1378FEC4B48CAF6A730E3BE3C5EF2DD1A5EAF94B1DDE50CEB55DDFD7EE9A16747FA4B223359FB1FCC69E1194892BABB93A1D5C4E807AC0EA2E30180811E7
310
7A2291F6E7F7FAA5E0F60215BC6024E48DE436C511F0628B8CA189982D4D83CCA17D305A7E923C37941CFDFDCD93ACAF735EF5F0E61BBD3E6C41A59B242790D3A3BAC7064DCD89AA2E37214EC839820949D5CAA31E240D2948E48F690298974A96BA9A8432BC90F5071D6537C9666EA4564796B7AFFFA548077BEEA75F6308
310
3435074BA182F3699557397F71548383FDA8CA34D99B981E72835ECDA5DDDC151315173D05A21F651AAF8524E88209E2E7A737ED1045800CE3390050BCFB8BE588DF111617874C62575039CA588EEFDEFEFE319B739DE2EDC147092A262611E159650E787917885EF08F1F51B8F2D8A71D60B58B190FEF9541A1BE94BC19FE
310
A50784DA1419FE4B0FB51B8D36B5FF8E1286FD8AF42B91E59A5F1CC4D60174E764045FD8C57B18209B217F89A62252BD20BE0E63E12B8E8F029FE19E0E8D0870F58721A557082250D5424F7909369376E41666C0EE77CD87CB283F661D5FB6D0DA023CB67320A20DC7BE661E9E1BFE5463085C557DA1FF9BE835733766C3D1
310
39F2CF9E2208873AD0EB4814DE9E6BF2CAF81614D4D43906ED1C05A3265CABBFE192770FC2F64F940CB6B17B5F166F133C9AEEAD2641807C3E69515171DD74C4A85311513D6EC9530B3B601B6BA3EBFF3B5C3D2F7D69765141E345F75433953D013ADDF8F6AA7DC3F4A7563FE5C7D367937E2900D7EAD0F9FC9A4A1A9B5BDF
310
1FEF08532660C01C5D6DE22199AA774383E306DAB87E301ABB7D213887F9869D4942D0D71E94B27EDF216A318BD488D45DF84529EF575AF3C3938C0AAA0215B01994153E2054A0B894DA5C784980633AAD48576957CF4AEAEAFADC7C587368551C73DBE1E57C58AC713303A8BFC258BD04B51724459FF9E24C03A81E0E0679
310
CEB9B348C0DC998FEB9C6D6EFA77D247CC8F92D3848599ED89A23218D0636465AD1CEEB7DC140D7426F83491C4E8E8281C2FB35240918FFECE880CA2A42D70E8B20B34DF5221C7DB0CF90ECCB9C745B37A47E9B716FF7A97B7A252C1F3814DC7B1E1A7F72B8751D524EF7CAE45B0C73B3BE7D08ED39781B380DDFC9AA4A474
310
9C9493DB5BAD07A6EA6C092FBD0E85DB004DF06B8C9D3089C5320187E4CE1846158C7EA7DDAE8AD9AFFF21AA3A1026BB06A259845E8232DEE62811A4DA9CEAB3A4887320B76E2AE5615EAB7BDF738CBDD01F1E64064BC13D9EC53576751CA8CACD58B3CEB0E6CA585BD089B2A59B9FC101403387AADBDBE70586B93D64BF3A
310
D4453EF9C3B6A93817E8346991798601344F79A83C51F3D50F7BF2683A3605F51A72449489E0EE6169C749C60B1035651103AEE24D24E51A759C840DD3FC6504DA6FE107510E447B43461C79D22970B75DE5E1BD3007D1AFC619A4A4A69B5626AF5E9B8374E20677F77E2F8E73DF868E8BEC7EBA7B6A75EEF7205E1AB9486C
310
B642741D6E03FF13FCCEDB1C4AC129886268B01CDF4B124AF797CF784F3C6DEC97A17D4B558070A0F1C04DA4FF9BDBF34159AEFE958479824B3F58EBD1E19088A2AFDE501B6F2052368A3FD0E650A179EFAB1561E1D27527077136E652676C3670F42DCB3352F48F6BC86D2C3B0051727E41A0A4DC6CE2BE9D47F5CAA2935A
310
3C0539AF080665997194ABECD723B08129CC5B6B21D2E7D54CD4D12610E7E9FB8306771A89576C7A982002775ED44F3F744CF21EEBB27A631671D921938AAEE3EB0D19CD1E083727F607823E817BF599DCED5394E37EEBC2E88782E638920CA641EF74D4CDFCDEF06F4278ECB18E31E7E9876F2D783C8BF429C75395F57E98
310
C2B495A3DA077EB3AC3C158608B6B57FE3EA48484D9A480096FCEE0DE880950E7E5A5714131C5C41AAA29FD19AE81AC145FA1B9E85C7169A5AB837B213493DF7E9AA4B5FBF9CDEB36EBD21EF1181B7CF7366AB2A951D01E37AF4EB835D1BE8C117CFBE7625D2EBCDB0B20C5A4B45CED0BCDE3EE8DA9DA78C2E21DEAAFFD119
310
7E463C33CC6A80FB785669B856EFF7A8CCCA2841B5A5369173320B1170C368B2748D81062EA0296E5E2D95D7667A4A46D98A6FF475C76AAB0A8C8D45E226FAFC9FE0133EA9F60111F99CA81ACE03A1D14C89E8B0D69079C91464FA1D99E651D0EAF606F345C42A8A1AA9BA391031582B96D5B4176A77AADB01F12FD298A75D
310
EEBB2C82F0B8650E880722F8DDD90C56A7A058E5FDEF1AC93545BA27367C76F5D8F9690CB6F8DAE141EDD7971F0FB548A2AE435F224D6E5954CA155512F7332029D5A1230854B79F258EC5FFDB09F5F6343A8EB193229B7F7E79B3E48F8E183860B38C8269D1B53738FF1E0BACF6AADA6D4869E9DE708E79B5DADCC09B1BC7
310
6F649731CFAF59A83FD8BAE4C749D66FA87A3810D4D62FFE826FA400C0F325D2BC0F3CA35F5847B82A2ACC7961745C823E4D863D54460AF792CE6F79B5C7A33B25C3AEA6CDE15A919B6367D781E9D44F61BF828672594A3E1D9EDD6DF179A81F27EAC05B936575D73E05C209DDD2115CFB705DF9BBF3C911589B3640735E9E
310
618FC9C36A7326C82B2205E244C55D56FDB9D5DC93CE958D4BF8174D2B3DA54CB3C09F2C2A6DFF73D23B2197355761AD421EC581284A7EF8DE2CE3497C0C804D49B41DFD6A7360844E5BEFFB495CFCDB97A4595911CDBA623274CE852B5E278AF0BEB1770E9D37CD977B2766A7DED0E94B840E1E95E8C77DE5CB6354AF7871
310
427C28ADBEEF7BA0A28E19DE9ACD75F379FE373EAE6DDDAE3834692F9C2B03B4FCA8FCA9ABE8EEEBEBB725B88A7C90941E850682CA04061A7DF0CE82ED49BFAFFD42C309818FAE14755CAAE78B0F73243ECCCAD7DF58FCB9CDFAE7A4D3E6671A613639130D056C8383C8F4FCF4808C331E544DD26E4755D09EA05253B3049A
310
1E32587CC25D72E073E2CD96D04A71BBCB0038FEC3F53D254199C3CDC67CD66640269431860225392B2CB3ECD0B4498AAE78BA1994246AE1EE78F2EDFB79F6C6CB6B5E279C4D373FBC21CB2698C9ACBBEB6A4BB6B39E16AB0E421CCBFC7654D81ED86022F9BB522146F9F4772E2D0E4FA70120C95A85A417BF5078B232F475
310
4363EB1750B2AC2148EB46B1EA72AD9B4D23ADCBC589D70106C3EC2ABEEED84DFE28E718C6C83502C28E9FDD3B09DA0A6F6F7B72B706A31C9E2A331EE70DA56A083D2177BFD63C55B11D8D949FAFCF90B23A1E24B9B5018B9A17E99F2890EC302F330FE7936E2C23F0D237EC8916F5166AB84B62A21BB0B950146962D754F9
310
2CC2C8877BED8FC7B7B25726DD19545392570B3A2C66B58F027BEF412E552D12A588C4A3CC5C3193FCB3485EFFF700D0B9EEC077754A33DC1FB9E25AF814628F91DDFECB667D3F7690803F38D13F8AE39353523BB08FC6760144AFA2CE28236F65EDBB3D5F59A57D612B99E3D7E5F8A851666BF9B5A6658EFC96EEB37A378A
310
BB0EB3FDDF1303AF32C41BD1C8560745D7BD81066B0D6313359CF488563D3BA3F8E2185D1FAA3EBA1397C9D0E3DD232180A4DCADB6AF25DB3AC3CC26589C8239E66E81547BC7E2F328F9884764CA37EB5DBE390DFC03A5246B456A7C3684C4377D0EEF9A350680FA9A077E8B2957B489E09AB1AD41316944C2254B5984830F
310
691C93CAA767EECF976FA5647538830B5E63236A6F0365C1E0F3E327F24FE35EDDBD7360B0F7374837409F7A6311BECC12B7026D4FA1AE204FA3F5FE904B1F420C7A9044AE58E403E7C4848E7DA25DC9EDAC79DD756FAA26B9EA83ACE8A214A2612A22AFA19DAE7DBAC5F8CDE1292A485F98DAC731A29FE01A3966E96BCB9F
310
B5A4C8830E1B9AF0C54B87FBE221A097036E5D28D1F869F810C06A9BB0AC0612F69AEBAF893C6E7AD59460208BAB3A6B09CA4F6BDDAB8CF0D1F84B72487498395A70DCD754796E271099A567A55CF242BBED64696378BB6CF25EF0FCDB589F3A82F1116D010A9AB9FA4358809EE0C973A2B4229BAA876A70B03AB49CBA7FBE
310
71DB1832FFD32F9BF2C8E98075CACAFB36921235D0F552B6A67E94E094097A5D7DF681B40623DA535ADA7A9AD8E9A62407D7C9A5AE51D62A17A83A23728DE86BB56115804D3F2675F2C6B87541A0FC497BF0CA86420F558C9859EBE9FAD62747E323E3AADC03FDCDDFE7407B09DA90B44E3185723C5381EAEF589765E2F7A0
310
99BA46695BAD60CEF3491B8A171F5F56444F7CE9455312C3498C74173AEA0214EC029833B34B650CBB5A5508D5091665309642791708ECF27CF11DB3D797D6CFE474453BD4BFADB768094B2147814D81C7CBAF8228DCAF5564B5891F5EF6A860EB2E323CB82AB868D8EA048880D63B0DE5341F1B3D53297B928A11E15F25E5
310
148990F710747C3509ED14909C552EBE3973246FCE55D00564D8310BC3EBC5085D08D806799B77D6C57FDF5E55837F9E934F09C03C729271B64F12D0A9F9E938107CAF7BF1EC8CF1BB9B42363D33070F4CACB425E605DDB0A34A12BB936DE286B9887A4E2E558F0886498BFF49C311D96C277CF6A9FC0D75AD0ECC5226D7E0
310
E3572012E56D7FDE4410CEC7A6D0F997F225A2055B8B92E3956E875AE4993CB3D4C9063AF98FD45E1BAB165640A43439A2C9181A7C355B297C0A0CCFFAE19B6FA3C2BA238A885FBC98B8F6DAF4B94B97304878DF4D8BFF6A4AEDF79E90ED4E68F00CD7299F4E0D83E35601AF0CBEF18C1E870E74758FA91F5131075004DB3C
310
FCF09AE1DABC11957FD9808C92E8A678CE9DBE40DDA0E0D1D505AAFBCBA208232BFB6FB3704E8985E61ADE53DE74152F5C7DE74B1DEDCD37DC3E8FB30D7EBA8B9EFFC3606BF90B8D438279CB7709FC7C00D327F41817EEA71CD9E49FE9C8C9A81C70915D9F0F15958EC5AA4C3BBFAF46986B90F188BDB24B89DE3C6F29EC3E
310
6F66D84856EE96A35E657CA41B41EFD8DBFA16AD6E91439EA92B40B21C053249F51AE50EB0B24C770FFAF40DF12C8436366819C48E36547D4E7B72FE2BBF10828583057814A668BDF183F6B2E58DFB151103E56303E63D00F39C27C4661605DB644D19175D02E3F0241E8FC3458D17AAAADB117CE9EEA690D0DB01E634878C
310
04C2C9310B69FCAB831151E3AD293BEF6E46B0ABCECB50F5939B39C613D41E81FAE8D34CAE3C4566B761D37185FE864AC32FCB71AEF39DAA5BAB88609BB980CD2F07A8F941653B529567726E2B2A58D079DD57E1E5E31426CF184A04D7B03B985F276D47406AF276FE32E3328BA866EB1FD39BEF57863A317634AA5FE46740
310
9B3873F5069EF0D71AF00AD189D17BA1974ECDB2D623E9E14086386A6AAB5807825C37B015BFE892AFD154920EC437EB945D958E18622E1E0FE2FA06557CE4BB9BBD05A2D40E774DA2B65473791E314B7D6C886820B2FCFE4AA272B3B8B15E7344A145E8AF919B5454D89D36D413E87211186BF6F645E5EC94DCCE8E1C7990
310
22E4EC9BC86D7A0F2AFB1FC4B2CE48F84B3F49ECE65BAD24CADCC07EFF39AB06BE9E6B27A059938EA7208838455383DDBCFCD967DDE4650EF92A14FF933C975DB20BD7FEEBC4487576485963D757D16340D9599FEB362F775F38CA4185A86F74B629C81B133644A3B18FD056E997E0734F9BE26D11C0AAFC669E2AC9FC41D2
310
81F8B2E1C35AE27BCE05F3DA295488096688719D974DF1B5D182DB7792288697F8763CFB43562C1CDEE11C4AABD5C22B6E33F6F389CFC3477C5919DC0D533F8A7A1846B7ADB60ABDC26C43D0CFC8910B7C15EE22675BD02702ED39DB77A87A192CA7A543E6205B979B9F5A6B512A3CA799E198B2D5797C0AF8D1D872CA455D
310
4D431A7879D4DD76110B5FF7F4176B54477A9EB5E4A5D11214FDA585F0382751D8E2582BA5D2075053298FEB8F1537304E32CB22C2E2B693DC0A760B1DFCA751BDC445AFDCBB12820ED85F6D5298933C7EF1211E9E057684056CDA3FEF3BB6052355E162DF27C59E965A8DDB7F9437EB72CDDA3A090DE65A5B2F50326247B7
310
EC67B73ACC7047FC9B353D6EE990F772207C6EC52B39DC2F3C0754821DAB559F7C1809C7D0DD5B0499D0442E0A6E391B3D5DB46D11E731E6794EC77523FBDAA242ED67F9FA1FB684255671F63C9BCFE6E7E896D51001A6113EF2298BA494E0B0980D1FA5B9D60796554C02256B1E0345FB7C6186B6A19D2DCA270416262845
310
FA4F42DB5D9B0A0B6F07FCA2E56C242522E001E0CEB734AF310FC8BFB57E38E03AACE93B3326A2197891E68452B26A6307FDABFEE0223D3C03C3C73D2D5BC054C8311F12004CAE488E5C29287F8156A2CAA4AD0D7BE6B97264E4139F437CE73ADF52E5134C52B819777C18B323A5924E4F67AFD13B1CDC3A61793A79FAF5C0
310
CEB718E441071E797C6DCCB9EFCF7E4A1E9F3DF3C2F9C9E8294E9586868788C972857FB0556D7A26941A7EEB9B580AD78EC40B85DC906B4120A563CA3B87797ED612D3B035962BB75F6515A393F4CB057F564CDF54F2E5A024514E6A1F901DB80C7E70B1FC05E356A7E72FABF4775B3E3FB8F70A2A8E7B6A94542BB3041579
310
78CCC999E707A29CC795E67A59CC546A5D47B368954CA7B6E75EC9E1F6FC73CE3B4F71F8CB1A6B15923D61EAAEB14626AAA9D04A26EB9C66CD1BE86CA31A5D8703DE04CD1EBCE4F5CCB62F93909AD11E55799A781A956ED27D3E738F4538CB04ADABC7DAEF20BC35BA6A90BCC1DC61BA05F20D8832FFB9BC9B15E2DB838A0A
310
FBB7E0C82A562127E0446894F427794C3037186F622BF24DE1B00AA10A23BFA47B2A180D6DA5AD6F7326FEB8C100C2D7142EB2A0B2A9D1008A09BA343D70E054AB69E2A7EDB783CBD92537FAF4A44D1296AC2792729104B3276C276C951D0CF3CF3F1E6B017720A7B8505A5FF9589365979678C36F1BAF759EAF57C60F1FF5
310
FE9DCF5F8E764FF25A2D06CF25117A8FED51884C13B2B750DB0E4F5E3D64124FCF11F0AD8F1CC3B3DA4B38ED22BF1CB2585EE6BFEBBA63FBFD44F9537B9B37BDD6B358720F98A8125AED4349CCFEB0E135F19E208A04CA7E2B10711185D72E381F448036EF57C9F874E54A971CA37A639E986AC0226DC5AA00D5B14FEA9192
310
234B3DE617814FC221C92F33F1D392F297731B567FD98FD91D989379AF567A65B8ADF177591DB90FBEA99BF4ED11B16E50A0AB1DBF1156D034BBE04D69D08F939D8E92BF525A1DDAFF80ECBC95D8F45D3FDD289FD23F7D8B452F8EBB34EC082DEEE68E18EDDF072060FAD2AB1504DD4879BF67099FC58F6E9DEFBF645D1633
310
4A3E9A127C6F1AF6132CF287E433B43A0EE93812B4AA0B194E03EE3FF91EF9C6ED0074A2F6EB18A96A7C9890B1FCDA1F2095E944DB911ED54C60DF16FB74C8CE9BDC7C54C4F14078CF73C2FFF1F1BBCCD7CF64F71407EA1683DBC410D226627F66E509060D5C0AFD611DE681D509DB8DD12FB1265B03C6F5C55FF4C30BD941
310
87FF692B4F152982502F193098A789526A038AB529A52BC0DC4FB6285CBAC10A8B8DB75DCD9BDABBB221E27D1F8DA9F5EE5926A1C8AA9BA9BC09239C6A7F12914EA3B59EFF7AAEC3FFCCE56F1C5C2980AD072793527565E774F4631DB178CEEC691B1F367BEA0CF2907E1D6B854D527065979DDEF002D8B2ACEA7CE21AE297
310
737EDE1D45B31233B73FEA35BCFDD0B09721FDBAF6432681F2FD10C3E9EFB246FD6E854B344ACC9D8A0EEF876A7314B49B6A499FC650B099D650DBFEC7638ADFD245E2B7839DA5AC5F7D5623FC0ECEEC8653FC9B2BDD1AD4D00A566FBA7186DD3C9CD26512551637498CADB950FEC71ADB9A5524285DE328B8EC7EC75D2345
310
AEC6A27C42AF6D9B92155315C80DBFCABBB7DA0FAE425C4FB896B15C9BFAC4FE67DF5A23D30C93DA4D8F36FB15D100050DA6062E22AEC5F4DAC4F6FEEF97AE05DE63C6D38F9E068A20BC5E3B6BCD75320C5090924E7F93640A7735B1A43451C2D91EE62C6238B797349E59890AF3A520DF4A87095F3ABEC2E61F0593416CE4
310
6CDCBE0E00E2523FCCD04408588B5B6C9DB6459C786CE378770B54F51DA3A5E1DF2A3349BEAAC234A6CF8993B598B3B25B4B113E353A4D750FA7534749430F3EBF2512E7EA3FD43C6AB9A1F765A58463B306721A15D224FAFE8C6F5E3432D57EE697DA0DD5A9D4866A8BCCAAA9DFF1F06047851408FEC060471D0E3EB86BFA
310
F46E4B5E60311DC3E3CEA147C75CF971BE74689507154FF2D2E92F15CDB2B9182B11459FD8ACAC5A85F174BC94A7F4EE4C4F5CAFA7C02E37BF0BC77B7DCD0C047BC316F562A01A441AFA7931CC84A28CB9F4AA367EB515778F29BFE61195FA671F4352E5E46E3A64773F1F76EE5EB36D7BCE9BCEAD837A4D77F8DB8C92AEEF
310
6711920D7C7D0F76B0FD0EB7AB83724CD35BCA7D36DDDF5FBB7FF6F04A91F3E2BB3B8F1A43CD659639507FF6331C5F697BCC782AE57D757A27D97F1AB9E0AEDB43F92F1B2AACDF5FEC8ADBAF9F814E2027003BA2F9E144B1938A7A04050AE5D953B82C45619165C813A10E76DD6906B3C16438064D14CDA713AEC420034613
310
E1AC7241904A49FBF87409AFB1FCB9B72FE7933A87D8FBEDACECE4EDCF6A4FE9FB94D5DEB74FAB7CFEAE17EE965DF980DCCA2D04134994F9A2E94D2265DA4FE6AA7B7AC15FACAC2B5ABBCD7DFF542C5314FDAB2E1B9D8B65220B8E2B638BE008E8DCA22678C820C5053664D15E89F2D735B51A84955E81A443545E9FF787BE
310
0FA700A76D136C27DA179A7C6E8939E01BE756E19CB292798063D8B97F44E8A27BCF3A614FEB8BE974A718E86F7EC99B53CA35FA24F61F2B07266684623A3D4CF073E511F3A10A8FDAFAF0078C577F4DF9D339FE7862E5FA47CF4344209E5BF76D783B1B48E152AD281B15FCB934DCDA49CEC5706B1EE8B460F435324A5CAD
310
154725E21AB8044B75A557A79F6C807B9340AA3D92503E866F4274412926C8C504E4D5EF8C0E68DD0B028781A6B4054F11CF18941F101C57CCC796773ABC8DED9CD91FE5788806C05E548895354AEAC96546D55B0E94A59F148D061F42AA398D822CDECA4CDE79E13469BDCC44FDC990F366BA5978C15F97ED80CBFD73B0CD
310
9B8B83A4F6845BDFBFAF034019473FB9A63BD55D3A4A7284757071574029A4D016DCCBE95DD679EF3C4880BF169422F8C89B68A988D2B13793CAED4F74DE7486C72DC94DF46B8E93D8E02EFCB1FF9B3BA10C8AE7F653DF94F4AF466CDDCEF5776687F7C4C14B63E4EED1719DC2EC482D7DBCC7AE518CDE3D5FF86D39000EC3
310
673C0044E1D308BF05F74D1B5F033A7D1BE7F74BC55BBE3E4A20F920946CA0271EB17BD2B80E5660ACB8A29A79F5E4BBA49D4D945B6EEF4A7EFEAA65E5555BBB57A7E15D2F83C69F30BBB978D2B39F1F26FC097424D39BB33CA3D87ABF64E307938B685BAD44F71556A30B7E712CA4FE600613C3E554B69ADE949A7CFE214D
310
F1FFF05CB82151EC6FC31950239F94CF7AD39DC473F6EA356E5EC2C4EFA04383CEFE985A127484366FBEE3C0EC4FEA363E4F6632AE781392FD45D67B63FB8DF70E82734F431FD3443172A0E30A83D60982D55FA6A2CF86DBA8382502ACC6CDEF3B907982EED1160E14863FA242F9757347E1544275CCDCF71ECD5F8621CBEA
310
326B8BA884AD7F825781923E66971F04010D574C541D8427A438A37EEF8AF88240EED7362C953F5A81DE2D56109CDE2524EA0F5D2F87308C0C47BD97AD605878AB8589E17CA83930CB5E0DCCD75853D68B1AB136594926DE426C367428E9334AFAFF90ECE221BB5DC9E5BB53D2CDEF954EAA9CD814F0E5725F1965DD458E5F
310
8487683AD86B9D0076BE3EE91EB1CECC5331A67A3F79D8B27587C12EC2A6A70474749F27B4C0BBAFB94B34189E88DC18964BE4121B9137FD516C7755356E50D6714E31ACD222621EBBCD1CFF81D87479056A9DA0E0B8EA19D24CF937DA89F78E8650CCBDC110AAB6C4E46DCBFD0446BA9E2060E81F314AC2031E88135E5476
310
AC0160EF5C0DD2EEF1B8B5CB2D198BE9A554A9093B5F7D7E4B5407DDFCA1D9C152FD97F55BFFFDFE802954DFEC8995B983E28AC92F1971E28F531DC407A1280EB125F64A72E617EFB27DFBCEDCDA2D6F2BDADA36873EE46B9BE1782998C63DA7182BC383FB6FD15DA472B175D7E8B4FC88F38D6E07FEAA3FA3CBB8F6B449EC
310
F14D2175E5C5CCA3A42ABF24CA6C9395AF74535F4DDB38CB84F56614B0FD32D7E19CA5CF988DB4449C40E23DF2B16772594554579094450F56F253CD25EA7F77366FB1CFE79696C428BB64D5A41E986189427E5E4D7E2DAE3D5BB4972B3DC44EAABDDDD63A2264ECFA5C786EB0EE1FDC5BE34FA0F08376869FD1E61EA06CAE
310
15191135445EE8F0394161C3266A596AA035572BB0C8876180D8B9C77D307DF9DCDF7365ABDA6F3A2366436457A4DFC1F259666569A9E4A79C817BDD5610E5200FCE894A358EC72858D50EF67545DA81C6FACE3D457BAF70367E1E6BDD9A952FB4F56247F58F523B97E640246051A72F79BE42FFA0B3187F63097F91C48B86
310
8586F714B0EBD5A00A8412C1236E1298F60C72BE6C96B82B404CADAA304AE9F303176B14BA53FBC2D5E86377E35542019E24D97B96A49B2C0E5006E7795954DEAF5DA58958839043C6C70BD3B1B33B6DC5C31316D8A6923F142E26F6711A2258AF977DDF1F970ECC4F1F2B434B96D81BEB6E89BF3BBB3C7C8CC80505070723
310
D6D7D7D3C8CA27CA164A26024FED94B12A86031867241DA53D929636DA600F050BC40CE48B8BA03D69224720DEE2ED2127390BDF5E6EA64527BBD4C4C63FA76BB801FEEC0E61218EC98A8A86CD8313781617877E66692839B9468CF4DB8E50A73986E558E309C0D6F676F921BE02F1185454DC75B111572FF9D27D85EA14C0
310
5AD7271225B391C4275659CA4A43759D0BA44639BE4C30A84DB7F67A41399FB95CBF923B1B1672ABC807C1590557FB18D811983FA97F5E609516D62281D38B1281F68FC75528C35E4CD7DF0F7DBB5E5DD69C414EBEA2F4A5B241B996BA77AE6C772E367408C633EA3E438B68563EA8BE7667F3A4C4FDEEA52ABD78A2820F44
310
3B7914A15F180018D231E64519C56A12F6CA7C8DAE18F06F6B769DBF92329EF6A5D18FBCE600F36BD8E8198DE5CDAA96181F3A756EBA5501CEE58F497EA4F418A2B82565B9BCC611713C0B708CCA1F398B78C5F7D03B3437CC18F13061F55C7BEDADD5ACB1DB0E36D3CE47FF6EA1A563A57E9649EA5D14D1A50EAA45746338
310
1C073777EF1600607BAF6428A7DDC079D47A204EF1E1F1F0589FB054D45E02CE623B3823C317C601E589E22B1E88B448524B86A82828E32345EC18AE17214B42F8C41C6D428016D9BA31DDCB47572561E5A402E5BA4FCE55F78AF7268524AA04130F3A20BA5D1E9F9948EA48FC8F5314FDB35E21898198060034ACE5E3E2BB
310
CA34092518F275190AF65F45867FF0900AA4B81F25427414C372BF51DC29AA855C5428EE1EEDD6B849AD60F6E73475C2D2523F8A2772C840A478DED18A8C5C91B085F255DC4F54EA7AA8947354FD17ECF8FB3B4A0DE7B483CAF3A1165EE05BBA413E5C1FEF3DE1D6B8F2F3F3251C17D9FCAB48A9AAF63AC773A0E413BBC46A
310
9ADF84A566FC920E4D8C52C9769EE3301CADEEEDD92B312E02E2A7E35B7F1E7D203FE5A7D75578B06E99D0E46FFADB8FDA17ED8880390DA29094202D6F645F76F6F96409CDA05495A96E84B04A00D1A6C6C81D7F3DE9376E828CCF144EE50E364ACCE7237EA0BFB5607ED1AC3CFE73794E5B61739D14DF1743441B1AC98F00
310
ECEDE9E7301FA29755FBEFA68C91EF2B314CF510537EF1ABFC9A762496280B546F5EDAAF8A5B387D469FC9A878A92828C88608453ACEC6094DCA54111E7AD5B2663DFE2DD151B7F123B9F4FEF8EE36AB125FD7AD52A59B1B765B3E3F73E3F73DEA93875004D2AFFE3CDE9493B87A9904DD052028949041A91DC0E1BA47BA71
310
4343FD5B25E0A6A09503AFC17C790058A836A324FE31D7893512E28230332F153181C1E018E1124EBE1BA262AA428A518237D1EA7275E48C5C561BD19ED6912EDD8367DA0F31E40EEAE9683DA9257525AEA7B632B97119E17145A90231768A4F3B9120FF32E8319B015E3CBE26F1A754177D8185345817C096B0CE443A955D
310
13AC15E1FB5DEEA0239EC32A3C92241A237B0B02FFCB4F93CF2B02570C8D192E2F2A68CEEB42F12E6F8CEEFF46C251E22B4341C56FB08CCE550E7A9D6F4D6564B9EA52A83D5BF2C6E03FA19D2775E15A8A7ACF30A13C259EE7F5EF2AC3BA354F1500E1A07FC63FB4686E2F12EC69719F9ECF5FE3F35598DF2CE944008CE78F
310
0911BA5BE5D0A34E0098FF038669C26030BA9B300303039852A8F6F496341737CA7E0D2E3AAA36DE0A70AA7D9CA0D54D9AD84B18A44C9E625475E1C97B93BEBB38DCE7D227E67A2D00F531436136355F243D1FC0D712C5765754FA22FCFFAE97919161F46D6E61ACB37D83777B385889770B50765B127768443A5C4D3A4E35
310
A3151111F146B7CA116F918A049F1C272F2CD7976C69A0068773451659A97E0F4A08FE604C3FF6CE7385DB19F4D3ABC8A0D80DA8A42096AC377DB49382B36E270B6FA7570188B4B7D1DDDDA82ACA487CCA5D38BD3BD039ADBAFA4ACFF27809239B722081E2EB9F145320553D183F28471C388BC8814E5045676767AB58A8E7
310
2D1CED2CA731379515D2E533E4CF0B39DFC625F97AC4836831A4DE330E87A8126FA17EBE583D614E71E22A8DBF2825599743E0640037303E8E1B1E8EA4E1ABFA4F62907B5E4E0E5DCFDAB417C36C6848A2B8D15F1E505434C0707E16B1CFC2A1C36A42BBF55734F8F4301DDC2A5110CEE8C0747F69519265012A2174BF4E95
310
5ECD4FDE095A3ABC70536B7AD0B9D7892F81287D667C108703C9B66A221E9A0929D030008F77FF6F5D2108EF5706FC87A3069B976F7C9FC3239D13D283CDEA83597461079FEEE049B0F392889898B7D87D31F8D60ED7B56B91823A8E4EDDB36C6172ECEE42BD42B12CD67994FA0F0DFAE9389356F4CD4425A4B8AA55CBF7EC
310
D585C6A2C2316791E43D5C06841ADBB226A87FD61515FFBB0167B74E56BD7F3E90A57A97FEDCBDF483A0D6699A8C0849CAEB4947FAA90D8E332D9DEBD9F4738C37DA0CAF9CF3DAA68BCB67C420459C7A64498D6E848E5CADE92BB6901F607AA331104A67F7CD650EE169B1DAE94D2C31C2F993632259B6957E246EFE4C5481
310
107B07118607700040E5812A2A2A38DA0076875258C753F60E0F2662C748EDD5F3F3686B8FC3BD6FE631ECCAA1E8B1C1E565AD117E54893E79F4672E32F9E46B2A183DFDCF3EECB4D4D077DBEA0DA254D256045109670050129E9B9B1A9E4A11344D61497A992778095151510C4BB7EF2009B63AA4360635312E4CF668B7E0
310
D3D85A8688E2BD83B569439892ADB63461930D428E0DE42E4AC57CE48DA5CC1449530D8BD3D6A0F08DF20C8E8F570F2CFFFCEA286E30969B4654D498A58D9DA782E19FE3F002181838925592C4A1EF0B332D88B61A92C644547BED490D3A42CFFAB70E36D961F694F6307F72FF15A1C79D5B1B5CEFD353D9E2B52566DEC8F8
310
F09CB3E8359C0F68EBBB7898243E34E12A015B2685AB303C04D3A9E00671FF3DFF0A184E4A2ABEB2B666AF5B3A209C73D8EF29DCDB069C9F391EEE9DD0F74C7BCDE16F8F02E3B8816122BBEB50665775B600549D8BB33A54A6BF940C028118BC6878C79958D6784F9DEAA6E26748386FFAF8D0D0101E2847B6563F5D8DC1D7
310
8F787BE00E2C941AE12148D4A81599FE8F68D4DA5CDED75530ADE138240300EE13B0FC13A1687FED6774662C05A2B7DFB186732F0D7A93545D8B0A6390AE5054D9CB582DA846D7A061B3358B45E2B52DDE63E114397EDB7E09233A579155D795BE76102CF277F4DF8B188C4F2879BEAE3C08347124BF9ED23B128259FE107D
310
31E34A652F090B30B39E0D9AF917B76A2806135621A8A60681F16AF216514BBD02711585B5B1AE823F4B2D0369EA5B6BCB863072727FFC871CA6C9AB79A814D989057E9470A3D238BC87CBB4A0EA49AFE2B86F22E499793CAA9047080450166BDC357524561E258C77CB697F1ABB32562CF87C3B7AA12F911EF19FB3E5C022
310
22E887D08202A60A17151F5E053A86B437771088B4FEE14D652C43E8D939995D34545E12E2FF93D4E366EAD25F10CB7DED141563C3D0C447AF06078A91135FD4B9611583CB4BF3BD167F2399CEAB0E0100F8FFC305F00F1711717173138B4B48C83022295DE657EFEDD97F238ECA80F528AFB4F8D67AD4E2594B9A3AA86D74
310
87EFC313BA95745C186F0CDD84CC12DC9CB0424B42203D351FD9C0A3AF10CC7F388E0329279087386421F194F4A29464C1DEF7EF8BE515E4A199DCD5B909342598D8FE6A231F71336248D5CEC5454455C7BE383B3BC7B260FED27F703FDC39A170F3827239102F59D4DEE7FEF82EAA1A5E4BA94DCC4CC44E7E2EDE20F24244
310
E4454369D2E87C3F823F193FD4FD27E1C23984B01898D15ABC20711A8A558054951A6AE280096BA36CBA439603B7B0B4C45F248C14B2383B4B5CD8ECECE4FF859AD4A6CA2326D020EF090F4041D28DB66E5256B56232CC52829DE8060BAE6BBF37D4B7469B822454FE93210A3E8D15E69FFCF01123222611C51C4FD0A041A0
310
CFA2471CF6BE38D2B20FA4C3525B5B8B586759475CF80ADFE67A284AC24651E52B8E683D24C2622642F27E7C3C22783BCF63648BC398BD6CD0D9C97E7E7E3EACB6126DB7A6C1FD9F1031302EE67ED96F22B77C7CA0239BB324207559B105E4693EB26EC46182A92C9C0DBD24F29B31C5C5AC1F84300E0E17CEEAC15F5736FA
310
4A98971E2F1423BFCD68D4BBD5F86E74B40A369F39507C88FCDB35D2DD8DEBEA4AF999E23CF2816D204200DF6E611781B9884C1AC8888B4DE397320472959434323A5A36B22A8E1F721A270DF3BD65E4A31C11FF048AFB0D8B7B6881423793963A23CFCE935FC189ED36FAE35C46DA3574C979E4394BE52084F3081837BE03
310
3396D2EBD80F1F691B273F660D2B32FA27A33B1DE4ADA5F0FA4651511102DFA410DDA86E065272CA314D5249DF91B06BB92807B28EFD54F08F7B525252782CD276DD02E6B0319B13DF87B1F6361AD6B28FC0D711CF445429B9E5A433CD493051C49A9E03DDB1B147D880253514A5DED88009018620EE229101C041950E2D8A
310
A8E1F5F5438E0C0C0C60EEDEE9E3E0C051948C69F84BB7B2A48A1F3C8EB9E6864687F4F4F6F6E2FA87608ADAF9C5E117B7C1A737E710769DA1D15ECE6A84502AA855398712D5FB51BE92E4EF824969CE18278798AC303C2C7980DD2500ADF8FB1E6D6C2FAAFF9987178923334A244758BAA01A9A1B70FA5097D01E1CC2A58D
310
AD0EC94CE6430AA9B0C10D75E3C6BAC670EFBADEE1607739CE0FC18A2587E3EC3058562014C64219C69BC269082D5C2F4A659278D585755912176D78A1B641719C2A394CED495A1AC5D583FD2F5EDD93308EA7EAE8A6DD396598BDBD3D4CFED62D18A5BDFDE0DD5C80D1A89BA62697B131AE7CE9A6594138582F1B37D68F17
310
49AC7CB67A70695D48A4A056AC1FBD4E82358CEAE38F54B95A9016F9000F9879C0D9D131768635CA798895F27D6F1614F11F2838A83611AA51C9A3DDB539D42979C29F10465655C17BEC3E2760B80DCBF609198C7B171A531905F3EC218D696025975E986C6B4C666666787271F202805577DD5A3EF0CAFAF91B62DC4B2DB4
310
217A7606282F31D8DDBC290593BAA93EA6353AFA9939B877978481E15CFC9F2755CDC00C538F63A4BA3E80AE009B73CA0185687D339A507D165B74290D6EE46D5C58148F020C3668ABE9EF2F7549170DC80DB41FFC1D678FF19AEB10C7133832B104B80F691B3138F97A92D26E551F1F110400D45AC71A9B9AC41A1A1B1DAE
310
ED0B0810638EFFB511D46B121C6FEA0F38CD00E03CFFEB9713FE1F9C263E4DDEC160D0497FA9A132BA608584057FB15380825DE6C7FC3C667EE947D488A09898D8E939C4953BF4EC9836344D2CC6B2971B2A21A572B06096F4982D2CC7232D46E8EA69DC83722E267754D777F97F96D5DA74E1E75178084D0E70F12AD33E5F
310
71EF2AFA599B2BEBF60A5BE475F444F240CBFE8143C334E7ED9150FEEFEF7EB020C4DBED388DD1D6A167A76F3CBF119B578AE8CFA7736ACAFA4440A1C47185638A0D2F3EB5BDDEFDA958FB13CE4AA4923D5BF840392D45544329525749734866684BF7F8D9D54D892E19BCA9F829A0F8BFCBEEA6CFDFC61D74EA1A645ED7A1
310
FF241739F15694BD835B66FEC5677E40FE69BD3F91AE402F036537218A401CB0828604AD189E575015C6F3F6BBC8AC79CF6C70653847254B31551EFCBEB5978B9DB85D58D0FA41A9DFE9C624834AA04949D24B5AE6D299E072D152D12097920F14AA92C31C3B97E28B6C2E6E9C23D63043ECBBC0A60FDF5BD0C33C127EA8A3
310
308B8B6AFFEB28B4455BF6E7AF4FC6222728357EB8E46E85053E6A8843AB23295BF838ABDA94658FEF3F832F147046B4ACD6F7D48E8FCC9618582961C898D1C7A253C91BFECBDA6BA18A1FCF70755DCCEE2222F41B76D23CA98D0CB3D95F0CF66D57FFF65E2A90F5DF40FC3187621E981BD0BC1D992787212688976B94A8F0
310
C6EF646624B570B78E068826F87CE27041A95C9A4871FF65CC17FCB1639629AD6A9517000D63AC231F3D741CB8430777E7ECF80CE7A3F73C0F162F7E56AA71F4DA80A33CD6ACEE78E2C11FAC03DAFCE929B106F8F6B3ED2DC71FF994BD9CEF4E9A94896EF1B6E2B7B4978168BCF0847A3D2A4F1B0500B926E634B174548E9F
310
BAD27153FB5FC36799B1E6C7C38A94E1F9E996796D7B485E635D5287A2AE76FBD11A341DB3F8F810385BB7296391973DC6C37C452A9305AEBBE0CDB6C566DB59FE60C8E94B1FD090354BF51439FFD1B48D725228FFA88C84F686F547107A7A235665A4593B7C34D748C1AC8D56DD5DA861EEFBADDECBBD65117E65851F9035
310
1AEB65F0EFCFF4BCFEF24CB7A5879699FAC437A7AF9099186CF006BB923A59E37D7A36A29FD8D2CBB914A5E9D0A8FD212FBF796AE9A67958FF1D5D8B85F78F96219D4714EB919929241B6C018AAE0C02069F8D919961EC5DDFBFB7573E3AC8E08BFB7C8534BE6DE045B3CD63DBD71F7638BA2309CAE398EA3A7D8F98BBBC7A
310
EB367EFA5CFA27A9F8F2F52FE878058E6209C026453F8E7E8A237DFC389E9590F6059B397CFD65183BBF936E86896612A5B5FEE49DAC8455D026218AFEBEC12B3523A45B57B82C9C97E02ACFA1184DB18E48CF615DBF39C3CC6F0B4AE6BBEEA2E39D944E290302FA3DE33FA7E40296E2EF7BF1CD855BBECFAD0FD622BEE974
310
6FC4FDFDE545AE6E3BC234CADF83A0FB76DFB145BF3828AE3436368AC24989454F8FF70A177672C711CAA1A76107218CF948CA01F873520E7A2B118EBB161ABAD432932029628B6761590C98AB590C8C8C79798CE9F715BA696E839E9131A4BB68BE923F1747FBFF165331FFDD4D05997ACD168F12CA75348DAC04C7F509FE
310
83898A8B421181AF492861CE81E4A2DD0A30850CFA95E05F097FF70F9E777310D584A75BA7018922E271DAB1D785671157685B7D383D3E074DDB4F1E44EF04B07BAAC75A062077C54B9752C738C9D804D402E02851F3F89605AF189738C18C021D2139EAF72513824E10DDD3047BACC8521ED7E98B257D1166903B1B08FA6F
310
918FD7E162913FEC7D0EF4787E29C35FBA8C6E2C9C20E9AB30AE42CA2A01A090E7D010C1B5BF9CEE2A304BF3A987FB40D836979B79E18D70F257DA61E808472DD85B82761825779D6B90CAEB0F23360C6F80A7D7D77545E95B3DFF0CF96A827F9B5BCECD2C9698718417EF80FEEDEE938AFF55859D0D540B7FE09435583A6F
310
04874A0C7E8CF234DF4879722000167F5872CEC6BF3EF7E5A8CC8121E6A359227C8A29C95212F9F735BC72A887D56B8F309FC525BFB4FD767AAEC4AEFF249CFBBD2DE1AB9969A6155C7D8DABC307E47324C1F916C7BCFF40ABA5644E9FFB9238D19ADADA49D9610F01ABBA57E4DFCBDCCBB2B93C8953206C91DE01B0E2651A
310
6D6C31721915B31F7B7CBCE55466F6D70402788FA91D73BE4ADCBA99A35F17D6B83383704917D6833F0FA3CD45C926ADB8BC17999A4A0AFBCE2541F7B8CF4C2F5FBA611B3E626D64407CB32C122DFF4EF8674D6EDBB86C8F7C6A16D50FA685E2CCA34F8F7D1D8265BB0042E9D7F1F666F7BE5FAA5184DF58E12122A42EF02F
310
461B3F369AC746F96528AD208512AB56844CF75B97F352DF7995024FB02855385854F3798670D01CAC771AC3E1889EC25F61A20C1F8CAB46898817F9C47E2CDA1F286BF2F358298709FE567C91133E2638C8B53975E753EA8BFD3578B5F7186B7BF084EBA3F77BAC3132A5779902EC22AF2D2E79F42D324E083386DAEE9810
310
D1B44A5DAA54513C7A71E52A4AB9257D975B621308FE4D2141CC3DCFE946C154A3C1DFCCA7629EC69ACFA831634ADDA93C0388D2A9A2DDAFCF957C6995BCE7FBB6DC4EBAE79E63EB08E9A25F52F67076F7093CA545CA3053B5BF576DEAD4E0017143C5F759F32B2D6F145B52B67B48909B7C7FCA6586EE385A2189C16932CB
310
6DDFD9152AE317C430492A578ED27B72D85D40C7C93C097939E1B50F4D67F05334FE9DC362C30B7FF561B95259138ECFD9274C8D695C31B14D4EAA9F3D7FA8DDF652F8C5DEFA23284C799B7D94416DEE81E05A866302DC70192A5368EA65E1CED8BF107A1E2D3119A71E85DC1A7B0C1E93274CE04DD0F2ABC8AC7C987FDB00
310
2B6F81757B43502EF7A0D92E416494FAEEA4C9C090CD9557AA4D532F4996A272B94355C5A0E4974EEA9627476F30809B94D8D8D860062E02204643BEC7D0438AF800FC7E2B26955D595421E83C69E1A07E0E3122285835F014AD538188CF9737CE76D464A353FA55A001AB2526B84E985083693BC76FE211CA1D000679C889
310
E3C009832C87E1AC2EDD05C302557422DF0800E316FCAC86978A371F025A6C7DAA9F333E7BD160403A1A06EA75AA9888FF01504B0304140006080800248F295051464CB48900000043010000360000006662782F30393444443339362D453035342D343946382D413932382D3235384439463939453736362F646972656374
310
6F72792E786D6C9D8F310EC2300C45AF127987122606C71DD918B841D4B851A43646695A717C52A85029031293A5A76FBF6FACEF7DA7264E43906840EF0FA03836E242F406C6DCEE4EA06AC22492573150D1F66C60C640E8938CB705396EEDD86DE9B5042FE27813D640EA63BB001C722AF6E55CB61E4863F58284D5D3F53D
310
D715CE1C3985E63FD7F1B7EBDD617E9F1E504B0304140006080800248F2950CE6972AE45070000541C0000340000006662782F30393444443339362D453035342D343946382D413932382D3235384439463939453736362F6F626A656374732E786D6CDD595B6FE23814FE2B56F665F72124E15632A28C0AB42334EACC68D0
310
ACF62D32C1506F9D8B9CA4A5FBEBF7D8B1439C0648E722ADB6950A75ECE373BE733F99BE3F440C3D119ED124BEB6BC9E6B211287C996C6FB6BABC877F6C442EF6768CA9324AFEDB3508C23726D89656B36DDF3A448D5D296EC70C19AAB77F3BF5016929858286438CBAEAD2C7C2011EEE1224FB6247BEC6D718E7BFBDDA1E7
310
F5CA8D26D93DC7E943E3AA147312E7C02AACC7404571E099FF8248CE6CEA880DC6B641B76DFD33DB1C29B8C9288DB31CC7E12BAE1AD7F54F70D5B86EE00D97B7FD916F8F86C3813D1CF73D7B7E375FDADED5C05D8C170BFFE6D6B7D06CBA491256292025F116B4F862CDBCA9239E54E22B14DAF80E933826A142B36DC39628
310
BA94644D4C0C603D295A4D21A5ACB5854147E14F6CEB048AC19281B6164E7FD6AD37D9FC0D20645DAC94674458799673D0B5C2BEF40777EA94AB865E6886229C134E31438C6E38E6A020D85A2AC82023BC4590420233A9454DAFCE2B18F6655F6AE372573026FCD79A494F0BC01F499E49CEE83F841FB9AFDF063C81B4058D
310
F38912367F4981843F75E462F96CD0570F4B20D18EE13D580B8829360DFA0DBC162216AC96D6ECE3DDE6B016F1A1FDF2942729E1B9B03CE9CCCAEFB4066BA605C6D70194125753774754BE02F49F00F98A173405CD717A181E865A768EE36C97F008B4835C64BBF0C745E2EBAB6F53A73A3C43C88895A73005B7FD49981A62
310
1877D7209D4D9FC0E8133E50C2AD43CCC0A6EF692CFC1C0C05B1049620DEEF36076BB682600A8B700A33901E7EA78EF88AE0A3A403F1A6A1A1B6F0DB4151DA619A7E76D4D507B0194EC34A55868CA7F01DFD147C6F96EB8FEB82EF7048EE95632FC98EC6348764DACE9001BAE1F2DF569FA4477E60C906B3E369635308D7EC
310
1311375AD4B2566A41522FC08948C3A566E4CA3D056F670CC7242932B5DE16A7C284253CD8BC04A50BB7DEF5A7B681F2326500ADB10C927BC8692A30B1664A5B5520ECD504050BC35C59E0BED46AB029A234C05152C422D4BE36C5261F106784250255494D1BB6F65A4D764B77BB2283E0D54A726100A9FC59132E2D7C0871
310
AC8D5F4E761C43124DE280420E066769BDC1B8A002EF3CCF1961BB80325644C18E32C8234184D313F43B4A50CF5C8FE4E539E1DB5682A665699FD436240057C06A9074B62A63BED229274F549499329FE96C60EC5075A8351B9E48172253B400AA8D519AF9D81D2D3D7FE2D993DBD1953D1C79737B3E7747F66DDF75EF6EC6
310
EE7C3E1C34F9D4D1AA9EEF4095A2CC31FC2F7F28A24D8C298307426CBC4DDFBD97D9F3DA81D0E8B8FE70B91CF863FBD61D0DEDA17F37B16FFCFEC4EE8F264BFFCEF76FAFC66387932C29784832A7EFB88136C934DE9FE24A73F73A8642597339D9697D3585F91FC7D0664E3094F85F0DA255EC6A2908BB065171B4194271F8
310
2852541042D5D7EA3E8D20DAE4A32DCEBD312EBBBD812B7F3CCFEFBBE011FE68D431ECC99B7E38D2B5C91042E759E44192E290E6ED29B5814C4796DF945D7A036F5462A3FFF6FB08F0EABC5A31753E3329A6021AE13D097658F4152DA1F492C4AD596FCF922CA331C9645FF8AA5E6CD0747B507E9959BAC56C69164424C7DF
310
63B1B2D168780144731640079B8B19C2C53AA27201D5B39CA228FA6548F552FE9720C351CACADEF812065E5F43A0BBA2360B154C8B2B9EC03E039C07EE96C851C725EA15FBBAA268D55A93BAFFDDE44FC0A32BA15F088FBEA27BB1D51B79BEF89940181A8FBCC1F8AA52C525B4F465B9E8FD5801DD6AF8123C13BA7FE8549C
310
76D34AADCC2B0BF19C44D0FAE2BCE09D3C760CD144DB9616484586864BD46E7A6341297B3EDDF5C165B2E93B5512D7AE81DA95C6301BEB24C82B295A8D58EA42CE01C5B8EB0D9EADB1B948F58723E62FAFB2EBEE17C981D1651CA0C22E43B08A3F461DDE5AA91B3554F68CF31042E95A7EDA73F0882DD91E9B39835C5B59AF
310
6BDA4B15F74A84D408A6BC5844DA7BF1857DC5A06AE8B833E74359E839E5FA4AA4B61E0CB48F7C184C9BB43E7F5837A8C04AE7D35F0446E4B94141AD2E44077D86D4B7D5714ED0A0A024FAB63A73FC3FD1856805D6466F3041CE124661904FB6684F12C8DF30AAE8D0A1F08864322F83F1AA20A5DF227438FD54CE6173BC61
310
FA74F8806198CD54FF56843048859C796DA975F41B8C4EC5F4520EB47A8FD0BAA91866A182D36B0B2C36A7D0A1F536300293034749BD31E204C7C6F15E64FCF254F5FFF1984007A2D251AE6A4F175C9464863341299CCA770B50F7950F66D3EF175DB383700E5F37455E09735C384AA340D02F114AE16052F8A8E03D404971
310
5E2EAF27F71890749AE69FB58392AA9D63BE9723F91ADE37CB2F8E98A6AF3EA394157BA1CE731DB341C9169D3A2BCAC9D5140C4389996251452EDE395F7802AFA5227447C108D0EF87C9F80F6791445112974BCE8D7AB985D60FF0AA6AEBE83121B4FEAE3771E4E440BD0A083638233DBCCD1E610154CBA998A796101B0650
310
45D39A01688D085DC03163FF6A895475549BAAD4C3AE8047BE0740E048E2FD8F709BFA86DAD0127C01B8920F8F5FF4C2D4E130389FFD0B504B0304140006080800248F29507DA169BAE1000000550100003C0000006662782F30393444443339362D453035342D343946382D413932382D3235384439463939453736362F72
310
65736F75726365732F322F636E782E786D6C4D90DD6A032110855F65117AB9EA2E94A4C1352FD1ABDC04AB132B5167F1A7A46F5F4D2DF46A86733E8633479C1FC14F5F90B2C3B89185723241D4685CB41BA9E5361FC974962221967F1899A20AB0912E13296CC2BA0FC9C04D55DF55EFE27D88FC6A214272FABA474B26ED55
310
CE1BC9FA1382A2AA163490EFD4A8A2E8421364AC49433B515C8071422750050C912B5FF9CC9799BFBD2F87D3EBE1C48F17C13A29C507A21FBC8B0512EE2F2BD7D8D6D81271C13A20454D6E50FD8D66FCC5A32D9E60CD962297D43A1858F9DE1BE682B2C09EC8AF2B05EB4FB6F16CA0CD5E88FC01504B030414000608080024
310
8F2950FF15A4A45D000000800000003A0000006662782F30393444443339362D453035342D343946382D413932382D3235384439463939453736362F7265736F75726365732F636E782E786D6C4D8B3B0E80201005AF42B6F75B59F0390B113044D83508C6E30BC6C26AF226F3B8BA6360974DA7271430F523308B2B198F9B
310
80925DB700539227A2FCCB80A18E5640D320F996A81C9F32D6E9129A0D1EF74FCE750E6D57BC7165FBCA07504B0304140006080800248F2950671D4D9E4201000056050000300000006662782F30393444443339362D453035342D343946382D413932382D3235384439463939453736362F636E782E786D6CCD94C16A0321
310
10865F65117ADCD50D94A4C135D0439FA087D29BEB4EB626BBBAE8589AB7AFA6266929A13D04929B8C9FF0FF33BFC3571FE350BC83F3DA9A86D415230518653B6DFA86045C970B52AC0477D6E2378C14468ED090542682F7CE8629973A58CB30A4EAA0CD361725A2D36D40F0A45083F4BE215EBDC1282B19D076E0B7552751
310
5675E5C0DBE014C4F7A847C8EF950389D01131633356B2BA640FCFF57C793F5FB2C52BA78914BCB576C8BC3608CE4E7733A66C3C9A2887719A00C183D3994A1E883869AB5A6D388DF782FBA8D7F499C3DD94B8691AB492181B45AD42C0324220474EBF60C16972FCC3F7D3E3CB49433C75DA8142EB76576B437DAE0D476955
310
4CC4FFBAB007FF326FDB4DB47CBDB99F359C855DCCEE21B93E46F77712629EA4E9875BFC00476997CF7F5C2CA8D52D9A3E28BB9067BA5F8171F069238A4F504B0304140006080800248F2950228B05947E000000A30000000B0000006662782F636E782E786D6C4D8CD10A832018465F45FE7BB7D6CCF9831A03EB3D6259C4
310
4CC3E5D8E34F4717BBFAE0F09D23DBCFEAC8DBC6D712BC82CBA90262FD238C8B9F15A47DA20248AB650C61FFBB01F1C36A15140C5ACE31A4ED40A39D86E40A758B7F1EB04266CC1539EDAA865186BDA077AC05AD1B61B047EC6E9C67E35C943CBF5EDE92D75F504B0304140006080800248F2950A6D797065F000000820000
310
0007000000636E782E786D6C4DCB3B0E80201045D1AD90E9FD7516806B51190811670C8A61F982B1B0BAC9C97B72CA7B1037C6D3332918DA1E04D2CAC69353902EDB8C20262D23F3F59B81A079470595414B17391D1F19B4730A5583A7ED43BBE4025D9592775E5ADFFA01504B0304140006080800248F2950ECFD112DA800
310
000026010000130000005B436F6E74656E745F54797065735D2E786D6C7D4F4B0EC22010BD0A61DF525D18634ABB506FE00510A79458060253536F2FD89D5197F3FED3F68B9BD80362B21E25DFD40D6780DADF2C1AC9671AAA3D677DD75E9E0112CB5A4C928F44E12044D22338956A1F003333F8E814E5331A1194BE2B0362
310
DB343BA13D122055543278D79E6050F344ECBC6478EDCD76CE8EABAE5449AE4298AC56946789C28AAFBEABC53F3EAF09A84A1441B91F0101CD4780756578C173A578FFDDBD00504B0304140006080800248F29503DEE336E64000000790000001B0000006175746F6465736B2D64657369676E2D7061636B6167652E786D6C
310
35CBC10E83200C00D05F21DCA56CA76D41FC96062B120735B69A7DBE268BB7777961F8D5AF396893C2ADB70FE7ADA196782C2DF776D7A97B5933C430F15651E5469C55D70F80A4992A3ADC954792C525AE70A1E4D6AD9816CC044FEFDF01FE3FDE907802504B0304140006080800248F2950CA493E2CF20000008E0100003D
310
0000006662782F30393444443339362D453035342D343946382D413932382D3235384439463939453736362F7265736F75726365732F322F636F72652E786D6C8550CB6E833010FC15B47783ED12A091710455F9829E7AB38C43AD041BF951F5F36B072AB5A79E76353B33BB3BECF2B5DE8B4FE5BCB6A607526228949176D6
310
66E921862BEAA0B870E6AC0DBF685018B1AA1E320C9C2DCEC6ED80A43541998C1A3BAB0314DEAB0085BCA7A6072F3FD42A4A114362F85BB90979138B2A49B9F3388B51CF8754CFC94D5FB572C0C7B669087E7D4113A114D5D3D8A10EE309613AD443D38DC3A926ACCA62CE825E7FB64BA7445033708A29469820FCFC46DAF3
310
A93DE3EE9D5599C9990F2EFD7C2CCDDF253AAB76F48F5BDCE6FFDDA236E1891E6EBBC203CFC73D069C55399D541ED1A59A93E4DF504B0304140006080800248F2950B5355CAAF7000000960100003B0000006662782F30393444443339362D453035342D343946382D413932382D3235384439463939453736362F7265736F
310
75726365732F636F72652E786D6C8550CB6E84300CFC15E47B20A12CD055C80AAAF2053DF516052F8D7649501E553FBF64A1527BEAC9D678666C0FBF7C2DF7EC139DD7D674C0720A191A65276DE60E62B89216B28BE0CEDAF08B0699910B769060107C7636AE07A4AC0968126AEC840728BDC70099BA6F4D075E7DE0227319
310
C3C6F0B77C95EA2667CC59BEF3048F514F87544F9B9BBE6A742086A6AE197D7D21232B4B528D434B5A4A4742CBBEEAEB76E84F15E345120B1EF4F2B35D3994012710252D29A18CD0E737D69C4FCD99B6EFBC484CC17D70DBCFC7D2F41D0887DE46A7D0F3629FFE718DEBF4BF6BD4263C9587EBAEF020D2918F81E0454A692B
310
8F08B79A1215DF504B0304140006080800248F29505E7A9F24F2000000B1010000310000006662782F30393444443339362D453035342D343946382D413932382D3235384439463939453736362F636F72652E786D6C8D50CB6EC32010FC156BEFD8D8B11D1361A24A4EBEA0A7DE10101725068B47D5CF2FC4AED4DE725A34
310
3BC3CC0E3D7F2F8FE24B39AFAD19A12E3114CA082BB5994788E1860628CE8C3A6BC31F1A14862F6A840C03A3B3B371DD21614D5026A3C64AB583DC7B15A0108FF418C18B4FB5F092C79018FE5EAE5CDCF9ACCABADC788C06BDFC4A85533C2809ACC10D46B84698BCD7C753773CE1E1835699C9688C5AEE565A26777DD3CA01
310
C3A49DA603E9D105772D6AC975406FA41950D30D13B9127239F63DADB298511F5CBA79FF245FF7AA7C13FECB1C57F942666DC2A1D90D37850756A73CCF05A3552E308D67BB69E6B2D90F504B0304140006080800248F295017870ED353010000DD0200000C0000006662782F636F72652E786D6C8D525D6F832014FD2B8677
310
14996D5D8334EDB2FE823DED8D223A52058360FAF3077EC4F9B06E314172EEBDE7DC7302393DDA261A84E9A5560548630422A1B82EA5AA0BE06C0573109D28315ADB1F6D2052AC15050830A0A436DA7533C4B5B2420554E952CC20EB7B6141C41B7F2940CFBF44CB62E6ACEFE8EF71C7F89DD5224EE3A98F12E764398FCAD2
310
B3C94A0A03E8E5B0DFA7E8FD0D5E538C6176BDE43047E80A113E67E77D7E39EFB294246198122BDB459D1BC1AC2801C508238852885E3FD2C3717738A2FC9324A19392DE1AEF79160DEE00AD6E0F924CF886CF75E5DF7C4E2AFB8267BE69A20734AC37162849423EFE3786B7CDD00BFBFC2CBB358B85BB8706C1AD3699AF94
310
DAADA581354E786A148D1F49A6AA671E097EE3C14F789E73F8A098AAFD6ACCFAEBCDD9A0BEDDA913060EF611296D5AD6ACCB4D2BAEE72AB4B1B48C73DD68F39FE9C5EA1266121E26FD06504B0304140006080800248F2950B2E458BB06010000B201000008000000636F72652E786D6C8D50C16E842014FC15F2EE285857ED
310
06D96853BFA0A7DEA8B02E590523B069FFBEB06B93F6D6D32333F3DE0CC34E9FCB8C6E6A73DA9A1668460029335AA9CDD442F067DC003A71B659EB7FC90019B1A816120C9C4D9B0DEB0E8DD67865126AAC543B289C531ED038C7470B6EBCA8456422F8A870D76C15E3554C2AA3D943C799D7CBCFEAB829E195045E90826042
310
31797EA3F5F1501F49F3CEF2A4E42C042D772B2DA3BB3E6BB501EFEBAAA2E4F5050FB4287039F40D6E08193029BAB2AB9ABE3B9494E5699933E7B7F8E7FD48CCE99113B7E4CBF207C5D987B5F32E88A124B266FE024E589E883FA1C32AFF115A1BFF54EC071F1B0E780A7427A2716A308E7BBD71A6B6F937504B0102140014
310
0006080800248F29500000000000000000000000003700000000000000000000000000000000006662782F30393444443339362D453035342D343946382D413932382D3235384439463939453736362F617474726962757465732E62696E504B01021400140006080800248F29500000000000000000000000003500000000
310
000000000000000000550000006662782F30393444443339362D453035342D343946382D413932382D3235384439463939453736362F76657274696365732E62696E504B01021400140006080800248F2950F270F13306000000040000003600000000000000000000000000A80000006662782F30393444443339362D4530
310
35342D343946382D413932382D3235384439463939453736362F747269616E676C65732E62696E504B01021400140006080800248F295088E57597CD3F0000904100004200000000000000000000000000020100006662782F30393444443339362D453035342D343946382D413932382D3235384439463939453736362F72
310
65736F75726365732F322F305F67656E657269632E706E67504B01021400140006080800248F295051464CB4890000004301000036000000000000000000000000002F4100006662782F30393444443339362D453035342D343946382D413932382D3235384439463939453736362F6469726563746F72792E786D6C504B01
310
021400140006080800248F2950CE6972AE45070000541C000034000000000000000000000000000C4200006662782F30393444443339362D453035342D343946382D413932382D3235384439463939453736362F6F626A656374732E786D6C504B01021400140006080800248F29507DA169BAE1000000550100003C000000
310
00000000000000000000A34900006662782F30393444443339362D453035342D343946382D413932382D3235384439463939453736362F7265736F75726365732F322F636E782E786D6C504B01021400140006080800248F2950FF15A4A45D000000800000003A00000000000000000000000000DE4A00006662782F303934
310
44443339362D453035342D343946382D413932382D3235384439463939453736362F7265736F75726365732F636E782E786D6C504B01021400140006080800248F2950671D4D9E42010000560500003000000000000000000000000000934B00006662782F30393444443339362D453035342D343946382D413932382D3235
310
384439463939453736362F636E782E786D6C504B01021400140006080800248F2950228B05947E000000A30000000B00000000000000000000000000234D00006662782F636E782E786D6C504B01021400140006080800248F2950A6D797065F000000820000000700000000000000000000000000CA4D0000636E782E786D
310
6C504B01021400140006080800248F2950ECFD112DA80000002601000013000000000000000000000000004E4E00005B436F6E74656E745F54797065735D2E786D6C504B01021400140006080800248F29503DEE336E64000000790000001B00000000000000000000000000274F00006175746F6465736B2D64657369676E
310
2D7061636B6167652E786D6C504B01021400140006080800248F2950CA493E2CF20000008E0100003D00000000000000000000000000C44F00006662782F30393444443339362D453035342D343946382D413932382D3235384439463939453736362F7265736F75726365732F322F636F72652E786D6C504B010214001400
310
06080800248F2950B5355CAAF7000000960100003B00000000000000000000000000115100006662782F30393444443339362D453035342D343946382D413932382D3235384439463939453736362F7265736F75726365732F636F72652E786D6C504B01021400140006080800248F29505E7A9F24F2000000B10100003100
310
000000000000000000000000615200006662782F30393444443339362D453035342D343946382D413932382D3235384439463939453736362F636F72652E786D6C504B01021400140006080800248F295017870ED353010000DD0200000C00000000000000000000000000A25300006662782F636F72652E786D6C504B0102
310
1400140006080800248F2950B2E458BB06010000B201000008000000000000000000000000001F550000636F72652E786D6C504B050600000000120012002D0600004B5600000000
  0
XRECORD
  5
DBD91
102
{ACAD_REACTORS
330
DBD90
102
}
330
DBD90
100
AcDbXrecord
280
     1
102
DISPLAYNAME
  1
Imperial24
102
FLAGS
 90
        0
  0
XRECORD
  5
DBD95
102
{ACAD_REACTORS
330
DBD94
102
}
330
DBD94
100
AcDbXrecord
280
     1
102
DISPLAYNAME
  1
Metric50
102
FLAGS
 90
        0
  0
CELLSTYLEMAP
  5
DBD8E
102
{ACAD_REACTORS
330
D7884
102
}
330
D7884
100
AcDbCellStyleMap
 90
        3
300
CELLSTYLE
  1
TABLEFORMAT_BEGIN
 90
        5
170
     1
 91
        0
 92
    32768
 62
   257
 93
        1
300
CONTENTFORMAT
  1
CONTENTFORMAT_BEGIN
 90
        0
 91
        0
 92
      512
 93
        0
300

 40
0.0
140
1.0
 94
        5
 62
     0
340
11
144
0.25
309
CONTENTFORMAT_END
171
     1
301
MARGIN
  1
CELLMARGIN_BEGIN
 40
0.06
 40
0.06
 40
0.06
 40
0.06
 40
0.18
 40
0.18
309
CELLMARGIN_END
 94
        6
 95
        1
302
GRIDFORMAT
  1
GRIDFORMAT_BEGIN
 90
        0
 91
        1
 62
     0
 92
       -2
340
0
 93
        0
 40
0.045
309
GRIDFORMAT_END
 95
        2
302
GRIDFORMAT
  1
GRIDFORMAT_BEGIN
 90
        0
 91
        1
 62
     0
 92
       -2
340
0
 93
        0
 40
0.045
309
GRIDFORMAT_END
 95
        4
302
GRIDFORMAT
  1
GRIDFORMAT_BEGIN
 90
        0
 91
        1
 62
     0
 92
       -2
340
0
 93
        0
 40
0.045
309
GRIDFORMAT_END
 95
        8
302
GRIDFORMAT
  1
GRIDFORMAT_BEGIN
 90
        0
 91
        1
 62
     0
 92
       -2
340
0
 93
        0
 40
0.045
309
GRIDFORMAT_END
 95
       16
302
GRIDFORMAT
  1
GRIDFORMAT_BEGIN
 90
        0
 91
        1
 62
     0
 92
       -2
340
0
 93
        0
 40
0.045
309
GRIDFORMAT_END
 95
       32
302
GRIDFORMAT
  1
GRIDFORMAT_BEGIN
 90
        0
 91
        1
 62
     0
 92
       -2
340
0
 93
        0
 40
0.045
309
GRIDFORMAT_END
309
TABLEFORMAT_END
  1
CELLSTYLE_BEGIN
 90
        1
 91
        1
300
_TITLE
309
CELLSTYLE_END
300
CELLSTYLE
  1
TABLEFORMAT_BEGIN
 90
        5
170
     1
 91
        0
 92
        0
 62
   257
 93
        1
300
CONTENTFORMAT
  1
CONTENTFORMAT_BEGIN
 90
        0
 91
        0
 92
      512
 93
        0
300

 40
0.0
140
1.0
 94
        5
 62
     0
340
11
144
0.18
309
CONTENTFORMAT_END
171
     1
301
MARGIN
  1
CELLMARGIN_BEGIN
 40
0.06
 40
0.06
 40
0.06
 40
0.06
 40
0.18
 40
0.18
309
CELLMARGIN_END
 94
        6
 95
        1
302
GRIDFORMAT
  1
GRIDFORMAT_BEGIN
 90
        0
 91
        1
 62
     0
 92
       -2
340
0
 93
        0
 40
0.045
309
GRIDFORMAT_END
 95
        2
302
GRIDFORMAT
  1
GRIDFORMAT_BEGIN
 90
        0
 91
        1
 62
     0
 92
       -2
340
0
 93
        0
 40
0.045
309
GRIDFORMAT_END
 95
        4
302
GRIDFORMAT
  1
GRIDFORMAT_BEGIN
 90
        0
 91
        1
 62
     0
 92
       -2
340
0
 93
        0
 40
0.045
309
GRIDFORMAT_END
 95
        8
302
GRIDFORMAT
  1
GRIDFORMAT_BEGIN
 90
        0
 91
        1
 62
     0
 92
       -2
340
0
 93
        0
 40
0.045
309
GRIDFORMAT_END
 95
       16
302
GRIDFORMAT
  1
GRIDFORMAT_BEGIN
 90
        0
 91
        1
 62
     0
 92
       -2
340
0
 93
        0
 40
0.045
309
GRIDFORMAT_END
 95
       32
302
GRIDFORMAT
  1
GRIDFORMAT_BEGIN
 90
        0
 91
        1
 62
     0
 92
       -2
340
0
 93
        0
 40
0.045
309
GRIDFORMAT_END
309
TABLEFORMAT_END
  1
CELLSTYLE_BEGIN
 90
        2
 91
        1
300
_HEADER
309
CELLSTYLE_END
300
CELLSTYLE
  1
TABLEFORMAT_BEGIN
 90
        5
170
     1
 91
        0
 92
        0
 62
   257
 93
        1
300
CONTENTFORMAT
  1
CONTENTFORMAT_BEGIN
 90
        0
 91
        0
 92
      512
 93
        0
300

 40
0.0
140
1.0
 94
        2
 62
     0
340
11
144
0.18
309
CONTENTFORMAT_END
171
     1
301
MARGIN
  1
CELLMARGIN_BEGIN
 40
0.06
 40
0.06
 40
0.06
 40
0.06
 40
0.18
 40
0.18
309
CELLMARGIN_END
 94
        6
 95
        1
302
GRIDFORMAT
  1
GRIDFORMAT_BEGIN
 90
        0
 91
        1
 62
     0
 92
       -2
340
0
 93
        0
 40
0.045
309
GRIDFORMAT_END
 95
        2
302
GRIDFORMAT
  1
GRIDFORMAT_BEGIN
 90
        0
 91
        1
 62
     0
 92
       -2
340
0
 93
        0
 40
0.045
309
GRIDFORMAT_END
 95
        4
302
GRIDFORMAT
  1
GRIDFORMAT_BEGIN
 90
        0
 91
        1
 62
     0
 92
       -2
340
0
 93
        0
 40
0.045
309
GRIDFORMAT_END
 95
        8
302
GRIDFORMAT
  1
GRIDFORMAT_BEGIN
 90
        0
 91
        1
 62
     0
 92
       -2
340
0
 93
        0
 40
0.045
309
GRIDFORMAT_END
 95
       16
302
GRIDFORMAT
  1
GRIDFORMAT_BEGIN
 90
        0
 91
        1
 62
     0
 92
       -2
340
0
 93
        0
 40
0.045
309
GRIDFORMAT_END
 95
       32
302
GRIDFORMAT
  1
GRIDFORMAT_BEGIN
 90
        0
 91
        1
 62
     0
 92
       -2
340
0
 93
        0
 40
0.045
309
GRIDFORMAT_END
309
TABLEFORMAT_END
  1
CELLSTYLE_BEGIN
 90
        3
 91
        2
300
_DATA
309
CELLSTYLE_END
  0
ENDSEC
  0
EOF
