  0
SECTION
  2
HEADER
  9
$ACADVER
  1
AC1018
  9
$ACADMAINTVER
 70
   104
  9
$DWGCODEPAGE
  3
ANSI_932
  9
$LASTSAVEDBY
  1
DELL3-1
  9
$INSBASE
 10
0.0
 20
0.0
 30
0.0
  9
$EXTMIN
 10
-713.3264761087103
 20
-684.3303730086609
 30
-0.0000000349181948
  9
$EXTMAX
 10
1285.871084804119
 20
641.2769957208793
 30
0.0000000814935747
  9
$LIMMIN
 10
-1159.931885538561
 20
-677.6192539819668
  9
$LIMMAX
 10
960.8577833986363
 20
804.8411875504962
  9
$ORTHOMODE
 70
     0
  9
$REGENMODE
 70
     1
  9
$FILLMODE
 70
     1
  9
$QTEXTMODE
 70
     0
  9
$MIRRTEXT
 70
     0
  9
$LTSCALE
 40
20.0
  9
$ATTMODE
 70
     1
  9
$TEXTSIZE
 40
64.0
  9
$TRACEWID
 40
0.05
  9
$TEXTSTYLE
  7
STANDARD
  9
$CLAYER
  8
SIZE
  9
$CELTYPE
  6
BYLAYER
  9
$CECOLOR
 62
   256
  9
$CELTSCALE
 40
1.0
  9
$DISPSILH
 70
     0
  9
$DIMSCALE
 40
1.0
  9
$DIMASZ
 40
10.0
  9
$DIMEXO
 40
20.0
  9
$DIMDLI
 40
200.0
  9
$DIMRND
 40
0.0
  9
$DIMDLE
 40
0.0
  9
$DIMEXE
 40
20.0
  9
$DIMTP
 40
0.0
  9
$DIMTM
 40
0.0
  9
$DIMTXT
 40
50.0
  9
$DIMCEN
 40
0.082
  9
$DIMTSZ
 40
0.0
  9
$DIMTOL
 70
     0
  9
$DIMLIM
 70
     0
  9
$DIMTIH
 70
     0
  9
$DIMTOH
 70
     0
  9
$DIMSE1
 70
     0
  9
$DIMSE2
 70
     0
  9
$DIMTAD
 70
     1
  9
$DIMZIN
 70
     8
  9
$DIMBLK
  1
ORIGIN
  9
$DIMASO
 70
     1
  9
$DIMSHO
 70
     0
  9
$DIMPOST
  1

  9
$DIMAPOST
  1

  9
$DIMALT
 70
     0
  9
$DIMALTD
 70
     2
  9
$DIMALTF
 40
25.4
  9
$DIMLFAC
 40
1.0
  9
$DIMTOFL
 70
     1
  9
$DIMTVP
 40
0.0
  9
$DIMTIX
 70
     0
  9
$DIMSOXD
 70
     0
  9
$DIMSAH
 70
     0
  9
$DIMBLK1
  1

  9
$DIMBLK2
  1

  9
$DIMSTYLE
  2
STANDARD
  9
$DIMCLRD
 70
     0
  9
$DIMCLRE
 70
     0
  9
$DIMCLRT
 70
     0
  9
$DIMTFAC
 40
1.0
  9
$DIMGAP
 40
10.0
  9
$DIMJUST
 70
     0
  9
$DIMSD1
 70
     0
  9
$DIMSD2
 70
     0
  9
$DIMTOLJ
 70
     1
  9
$DIMTZIN
 70
     0
  9
$DIMALTZ
 70
     0
  9
$DIMALTTZ
 70
     0
  9
$DIMUPT
 70
     0
  9
$DIMDEC
 70
     3
  9
$DIMTDEC
 70
     3
  9
$DIMALTU
 70
     2
  9
$DIMALTTD
 70
     2
  9
$DIMTXSTY
  7
STANDARD
  9
$DIMAUNIT
 70
     0
  9
$DIMADEC
 70
     0
  9
$DIMALTRND
 40
0.0
  9
$DIMAZIN
 70
     0
  9
$DIMDSEP
 70
    46
  9
$DIMATFIT
 70
     3
  9
$DIMFRAC
 70
     0
  9
$DIMLDRBLK
  1
ORIGIN
  9
$DIMLUNIT
 70
     2
  9
$DIMLWD
 70
    -2
  9
$DIMLWE
 70
    -2
  9
$DIMTMOVE
 70
     0
  9
$LUNITS
 70
     2
  9
$LUPREC
 70
     4
  9
$SKETCHINC
 40
0.1
  9
$FILLETRAD
 40
10.0
  9
$AUNITS
 70
     1
  9
$AUPREC
 70
     3
  9
$MENU
  1
ACAD
  9
$ELEVATION
 40
0.0
  9
$PELEVATION
 40
0.0
  9
$THICKNESS
 40
0.0
  9
$LIMCHECK
 70
     0
  9
$CHAMFERA
 40
0.0
  9
$CHAMFERB
 40
0.0
  9
$CHAMFERC
 40
0.0
  9
$CHAMFERD
 40
0.0
  9
$SKPOLY
 70
     0
  9
$TDCREATE
 40
2450330.393205995
  9
$TDUCREATE
 40
2450330.018205995
  9
$TDUPDATE
 40
2458391.492746285
  9
$TDUUPDATE
 40
2458391.117746285
  9
$TDINDWG
 40
3.6834578009
  9
$TDUSRTIMER
 40
3.6834568056
  9
$USRTIMER
 70
     1
  9
$ANGBASE
 50
0.0
  9
$ANGDIR
 70
     0
  9
$PDMODE
 70
     3
  9
$PDSIZE
 40
-2.0
  9
$PLINEWID
 40
0.0
  9
$SPLFRAME
 70
     0
  9
$SPLINETYPE
 70
     6
  9
$SPLINESEGS
 70
     8
  9
$HANDSEED
  5
A0CF9
  9
$SURFTAB1
 70
     6
  9
$SURFTAB2
 70
     6
  9
$SURFTYPE
 70
     6
  9
$SURFU
 70
     6
  9
$SURFV
 70
     6
  9
$UCSBASE
  2

  9
$UCSNAME
  2

  9
$UCSORG
 10
0.0
 20
0.0
 30
0.0
  9
$UCSXDIR
 10
1.0
 20
0.0
 30
0.0
  9
$UCSYDIR
 10
0.0
 20
1.0
 30
0.0
  9
$UCSORTHOREF
  2

  9
$UCSORTHOVIEW
 70
     0
  9
$UCSORGTOP
 10
0.0
 20
0.0
 30
0.0
  9
$UCSORGBOTTOM
 10
0.0
 20
0.0
 30
0.0
  9
$UCSORGLEFT
 10
0.0
 20
0.0
 30
0.0
  9
$UCSORGRIGHT
 10
0.0
 20
0.0
 30
0.0
  9
$UCSORGFRONT
 10
0.0
 20
0.0
 30
0.0
  9
$UCSORGBACK
 10
0.0
 20
0.0
 30
0.0
  9
$PUCSBASE
  2

  9
$PUCSNAME
  2

  9
$PUCSORG
 10
0.0
 20
0.0
 30
0.0
  9
$PUCSXDIR
 10
1.0
 20
0.0
 30
0.0
  9
$PUCSYDIR
 10
0.0
 20
1.0
 30
0.0
  9
$PUCSORTHOREF
  2

  9
$PUCSORTHOVIEW
 70
     0
  9
$PUCSORGTOP
 10
0.0
 20
0.0
 30
0.0
  9
$PUCSORGBOTTOM
 10
0.0
 20
0.0
 30
0.0
  9
$PUCSORGLEFT
 10
0.0
 20
0.0
 30
0.0
  9
$PUCSORGRIGHT
 10
0.0
 20
0.0
 30
0.0
  9
$PUCSORGFRONT
 10
0.0
 20
0.0
 30
0.0
  9
$PUCSORGBACK
 10
0.0
 20
0.0
 30
0.0
  9
$USERI1
 70
     0
  9
$USERI2
 70
     0
  9
$USERI3
 70
     0
  9
$USERI4
 70
     0
  9
$USERI5
 70
     0
  9
$USERR1
 40
20.0
  9
$USERR2
 40
0.0
  9
$USERR3
 40
0.0
  9
$USERR4
 40
0.0
  9
$USERR5
 40
0.0
  9
$WORLDVIEW
 70
     1
  9
$SHADEDGE
 70
     3
  9
$SHADEDIF
 70
    70
  9
$TILEMODE
 70
     1
  9
$MAXACTVP
 70
    64
  9
$PINSBASE
 10
0.0
 20
0.0
 30
0.0
  9
$PLIMCHECK
 70
     0
  9
$PEXTMIN
 10
1.000000000000000E+20
 20
1.000000000000000E+20
 30
1.000000000000000E+20
  9
$PEXTMAX
 10
-1.000000000000000E+20
 20
-1.000000000000000E+20
 30
-1.000000000000000E+20
  9
$PLIMMIN
 10
0.0
 20
0.0
  9
$PLIMMAX
 10
12.0
 20
9.0
  9
$UNITMODE
 70
     0
  9
$VISRETAIN
 70
     1
  9
$PLINEGEN
 70
     0
  9
$PSLTSCALE
 70
     1
  9
$TREEDEPTH
 70
  3020
  9
$CMLSTYLE
  2
STANDARD
  9
$CMLJUST
 70
     0
  9
$CMLSCALE
 40
1.0
  9
$PROXYGRAPHICS
 70
     1
  9
$MEASUREMENT
 70
     0
  9
$CELWEIGHT
370
    -1
  9
$ENDCAPS
280
     0
  9
$JOINSTYLE
280
     0
  9
$LWDISPLAY
290
     0
  9
$INSUNITS
 70
     0
  9
$HYPERLINKBASE
  1

  9
$STYLESHEET
  1
MONOCHROME.CTB
  9
$XEDIT
290
     1
  9
$CEPSNTYPE
380
     0
  9
$PSTYLEMODE
290
     1
  9
$FINGERPRINTGUID
  2
{97DA8DB6-C4F0-4C3D-ABEB-53C4FBBC7EFF}
  9
$VERSIONGUID
  2
{476B4515-1046-4074-9B77-3DE387989C01}
  9
$EXTNAMES
290
     1
  9
$PSVPSCALE
 40
0.0
  9
$OLESTARTUP
290
     0
  9
$SORTENTS
280
    96
  9
$INDEXCTL
280
     0
  9
$HIDETEXT
280
     0
  9
$XCLIPFRAME
290
     0
  9
$HALOGAP
280
     0
  9
$OBSCOLOR
 70
   257
  9
$OBSLTYPE
280
     0
  9
$INTERSECTIONDISPLAY
280
     0
  9
$INTERSECTIONCOLOR
 70
   257
  9
$DIMASSOC
280
     1
  9
$PROJECTNAME
  1

  0
ENDSEC
  0
SECTION
  2
CLASSES
  0
CLASS
  1
ACDBDICTIONARYWDFLT
  2
AcDbDictionaryWithDefault
  3
ObjectDBX Classes
 90
        0
 91
        1
280
     0
281
     0
  0
CLASS
  1
DICTIONARYVAR
  2
AcDbDictionaryVar
  3
ObjectDBX Classes
 90
        0
 91
        8
280
     0
281
     0
  0
CLASS
  1
MATERIAL
  2
AcDbMaterial
  3
ObjectDBX Classes
 90
     1153
 91
        3
280
     0
281
     0
  0
CLASS
  1
VISUALSTYLE
  2
AcDbVisualStyle
  3
ObjectDBX Classes
 90
     4095
 91
       24
280
     0
281
     0
  0
CLASS
  1
TABLESTYLE
  2
AcDbTableStyle
  3
ObjectDBX Classes
 90
     4095
 91
        1
280
     0
281
     0
  0
CLASS
  1
SCALE
  2
AcDbScale
  3
ObjectDBX Classes
 90
     1153
 91
       17
280
     0
281
     0
  0
CLASS
  1
MLEADERSTYLE
  2
AcDbMLeaderStyle
  3
ACDB_MLEADERSTYLE_CLASS
 90
     4095
 91
        1
280
     0
281
     0
  0
CLASS
  1
ACDBSECTIONVIEWSTYLE
  2
AcDbSectionViewStyle
  3
ObjectDBX Classes
 90
     1025
 91
        2
280
     0
281
     0
  0
CLASS
  1
ACDBDETAILVIEWSTYLE
  2
AcDbDetailViewStyle
  3
ObjectDBX Classes
 90
     1025
 91
        2
280
     0
281
     0
  0
CLASS
  1
CELLSTYLEMAP
  2
AcDbCellStyleMap
  3
ObjectDBX Classes
 90
     1152
 91
        2
280
     0
281
     0
  0
CLASS
  1
DIMASSOC
  2
AcDbDimAssoc
  3
"AcDbDimAssoc|Product Desc:     AcDim ARX App For Dimension|Company:          Autodesk, Inc.|WEB Address:      www.autodesk.com"
 90
        0
 91
        0
280
     0
281
     0
  0
CLASS
  1
SORTENTSTABLE
  2
AcDbSortentsTable
  3
ObjectDBX Classes
 90
        0
 91
        2
280
     0
281
     0
  0
ENDSEC
  0
SECTION
  2
TABLES
  0
TABLE
  2
VPORT
  5
8
330
0
100
AcDbSymbolTable
 70
     1
  0
VPORT
  5
9F077
330
8
100
AcDbSymbolTableRecord
100
AcDbViewportTableRecord
  2
*ACTIVE
 70
     0
 10
0.0
 20
0.0
 11
1.0
 21
1.0
 12
286.2723043477044
 22
-21.52668864389079
 13
0.0
 23
0.0
 14
50.0
 24
50.0
 15
100.0
 25
100.0
 16
0.0
 26
0.0
 36
1.0
 17
0.0
 27
0.0
 37
0.0
 40
1336.072690061615
 41
1.540184453227931
 42
50.0
 43
0.0
 44
0.0
 50
0.0
 51
0.0
 71
     0
 72
   500
 73
     1
 74
     0
 75
     0
 76
     0
 77
     0
 78
     0
281
     0
 65
     1
110
0.0
120
0.0
130
0.0
111
1.0
121
0.0
131
0.0
112
0.0
122
1.0
132
0.0
 79
     0
146
0.0
1001
ACAD_NAV_VCDISPLAY
1070
     3
  0
ENDTAB
  0
TABLE
  2
LTYPE
  5
5
330
0
100
AcDbSymbolTable
 70
    11
  0
LTYPE
  5
13
330
5
100
AcDbSymbolTableRecord
100
AcDbLinetypeTableRecord
  2
BYBLOCK
 70
     0
  3

 72
    65
 73
     0
 40
0.0
  0
LTYPE
  5
14
330
5
100
AcDbSymbolTableRecord
100
AcDbLinetypeTableRecord
  2
BYLAYER
 70
     0
  3

 72
    65
 73
     0
 40
0.0
  0
LTYPE
  5
15
330
5
100
AcDbSymbolTableRecord
100
AcDbLinetypeTableRecord
  2
CONTINUOUS
 70
     0
  3
実線
 72
    65
 73
     0
 40
0.0
  0
LTYPE
  5
23
330
5
100
AcDbSymbolTableRecord
100
AcDbLinetypeTableRecord
  2
DASHDOT
 70
     0
  3
____ _ ____ _ ____ _ ____ _ ____ _ ____ _ ____
 72
    65
 73
     4
 40
5.5
 49
4.0
 74
     0
 49
-0.6
 74
     0
 49
0.3
 74
     0
 49
-0.6
 74
     0
  0
LTYPE
  5
939BF
330
5
100
AcDbSymbolTableRecord
100
AcDbLinetypeTableRecord
  2
DASHED
 70
     0
  3
Dashed __ __ __ __ __ __ __ __ __ __ __ __ __ _
 72
    65
 73
     2
 40
0.75
 49
0.5
 74
     0
 49
-0.25
 74
     0
  0
LTYPE
  5
939C0
330
5
100
AcDbSymbolTableRecord
100
AcDbLinetypeTableRecord
  2
DOT_CENTER
 70
     0
  3
Dot_Center
 72
    65
 73
     4
 40
14.0
 49
12.0
 74
     0
 49
-1.0
 74
     0
 49
0.0
 74
     0
 49
-1.0
 74
     0
  0
LTYPE
  5
954FD
330
5
100
AcDbSymbolTableRecord
100
AcDbLinetypeTableRecord
  2
ACAD_ISO02W100
 70
     0
  3
ISO dash __ __ __ __ __ __ __ __ __ __ __ __ __
 72
    65
 73
     2
 40
15.0
 49
12.0
 74
     0
 49
-3.0
 74
     0
  0
LTYPE
  5
954FE
330
5
100
AcDbSymbolTableRecord
100
AcDbLinetypeTableRecord
  2
BORDERX2
 70
     0
  3
Border (2x) ____  ____  .  ____  ____  .  ___
 72
    65
 73
     6
 40
3.5
 49
1.0
 74
     0
 49
-0.5
 74
     0
 49
1.0
 74
     0
 49
-0.5
 74
     0
 49
0.0
 74
     0
 49
-0.5
 74
     0
  0
LTYPE
  5
98761
330
5
100
AcDbSymbolTableRecord
100
AcDbLinetypeTableRecord
  2
CENTER
 70
     0
  3
Center ____ _ ____ _ ____ _ ____ _ ____ _ ____
 72
    65
 73
     4
 40
1.0
 49
0.5
 74
     0
 49
-0.25
 74
     0
 49
0.0
 74
     0
 49
-0.25
 74
     0
  0
LTYPE
  5
98762
330
5
100
AcDbSymbolTableRecord
100
AcDbLinetypeTableRecord
  2
DIVIDE
 70
     0
  3
Divide ____ . . ____ . . ____ . . ____ . . ____
 72
    65
 73
     6
 40
1.25
 49
0.5
 74
     0
 49
-0.25
 74
     0
 49
0.0
 74
     0
 49
-0.25
 74
     0
 49
0.0
 74
     0
 49
-0.25
 74
     0
  0
LTYPE
  5
9A587
330
5
100
AcDbSymbolTableRecord
100
AcDbLinetypeTableRecord
  2
LONG_DASHED
 70
     0
  3
Long_Dashed
 72
    65
 73
     2
 40
15.0
 49
10.0
 74
     0
 49
-5.0
 74
     0
  0
LTYPE
  5
9A588
330
5
100
AcDbSymbolTableRecord
100
AcDbLinetypeTableRecord
  2
PHANTOM
 70
     0
  3
Phantom
 72
    65
 73
     6
 40
13.0
 49
10.0
 74
     0
 49
-1.0
 74
     0
 49
0.0
 74
     0
 49
-1.0
 74
     0
 49
0.0
 74
     0
 49
-1.0
 74
     0
  0
ENDTAB
  0
TABLE
  2
LAYER
  5
2
102
{ACAD_XDICTIONARY
360
9F1AA
102
}
330
0
100
AcDbSymbolTable
 70
    11
  0
LAYER
  5
10
102
{ACAD_XDICTIONARY
360
9F0F4
102
}
330
2
100
AcDbSymbolTableRecord
100
AcDbLayerTableRecord
  2
0
 70
     0
 62
     7
  6
CONTINUOUS
370
    -3
390
F
  0
LAYER
  5
22
102
{ACAD_XDICTIONARY
360
9F0F6
102
}
330
2
100
AcDbSymbolTableRecord
100
AcDbLayerTableRecord
  2
SIZE
 70
     0
 62
    32
  6
CONTINUOUS
370
    -3
390
F
  0
LAYER
  5
31
102
{ACAD_XDICTIONARY
360
9F0F8
102
}
330
2
100
AcDbSymbolTableRecord
100
AcDbLayerTableRecord
  2
DETAIL
 70
     0
 62
     5
  6
CONTINUOUS
370
    -3
390
F
  0
LAYER
  5
32
102
{ACAD_XDICTIONARY
360
9F0FA
102
}
330
2
100
AcDbSymbolTableRecord
100
AcDbLayerTableRecord
  2
OUTLINE
 70
     0
 62
     3
  6
CONTINUOUS
370
    -3
390
F
  0
LAYER
  5
33
102
{ACAD_XDICTIONARY
360
9F0FC
102
}
330
2
100
AcDbSymbolTableRecord
100
AcDbLayerTableRecord
  2
BASIS
 70
     0
 62
     6
  6
CONTINUOUS
370
    -3
390
F
  0
LAYER
  5
34
102
{ACAD_XDICTIONARY
360
9F0FE
102
}
330
2
100
AcDbSymbolTableRecord
100
AcDbLayerTableRecord
  2
NOTE
 70
     0
 62
     4
  6
CONTINUOUS
370
    -3
390
F
  0
LAYER
  5
35
102
{ACAD_XDICTIONARY
360
9F100
102
}
330
2
100
AcDbSymbolTableRecord
100
AcDbLayerTableRecord
  2
ARRANGE
 70
     0
 62
     1
  6
CONTINUOUS
370
    -3
390
F
  0
LAYER
  5
37
102
{ACAD_XDICTIONARY
360
9F102
102
}
330
2
100
AcDbSymbolTableRecord
100
AcDbLayerTableRecord
  2
ETC
 70
     0
 62
    83
  6
CONTINUOUS
370
    -3
390
F
  0
LAYER
  5
3A
330
2
100
AcDbSymbolTableRecord
100
AcDbLayerTableRecord
  2
DEFPOINTS
 70
     0
 62
     7
  6
CONTINUOUS
290
     0
370
    -3
390
F
  0
LAYER
  5
9F1A2
102
{ACAD_XDICTIONARY
360
9F1A3
102
}
330
2
100
AcDbSymbolTableRecord
100
AcDbLayerTableRecord
  2
FIX
 70
     0
 62
   241
  6
CONTINUOUS
370
    25
390
F
  0
LAYER
  5
9F1A4
102
{ACAD_XDICTIONARY
360
9F1A5
102
}
330
2
100
AcDbSymbolTableRecord
100
AcDbLayerTableRecord
  2
SERVICESPACE
 70
     0
 62
     2
  6
CONTINUOUS
370
    25
390
F
  0
ENDTAB
  0
TABLE
  2
STYLE
  5
3
330
0
100
AcDbSymbolTable
 70
     7
  0
STYLE
  5
11
330
3
100
AcDbSymbolTableRecord
100
AcDbTextStyleTableRecord
  2
STANDARD
 70
     0
 40
0.0
 41
0.9
 50
0.0
 71
     0
 42
64.0
  3
SIMPLEX
  4
BIGFONT
  0
STYLE
  5
939C1
330
3
100
AcDbSymbolTableRecord
100
AcDbTextStyleTableRecord
  2
CONVERTER_11
 70
     0
 40
0.0
 41
0.9
 50
0.0
 71
     0
 42
0.2
  3
txt.shx
  4

  0
STYLE
  5
939C2
330
3
100
AcDbSymbolTableRecord
100
AcDbTextStyleTableRecord
  2
CONVERTER_12
 70
     0
 40
0.0
 41
0.7650000000000004
 50
0.0
 71
     0
 42
0.2
  3
txt.shx
  4

  0
STYLE
  5
954FC
330
3
100
AcDbSymbolTableRecord
100
AcDbTextStyleTableRecord
  2

 70
     1
 40
0.0
 41
1.0
 50
0.0
 71
     0
 42
64.0
  3
ltypeshp.shx
  4

  0
STYLE
  5
98763
330
3
100
AcDbSymbolTableRecord
100
AcDbTextStyleTableRecord
  2
ZU_SHPTB00001
 70
     0
 40
0.0
 41
1.0
 50
0.0
 71
     0
 42
0.0
  3
monotxt
  4
bigfont
  0
STYLE
  5
9F1A6
330
3
100
AcDbSymbolTableRecord
100
AcDbTextStyleTableRecord
  2
MS PGothic
 70
     0
 40
0.0
 41
1.0
 50
0.0
 71
     0
 42
0.2
  3

  4

1001
ACAD
1000
ＭＳ Ｐゴシック
1071
    32818
  0
STYLE
  5
9F1A7
330
3
100
AcDbSymbolTableRecord
100
AcDbTextStyleTableRecord
  2
VERTICAL MS PGothic
 70
     0
 40
0.0
 41
1.0
 50
0.0
 71
     0
 42
0.2
  3

  4

1001
ACAD
1000
@ＭＳ Ｐゴシック
1071
    32818
  0
ENDTAB
  0
TABLE
  2
VIEW
  5
6
330
0
100
AcDbSymbolTable
 70
     1
  0
VIEW
  5
3C
330
6
100
AcDbSymbolTableRecord
100
AcDbViewTableRecord
  2
ALL
 70
     0
 40
4282.62
 10
0.0
 20
41.30990399999999
 41
5940.0
 11
0.0
 21
0.0
 31
1.0
 12
0.0
 22
0.0
 32
0.0
 42
50.0
 43
0.0
 44
0.0
 50
0.0
 71
     0
281
     0
 72
     0
  0
ENDTAB
  0
TABLE
  2
UCS
  5
7
330
0
100
AcDbSymbolTable
 70
     0
  0
ENDTAB
  0
TABLE
  2
APPID
  5
9
330
0
100
AcDbSymbolTable
 70
     8
  0
APPID
  5
12
330
9
100
AcDbSymbolTableRecord
100
AcDbRegAppTableRecord
  2
ACAD
 70
     0
  0
APPID
  5
9F0F2
330
9
100
AcDbSymbolTableRecord
100
AcDbRegAppTableRecord
  2
ACAD_EXEMPT_FROM_CAD_STANDARDS
 70
     0
  0
APPID
  5
9F10A
330
9
100
AcDbSymbolTableRecord
100
AcDbRegAppTableRecord
  2
ACAD_NAV_VCDISPLAY
 70
     0
  0
APPID
  5
9F142
330
9
100
AcDbSymbolTableRecord
100
AcDbRegAppTableRecord
  2
ACAD_MLEADERVER
 70
     0
  0
APPID
  5
9F14E
330
9
100
AcDbSymbolTableRecord
100
AcDbRegAppTableRecord
  2
ACAD_PSEXT
 70
     0
  0
APPID
  5
9F1A8
330
9
100
AcDbSymbolTableRecord
100
AcDbRegAppTableRecord
  2
ACAD_DSTYLE_DIMJAG
 70
     0
  0
APPID
  5
9F1A9
330
9
100
AcDbSymbolTableRecord
100
AcDbRegAppTableRecord
  2
ACAD_DSTYLE_DIMTALN
 70
     0
  0
APPID
  5
9FB0E
330
9
100
AcDbSymbolTableRecord
100
AcDbRegAppTableRecord
  2
AcadAnnoMonitorAlertIconDisabled
 70
     0
  0
ENDTAB
  0
TABLE
  2
DIMSTYLE
  5
A
330
0
100
AcDbSymbolTable
 70
     2
100
AcDbDimStyleTable
 71
     1
340
213
  0
DIMSTYLE
105
213
102
{ACAD_REACTORS
330
A0AF1
330
A0A89
330
A0A8A
330
A0A8B
330
A0A8C
330
A0A8D
330
A0A8E
330
A0A8F
330
A0A90
330
A0A91
330
A0A92
330
A0A93
330
A0A94
330
A0A95
102
}
330
A
100
AcDbSymbolTableRecord
100
AcDbDimStyleTableRecord
  2
STANDARD
 70
     0
340
11
  0
ENDTAB
  0
TABLE
  2
BLOCK_RECORD
  5
1
330
0
100
AcDbSymbolTable
 70
    71
  0
BLOCK_RECORD
  5
1E
102
{ACAD_XDICTIONARY
360
66E76
102
}
330
1
100
AcDbSymbolTableRecord
100
AcDbBlockTableRecord
  2
*MODEL_SPACE
340
9F0EC
  0
BLOCK_RECORD
  5
1A
102
{ACAD_XDICTIONARY
360
66E74
102
}
330
1
100
AcDbSymbolTableRecord
100
AcDbBlockTableRecord
  2
*PAPER_SPACE
340
9F0ED
  0
BLOCK_RECORD
  5
46
330
1
100
AcDbSymbolTableRecord
100
AcDbBlockTableRecord
  2
_ORIGIN
340
0
102
{BLKREFS
331
A0C36
331
A0C37
331
A0C41
331
A0C42
331
A0C4A
331
A0C4B
331
A0C53
331
A0C54
331
A0C5D
331
A0C5E
331
A0C66
331
A0C67
331
A0C6F
331
A0C70
331
A0C79
331
A0C7A
331
A0C84
331
A0C85
331
A0C8E
331
A0C8F
331
A0C98
331
A0C99
331
A0CA1
331
A0CA2
331
A0CAA
331
A0CAB
331
A0CB5
331
A0CB6
331
A0961
331
A0962
331
A096F
331
A0970
331
A097C
331
A097D
331
A0989
331
A098A
331
A0995
331
A0996
331
A09A1
331
A09A2
331
A09AF
331
A09B0
331
9F19B
331
9F19C
331
A0846
331
A0847
331
A084F
331
A0850
331
A0858
331
A0859
331
A0861
331
A0862
331
A086B
331
A086C
331
A0874
331
A0875
331
A087D
331
A087E
331
A0886
331
A0887
331
A0890
331
A0891
331
A089B
331
A089C
331
A08A6
331
A08A7
331
A08AF
331
A08B0
331
A082A
331
A082B
331
A0833
331
A0834
331
A083C
331
A083D
331
9FC69
331
9FC6A
331
9FCA4
331
9FCA5
331
9FC3C
331
9FC3D
331
9FC45
331
9FC46
331
9FC5C
331
9FC5D
331
9FBEF
331
9FBF0
331
9FC91
331
9FC92
331
9FC9B
331
9FC9C
331
A08B8
331
A08B9
331
A0802
331
A0803
331
A080D
331
A080E
331
A0816
331
A0817
331
A0821
331
A0822
331
9FB2A
331
9FB2B
331
9FB42
331
9FB43
331
9FAAD
331
9FAAE
331
9FABA
331
9FABB
331
9FC1E
331
9FC1F
331
9FC27
331
9FC28
331
9FC31
331
9FC32
331
9FDF2
331
9FDF3
331
A0909
331
A090A
331
A0917
331
A0918
331
A0923
331
A0924
331
A092F
331
A0930
331
A093C
331
A093D
331
A0948
331
A0949
331
A0954
331
A0955
102
}
  0
BLOCK_RECORD
  5
9F196
330
1
100
AcDbSymbolTableRecord
100
AcDbBlockTableRecord
  2
*D1
340
0
  0
BLOCK_RECORD
  5
9F39B
330
1
100
AcDbSymbolTableRecord
100
AcDbBlockTableRecord
  2
*D2
340
0
  0
BLOCK_RECORD
  5
9F8F2
330
1
100
AcDbSymbolTableRecord
100
AcDbBlockTableRecord
  2
*D3
340
0
  0
BLOCK_RECORD
  5
9F9DF
330
1
100
AcDbSymbolTableRecord
100
AcDbBlockTableRecord
  2
*D4
340
0
  0
BLOCK_RECORD
  5
9FA9E
330
1
100
AcDbSymbolTableRecord
100
AcDbBlockTableRecord
  2
*D5
340
0
  0
BLOCK_RECORD
  5
9FAB4
330
1
100
AcDbSymbolTableRecord
100
AcDbBlockTableRecord
  2
*D6
340
0
  0
BLOCK_RECORD
  5
9FAC1
330
1
100
AcDbSymbolTableRecord
100
AcDbBlockTableRecord
  2
*D7
340
0
  0
BLOCK_RECORD
  5
9FADB
330
1
100
AcDbSymbolTableRecord
100
AcDbBlockTableRecord
  2
*D8
340
0
  0
BLOCK_RECORD
  5
9FAE8
330
1
100
AcDbSymbolTableRecord
100
AcDbBlockTableRecord
  2
*D9
340
0
  0
BLOCK_RECORD
  5
9FAF5
330
1
100
AcDbSymbolTableRecord
100
AcDbBlockTableRecord
  2
*D10
340
0
  0
BLOCK_RECORD
  5
9FB3D
330
1
100
AcDbSymbolTableRecord
100
AcDbBlockTableRecord
  2
*D11
340
0
  0
BLOCK_RECORD
  5
9FB51
330
1
100
AcDbSymbolTableRecord
100
AcDbBlockTableRecord
  2
*D12
340
0
  0
BLOCK_RECORD
  5
9FBD1
330
1
100
AcDbSymbolTableRecord
100
AcDbBlockTableRecord
  2
*D13
340
0
  0
BLOCK_RECORD
  5
9FBDE
330
1
100
AcDbSymbolTableRecord
100
AcDbBlockTableRecord
  2
*D14
340
0
  0
BLOCK_RECORD
  5
9FC4C
330
1
100
AcDbSymbolTableRecord
100
AcDbBlockTableRecord
  2
*D15
340
0
  0
BLOCK_RECORD
  5
9FC63
330
1
100
AcDbSymbolTableRecord
100
AcDbBlockTableRecord
  2
*D16
340
0
  0
BLOCK_RECORD
  5
9FC70
330
1
100
AcDbSymbolTableRecord
100
AcDbBlockTableRecord
  2
*D17
340
0
  0
BLOCK_RECORD
  5
9FC7E
330
1
100
AcDbSymbolTableRecord
100
AcDbBlockTableRecord
  2
*D18
340
0
  0
BLOCK_RECORD
  5
9FC8B
330
1
100
AcDbSymbolTableRecord
100
AcDbBlockTableRecord
  2
*D19
340
0
  0
BLOCK_RECORD
  5
9FDED
330
1
100
AcDbSymbolTableRecord
100
AcDbBlockTableRecord
  2
*D20
340
0
  0
BLOCK_RECORD
  5
A03C2
330
1
100
AcDbSymbolTableRecord
100
AcDbBlockTableRecord
  2
*D21
340
0
  0
BLOCK_RECORD
  5
A03F3
330
1
100
AcDbSymbolTableRecord
100
AcDbBlockTableRecord
  2
*D22
340
0
  0
BLOCK_RECORD
  5
A0402
330
1
100
AcDbSymbolTableRecord
100
AcDbBlockTableRecord
  2
*D23
340
0
  0
BLOCK_RECORD
  5
A040F
330
1
100
AcDbSymbolTableRecord
100
AcDbBlockTableRecord
  2
*D24
340
0
  0
BLOCK_RECORD
  5
A041E
330
1
100
AcDbSymbolTableRecord
100
AcDbBlockTableRecord
  2
*D25
340
0
  0
BLOCK_RECORD
  5
A044A
330
1
100
AcDbSymbolTableRecord
100
AcDbBlockTableRecord
  2
*D26
340
0
  0
BLOCK_RECORD
  5
A0469
330
1
100
AcDbSymbolTableRecord
100
AcDbBlockTableRecord
  2
*D27
340
0
  0
BLOCK_RECORD
  5
A0488
330
1
100
AcDbSymbolTableRecord
100
AcDbBlockTableRecord
  2
*D28
340
0
  0
BLOCK_RECORD
  5
A04A8
330
1
100
AcDbSymbolTableRecord
100
AcDbBlockTableRecord
  2
*D29
340
0
  0
BLOCK_RECORD
  5
A04BF
330
1
100
AcDbSymbolTableRecord
100
AcDbBlockTableRecord
  2
*D30
340
0
  0
BLOCK_RECORD
  5
A04DA
330
1
100
AcDbSymbolTableRecord
100
AcDbBlockTableRecord
  2
*D31
340
0
  0
BLOCK_RECORD
  5
A04F0
330
1
100
AcDbSymbolTableRecord
100
AcDbBlockTableRecord
  2
*D32
340
0
  0
BLOCK_RECORD
  5
A0508
330
1
100
AcDbSymbolTableRecord
100
AcDbBlockTableRecord
  2
*D33
340
0
  0
BLOCK_RECORD
  5
A0515
330
1
100
AcDbSymbolTableRecord
100
AcDbBlockTableRecord
  2
*D34
340
0
  0
BLOCK_RECORD
  5
A0535
330
1
100
AcDbSymbolTableRecord
100
AcDbBlockTableRecord
  2
*D35
340
0
  0
BLOCK_RECORD
  5
A0543
330
1
100
AcDbSymbolTableRecord
100
AcDbBlockTableRecord
  2
*D36
340
0
  0
BLOCK_RECORD
  5
A056E
330
1
100
AcDbSymbolTableRecord
100
AcDbBlockTableRecord
  2
*D37
340
0
  0
BLOCK_RECORD
  5
A057D
330
1
100
AcDbSymbolTableRecord
100
AcDbBlockTableRecord
  2
*D38
340
0
  0
BLOCK_RECORD
  5
A058C
330
1
100
AcDbSymbolTableRecord
100
AcDbBlockTableRecord
  2
*D39
340
0
  0
BLOCK_RECORD
  5
A0599
330
1
100
AcDbSymbolTableRecord
100
AcDbBlockTableRecord
  2
*D40
340
0
  0
BLOCK_RECORD
  5
A0904
330
1
100
AcDbSymbolTableRecord
100
AcDbBlockTableRecord
  2
*D41
340
0
  0
BLOCK_RECORD
  5
A0910
330
1
100
AcDbSymbolTableRecord
100
AcDbBlockTableRecord
  2
*D42
340
0
  0
BLOCK_RECORD
  5
A091E
330
1
100
AcDbSymbolTableRecord
100
AcDbBlockTableRecord
  2
*D43
340
0
  0
BLOCK_RECORD
  5
A092A
330
1
100
AcDbSymbolTableRecord
100
AcDbBlockTableRecord
  2
*D44
340
0
  0
BLOCK_RECORD
  5
A0936
330
1
100
AcDbSymbolTableRecord
100
AcDbBlockTableRecord
  2
*D45
340
0
  0
BLOCK_RECORD
  5
A0943
330
1
100
AcDbSymbolTableRecord
100
AcDbBlockTableRecord
  2
*D46
340
0
  0
BLOCK_RECORD
  5
A094F
330
1
100
AcDbSymbolTableRecord
100
AcDbBlockTableRecord
  2
*D47
340
0
  0
BLOCK_RECORD
  5
A095B
330
1
100
AcDbSymbolTableRecord
100
AcDbBlockTableRecord
  2
*D48
340
0
  0
BLOCK_RECORD
  5
A0968
330
1
100
AcDbSymbolTableRecord
100
AcDbBlockTableRecord
  2
*D49
340
0
  0
BLOCK_RECORD
  5
A0976
330
1
100
AcDbSymbolTableRecord
100
AcDbBlockTableRecord
  2
*D50
340
0
  0
BLOCK_RECORD
  5
A0983
330
1
100
AcDbSymbolTableRecord
100
AcDbBlockTableRecord
  2
*D51
340
0
  0
BLOCK_RECORD
  5
A0990
330
1
100
AcDbSymbolTableRecord
100
AcDbBlockTableRecord
  2
*D52
340
0
  0
BLOCK_RECORD
  5
A099C
330
1
100
AcDbSymbolTableRecord
100
AcDbBlockTableRecord
  2
*D53
340
0
  0
BLOCK_RECORD
  5
A09A8
330
1
100
AcDbSymbolTableRecord
100
AcDbBlockTableRecord
  2
*D54
340
0
  0
BLOCK_RECORD
  5
A0AF2
330
1
100
AcDbSymbolTableRecord
100
AcDbBlockTableRecord
  2
*D56
340
0
  0
BLOCK_RECORD
  5
A0B00
330
1
100
AcDbSymbolTableRecord
100
AcDbBlockTableRecord
  2
*D57
340
0
  0
BLOCK_RECORD
  5
A0B0C
330
1
100
AcDbSymbolTableRecord
100
AcDbBlockTableRecord
  2
*D58
340
0
  0
BLOCK_RECORD
  5
A0B1A
330
1
100
AcDbSymbolTableRecord
100
AcDbBlockTableRecord
  2
*D59
340
0
  0
BLOCK_RECORD
  5
A0B26
330
1
100
AcDbSymbolTableRecord
100
AcDbBlockTableRecord
  2
*D60
340
0
  0
BLOCK_RECORD
  5
A0B32
330
1
100
AcDbSymbolTableRecord
100
AcDbBlockTableRecord
  2
*D61
340
0
  0
BLOCK_RECORD
  5
A0B3F
330
1
100
AcDbSymbolTableRecord
100
AcDbBlockTableRecord
  2
*D62
340
0
  0
BLOCK_RECORD
  5
A0B4B
330
1
100
AcDbSymbolTableRecord
100
AcDbBlockTableRecord
  2
*D63
340
0
  0
BLOCK_RECORD
  5
A0B57
330
1
100
AcDbSymbolTableRecord
100
AcDbBlockTableRecord
  2
*D64
340
0
  0
BLOCK_RECORD
  5
A0B64
330
1
100
AcDbSymbolTableRecord
100
AcDbBlockTableRecord
  2
*D65
340
0
  0
BLOCK_RECORD
  5
A0B72
330
1
100
AcDbSymbolTableRecord
100
AcDbBlockTableRecord
  2
*D66
340
0
  0
BLOCK_RECORD
  5
A0B7F
330
1
100
AcDbSymbolTableRecord
100
AcDbBlockTableRecord
  2
*D67
340
0
  0
BLOCK_RECORD
  5
A0B8C
330
1
100
AcDbSymbolTableRecord
100
AcDbBlockTableRecord
  2
*D68
340
0
  0
BLOCK_RECORD
  5
A0B98
330
1
100
AcDbSymbolTableRecord
100
AcDbBlockTableRecord
  2
*D69
340
0
  0
ENDTAB
  0
ENDSEC
  0
SECTION
  2
BLOCKS
  0
BLOCK
  5
1F
330
1E
100
AcDbEntity
  8
0
100
AcDbBlockBegin
  2
*MODEL_SPACE
 70
     0
 10
0.0
 20
0.0
 30
0.0
  3
*MODEL_SPACE
  1

  0
ENDBLK
  5
20
330
1E
100
AcDbEntity
  8
0
100
AcDbBlockEnd
  0
BLOCK
  5
1B
330
1A
100
AcDbEntity
 67
     1
  8
0
100
AcDbBlockBegin
  2
*PAPER_SPACE
 70
     0
 10
0.0
 20
0.0
 30
0.0
  3
*PAPER_SPACE
  1

  0
ENDBLK
  5
1C
330
1A
100
AcDbEntity
 67
     1
  8
0
100
AcDbBlockEnd
  0
BLOCK
  5
47
330
46
100
AcDbEntity
  8
0
100
AcDbBlockBegin
  2
_ORIGIN
 70
     0
 10
0.0
 20
0.0
 30
0.0
  3
_ORIGIN
  1

  0
CIRCLE
  5
48
330
46
100
AcDbEntity
  8
0
  6
ByBlock
 62
     0
100
AcDbCircle
 10
0.0
 20
0.0
 30
0.0
 40
0.5
  0
LINE
  5
49
330
46
100
AcDbEntity
  8
0
  6
ByBlock
 62
     0
100
AcDbLine
 10
0.0
 20
0.0
 30
0.0
 11
-1.0
 21
0.0
 31
0.0
  0
ENDBLK
  5
4A
330
46
100
AcDbEntity
  8
0
100
AcDbBlockEnd
  0
BLOCK
  5
9F197
330
9F196
100
AcDbEntity
  8
0
100
AcDbBlockBegin
  2
*D1
 70
     1
 10
0.0
 20
0.0
 30
0.0
  3
*D1
  1

  0
LINE
  5
9F198
330
9F196
100
AcDbEntity
  8
SIZE
 62
     0
440
 16777216
370
    -2
100
AcDbLine
 10
0.0
 20
-0.0625
 30
0.0
 11
-0.0000000000000168
 21
-274.7194519988704
 31
0.0
  0
LINE
  5
9F199
330
9F196
100
AcDbEntity
  8
SIZE
 62
     0
440
 16777216
370
    -2
100
AcDbLine
 10
344.0
 20
-393.9375
 30
0.0
 11
344.0
 21
-274.3594519988704
 31
0.0
  0
LINE
  5
9F19A
330
9F196
100
AcDbEntity
  8
SIZE
 62
     0
440
 16777216
370
    -2
100
AcDbLine
 10
9.999999999999984
 20
-274.5394519988704
 30
0.0
 11
334.0
 21
-274.5394519988704
 31
0.0
  0
INSERT
  5
9F19B
330
9F196
100
AcDbEntity
  8
SIZE
 62
     0
440
 16777216
370
    -2
100
AcDbBlockReference
  2
_ORIGIN
 10
-0.0000000000000168
 20
-274.5394519988704
 30
0.0
 41
10.0
 42
10.0
 43
10.0
 50
180.0
  0
INSERT
  5
9F19C
330
9F196
100
AcDbEntity
  8
SIZE
 62
     0
440
 16777216
370
    -2
100
AcDbBlockReference
  2
_ORIGIN
 10
344.0
 20
-274.5394519988704
 30
0.0
 41
10.0
 42
10.0
 43
10.0
  0
MTEXT
  5
9F19D
330
9F196
100
AcDbEntity
  8
SIZE
 62
     0
440
 16777216
100
AcDbMText
 10
172.0
 20
-224.5394519988704
 30
0.0
 40
80.0
 41
0.0
 71
     5
 72
     1
  1
\A1;344
  7
VERTICAL MS PGothic
 73
     1
 44
1.0
  0
POINT
  5
9F19E
330
9F196
100
AcDbEntity
  8
DEFPOINTS
 62
     0
440
 16777216
100
AcDbPoint
 10
0.0
 20
0.0
 30
0.0
  0
POINT
  5
9F19F
330
9F196
100
AcDbEntity
  8
DEFPOINTS
 62
     0
440
 16777216
100
AcDbPoint
 10
344.0
 20
-394.0
 30
0.0
  0
POINT
  5
9F1A0
330
9F196
100
AcDbEntity
  8
DEFPOINTS
 62
     0
440
 16777216
100
AcDbPoint
 10
344.0
 20
-274.5394519988704
 30
0.0
  0
ENDBLK
  5
9F1A1
330
9F196
100
AcDbEntity
  8
0
100
AcDbBlockEnd
  0
BLOCK
  5
9F39C
330
9F39B
100
AcDbEntity
  8
0
100
AcDbBlockBegin
  2
*D2
 70
     1
 10
0.0
 20
0.0
 30
0.0
  3
*D2
  1

  0
LINE
  5
9F39E
330
9F39B
100
AcDbEntity
  8
SIZE
 62
     0
440
 16777216
370
    -2
100
AcDbLine
 10
2427.347186045995
 20
-433.0535031256045
 30
0.0
 11
2427.347186045995
 21
-707.7104551244749
 31
0.0
  0
LINE
  5
9F39F
330
9F39B
100
AcDbEntity
  8
SIZE
 62
     0
440
 16777216
370
    -2
100
AcDbLine
 10
2771.347186045995
 20
-826.9285031256046
 30
0.0
 11
2771.347186045995
 21
-707.3504551244749
 31
0.0
  0
LINE
  5
9F3A0
330
9F39B
100
AcDbEntity
  8
SIZE
 62
     0
440
 16777216
370
    -2
100
AcDbLine
 10
2427.527186045995
 20
-707.5304551244751
 30
0.0
 11
2598.701757474567
 21
-707.5304551244751
 31
0.0
  0
LINE
  5
9F3A1
330
9F39B
100
AcDbEntity
  8
SIZE
 62
     0
440
 16777216
370
    -2
100
AcDbLine
 10
2771.167186045995
 20
-707.5304551244751
 30
0.0
 11
2599.992614617424
 21
-707.5304551244751
 31
0.0
  0
SOLID
  5
9F3A2
330
9F39B
100
AcDbEntity
  8
SIZE
 62
     0
440
 16777216
100
AcDbTrace
 10
2427.527186045995
 20
-707.5004551244751
 30
0.0
 11
2427.527186045995
 21
-707.5604551244751
 31
0.0
 12
2427.347186045995
 22
-707.5304551244751
 32
0.0
 13
2427.347186045995
 23
-707.5304551244751
 33
0.0
  0
SOLID
  5
9F3A3
330
9F39B
100
AcDbEntity
  8
SIZE
 62
     0
440
 16777216
100
AcDbTrace
 10
2771.167186045995
 20
-707.5004551244751
 30
0.0
 11
2771.167186045995
 21
-707.5604551244751
 31
0.0
 12
2771.347186045995
 22
-707.5304551244751
 32
0.0
 13
2771.347186045995
 23
-707.5304551244751
 33
0.0
  0
MTEXT
  5
9F3A4
330
9F39B
100
AcDbEntity
  8
SIZE
 62
     0
440
 16777216
100
AcDbMText
 10
2599.347186045995
 20
-707.5304551244751
 30
0.0
 40
0.18
 41
0.0
 71
     5
 72
     1
  1
\A1;344.0000
 73
     1
 44
1.0
  0
POINT
  5
9F3A5
330
9F39B
100
AcDbEntity
  8
DEFPOINTS
 62
     0
440
 16777216
100
AcDbPoint
 10
2427.347186045995
 20
-432.9910031256047
 30
0.0
  0
POINT
  5
9F3A6
330
9F39B
100
AcDbEntity
  8
DEFPOINTS
 62
     0
440
 16777216
100
AcDbPoint
 10
2771.347186045995
 20
-826.9910031256047
 30
0.0
  0
POINT
  5
9F3A7
330
9F39B
100
AcDbEntity
  8
DEFPOINTS
 62
     0
440
 16777216
100
AcDbPoint
 10
2771.347186045995
 20
-707.5304551244751
 30
0.0
  0
ENDBLK
  5
9F39D
330
9F39B
100
AcDbEntity
  8
0
100
AcDbBlockEnd
  0
BLOCK
  5
9F8F3
330
9F8F2
100
AcDbEntity
  8
0
100
AcDbBlockBegin
  2
*D3
 70
     1
 10
0.0
 20
0.0
 30
0.0
  3
*D3
  1

  0
LINE
  5
9F8F4
330
9F8F2
100
AcDbEntity
  8
SIZE
 62
     0
440
 16777216
370
    -2
100
AcDbLine
 10
-475.0
 20
475.0
 30
0.0
 11
-706.4801260605307
 21
475.0
 31
0.0
  0
LINE
  5
9F8F5
330
9F8F2
100
AcDbEntity
  8
SIZE
 62
     0
440
 16777216
370
    -2
100
AcDbLine
 10
-475.0
 20
-475.0
 30
0.0
 11
-706.4801260605307
 21
-474.9999999999998
 31
0.0
  0
LINE
  5
9F8F6
330
9F8F2
100
AcDbEntity
  8
SIZE
 62
     0
440
 16777216
370
    -2
100
AcDbLine
 10
-676.4801260605306
 20
473.0
 30
0.0
 11
-676.4801260605309
 21
-472.9999999999998
 31
0.0
  0
SOLID
  5
9F8F7
330
9F8F2
100
AcDbEntity
  8
SIZE
 62
     0
440
 16777216
100
AcDbTrace
 10
-676.813459393864
 20
473.0
 30
0.0
 11
-676.1467927271972
 21
473.0
 31
0.0
 12
-676.4801260605306
 22
475.0
 32
0.0
 13
-676.4801260605306
 23
475.0
 33
0.0
  0
SOLID
  5
9F8F8
330
9F8F2
100
AcDbEntity
  8
SIZE
 62
     0
440
 16777216
100
AcDbTrace
 10
-676.8134593938643
 20
-472.9999999999998
 30
0.0
 11
-676.1467927271975
 21
-472.9999999999998
 31
0.0
 12
-676.4801260605309
 22
-474.9999999999998
 32
0.0
 13
-676.4801260605309
 23
-474.9999999999998
 33
0.0
  0
MTEXT
  5
9F8F9
330
9F8F2
100
AcDbEntity
  8
SIZE
 62
     0
440
 16777216
100
AcDbMText
 10
-708.5701260605307
 20
-0.0000000000000683
 30
0.0
 40
64.0
 41
0.0
 71
     5
 72
     1
  1
\A1;950
 11
0.0000000000000001
 21
1.0
 31
0.0
 73
     1
 44
1.0
  0
POINT
  5
9F8FA
330
9F8F2
100
AcDbEntity
  8
DEFPOINTS
 62
     0
440
 16777216
100
AcDbPoint
 10
-455.0
 20
475.0
 30
0.0
  0
POINT
  5
9F8FB
330
9F8F2
100
AcDbEntity
  8
DEFPOINTS
 62
     0
440
 16777216
100
AcDbPoint
 10
-455.0
 20
-475.0
 30
0.0
  0
POINT
  5
9F8FC
330
9F8F2
100
AcDbEntity
  8
DEFPOINTS
 62
     0
440
 16777216
100
AcDbPoint
 10
-676.4801260605309
 20
-474.9999999999998
 30
0.0
  0
ENDBLK
  5
9F8FD
330
9F8F2
100
AcDbEntity
  8
0
100
AcDbBlockEnd
  0
BLOCK
  5
9F9E0
330
9F9DF
100
AcDbEntity
  8
0
100
AcDbBlockBegin
  2
*D4
 70
     1
 10
0.0
 20
0.0
 30
0.0
  3
*D4
  1

  0
LINE
  5
9F9EB
330
9F9DF
100
AcDbEntity
  8
SIZE
 62
     0
440
 16777216
370
    -2
100
AcDbLine
 10
9307.26698302136
 20
2568.906152471492
 30
0.0
 11
9075.78685696083
 21
2568.906152471492
 31
0.0
  0
LINE
  5
9F9EC
330
9F9DF
100
AcDbEntity
  8
SIZE
 62
     0
440
 16777216
370
    -2
100
AcDbLine
 10
9307.26698302136
 20
1618.906152471491
 30
0.0
 11
9075.78685696083
 21
1618.906152471491
 31
0.0
  0
LINE
  5
9F9ED
330
9F9DF
100
AcDbEntity
  8
SIZE
 62
     0
440
 16777216
370
    -2
100
AcDbLine
 10
9105.786856960827
 20
2566.906152471491
 30
0.0
 11
9105.786856960827
 21
1620.906152471491
 31
0.0
  0
SOLID
  5
9F9EE
330
9F9DF
100
AcDbEntity
  8
SIZE
 62
     0
440
 16777216
100
AcDbTrace
 10
9105.453523627497
 20
2566.906152471491
 30
0.0
 11
9106.120190294163
 21
2566.906152471491
 31
0.0
 12
9105.786856960827
 22
2568.906152471492
 32
0.0
 13
9105.786856960827
 23
2568.906152471492
 33
0.0
  0
SOLID
  5
9F9EF
330
9F9DF
100
AcDbEntity
  8
SIZE
 62
     0
440
 16777216
100
AcDbTrace
 10
9105.453523627497
 20
1620.906152471491
 30
0.0
 11
9106.120190294163
 21
1620.906152471491
 31
0.0
 12
9105.786856960827
 22
1618.906152471491
 32
0.0
 13
9105.786856960827
 23
1618.906152471491
 33
0.0
  0
MTEXT
  5
9F9F0
330
9F9DF
100
AcDbEntity
  8
SIZE
 62
     0
440
 16777216
100
AcDbMText
 10
9073.696856960827
 20
2093.906152471493
 30
0.0
 40
64.0
 41
0.0
 71
     5
 72
     1
  1
\A1;950
 11
0.0000000000000001
 21
1.0
 31
0.0
 73
     1
 44
1.0
  0
POINT
  5
9F9F1
330
9F9DF
100
AcDbEntity
  8
DEFPOINTS
 62
     0
440
 16777216
100
AcDbPoint
 10
9327.26698302136
 20
2568.906152471492
 30
0.0
  0
POINT
  5
9F9F2
330
9F9DF
100
AcDbEntity
  8
DEFPOINTS
 62
     0
440
 16777216
100
AcDbPoint
 10
9327.26698302136
 20
1618.906152471491
 30
0.0
  0
POINT
  5
9F9F3
330
9F9DF
100
AcDbEntity
  8
DEFPOINTS
 62
     0
440
 16777216
100
AcDbPoint
 10
9105.786856960827
 20
1618.906152471491
 30
0.0
  0
ENDBLK
  5
9F9E1
330
9F9DF
100
AcDbEntity
  8
0
100
AcDbBlockEnd
  0
BLOCK
  5
9FA9F
330
9FA9E
100
AcDbEntity
  8
0
100
AcDbBlockBegin
  2
*D5
 70
     1
 10
0.0
 20
0.0
 30
0.0
  3
*D5
  1

  0
LINE
  5
9FAAA
330
9FA9E
100
AcDbEntity
  8
SIZE
 62
     0
440
 16777216
370
    -2
100
AcDbLine
 10
-397.4999999999982
 20
65.00000000000007
 30
0.0
 11
-397.4999999999982
 21
-306.9486043160105
 31
0.0
  0
LINE
  5
9FAAB
330
9FA9E
100
AcDbEntity
  8
SIZE
 62
     0
440
 16777216
370
    -2
100
AcDbLine
 10
397.5000000000018
 20
65.00000000000007
 30
0.0
 11
397.5000000000018
 21
-306.9486043160105
 31
0.0
  0
LINE
  5
9FAAC
330
9FA9E
100
AcDbEntity
  8
SIZE
 62
     0
440
 16777216
370
    -2
100
AcDbLine
 10
-387.4999999999982
 20
-286.9486043160105
 30
0.0
 11
387.5000000000018
 21
-286.9486043160105
 31
0.0
  0
INSERT
  5
9FAAD
330
9FA9E
100
AcDbEntity
  8
SIZE
 62
     0
440
 16777216
370
    -2
100
AcDbBlockReference
  2
_ORIGIN
 10
-397.4999999999982
 20
-286.9486043160105
 30
0.0
 41
10.0
 42
10.0
 43
10.0
 50
180.0
  0
INSERT
  5
9FAAE
330
9FA9E
100
AcDbEntity
  8
SIZE
 62
     0
440
 16777216
370
    -2
100
AcDbBlockReference
  2
_ORIGIN
 10
397.5000000000018
 20
-286.9486043160105
 30
0.0
 41
10.0
 42
10.0
 43
10.0
  0
MTEXT
  5
9FAAF
330
9FA9E
100
AcDbEntity
  8
SIZE
 62
     0
440
 16777216
100
AcDbMText
 10
-292.6484050126092
 20
-251.9486043160104
 30
0.0
 40
50.0
 41
0.0
 71
     5
 72
     1
  1
\A1;795
 73
     1
 44
1.0
  0
POINT
  5
9FAB0
330
9FA9E
100
AcDbEntity
  8
DEFPOINTS
 62
     0
440
 16777216
100
AcDbPoint
 10
-397.4999999999982
 20
85.00000000000005
 30
0.0
  0
POINT
  5
9FAB1
330
9FA9E
100
AcDbEntity
  8
DEFPOINTS
 62
     0
440
 16777216
100
AcDbPoint
 10
397.5000000000018
 20
85.00000000000005
 30
0.0
  0
POINT
  5
9FAB2
330
9FA9E
100
AcDbEntity
  8
DEFPOINTS
 62
     0
440
 16777216
100
AcDbPoint
 10
397.5000000000018
 20
-286.9486043160105
 30
0.0
  0
ENDBLK
  5
9FAA0
330
9FA9E
100
AcDbEntity
  8
0
100
AcDbBlockEnd
  0
BLOCK
  5
9FAB5
330
9FAB4
100
AcDbEntity
  8
0
100
AcDbBlockBegin
  2
*D6
 70
     1
 10
0.0
 20
0.0
 30
0.0
  3
*D6
  1

  0
LINE
  5
9FAB7
330
9FAB4
100
AcDbEntity
  8
SIZE
 62
     0
440
 16777216
370
    -2
100
AcDbLine
 10
-475.0
 20
-60.0
 30
0.0
 11
-475.0
 21
-397.957797839088
 31
0.0
  0
LINE
  5
9FAB8
330
9FAB4
100
AcDbEntity
  8
SIZE
 62
     0
440
 16777216
370
    -2
100
AcDbLine
 10
474.9999999999992
 20
-60.0
 30
0.0
 11
474.9999999999992
 21
-397.957797839088
 31
0.0
  0
LINE
  5
9FAB9
330
9FAB4
100
AcDbEntity
  8
SIZE
 62
     0
440
 16777216
370
    -2
100
AcDbLine
 10
-465.0
 20
-377.957797839088
 30
0.0
 11
464.9999999999991
 21
-377.957797839088
 31
0.0
  0
INSERT
  5
9FABA
330
9FAB4
100
AcDbEntity
  8
SIZE
 62
     0
440
 16777216
370
    -2
100
AcDbBlockReference
  2
_ORIGIN
 10
-475.0
 20
-377.957797839088
 30
0.0
 41
10.0
 42
10.0
 43
10.0
 50
180.0
  0
INSERT
  5
9FABB
330
9FAB4
100
AcDbEntity
  8
SIZE
 62
     0
440
 16777216
370
    -2
100
AcDbBlockReference
  2
_ORIGIN
 10
474.9999999999992
 20
-377.957797839088
 30
0.0
 41
10.0
 42
10.0
 43
10.0
  0
MTEXT
  5
9FABC
330
9FAB4
100
AcDbEntity
  8
SIZE
 62
     0
440
 16777216
100
AcDbMText
 10
-0.0000000000004242
 20
-342.9577978390879
 30
0.0
 40
50.0
 41
0.0
 71
     5
 72
     1
  1
\A1;950
 73
     1
 44
1.0
  0
POINT
  5
9FABD
330
9FAB4
100
AcDbEntity
  8
DEFPOINTS
 62
     0
440
 16777216
100
AcDbPoint
 10
-475.0
 20
-40.0
 30
0.0
  0
POINT
  5
9FABE
330
9FAB4
100
AcDbEntity
  8
DEFPOINTS
 62
     0
440
 16777216
100
AcDbPoint
 10
474.9999999999992
 20
-40.0
 30
0.0
  0
POINT
  5
9FABF
330
9FAB4
100
AcDbEntity
  8
DEFPOINTS
 62
     0
440
 16777216
100
AcDbPoint
 10
474.9999999999992
 20
-377.957797839088
 30
0.0
  0
ENDBLK
  5
9FAB6
330
9FAB4
100
AcDbEntity
  8
0
100
AcDbBlockEnd
  0
BLOCK
  5
9FAC2
330
9FAC1
100
AcDbEntity
  8
0
100
AcDbBlockBegin
  2
*D7
 70
     1
 10
0.0
 20
0.0
 30
0.0
  3
*D7
  1

  0
LINE
  5
9FC2D
330
9FAC1
100
AcDbEntity
  8
SIZE
 62
     0
440
 16777216
370
    -2
100
AcDbLine
 10
494.9999999999991
 20
-40.0
 30
0.0
 11
720.2188174838957
 21
-40.00000000000007
 31
0.0
  0
LINE
  5
9FC2E
330
9FAC1
100
AcDbEntity
  8
SIZE
 62
     0
440
 16777216
370
    -2
100
AcDbLine
 10
494.9999999999991
 20
-0.0000000000000057
 30
0.0
 11
720.2188174838957
 21
-0.0000000000000695
 31
0.0
  0
LINE
  5
9FC2F
330
9FAC1
100
AcDbEntity
  8
SIZE
 62
     0
440
 16777216
370
    -2
100
AcDbLine
 10
700.2188174838956
 20
-10.00000000000006
 30
0.0
 11
700.2188174838956
 21
-30.00000000000007
 31
0.0
  0
LINE
  5
9FC30
330
9FAC1
100
AcDbEntity
  8
SIZE
 62
     0
440
 16777216
370
    -2
100
AcDbLine
 10
700.2188174838956
 20
-40.00000000000006
 30
0.0
 11
700.2188174838956
 21
-175.9032992642632
 31
0.0
  0
INSERT
  5
9FC31
330
9FAC1
100
AcDbEntity
  8
SIZE
 62
     0
440
 16777216
370
    -2
100
AcDbBlockReference
  2
_ORIGIN
 10
700.2188174838956
 20
-0.0000000000000638
 30
0.0
 41
10.0
 42
10.0
 43
10.0
 50
90.0
  0
INSERT
  5
9FC32
330
9FAC1
100
AcDbEntity
  8
SIZE
 62
     0
440
 16777216
370
    -2
100
AcDbBlockReference
  2
_ORIGIN
 10
700.2188174838956
 20
-40.00000000000006
 30
0.0
 41
10.0
 42
10.0
 43
10.0
 50
270.0
  0
MTEXT
  5
9FC33
330
9FAC1
100
AcDbEntity
  8
SIZE
 62
     0
440
 16777216
100
AcDbMText
 10
665.2188174838957
 20
-129.4747278356917
 30
0.0
 40
50.0
 41
0.0
 71
     5
 72
     1
  1
\A1;40
 11
0.0000000000000001
 21
1.0
 31
0.0
 73
     1
 44
1.0
  0
POINT
  5
9FC34
330
9FAC1
100
AcDbEntity
  8
DEFPOINTS
 62
     0
440
 16777216
100
AcDbPoint
 10
474.9999999999992
 20
-40.0
 30
0.0
  0
POINT
  5
9FC35
330
9FAC1
100
AcDbEntity
  8
DEFPOINTS
 62
     0
440
 16777216
100
AcDbPoint
 10
474.9999999999992
 20
0.0
 30
0.0
  0
POINT
  5
9FC36
330
9FAC1
100
AcDbEntity
  8
DEFPOINTS
 62
     0
440
 16777216
100
AcDbPoint
 10
700.2188174838956
 20
-0.0000000000000638
 30
0.0
  0
ENDBLK
  5
9FAC3
330
9FAC1
100
AcDbEntity
  8
0
100
AcDbBlockEnd
  0
BLOCK
  5
9FADC
330
9FADB
100
AcDbEntity
  8
0
100
AcDbBlockBegin
  2
*D8
 70
     1
 10
0.0
 20
0.0
 30
0.0
  3
*D8
  1

  0
LINE
  5
9FC1B
330
9FADB
100
AcDbEntity
  8
SIZE
 62
     0
440
 16777216
370
    -2
100
AcDbLine
 10
494.9999999999991
 20
-0.0000000000000057
 30
0.0
 11
1008.829955895351
 21
-0.0000000000001512
 31
0.0
  0
LINE
  5
9FC1C
330
9FADB
100
AcDbEntity
  8
SIZE
 62
     0
440
 16777216
370
    -2
100
AcDbLine
 10
445.0
 20
263.0000000000001
 30
0.0
 11
1008.829955895351
 21
262.9999999999999
 31
0.0
  0
LINE
  5
9FC1D
330
9FADB
100
AcDbEntity
  8
SIZE
 62
     0
440
 16777216
370
    -2
100
AcDbLine
 10
988.8299558953512
 20
9.999999999999849
 30
0.0
 11
988.8299558953512
 21
252.9999999999999
 31
0.0
  0
INSERT
  5
9FC1E
330
9FADB
100
AcDbEntity
  8
SIZE
 62
     0
440
 16777216
370
    -2
100
AcDbBlockReference
  2
_ORIGIN
 10
988.8299558953512
 20
-0.0000000000001456
 30
0.0
 41
10.0
 42
10.0
 43
10.0
 50
270.0
  0
INSERT
  5
9FC1F
330
9FADB
100
AcDbEntity
  8
SIZE
 62
     0
440
 16777216
370
    -2
100
AcDbBlockReference
  2
_ORIGIN
 10
988.8299558953514
 20
262.9999999999999
 30
0.0
 41
10.0
 42
10.0
 43
10.0
 50
90.0
  0
MTEXT
  5
9FC20
330
9FADB
100
AcDbEntity
  8
SIZE
 62
     0
440
 16777216
100
AcDbMText
 10
953.8299558953513
 20
131.2206015191914
 30
0.0
 40
50.0
 41
0.0
 71
     5
 72
     1
  1
\A1;263
 11
0.0000000000000001
 21
1.0
 31
0.0
 73
     1
 44
1.0
  0
POINT
  5
9FC21
330
9FADB
100
AcDbEntity
  8
DEFPOINTS
 62
     0
440
 16777216
100
AcDbPoint
 10
474.9999999999992
 20
0.0
 30
0.0
  0
POINT
  5
9FC22
330
9FADB
100
AcDbEntity
  8
DEFPOINTS
 62
     0
440
 16777216
100
AcDbPoint
 10
425.0
 20
263.0000000000001
 30
0.0
  0
POINT
  5
9FC23
330
9FADB
100
AcDbEntity
  8
DEFPOINTS
 62
     0
440
 16777216
100
AcDbPoint
 10
988.8299558953514
 20
262.9999999999999
 30
0.0
  0
ENDBLK
  5
9FADD
330
9FADB
100
AcDbEntity
  8
0
100
AcDbBlockEnd
  0
BLOCK
  5
9FAE9
330
9FAE8
100
AcDbEntity
  8
0
100
AcDbBlockBegin
  2
*D9
 70
     1
 10
0.0
 20
0.0
 30
0.0
  3
*D9
  1

  0
LINE
  5
9FC42
330
9FAE8
100
AcDbEntity
  8
SIZE
 62
     0
440
 16777216
370
    -2
100
AcDbLine
 10
445.0
 20
17.0
 30
0.0
 11
856.8341723524063
 21
16.99999999999988
 31
0.0
  0
LINE
  5
9FC43
330
9FAE8
100
AcDbEntity
  8
SIZE
 62
     0
440
 16777216
370
    -2
100
AcDbLine
 10
445.0
 20
263.0000000000001
 30
0.0
 11
856.8341723524063
 21
263.0
 31
0.0
  0
LINE
  5
9FC44
330
9FAE8
100
AcDbEntity
  8
SIZE
 62
     0
440
 16777216
370
    -2
100
AcDbLine
 10
836.8341723524062
 20
26.99999999999989
 30
0.0
 11
836.8341723524062
 21
253.0
 31
0.0
  0
INSERT
  5
9FC45
330
9FAE8
100
AcDbEntity
  8
SIZE
 62
     0
440
 16777216
370
    -2
100
AcDbBlockReference
  2
_ORIGIN
 10
836.8341723524062
 20
16.99999999999988
 30
0.0
 41
10.0
 42
10.0
 43
10.0
 50
270.0
  0
INSERT
  5
9FC46
330
9FAE8
100
AcDbEntity
  8
SIZE
 62
     0
440
 16777216
370
    -2
100
AcDbBlockReference
  2
_ORIGIN
 10
836.8341723524062
 20
263.0
 30
0.0
 41
10.0
 42
10.0
 43
10.0
 50
90.0
  0
MTEXT
  5
9FC47
330
9FAE8
100
AcDbEntity
  8
SIZE
 62
     0
440
 16777216
100
AcDbMText
 10
801.8341723524061
 20
126.9277771138622
 30
0.0
 40
50.0
 41
0.0
 71
     5
 72
     1
  1
\A1;246
 11
0.0000000000000001
 21
1.0
 31
0.0
 73
     1
 44
1.0
  0
POINT
  5
9FC48
330
9FAE8
100
AcDbEntity
  8
DEFPOINTS
 62
     0
440
 16777216
100
AcDbPoint
 10
425.0
 20
17.0
 30
0.0
  0
POINT
  5
9FC49
330
9FAE8
100
AcDbEntity
  8
DEFPOINTS
 62
     0
440
 16777216
100
AcDbPoint
 10
425.0
 20
263.0000000000001
 30
0.0
  0
POINT
  5
9FC4A
330
9FAE8
100
AcDbEntity
  8
DEFPOINTS
 62
     0
440
 16777216
100
AcDbPoint
 10
836.8341723524062
 20
263.0
 30
0.0
  0
ENDBLK
  5
9FAEA
330
9FAE8
100
AcDbEntity
  8
0
100
AcDbBlockEnd
  0
BLOCK
  5
9FAF6
330
9FAF5
100
AcDbEntity
  8
0
100
AcDbBlockBegin
  2
*D10
 70
     1
 10
0.0
 20
0.0
 30
0.0
  3
*D10
  1

  0
LINE
  5
9FB25
330
9FAF5
100
AcDbEntity
  8
SIZE
 62
     0
440
 16777216
370
    -2
100
AcDbLine
 10
494.9999999999991
 20
-0.0000000000000057
 30
0.0
 11
687.509286290493
 21
-0.0000000000000602
 31
0.0
  0
LINE
  5
9FB26
330
9FAF5
100
AcDbEntity
  8
SIZE
 62
     0
440
 16777216
370
    -2
100
AcDbLine
 10
445.0
 20
17.0
 30
0.0
 11
687.509286290493
 21
16.99999999999992
 31
0.0
  0
LINE
  5
9FB27
330
9FAF5
100
AcDbEntity
  8
SIZE
 62
     0
440
 16777216
370
    -2
100
AcDbLine
 10
667.509286290493
 20
26.99999999999993
 30
0.0
 11
667.509286290493
 21
36.99999999999994
 31
0.0
  0
LINE
  5
9FB28
330
9FAF5
100
AcDbEntity
  8
SIZE
 62
     0
440
 16777216
370
    -2
100
AcDbLine
 10
667.509286290493
 20
-10.00000000000005
 30
0.0
 11
667.509286290493
 21
-216.5793620748249
 31
0.0
  0
LINE
  5
9FB29
330
9FAF5
100
AcDbEntity
  8
SIZE
 62
     0
440
 16777216
370
    -2
100
AcDbLine
 10
667.509286290493
 20
16.99999999999993
 30
0.0
 11
667.509286290493
 21
-0.0000000000000545
 31
0.0
  0
INSERT
  5
9FB2A
330
9FAF5
100
AcDbEntity
  8
SIZE
 62
     0
440
 16777216
370
    -2
100
AcDbBlockReference
  2
_ORIGIN
 10
667.509286290493
 20
16.99999999999993
 30
0.0
 41
10.0
 42
10.0
 43
10.0
 50
270.0
  0
INSERT
  5
9FB2B
330
9FAF5
100
AcDbEntity
  8
SIZE
 62
     0
440
 16777216
370
    -2
100
AcDbBlockReference
  2
_ORIGIN
 10
667.509286290493
 20
-0.0000000000000545
 30
0.0
 41
10.0
 42
10.0
 43
10.0
 50
90.0
  0
MTEXT
  5
9FB2C
330
9FAF5
100
AcDbEntity
  8
SIZE
 62
     0
440
 16777216
100
AcDbMText
 10
632.509286290493
 20
-174.4365049319676
 30
0.0
 40
50.0
 41
0.0
 71
     5
 72
     1
  1
\A1;17
 11
0.0000000000000001
 21
1.0
 31
0.0
 73
     1
 44
1.0
  0
POINT
  5
9FB2D
330
9FAF5
100
AcDbEntity
  8
DEFPOINTS
 62
     0
440
 16777216
100
AcDbPoint
 10
474.9999999999992
 20
0.0
 30
0.0
  0
POINT
  5
9FB2E
330
9FAF5
100
AcDbEntity
  8
DEFPOINTS
 62
     0
440
 16777216
100
AcDbPoint
 10
425.0
 20
17.0
 30
0.0
  0
POINT
  5
9FB2F
330
9FAF5
100
AcDbEntity
  8
DEFPOINTS
 62
     0
440
 16777216
100
AcDbPoint
 10
667.509286290493
 20
16.99999999999993
 30
0.0
  0
ENDBLK
  5
9FAF7
330
9FAF5
100
AcDbEntity
  8
0
100
AcDbBlockEnd
  0
BLOCK
  5
9FB3E
330
9FB3D
100
AcDbEntity
  8
0
100
AcDbBlockBegin
  2
*D11
 70
     1
 10
0.0
 20
0.0
 30
0.0
  3
*D11
  1

  0
LINE
  5
9FB3F
330
9FB3D
100
AcDbEntity
  8
SIZE
 62
     0
440
 16777216
370
    -2
100
AcDbLine
 10
437.5
 20
330.0624999999999
 30
0.0
 11
804.9320885464986
 21
330.0624999999998
 31
0.0
  0
LINE
  5
9FB40
330
9FB3D
100
AcDbEntity
  8
SIZE
 62
     0
440
 16777216
370
    -2
100
AcDbLine
 10
445.0
 20
-329.9375000000001
 30
0.0
 11
804.9320885464984
 21
-329.9375000000002
 31
0.0
  0
LINE
  5
9FB41
330
9FB3D
100
AcDbEntity
  8
SIZE
 62
     0
440
 16777216
370
    -2
100
AcDbLine
 10
784.9320885464987
 20
320.0624999999998
 30
0.0
 11
784.9320885464984
 21
-319.9375000000002
 31
0.0
  0
INSERT
  5
9FB42
330
9FB3D
100
AcDbEntity
  8
SIZE
 62
     0
440
 16777216
370
    -2
100
AcDbBlockReference
  2
_ORIGIN
 10
784.9320885464987
 20
330.0624999999998
 30
0.0
 41
10.0
 42
10.0
 43
10.0
 50
90.0
  0
INSERT
  5
9FB43
330
9FB3D
100
AcDbEntity
  8
SIZE
 62
     0
440
 16777216
370
    -2
100
AcDbBlockReference
  2
_ORIGIN
 10
784.9320885464984
 20
-329.9375000000002
 30
0.0
 41
10.0
 42
10.0
 43
10.0
 50
270.0
  0
MTEXT
  5
9FB44
330
9FB3D
100
AcDbEntity
  8
SIZE
 62
     0
440
 16777216
100
AcDbMText
 10
734.0987552131648
 20
0.0624999999999704
 30
0.0
 40
50.0
 41
0.0
 71
     5
 72
     1
  1
\A1;660{\H0.7x;\S+40^  0;}
 11
0.0000000000000001
 21
1.0
 31
0.0
 73
     1
 44
1.0
  0
POINT
  5
9FB45
330
9FB3D
100
AcDbEntity
  8
DEFPOINTS
 62
     0
440
 16777216
100
AcDbPoint
 10
417.4999999999998
 20
330.0624999999999
 30
0.0
  0
POINT
  5
9FB46
330
9FB3D
100
AcDbEntity
  8
DEFPOINTS
 62
     0
440
 16777216
100
AcDbPoint
 10
425.0
 20
-329.9375000000001
 30
0.0
  0
POINT
  5
9FB47
330
9FB3D
100
AcDbEntity
  8
DEFPOINTS
 62
     0
440
 16777216
100
AcDbPoint
 10
784.9320885464984
 20
-329.9375000000002
 30
0.0
  0
ENDBLK
  5
9FB48
330
9FB3D
100
AcDbEntity
  8
0
100
AcDbBlockEnd
  0
BLOCK
  5
9FB52
330
9FB51
100
AcDbEntity
  8
0
100
AcDbBlockBegin
  2
*D12
 70
     1
 10
0.0
 20
0.0
 30
0.0
  3
*D12
  1

  0
LINE
  5
9FC37
330
9FB51
100
AcDbEntity
  8
SIZE
 62
     0
440
 16777216
370
    -2
100
AcDbLine
 10
445.0
 20
17.0
 30
0.0
 11
856.8341723524063
 21
16.99999999999988
 31
0.0
  0
LINE
  5
9FC38
330
9FB51
100
AcDbEntity
  8
SIZE
 62
     0
440
 16777216
370
    -2
100
AcDbLine
 10
494.9999999999991
 20
-0.0000000000000057
 30
0.0
 11
856.8341723524063
 21
-0.0000000000001082
 31
0.0
  0
LINE
  5
9FC39
330
9FB51
100
AcDbEntity
  8
SIZE
 62
     0
440
 16777216
370
    -2
100
AcDbLine
 10
836.8341723524062
 20
26.99999999999989
 30
0.0
 11
836.8341723524062
 21
36.99999999999989
 31
0.0
  0
LINE
  5
9FC3A
330
9FB51
100
AcDbEntity
  8
SIZE
 62
     0
440
 16777216
370
    -2
100
AcDbLine
 10
836.8341723524062
 20
-10.0000000000001
 30
0.0
 11
836.8341723524062
 21
-225.3546629072745
 31
0.0
  0
LINE
  5
9FC3B
330
9FB51
100
AcDbEntity
  8
SIZE
 62
     0
440
 16777216
370
    -2
100
AcDbLine
 10
836.8341723524062
 20
16.99999999999988
 30
0.0
 11
836.8341723524062
 21
-0.0000000000001025
 31
0.0
  0
INSERT
  5
9FC3C
330
9FB51
100
AcDbEntity
  8
SIZE
 62
     0
440
 16777216
370
    -2
100
AcDbBlockReference
  2
_ORIGIN
 10
836.8341723524062
 20
16.99999999999988
 30
0.0
 41
10.0
 42
10.0
 43
10.0
 50
270.0
  0
INSERT
  5
9FC3D
330
9FB51
100
AcDbEntity
  8
SIZE
 62
     0
440
 16777216
370
    -2
100
AcDbBlockReference
  2
_ORIGIN
 10
836.8341723524062
 20
-0.0000000000001025
 30
0.0
 41
10.0
 42
10.0
 43
10.0
 50
90.0
  0
MTEXT
  5
9FC3E
330
9FB51
100
AcDbEntity
  8
SIZE
 62
     0
440
 16777216
100
AcDbMText
 10
786.0008390190727
 20
-146.7832343358458
 30
0.0
 40
50.0
 41
0.0
 71
     5
 72
     1
  1
\A1;17{\H0.7x;\S+5^  0;}
 11
0.0000000000000001
 21
1.0
 31
0.0
 73
     1
 44
1.0
  0
POINT
  5
9FC3F
330
9FB51
100
AcDbEntity
  8
DEFPOINTS
 62
     0
440
 16777216
100
AcDbPoint
 10
425.0
 20
17.0
 30
0.0
  0
POINT
  5
9FC40
330
9FB51
100
AcDbEntity
  8
DEFPOINTS
 62
     0
440
 16777216
100
AcDbPoint
 10
474.9999999999992
 20
0.0
 30
0.0
  0
POINT
  5
9FC41
330
9FB51
100
AcDbEntity
  8
DEFPOINTS
 62
     0
440
 16777216
100
AcDbPoint
 10
836.8341723524062
 20
-0.0000000000001025
 30
0.0
  0
ENDBLK
  5
9FB53
330
9FB51
100
AcDbEntity
  8
0
100
AcDbBlockEnd
  0
BLOCK
  5
9FBD2
330
9FBD1
100
AcDbEntity
  8
0
100
AcDbBlockBegin
  2
*D13
 70
     1
 10
0.0
 20
0.0
 30
0.0
  3
*D13
  1

  0
LINE
  5
9FC24
330
9FBD1
100
AcDbEntity
  8
SIZE
 62
     0
440
 16777216
370
    -2
100
AcDbLine
 10
494.9999999999991
 20
-0.0000000000000057
 30
0.0
 11
720.2188174838957
 21
-0.0000000000000695
 31
0.0
  0
LINE
  5
9FC25
330
9FBD1
100
AcDbEntity
  8
SIZE
 62
     0
440
 16777216
370
    -2
100
AcDbLine
 10
384.0
 20
190.0
 30
0.0
 11
720.2188174838957
 21
189.9999999999999
 31
0.0
  0
LINE
  5
9FC26
330
9FBD1
100
AcDbEntity
  8
SIZE
 62
     0
440
 16777216
370
    -2
100
AcDbLine
 10
700.2188174838956
 20
9.999999999999936
 30
0.0
 11
700.2188174838956
 21
180.0
 31
0.0
  0
INSERT
  5
9FC27
330
9FBD1
100
AcDbEntity
  8
SIZE
 62
     0
440
 16777216
370
    -2
100
AcDbBlockReference
  2
_ORIGIN
 10
700.2188174838956
 20
-0.0000000000000638
 30
0.0
 41
10.0
 42
10.0
 43
10.0
 50
270.0
  0
INSERT
  5
9FC28
330
9FBD1
100
AcDbEntity
  8
SIZE
 62
     0
440
 16777216
370
    -2
100
AcDbBlockReference
  2
_ORIGIN
 10
700.2188174838956
 20
190.0
 30
0.0
 41
10.0
 42
10.0
 43
10.0
 50
90.0
  0
MTEXT
  5
9FC29
330
9FBD1
100
AcDbEntity
  8
SIZE
 62
     0
440
 16777216
100
AcDbMText
 10
665.2188174838957
 20
110.6150443736151
 30
0.0
 40
50.0
 41
0.0
 71
     5
 72
     1
  1
\A1;190
 11
0.0000000000000001
 21
1.0
 31
0.0
 73
     1
 44
1.0
  0
POINT
  5
9FC2A
330
9FBD1
100
AcDbEntity
  8
DEFPOINTS
 62
     0
440
 16777216
100
AcDbPoint
 10
474.9999999999992
 20
0.0
 30
0.0
  0
POINT
  5
9FC2B
330
9FBD1
100
AcDbEntity
  8
DEFPOINTS
 62
     0
440
 16777216
100
AcDbPoint
 10
364.0
 20
190.0
 30
0.0
  0
POINT
  5
9FC2C
330
9FBD1
100
AcDbEntity
  8
DEFPOINTS
 62
     0
440
 16777216
100
AcDbPoint
 10
700.2188174838956
 20
190.0
 30
0.0
  0
ENDBLK
  5
9FBD3
330
9FBD1
100
AcDbEntity
  8
0
100
AcDbBlockEnd
  0
BLOCK
  5
9FBDF
330
9FBDE
100
AcDbEntity
  8
0
100
AcDbBlockBegin
  2
*D14
 70
     1
 10
0.0
 20
0.0
 30
0.0
  3
*D14
  1

  0
LINE
  5
9FBEB
330
9FBDE
100
AcDbEntity
  8
SIZE
 62
     0
440
 16777216
370
    -2
100
AcDbLine
 10
437.4999999999992
 20
105.0
 30
0.0
 11
611.1306910524725
 21
105.0
 31
0.0
  0
LINE
  5
9FBEC
330
9FBDE
100
AcDbEntity
  8
SIZE
 62
     0
440
 16777216
370
    -2
100
AcDbLine
 10
494.9999999999991
 20
-0.0000000000000057
 30
0.0
 11
611.1306910524725
 21
-0.0000000000000386
 31
0.0
  0
LINE
  5
9FBED
330
9FBDE
100
AcDbEntity
  8
SIZE
 62
     0
440
 16777216
370
    -2
100
AcDbLine
 10
591.1306910524728
 20
95.0
 30
0.0
 11
591.1306910524728
 21
9.999999999999966
 31
0.0
  0
LINE
  5
9FBEE
330
9FBDE
100
AcDbEntity
  8
SIZE
 62
     0
440
 16777216
370
    -2
100
AcDbLine
 10
591.1306910524728
 20
-0.0000000000000329
 30
0.0
 11
591.1306910524728
 21
-147.8506962080257
 31
0.0
  0
INSERT
  5
9FBEF
330
9FBDE
100
AcDbEntity
  8
SIZE
 62
     0
440
 16777216
370
    -2
100
AcDbBlockReference
  2
_ORIGIN
 10
591.1306910524728
 20
105.0
 30
0.0
 41
10.0
 42
10.0
 43
10.0
 50
90.0
  0
INSERT
  5
9FBF0
330
9FBDE
100
AcDbEntity
  8
SIZE
 62
     0
440
 16777216
370
    -2
100
AcDbBlockReference
  2
_ORIGIN
 10
591.1306910524728
 20
-0.0000000000000329
 30
0.0
 41
10.0
 42
10.0
 43
10.0
 50
270.0
  0
MTEXT
  5
9FBF1
330
9FBDE
100
AcDbEntity
  8
SIZE
 62
     0
440
 16777216
100
AcDbMText
 10
556.1306910524725
 20
-84.27926763659705
 30
0.0
 40
50.0
 41
0.0
 71
     5
 72
     1
  1
\A1;105
 11
0.0000000000000001
 21
1.0
 31
0.0
 73
     1
 44
1.0
  0
POINT
  5
9FBF2
330
9FBDE
100
AcDbEntity
  8
DEFPOINTS
 62
     0
440
 16777216
100
AcDbPoint
 10
417.499999999999
 20
105.0
 30
0.0
  0
POINT
  5
9FBF3
330
9FBDE
100
AcDbEntity
  8
DEFPOINTS
 62
     0
440
 16777216
100
AcDbPoint
 10
474.9999999999992
 20
0.0
 30
0.0
  0
POINT
  5
9FBF4
330
9FBDE
100
AcDbEntity
  8
DEFPOINTS
 62
     0
440
 16777216
100
AcDbPoint
 10
591.1306910524728
 20
-0.0000000000000329
 30
0.0
  0
ENDBLK
  5
9FBE0
330
9FBDE
100
AcDbEntity
  8
0
100
AcDbBlockEnd
  0
BLOCK
  5
9FC4D
330
9FC4C
100
AcDbEntity
  8
0
100
AcDbBlockBegin
  2
*D15
 70
     1
 10
0.0
 20
0.0
 30
0.0
  3
*D15
  1

  0
LINE
  5
9FC59
330
9FC4C
100
AcDbEntity
  8
SIZE
 62
     0
440
 16777216
370
    -2
100
AcDbLine
 10
-495.0
 20
0.0000000000000057
 30
0.0
 11
-581.681068684149
 21
0.0000000000000302
 31
0.0
  0
LINE
  5
9FC5A
330
9FC4C
100
AcDbEntity
  8
SIZE
 62
     0
440
 16777216
370
    -2
100
AcDbLine
 10
-324.0
 20
140.0000000000001
 30
0.0
 11
-581.681068684149
 21
140.0000000000001
 31
0.0
  0
LINE
  5
9FC5B
330
9FC4C
100
AcDbEntity
  8
SIZE
 62
     0
440
 16777216
370
    -2
100
AcDbLine
 10
-561.681068684149
 20
10.00000000000002
 30
0.0
 11
-561.681068684149
 21
130.0000000000001
 31
0.0
  0
INSERT
  5
9FC5C
330
9FC4C
100
AcDbEntity
  8
SIZE
 62
     0
440
 16777216
370
    -2
100
AcDbBlockReference
  2
_ORIGIN
 10
-561.681068684149
 20
0.0000000000000246
 30
0.0
 41
10.0
 42
10.0
 43
10.0
 50
270.0
  0
INSERT
  5
9FC5D
330
9FC4C
100
AcDbEntity
  8
SIZE
 62
     0
440
 16777216
370
    -2
100
AcDbBlockReference
  2
_ORIGIN
 10
-561.681068684149
 20
140.0000000000001
 30
0.0
 41
10.0
 42
10.0
 43
10.0
 50
90.0
  0
MTEXT
  5
9FC5E
330
9FC4C
100
AcDbEntity
  8
SIZE
 62
     0
440
 16777216
100
AcDbMText
 10
-596.681068684149
 20
70.00000000000001
 30
0.0
 40
50.0
 41
0.0
 71
     5
 72
     1
  1
\A1;140
 11
0.0000000000000001
 21
1.0
 31
0.0
 73
     1
 44
1.0
  0
POINT
  5
9FC5F
330
9FC4C
100
AcDbEntity
  8
DEFPOINTS
 62
     0
440
 16777216
100
AcDbPoint
 10
-475.0
 20
0.0
 30
0.0
  0
POINT
  5
9FC60
330
9FC4C
100
AcDbEntity
  8
DEFPOINTS
 62
     0
440
 16777216
100
AcDbPoint
 10
-304.0
 20
140.0
 30
0.0
  0
POINT
  5
9FC61
330
9FC4C
100
AcDbEntity
  8
DEFPOINTS
 62
     0
440
 16777216
100
AcDbPoint
 10
-561.681068684149
 20
140.0000000000001
 30
0.0
  0
ENDBLK
  5
9FC4E
330
9FC4C
100
AcDbEntity
  8
0
100
AcDbBlockEnd
  0
BLOCK
  5
9FC64
330
9FC63
100
AcDbEntity
  8
0
100
AcDbBlockBegin
  2
*D16
 70
     1
 10
0.0
 20
0.0
 30
0.0
  3
*D16
  1

  0
LINE
  5
9FC66
330
9FC63
100
AcDbEntity
  8
SIZE
 62
     0
440
 16777216
370
    -2
100
AcDbLine
 10
-495.0
 20
0.0000000000000057
 30
0.0
 11
-671.7341080470069
 21
0.0000000000000557
 31
0.0
  0
LINE
  5
9FC67
330
9FC63
100
AcDbEntity
  8
SIZE
 62
     0
440
 16777216
370
    -2
100
AcDbLine
 10
-384.0
 20
170.0
 30
0.0
 11
-671.7341080470069
 21
170.0000000000001
 31
0.0
  0
LINE
  5
9FC68
330
9FC63
100
AcDbEntity
  8
SIZE
 62
     0
440
 16777216
370
    -2
100
AcDbLine
 10
-651.7341080470067
 20
10.00000000000005
 30
0.0
 11
-651.7341080470067
 21
160.0000000000001
 31
0.0
  0
INSERT
  5
9FC69
330
9FC63
100
AcDbEntity
  8
SIZE
 62
     0
440
 16777216
370
    -2
100
AcDbBlockReference
  2
_ORIGIN
 10
-651.7341080470067
 20
0.0000000000000501
 30
0.0
 41
10.0
 42
10.0
 43
10.0
 50
270.0
  0
INSERT
  5
9FC6A
330
9FC63
100
AcDbEntity
  8
SIZE
 62
     0
440
 16777216
370
    -2
100
AcDbBlockReference
  2
_ORIGIN
 10
-651.7341080470067
 20
170.0000000000001
 30
0.0
 41
10.0
 42
10.0
 43
10.0
 50
90.0
  0
MTEXT
  5
9FC6B
330
9FC63
100
AcDbEntity
  8
SIZE
 62
     0
440
 16777216
100
AcDbMText
 10
-686.7341080470069
 20
85.0
 30
0.0
 40
50.0
 41
0.0
 71
     5
 72
     1
  1
\A1;170
 11
0.0000000000000001
 21
1.0
 31
0.0
 73
     1
 44
1.0
  0
POINT
  5
9FC6C
330
9FC63
100
AcDbEntity
  8
DEFPOINTS
 62
     0
440
 16777216
100
AcDbPoint
 10
-475.0
 20
0.0
 30
0.0
  0
POINT
  5
9FC6D
330
9FC63
100
AcDbEntity
  8
DEFPOINTS
 62
     0
440
 16777216
100
AcDbPoint
 10
-364.0
 20
170.0
 30
0.0
  0
POINT
  5
9FC6E
330
9FC63
100
AcDbEntity
  8
DEFPOINTS
 62
     0
440
 16777216
100
AcDbPoint
 10
-651.7341080470067
 20
170.0000000000001
 30
0.0
  0
ENDBLK
  5
9FC65
330
9FC63
100
AcDbEntity
  8
0
100
AcDbBlockEnd
  0
BLOCK
  5
9FC71
330
9FC70
100
AcDbEntity
  8
0
100
AcDbBlockBegin
  2
*D17
 70
     1
 10
0.0
 20
0.0
 30
0.0
  3
*D17
  1

  0
LINE
  5
9FC97
330
9FC70
100
AcDbEntity
  8
SIZE
 62
     0
440
 16777216
370
    -2
100
AcDbLine
 10
-284.0
 20
180.0
 30
0.0
 11
-284.0
 21
419.2378147440104
 31
0.0
  0
LINE
  5
9FC98
330
9FC70
100
AcDbEntity
  8
SIZE
 62
     0
440
 16777216
370
    -2
100
AcDbLine
 10
-344.0
 20
210.0
 30
0.0
 11
-344.0
 21
419.2378147440104
 31
0.0
  0
LINE
  5
9FC99
330
9FC70
100
AcDbEntity
  8
SIZE
 62
     0
440
 16777216
370
    -2
100
AcDbLine
 10
-294.0
 20
399.2378147440104
 30
0.0
 11
-334.0
 21
399.2378147440104
 31
0.0
  0
LINE
  5
9FC9A
330
9FC70
100
AcDbEntity
  8
SIZE
 62
     0
440
 16777216
370
    -2
100
AcDbLine
 10
-344.0
 20
399.2378147440104
 30
0.0
 11
-542.4114009343674
 21
399.2378147440104
 31
0.0
  0
INSERT
  5
9FC9B
330
9FC70
100
AcDbEntity
  8
SIZE
 62
     0
440
 16777216
370
    -2
100
AcDbBlockReference
  2
_ORIGIN
 10
-284.0
 20
399.2378147440104
 30
0.0
 41
10.0
 42
10.0
 43
10.0
  0
INSERT
  5
9FC9C
330
9FC70
100
AcDbEntity
  8
SIZE
 62
     0
440
 16777216
370
    -2
100
AcDbBlockReference
  2
_ORIGIN
 10
-344.0
 20
399.2378147440104
 30
0.0
 41
10.0
 42
10.0
 43
10.0
 50
180.0
  0
MTEXT
  5
9FC9D
330
9FC70
100
AcDbEntity
  8
SIZE
 62
     0
440
 16777216
100
AcDbMText
 10
-495.9828295057959
 20
434.2378147440103
 30
0.0
 40
50.0
 41
0.0
 71
     5
 72
     1
  1
\A1;60
 73
     1
 44
1.0
  0
POINT
  5
9FC9E
330
9FC70
100
AcDbEntity
  8
DEFPOINTS
 62
     0
440
 16777216
100
AcDbPoint
 10
-284.0
 20
160.0
 30
0.0
  0
POINT
  5
9FC9F
330
9FC70
100
AcDbEntity
  8
DEFPOINTS
 62
     0
440
 16777216
100
AcDbPoint
 10
-344.0
 20
190.0
 30
0.0
  0
POINT
  5
9FCA0
330
9FC70
100
AcDbEntity
  8
DEFPOINTS
 62
     0
440
 16777216
100
AcDbPoint
 10
-344.0
 20
399.2378147440104
 30
0.0
  0
ENDBLK
  5
9FC72
330
9FC70
100
AcDbEntity
  8
0
100
AcDbBlockEnd
  0
BLOCK
  5
9FC7F
330
9FC7E
100
AcDbEntity
  8
0
100
AcDbBlockBegin
  2
*D18
 70
     1
 10
0.0
 20
0.0
 30
0.0
  3
*D18
  1

  0
LINE
  5
9FCA1
330
9FC7E
100
AcDbEntity
  8
SIZE
 62
     0
440
 16777216
370
    -2
100
AcDbLine
 10
-284.0
 20
180.0
 30
0.0
 11
-284.0
 21
419.2378147440104
 31
0.0
  0
LINE
  5
9FCA2
330
9FC7E
100
AcDbEntity
  8
SIZE
 62
     0
440
 16777216
370
    -2
100
AcDbLine
 10
343.9999999999991
 20
230.0000000000001
 30
0.0
 11
343.9999999999991
 21
419.2378147440104
 31
0.0
  0
LINE
  5
9FCA3
330
9FC7E
100
AcDbEntity
  8
SIZE
 62
     0
440
 16777216
370
    -2
100
AcDbLine
 10
-274.0
 20
399.2378147440104
 30
0.0
 11
333.9999999999991
 21
399.2378147440104
 31
0.0
  0
INSERT
  5
9FCA4
330
9FC7E
100
AcDbEntity
  8
SIZE
 62
     0
440
 16777216
370
    -2
100
AcDbBlockReference
  2
_ORIGIN
 10
-284.0
 20
399.2378147440104
 30
0.0
 41
10.0
 42
10.0
 43
10.0
 50
180.0
  0
INSERT
  5
9FCA5
330
9FC7E
100
AcDbEntity
  8
SIZE
 62
     0
440
 16777216
370
    -2
100
AcDbBlockReference
  2
_ORIGIN
 10
343.9999999999991
 20
399.2378147440104
 30
0.0
 41
10.0
 42
10.0
 43
10.0
  0
MTEXT
  5
9FCA6
330
9FC7E
100
AcDbEntity
  8
SIZE
 62
     0
440
 16777216
100
AcDbMText
 10
29.99999999999955
 20
434.2378147440103
 30
0.0
 40
50.0
 41
0.0
 71
     5
 72
     1
  1
\A1;628
 73
     1
 44
1.0
  0
POINT
  5
9FCA7
330
9FC7E
100
AcDbEntity
  8
DEFPOINTS
 62
     0
440
 16777216
100
AcDbPoint
 10
-284.0
 20
160.0
 30
0.0
  0
POINT
  5
9FCA8
330
9FC7E
100
AcDbEntity
  8
DEFPOINTS
 62
     0
440
 16777216
100
AcDbPoint
 10
343.9999999999991
 20
210.0000000000001
 30
0.0
  0
POINT
  5
9FCA9
330
9FC7E
100
AcDbEntity
  8
DEFPOINTS
 62
     0
440
 16777216
100
AcDbPoint
 10
343.9999999999991
 20
399.2378147440104
 30
0.0
  0
ENDBLK
  5
9FC80
330
9FC7E
100
AcDbEntity
  8
0
100
AcDbBlockEnd
  0
BLOCK
  5
9FC8C
330
9FC8B
100
AcDbEntity
  8
0
100
AcDbBlockBegin
  2
*D19
 70
     1
 10
0.0
 20
0.0
 30
0.0
  3
*D19
  1

  0
LINE
  5
9FC8E
330
9FC8B
100
AcDbEntity
  8
SIZE
 62
     0
440
 16777216
370
    -2
100
AcDbLine
 10
-425.0
 20
282.9999999999996
 30
0.0
 11
-425.0
 21
531.8223292872971
 31
0.0
  0
LINE
  5
9FC8F
330
9FC8B
100
AcDbEntity
  8
SIZE
 62
     0
440
 16777216
370
    -2
100
AcDbLine
 10
425.0
 20
283.0
 30
0.0
 11
425.0
 21
531.8223292872971
 31
0.0
  0
LINE
  5
9FC90
330
9FC8B
100
AcDbEntity
  8
SIZE
 62
     0
440
 16777216
370
    -2
100
AcDbLine
 10
-415.0000000000002
 20
511.8223292872971
 30
0.0
 11
415.0
 21
511.8223292872971
 31
0.0
  0
INSERT
  5
9FC91
330
9FC8B
100
AcDbEntity
  8
SIZE
 62
     0
440
 16777216
370
    -2
100
AcDbBlockReference
  2
_ORIGIN
 10
-425.0
 20
511.8223292872971
 30
0.0
 41
10.0
 42
10.0
 43
10.0
 50
180.0
  0
INSERT
  5
9FC92
330
9FC8B
100
AcDbEntity
  8
SIZE
 62
     0
440
 16777216
370
    -2
100
AcDbBlockReference
  2
_ORIGIN
 10
425.0
 20
511.8223292872971
 30
0.0
 41
10.0
 42
10.0
 43
10.0
  0
MTEXT
  5
9FC93
330
9FC8B
100
AcDbEntity
  8
SIZE
 62
     0
440
 16777216
100
AcDbMText
 10
-0.0000000000000547
 20
546.8223292872972
 30
0.0
 40
50.0
 41
0.0
 71
     5
 72
     1
  1
\A1;850
 73
     1
 44
1.0
  0
POINT
  5
9FC94
330
9FC8B
100
AcDbEntity
  8
DEFPOINTS
 62
     0
440
 16777216
100
AcDbPoint
 10
-425.0
 20
262.9999999999997
 30
0.0
  0
POINT
  5
9FC95
330
9FC8B
100
AcDbEntity
  8
DEFPOINTS
 62
     0
440
 16777216
100
AcDbPoint
 10
425.0
 20
263.0000000000001
 30
0.0
  0
POINT
  5
9FC96
330
9FC8B
100
AcDbEntity
  8
DEFPOINTS
 62
     0
440
 16777216
100
AcDbPoint
 10
425.0
 20
511.8223292872971
 30
0.0
  0
ENDBLK
  5
9FC8D
330
9FC8B
100
AcDbEntity
  8
0
100
AcDbBlockEnd
  0
BLOCK
  5
9FDEE
330
9FDED
100
AcDbEntity
  8
0
100
AcDbBlockBegin
  2
*D20
 70
     1
 10
0.0
 20
0.0
 30
0.0
  3
*D20
  1

  0
LINE
  5
9FDEF
330
9FDED
100
AcDbEntity
  8
SIZE
 62
     0
440
 16777216
370
    -2
100
AcDbLine
 10
1338.318439469374
 20
412.0208729801733
 30
0.0
 11
1710.589234527666
 21
412.0208729801731
 31
0.0
  0
LINE
  5
9FDF0
330
9FDED
100
AcDbEntity
  8
SIZE
 62
     0
440
 16777216
370
    -2
100
AcDbLine
 10
1443.113216522235
 20
592.0208729801733
 30
0.0
 11
1710.589234527666
 21
592.0208729801733
 31
0.0
  0
LINE
  5
9FDF1
330
9FDED
100
AcDbEntity
  8
SIZE
 62
     0
440
 16777216
370
    -2
100
AcDbLine
 10
1690.589234527666
 20
422.0208729801733
 30
0.0
 11
1690.589234527666
 21
582.0208729801732
 31
0.0
  0
INSERT
  5
9FDF2
330
9FDED
100
AcDbEntity
  8
SIZE
 62
     0
440
 16777216
370
    -2
100
AcDbBlockReference
  2
_ORIGIN
 10
1690.589234527666
 20
412.0208729801731
 30
0.0
 41
10.0
 42
10.0
 43
10.0
 50
270.0
  0
INSERT
  5
9FDF3
330
9FDED
100
AcDbEntity
  8
SIZE
 62
     0
440
 16777216
370
    -2
100
AcDbBlockReference
  2
_ORIGIN
 10
1690.589234527666
 20
592.0208729801733
 30
0.0
 41
10.0
 42
10.0
 43
10.0
 50
90.0
  0
MTEXT
  5
9FDF4
330
9FDED
100
AcDbEntity
  8
SIZE
 62
     0
440
 16777216
100
AcDbMText
 10
1655.589234527666
 20
502.0208729801736
 30
0.0
 40
50.0
 41
0.0
 71
     5
 72
     1
  1
\A1;180
 11
0.0000000000000001
 21
1.0
 31
0.0
 73
     1
 44
1.0
  0
POINT
  5
9FDF5
330
9FDED
100
AcDbEntity
  8
DEFPOINTS
 62
     0
440
 16777216
100
AcDbPoint
 10
1318.318439469374
 20
412.0208729801733
 30
0.0
  0
POINT
  5
9FDF6
330
9FDED
100
AcDbEntity
  8
DEFPOINTS
 62
     0
440
 16777216
100
AcDbPoint
 10
1423.113216522235
 20
592.0208729801733
 30
0.0
  0
POINT
  5
9FDF7
330
9FDED
100
AcDbEntity
  8
DEFPOINTS
 62
     0
440
 16777216
100
AcDbPoint
 10
1690.589234527666
 20
592.0208729801733
 30
0.0
  0
ENDBLK
  5
9FDF8
330
9FDED
100
AcDbEntity
  8
0
100
AcDbBlockEnd
  0
BLOCK
  5
A03C3
330
A03C2
100
AcDbEntity
  8
0
100
AcDbBlockBegin
  2
*D21
 70
     1
 10
0.0
 20
0.0
 30
0.0
  3
*D21
  1

  0
LINE
  5
A07FF
330
A03C2
100
AcDbEntity
  8
SIZE
 62
     0
440
 16777216
370
    -2
100
AcDbLine
 10
508.9999999999982
 20
-184.0
 30
0.0
 11
881.27079505829
 21
-184.0000000000001
 31
0.0
  0
LINE
  5
A0800
330
A03C2
100
AcDbEntity
  8
SIZE
 62
     0
440
 16777216
370
    -2
100
AcDbLine
 10
613.7947770528588
 20
-0.0000000000000057
 30
0.0
 11
881.27079505829
 21
-0.0000000000000814
 31
0.0
  0
LINE
  5
A0801
330
A03C2
100
AcDbEntity
  8
SIZE
 62
     0
440
 16777216
370
    -2
100
AcDbLine
 10
861.2707950582899
 20
-174.0000000000001
 30
0.0
 11
861.2707950582899
 21
-10.00000000000007
 31
0.0
  0
INSERT
  5
A0802
330
A03C2
100
AcDbEntity
  8
SIZE
 62
     0
440
 16777216
370
    -2
100
AcDbBlockReference
  2
_ORIGIN
 10
861.2707950582899
 20
-184.0000000000001
 30
0.0
 41
10.0
 42
10.0
 43
10.0
 50
270.0
  0
INSERT
  5
A0803
330
A03C2
100
AcDbEntity
  8
SIZE
 62
     0
440
 16777216
370
    -2
100
AcDbBlockReference
  2
_ORIGIN
 10
861.2707950582899
 20
-0.0000000000000758
 30
0.0
 41
10.0
 42
10.0
 43
10.0
 50
90.0
  0
MTEXT
  5
A0804
330
A03C2
100
AcDbEntity
  8
SIZE
 62
     0
440
 16777216
100
AcDbMText
 10
826.2707950582898
 20
-91.99999999999995
 30
0.0
 40
50.0
 41
0.0
 71
     5
 72
     1
  1
\A1;184
 11
0.0000000000000001
 21
1.0
 31
0.0
 73
     1
 44
1.0
  0
POINT
  5
A0805
330
A03C2
100
AcDbEntity
  8
DEFPOINTS
 62
     0
440
 16777216
100
AcDbPoint
 10
488.9999999999981
 20
-184.0
 30
0.0
  0
POINT
  5
A0806
330
A03C2
100
AcDbEntity
  8
DEFPOINTS
 62
     0
440
 16777216
100
AcDbPoint
 10
593.7947770528588
 20
0.0
 30
0.0
  0
POINT
  5
A0807
330
A03C2
100
AcDbEntity
  8
DEFPOINTS
 62
     0
440
 16777216
100
AcDbPoint
 10
861.2707950582899
 20
-0.0000000000000758
 30
0.0
  0
ENDBLK
  5
A03C4
330
A03C2
100
AcDbEntity
  8
0
100
AcDbBlockEnd
  0
BLOCK
  5
A03F4
330
A03F3
100
AcDbEntity
  8
0
100
AcDbBlockBegin
  2
*D22
 70
     1
 10
0.0
 20
0.0
 30
0.0
  3
*D22
  1

  0
LINE
  5
A0808
330
A03F3
100
AcDbEntity
  8
SIZE
 62
     0
440
 16777216
370
    -2
100
AcDbLine
 10
-640.0
 20
-694.2441899999994
 30
0.0
 11
-640.0
 21
-1069.586658843022
 31
0.0
  0
LINE
  5
A0809
330
A03F3
100
AcDbEntity
  8
SIZE
 62
     0
440
 16777216
370
    -2
100
AcDbLine
 10
-641.9999999999983
 20
-468.3708800000021
 30
0.0
 11
-641.9999999999983
 21
-1069.586658843022
 31
0.0
  0
LINE
  5
A080A
330
A03F3
100
AcDbEntity
  8
SIZE
 62
     0
440
 16777216
370
    -2
100
AcDbLine
 10
-630.0
 20
-1049.586658843022
 30
0.0
 11
-620.0
 21
-1049.586658843022
 31
0.0
  0
LINE
  5
A080B
330
A03F3
100
AcDbEntity
  8
SIZE
 62
     0
440
 16777216
370
    -2
100
AcDbLine
 10
-651.999999999998
 20
-1049.586658843022
 30
0.0
 11
-711.9999999999983
 21
-1049.586658843022
 31
0.0
  0
LINE
  5
A080C
330
A03F3
100
AcDbEntity
  8
SIZE
 62
     0
440
 16777216
370
    -2
100
AcDbLine
 10
-640.0
 20
-1049.586658843022
 30
0.0
 11
-641.9999999999983
 21
-1049.586658843022
 31
0.0
  0
INSERT
  5
A080D
330
A03F3
100
AcDbEntity
  8
SIZE
 62
     0
440
 16777216
370
    -2
100
AcDbBlockReference
  2
_ORIGIN
 10
-640.0
 20
-1049.586658843022
 30
0.0
 41
10.0
 42
10.0
 43
10.0
 50
180.0
  0
INSERT
  5
A080E
330
A03F3
100
AcDbEntity
  8
SIZE
 62
     0
440
 16777216
370
    -2
100
AcDbBlockReference
  2
_ORIGIN
 10
-641.9999999999983
 20
-1049.586658843022
 30
0.0
 41
10.0
 42
10.0
 43
10.0
  0
MTEXT
  5
A080F
330
A03F3
100
AcDbEntity
  8
SIZE
 62
     0
440
 16777216
100
AcDbMText
 10
-686.9999999999983
 20
-1014.586658843022
 30
0.0
 40
50.0
 41
0.0
 71
     5
 72
     1
  1
\A1;2
 73
     1
 44
1.0
  0
POINT
  5
A0810
330
A03F3
100
AcDbEntity
  8
DEFPOINTS
 62
     0
440
 16777216
100
AcDbPoint
 10
-640.0
 20
-674.2441899999994
 30
0.0
  0
POINT
  5
A0811
330
A03F3
100
AcDbEntity
  8
DEFPOINTS
 62
     0
440
 16777216
100
AcDbPoint
 10
-641.9999999999983
 20
-448.3708800000022
 30
0.0
  0
POINT
  5
A0812
330
A03F3
100
AcDbEntity
  8
DEFPOINTS
 62
     0
440
 16777216
100
AcDbPoint
 10
-641.9999999999983
 20
-1049.586658843022
 30
0.0
  0
ENDBLK
  5
A03F5
330
A03F3
100
AcDbEntity
  8
0
100
AcDbBlockEnd
  0
BLOCK
  5
A0403
330
A0402
100
AcDbEntity
  8
0
100
AcDbBlockBegin
  2
*D23
 70
     1
 10
0.0
 20
0.0
 30
0.0
  3
*D23
  1

  0
LINE
  5
A0813
330
A0402
100
AcDbEntity
  8
SIZE
 62
     0
440
 16777216
370
    -2
100
AcDbLine
 10
-639.9999999999836
 20
-694.2441899999994
 30
0.0
 11
-639.9999999999836
 21
-1069.586658843022
 31
0.0
  0
LINE
  5
A0814
330
A0402
100
AcDbEntity
  8
SIZE
 62
     0
440
 16777216
370
    -2
100
AcDbLine
 10
639.9999999999907
 20
-694.2441899999994
 30
0.0
 11
639.9999999999907
 21
-1069.586658843022
 31
0.0
  0
LINE
  5
A0815
330
A0402
100
AcDbEntity
  8
SIZE
 62
     0
440
 16777216
370
    -2
100
AcDbLine
 10
-629.9999999999836
 20
-1049.586658843022
 30
0.0
 11
629.9999999999908
 21
-1049.586658843022
 31
0.0
  0
INSERT
  5
A0816
330
A0402
100
AcDbEntity
  8
SIZE
 62
     0
440
 16777216
370
    -2
100
AcDbBlockReference
  2
_ORIGIN
 10
-639.9999999999836
 20
-1049.586658843022
 30
0.0
 41
10.0
 42
10.0
 43
10.0
 50
180.0
  0
INSERT
  5
A0817
330
A0402
100
AcDbEntity
  8
SIZE
 62
     0
440
 16777216
370
    -2
100
AcDbBlockReference
  2
_ORIGIN
 10
639.9999999999907
 20
-1049.586658843022
 30
0.0
 41
10.0
 42
10.0
 43
10.0
  0
MTEXT
  5
A0818
330
A0402
100
AcDbEntity
  8
SIZE
 62
     0
440
 16777216
100
AcDbMText
 10
0.0000000000036401
 20
-1014.586658843022
 30
0.0
 40
50.0
 41
0.0
 71
     5
 72
     1
  1
\A1;1280
 73
     1
 44
1.0
  0
POINT
  5
A0819
330
A0402
100
AcDbEntity
  8
DEFPOINTS
 62
     0
440
 16777216
100
AcDbPoint
 10
-639.9999999999836
 20
-674.2441899999994
 30
0.0
  0
POINT
  5
A081A
330
A0402
100
AcDbEntity
  8
DEFPOINTS
 62
     0
440
 16777216
100
AcDbPoint
 10
639.9999999999907
 20
-674.2441899999994
 30
0.0
  0
POINT
  5
A081B
330
A0402
100
AcDbEntity
  8
DEFPOINTS
 62
     0
440
 16777216
100
AcDbPoint
 10
639.9999999999907
 20
-1049.586658843022
 30
0.0
  0
ENDBLK
  5
A0404
330
A0402
100
AcDbEntity
  8
0
100
AcDbBlockEnd
  0
BLOCK
  5
A0410
330
A040F
100
AcDbEntity
  8
0
100
AcDbBlockBegin
  2
*D24
 70
     1
 10
0.0
 20
0.0
 30
0.0
  3
*D24
  1

  0
LINE
  5
A081C
330
A040F
100
AcDbEntity
  8
SIZE
 62
     0
440
 16777216
370
    -2
100
AcDbLine
 10
640.0
 20
-694.2441899999994
 30
0.0
 11
640.0
 21
-1069.586658843022
 31
0.0
  0
LINE
  5
A081D
330
A040F
100
AcDbEntity
  8
SIZE
 62
     0
440
 16777216
370
    -2
100
AcDbLine
 10
641.9999999999983
 20
-468.3708800000021
 30
0.0
 11
641.9999999999983
 21
-1069.586658843022
 31
0.0
  0
LINE
  5
A081E
330
A040F
100
AcDbEntity
  8
SIZE
 62
     0
440
 16777216
370
    -2
100
AcDbLine
 10
630.0
 20
-1049.586658843022
 30
0.0
 11
620.0
 21
-1049.586658843022
 31
0.0
  0
LINE
  5
A081F
330
A040F
100
AcDbEntity
  8
SIZE
 62
     0
440
 16777216
370
    -2
100
AcDbLine
 10
651.999999999998
 20
-1049.586658843022
 30
0.0
 11
711.9999999999983
 21
-1049.586658843022
 31
0.0
  0
LINE
  5
A0820
330
A040F
100
AcDbEntity
  8
SIZE
 62
     0
440
 16777216
370
    -2
100
AcDbLine
 10
640.0
 20
-1049.586658843022
 30
0.0
 11
641.9999999999983
 21
-1049.586658843022
 31
0.0
  0
INSERT
  5
A0821
330
A040F
100
AcDbEntity
  8
SIZE
 62
     0
440
 16777216
370
    -2
100
AcDbBlockReference
  2
_ORIGIN
 10
640.0
 20
-1049.586658843022
 30
0.0
 41
10.0
 42
10.0
 43
10.0
  0
INSERT
  5
A0822
330
A040F
100
AcDbEntity
  8
SIZE
 62
     0
440
 16777216
370
    -2
100
AcDbBlockReference
  2
_ORIGIN
 10
641.9999999999983
 20
-1049.586658843022
 30
0.0
 41
10.0
 42
10.0
 43
10.0
 50
180.0
  0
MTEXT
  5
A0823
330
A040F
100
AcDbEntity
  8
SIZE
 62
     0
440
 16777216
100
AcDbMText
 10
686.9999999999983
 20
-1014.586658843022
 30
0.0
 40
50.0
 41
0.0
 71
     5
 72
     1
  1
\A1;2
 73
     1
 44
1.0
  0
POINT
  5
A0824
330
A040F
100
AcDbEntity
  8
DEFPOINTS
 62
     0
440
 16777216
100
AcDbPoint
 10
640.0
 20
-674.2441899999994
 30
0.0
  0
POINT
  5
A0825
330
A040F
100
AcDbEntity
  8
DEFPOINTS
 62
     0
440
 16777216
100
AcDbPoint
 10
641.9999999999983
 20
-448.3708800000022
 30
0.0
  0
POINT
  5
A0826
330
A040F
100
AcDbEntity
  8
DEFPOINTS
 62
     0
440
 16777216
100
AcDbPoint
 10
641.9999999999983
 20
-1049.586658843022
 30
0.0
  0
ENDBLK
  5
A0411
330
A040F
100
AcDbEntity
  8
0
100
AcDbBlockEnd
  0
BLOCK
  5
A041F
330
A041E
100
AcDbEntity
  8
0
100
AcDbBlockBegin
  2
*D25
 70
     1
 10
0.0
 20
0.0
 30
0.0
  3
*D25
  1

  0
LINE
  5
A0827
330
A041E
100
AcDbEntity
  8
SIZE
 62
     0
440
 16777216
370
    -2
100
AcDbLine
 10
641.9999999999983
 20
-467.6198762903158
 30
0.0
 11
641.9999999999983
 21
-1172.95274026621
 31
0.0
  0
LINE
  5
A0828
330
A041E
100
AcDbEntity
  8
SIZE
 62
     0
440
 16777216
370
    -2
100
AcDbLine
 10
-641.9999999999983
 20
-468.3708800000021
 30
0.0
 11
-641.9999999999983
 21
-1172.95274026621
 31
0.0
  0
LINE
  5
A0829
330
A041E
100
AcDbEntity
  8
SIZE
 62
     0
440
 16777216
370
    -2
100
AcDbLine
 10
631.999999999998
 20
-1152.95274026621
 30
0.0
 11
-631.999999999998
 21
-1152.95274026621
 31
0.0
  0
INSERT
  5
A082A
330
A041E
100
AcDbEntity
  8
SIZE
 62
     0
440
 16777216
370
    -2
100
AcDbBlockReference
  2
_ORIGIN
 10
641.9999999999983
 20
-1152.95274026621
 30
0.0
 41
10.0
 42
10.0
 43
10.0
  0
INSERT
  5
A082B
330
A041E
100
AcDbEntity
  8
SIZE
 62
     0
440
 16777216
370
    -2
100
AcDbBlockReference
  2
_ORIGIN
 10
-641.9999999999983
 20
-1152.95274026621
 30
0.0
 41
10.0
 42
10.0
 43
10.0
 50
180.0
  0
MTEXT
  5
A082C
330
A041E
100
AcDbEntity
  8
SIZE
 62
     0
440
 16777216
100
AcDbMText
 10
6.685577891969844
 20
-1117.95274026621
 30
0.0
 40
50.0
 41
0.0
 71
     5
 72
     1
  1
\A1;1284
 73
     1
 44
1.0
  0
POINT
  5
A082D
330
A041E
100
AcDbEntity
  8
DEFPOINTS
 62
     0
440
 16777216
100
AcDbPoint
 10
641.9999999999983
 20
-447.6198762903158
 30
0.0
  0
POINT
  5
A082E
330
A041E
100
AcDbEntity
  8
DEFPOINTS
 62
     0
440
 16777216
100
AcDbPoint
 10
-641.9999999999983
 20
-448.3708800000022
 30
0.0
  0
POINT
  5
A082F
330
A041E
100
AcDbEntity
  8
DEFPOINTS
 62
     0
440
 16777216
100
AcDbPoint
 10
-641.9999999999983
 20
-1152.95274026621
 30
0.0
  0
ENDBLK
  5
A0420
330
A041E
100
AcDbEntity
  8
0
100
AcDbBlockEnd
  0
BLOCK
  5
A044B
330
A044A
100
AcDbEntity
  8
0
100
AcDbBlockBegin
  2
*D26
 70
     1
 10
0.0
 20
0.0
 30
0.0
  3
*D26
  1

  0
LINE
  5
A0830
330
A044A
100
AcDbEntity
  8
SIZE
 62
     0
440
 16777216
370
    -2
100
AcDbLine
 10
-618.2999999999992
 20
-437.3354700000016
 30
0.0
 11
-618.2999999999992
 21
-962.2848756821859
 31
0.0
  0
LINE
  5
A0831
330
A044A
100
AcDbEntity
  8
SIZE
 62
     0
440
 16777216
370
    -2
100
AcDbLine
 10
618.7522900000021
 20
-440.0
 30
0.0
 11
618.7522900000021
 21
-962.2848756821859
 31
0.0
  0
LINE
  5
A0832
330
A044A
100
AcDbEntity
  8
SIZE
 62
     0
440
 16777216
370
    -2
100
AcDbLine
 10
-608.2999999999993
 20
-942.2848756821858
 30
0.0
 11
608.7522900000021
 21
-942.2848756821858
 31
0.0
  0
INSERT
  5
A0833
330
A044A
100
AcDbEntity
  8
SIZE
 62
     0
440
 16777216
370
    -2
100
AcDbBlockReference
  2
_ORIGIN
 10
-618.2999999999992
 20
-942.2848756821858
 30
0.0
 41
10.0
 42
10.0
 43
10.0
 50
180.0
  0
INSERT
  5
A0834
330
A044A
100
AcDbEntity
  8
SIZE
 62
     0
440
 16777216
370
    -2
100
AcDbBlockReference
  2
_ORIGIN
 10
618.7522900000021
 20
-942.2848756821858
 30
0.0
 41
10.0
 42
10.0
 43
10.0
  0
MTEXT
  5
A0835
330
A044A
100
AcDbEntity
  8
SIZE
 62
     0
440
 16777216
100
AcDbMText
 10
0.529104043215741
 20
-907.2848756821857
 30
0.0
 40
50.0
 41
0.0
 71
     5
 72
     1
  1
\A1;1237
 73
     1
 44
1.0
  0
POINT
  5
A0836
330
A044A
100
AcDbEntity
  8
DEFPOINTS
 62
     0
440
 16777216
100
AcDbPoint
 10
-618.2999999999992
 20
-417.3354700000015
 30
0.0
  0
POINT
  5
A0837
330
A044A
100
AcDbEntity
  8
DEFPOINTS
 62
     0
440
 16777216
100
AcDbPoint
 10
618.7522900000021
 20
-420.0
 30
0.0
  0
POINT
  5
A0838
330
A044A
100
AcDbEntity
  8
DEFPOINTS
 62
     0
440
 16777216
100
AcDbPoint
 10
618.7522900000021
 20
-942.2848756821858
 30
0.0
  0
ENDBLK
  5
A044C
330
A044A
100
AcDbEntity
  8
0
100
AcDbBlockEnd
  0
BLOCK
  5
A046A
330
A0469
100
AcDbEntity
  8
0
100
AcDbBlockBegin
  2
*D27
 70
     1
 10
0.0
 20
0.0
 30
0.0
  3
*D27
  1

  0
LINE
  5
A0839
330
A0469
100
AcDbEntity
  8
SIZE
 62
     0
440
 16777216
370
    -2
100
AcDbLine
 10
-616.6164118139159
 20
0.0000000000000057
 30
0.0
 11
-1138.248088995419
 21
0.0000000000001534
 31
0.0
  0
LINE
  5
A083A
330
A0469
100
AcDbEntity
  8
SIZE
 62
     0
440
 16777216
370
    -2
100
AcDbLine
 10
-620.0
 20
-679.855879999999
 30
0.0
 11
-1138.248088995419
 21
-679.8558799999987
 31
0.0
  0
LINE
  5
A083B
330
A0469
100
AcDbEntity
  8
SIZE
 62
     0
440
 16777216
370
    -2
100
AcDbLine
 10
-1118.248088995419
 20
-9.99999999999985
 30
0.0
 11
-1118.24808899542
 21
-669.8558799999988
 31
0.0
  0
INSERT
  5
A083C
330
A0469
100
AcDbEntity
  8
SIZE
 62
     0
440
 16777216
370
    -2
100
AcDbBlockReference
  2
_ORIGIN
 10
-1118.248088995419
 20
0.0000000000001478
 30
0.0
 41
10.0
 42
10.0
 43
10.0
 50
90.0
  0
INSERT
  5
A083D
330
A0469
100
AcDbEntity
  8
SIZE
 62
     0
440
 16777216
370
    -2
100
AcDbBlockReference
  2
_ORIGIN
 10
-1118.24808899542
 20
-679.8558799999987
 30
0.0
 41
10.0
 42
10.0
 43
10.0
 50
270.0
  0
MTEXT
  5
A083E
330
A0469
100
AcDbEntity
  8
SIZE
 62
     0
440
 16777216
100
AcDbMText
 10
-1153.248088995419
 20
-339.9279399999991
 30
0.0
 40
50.0
 41
0.0
 71
     5
 72
     1
  1
\A1;680
 11
0.0000000000000001
 21
1.0
 31
0.0
 73
     1
 44
1.0
  0
POINT
  5
A083F
330
A0469
100
AcDbEntity
  8
DEFPOINTS
 62
     0
440
 16777216
100
AcDbPoint
 10
-596.6164118139158
 20
0.0
 30
0.0
  0
POINT
  5
A0840
330
A0469
100
AcDbEntity
  8
DEFPOINTS
 62
     0
440
 16777216
100
AcDbPoint
 10
-600.0
 20
-679.855879999999
 30
0.0
  0
POINT
  5
A0841
330
A0469
100
AcDbEntity
  8
DEFPOINTS
 62
     0
440
 16777216
100
AcDbPoint
 10
-1118.24808899542
 20
-679.8558799999987
 30
0.0
  0
ENDBLK
  5
A046B
330
A0469
100
AcDbEntity
  8
0
100
AcDbBlockEnd
  0
BLOCK
  5
A0489
330
A0488
100
AcDbEntity
  8
0
100
AcDbBlockBegin
  2
*D28
 70
     1
 10
0.0
 20
0.0
 30
0.0
  3
*D28
  1

  0
LINE
  5
A0842
330
A0488
100
AcDbEntity
  8
SIZE
 62
     0
440
 16777216
370
    -2
100
AcDbLine
 10
-639.9999999999836
 20
-692.8832344693146
 30
0.0
 11
-639.9999999999836
 21
-814.6148464871576
 31
0.0
  0
LINE
  5
A0843
330
A0488
100
AcDbEntity
  8
SIZE
 62
     0
440
 16777216
370
    -2
100
AcDbLine
 10
-564.9999999999891
 20
-280.3782516082465
 30
0.0
 11
-564.9999999999891
 21
-814.6148464871576
 31
0.0
  0
LINE
  5
A0844
330
A0488
100
AcDbEntity
  8
SIZE
 62
     0
440
 16777216
370
    -2
100
AcDbLine
 10
-629.9999999999836
 20
-794.6148464871575
 30
0.0
 11
-574.9999999999889
 21
-794.6148464871575
 31
0.0
  0
LINE
  5
A0845
330
A0488
100
AcDbEntity
  8
SIZE
 62
     0
440
 16777216
370
    -2
100
AcDbLine
 10
-564.9999999999891
 20
-794.6148464871575
 30
0.0
 11
-462.1428571428461
 21
-794.6148464871575
 31
0.0
  0
INSERT
  5
A0846
330
A0488
100
AcDbEntity
  8
SIZE
 62
     0
440
 16777216
370
    -2
100
AcDbBlockReference
  2
_ORIGIN
 10
-639.9999999999836
 20
-794.6148464871575
 30
0.0
 41
10.0
 42
10.0
 43
10.0
 50
180.0
  0
INSERT
  5
A0847
330
A0488
100
AcDbEntity
  8
SIZE
 62
     0
440
 16777216
370
    -2
100
AcDbBlockReference
  2
_ORIGIN
 10
-564.9999999999891
 20
-794.6148464871575
 30
0.0
 41
10.0
 42
10.0
 43
10.0
  0
MTEXT
  5
A0848
330
A0488
100
AcDbEntity
  8
SIZE
 62
     0
440
 16777216
100
AcDbMText
 10
-508.5714285714176
 20
-759.6148464871576
 30
0.0
 40
50.0
 41
0.0
 71
     5
 72
     1
  1
\A1;75
 73
     1
 44
1.0
  0
POINT
  5
A0849
330
A0488
100
AcDbEntity
  8
DEFPOINTS
 62
     0
440
 16777216
100
AcDbPoint
 10
-639.9999999999836
 20
-672.8832344693146
 30
0.0
  0
POINT
  5
A084A
330
A0488
100
AcDbEntity
  8
DEFPOINTS
 62
     0
440
 16777216
100
AcDbPoint
 10
-564.9999999999891
 20
-260.3782516082465
 30
0.0
  0
POINT
  5
A084B
330
A0488
100
AcDbEntity
  8
DEFPOINTS
 62
     0
440
 16777216
100
AcDbPoint
 10
-564.9999999999891
 20
-794.6148464871575
 30
0.0
  0
ENDBLK
  5
A048A
330
A0488
100
AcDbEntity
  8
0
100
AcDbBlockEnd
  0
BLOCK
  5
A04A9
330
A04A8
100
AcDbEntity
  8
0
100
AcDbBlockBegin
  2
*D29
 70
     1
 10
0.0
 20
0.0
 30
0.0
  3
*D29
  1

  0
LINE
  5
A084C
330
A04A8
100
AcDbEntity
  8
SIZE
 62
     0
440
 16777216
370
    -2
100
AcDbLine
 10
-620.0
 20
0.0000000000000057
 30
0.0
 11
-1039.995954658402
 21
0.0000000000001246
 31
0.0
  0
LINE
  5
A084D
330
A04A8
100
AcDbEntity
  8
SIZE
 62
     0
440
 16777216
370
    -2
100
AcDbLine
 10
-657.3999999999978
 20
-80.0
 30
0.0
 11
-1039.995954658402
 21
-79.9999999999999
 31
0.0
  0
LINE
  5
A084E
330
A04A8
100
AcDbEntity
  8
SIZE
 62
     0
440
 16777216
370
    -2
100
AcDbLine
 10
-1019.995954658402
 20
-9.999999999999882
 30
0.0
 11
-1019.995954658402
 21
-69.9999999999999
 31
0.0
  0
INSERT
  5
A084F
330
A04A8
100
AcDbEntity
  8
SIZE
 62
     0
440
 16777216
370
    -2
100
AcDbBlockReference
  2
_ORIGIN
 10
-1019.995954658402
 20
0.000000000000119
 30
0.0
 41
10.0
 42
10.0
 43
10.0
 50
90.0
  0
INSERT
  5
A0850
330
A04A8
100
AcDbEntity
  8
SIZE
 62
     0
440
 16777216
370
    -2
100
AcDbBlockReference
  2
_ORIGIN
 10
-1019.995954658402
 20
-79.9999999999999
 30
0.0
 41
10.0
 42
10.0
 43
10.0
 50
270.0
  0
MTEXT
  5
A0851
330
A04A8
100
AcDbEntity
  8
SIZE
 62
     0
440
 16777216
100
AcDbMText
 10
-1054.995954658402
 20
-40.00000000000005
 30
0.0
 40
50.0
 41
0.0
 71
     5
 72
     1
  1
\A1;80
 11
0.0000000000000001
 21
1.0
 31
0.0
 73
     1
 44
1.0
  0
POINT
  5
A0852
330
A04A8
100
AcDbEntity
  8
DEFPOINTS
 62
     0
440
 16777216
100
AcDbPoint
 10
-600.0
 20
0.0
 30
0.0
  0
POINT
  5
A0853
330
A04A8
100
AcDbEntity
  8
DEFPOINTS
 62
     0
440
 16777216
100
AcDbPoint
 10
-637.3999999999978
 20
-80.0
 30
0.0
  0
POINT
  5
A0854
330
A04A8
100
AcDbEntity
  8
DEFPOINTS
 62
     0
440
 16777216
100
AcDbPoint
 10
-1019.995954658402
 20
-79.9999999999999
 30
0.0
  0
ENDBLK
  5
A04AA
330
A04A8
100
AcDbEntity
  8
0
100
AcDbBlockEnd
  0
BLOCK
  5
A04C0
330
A04BF
100
AcDbEntity
  8
0
100
AcDbBlockBegin
  2
*D30
 70
     1
 10
0.0
 20
0.0
 30
0.0
  3
*D30
  1

  0
LINE
  5
A0855
330
A04BF
100
AcDbEntity
  8
SIZE
 62
     0
440
 16777216
370
    -2
100
AcDbLine
 10
-653.5189499999979
 20
-80.0
 30
0.0
 11
-1039.995954658402
 21
-79.9999999999999
 31
0.0
  0
LINE
  5
A0856
330
A04BF
100
AcDbEntity
  8
SIZE
 62
     0
440
 16777216
370
    -2
100
AcDbLine
 10
-657.3999999999978
 20
-400.0
 30
0.0
 11
-1039.995954658402
 21
-399.9999999999998
 31
0.0
  0
LINE
  5
A0857
330
A04BF
100
AcDbEntity
  8
SIZE
 62
     0
440
 16777216
370
    -2
100
AcDbLine
 10
-1019.995954658402
 20
-89.99999999999989
 30
0.0
 11
-1019.995954658402
 21
-389.9999999999998
 31
0.0
  0
INSERT
  5
A0858
330
A04BF
100
AcDbEntity
  8
SIZE
 62
     0
440
 16777216
370
    -2
100
AcDbBlockReference
  2
_ORIGIN
 10
-1019.995954658402
 20
-79.9999999999999
 30
0.0
 41
10.0
 42
10.0
 43
10.0
 50
90.0
  0
INSERT
  5
A0859
330
A04BF
100
AcDbEntity
  8
SIZE
 62
     0
440
 16777216
370
    -2
100
AcDbBlockReference
  2
_ORIGIN
 10
-1019.995954658402
 20
-399.9999999999998
 30
0.0
 41
10.0
 42
10.0
 43
10.0
 50
270.0
  0
MTEXT
  5
A085A
330
A04BF
100
AcDbEntity
  8
SIZE
 62
     0
440
 16777216
100
AcDbMText
 10
-1054.995954658402
 20
-240.0000000000001
 30
0.0
 40
50.0
 41
0.0
 71
     5
 72
     1
  1
\A1;320
 11
0.0000000000000001
 21
1.0
 31
0.0
 73
     1
 44
1.0
  0
POINT
  5
A085B
330
A04BF
100
AcDbEntity
  8
DEFPOINTS
 62
     0
440
 16777216
100
AcDbPoint
 10
-633.5189499999977
 20
-80.0
 30
0.0
  0
POINT
  5
A085C
330
A04BF
100
AcDbEntity
  8
DEFPOINTS
 62
     0
440
 16777216
100
AcDbPoint
 10
-637.3999999999978
 20
-400.0
 30
0.0
  0
POINT
  5
A085D
330
A04BF
100
AcDbEntity
  8
DEFPOINTS
 62
     0
440
 16777216
100
AcDbPoint
 10
-1019.995954658402
 20
-399.9999999999998
 30
0.0
  0
ENDBLK
  5
A04C1
330
A04BF
100
AcDbEntity
  8
0
100
AcDbBlockEnd
  0
BLOCK
  5
A04DB
330
A04DA
100
AcDbEntity
  8
0
100
AcDbBlockBegin
  2
*D31
 70
     1
 10
0.0
 20
0.0
 30
0.0
  3
*D31
  1

  0
LINE
  5
A085E
330
A04DA
100
AcDbEntity
  8
SIZE
 62
     0
440
 16777216
370
    -2
100
AcDbLine
 10
-620.0
 20
0.0000000000000057
 30
0.0
 11
-891.1846183206572
 21
0.0000000000000825
 31
0.0
  0
LINE
  5
A085F
330
A04DA
100
AcDbEntity
  8
SIZE
 62
     0
440
 16777216
370
    -2
100
AcDbLine
 10
-604.9999999999886
 20
-246.0000000000018
 30
0.0
 11
-891.1846183206572
 21
-246.0000000000017
 31
0.0
  0
LINE
  5
A0860
330
A04DA
100
AcDbEntity
  8
SIZE
 62
     0
440
 16777216
370
    -2
100
AcDbLine
 10
-871.1846183206573
 20
-9.999999999999923
 30
0.0
 11
-871.1846183206573
 21
-236.0000000000017
 31
0.0
  0
INSERT
  5
A0861
330
A04DA
100
AcDbEntity
  8
SIZE
 62
     0
440
 16777216
370
    -2
100
AcDbBlockReference
  2
_ORIGIN
 10
-871.1846183206573
 20
0.0000000000000768
 30
0.0
 41
10.0
 42
10.0
 43
10.0
 50
90.0
  0
INSERT
  5
A0862
330
A04DA
100
AcDbEntity
  8
SIZE
 62
     0
440
 16777216
370
    -2
100
AcDbBlockReference
  2
_ORIGIN
 10
-871.1846183206573
 20
-246.0000000000017
 30
0.0
 41
10.0
 42
10.0
 43
10.0
 50
270.0
  0
MTEXT
  5
A0863
330
A04DA
100
AcDbEntity
  8
SIZE
 62
     0
440
 16777216
100
AcDbMText
 10
-906.184618320657
 20
-151.8578451082667
 30
0.0
 40
50.0
 41
0.0
 71
     5
 72
     1
  1
\A1;246
 11
0.0000000000000001
 21
1.0
 31
0.0
 73
     1
 44
1.0
  0
POINT
  5
A0864
330
A04DA
100
AcDbEntity
  8
DEFPOINTS
 62
     0
440
 16777216
100
AcDbPoint
 10
-600.0
 20
0.0
 30
0.0
  0
POINT
  5
A0865
330
A04DA
100
AcDbEntity
  8
DEFPOINTS
 62
     0
440
 16777216
100
AcDbPoint
 10
-584.9999999999886
 20
-246.0000000000018
 30
0.0
  0
POINT
  5
A0866
330
A04DA
100
AcDbEntity
  8
DEFPOINTS
 62
     0
440
 16777216
100
AcDbPoint
 10
-871.1846183206573
 20
-246.0000000000017
 30
0.0
  0
ENDBLK
  5
A04DC
330
A04DA
100
AcDbEntity
  8
0
100
AcDbBlockEnd
  0
BLOCK
  5
A04F1
330
A04F0
100
AcDbEntity
  8
0
100
AcDbBlockBegin
  2
*D32
 70
     1
 10
0.0
 20
0.0
 30
0.0
  3
*D32
  1

  0
LINE
  5
A0867
330
A04F0
100
AcDbEntity
  8
SIZE
 62
     0
440
 16777216
370
    -2
100
AcDbLine
 10
501.999999999998
 20
-286.0
 30
0.0
 11
501.999999999998
 21
-787.9080666113212
 31
0.0
  0
LINE
  5
A0868
330
A04F0
100
AcDbEntity
  8
SIZE
 62
     0
440
 16777216
370
    -2
100
AcDbLine
 10
639.9999999999907
 20
-694.2441899999994
 30
0.0
 11
639.9999999999907
 21
-787.9080666113212
 31
0.0
  0
LINE
  5
A0869
330
A04F0
100
AcDbEntity
  8
SIZE
 62
     0
440
 16777216
370
    -2
100
AcDbLine
 10
629.9999999999908
 20
-767.9080666113214
 30
0.0
 11
511.999999999998
 21
-767.9080666113214
 31
0.0
  0
LINE
  5
A086A
330
A04F0
100
AcDbEntity
  8
SIZE
 62
     0
440
 16777216
370
    -2
100
AcDbLine
 10
501.999999999998
 20
-767.9080666113214
 30
0.0
 11
360.8129111003691
 21
-767.9080666113214
 31
0.0
  0
INSERT
  5
A086B
330
A04F0
100
AcDbEntity
  8
SIZE
 62
     0
440
 16777216
370
    -2
100
AcDbBlockReference
  2
_ORIGIN
 10
639.9999999999907
 20
-767.9080666113214
 30
0.0
 41
10.0
 42
10.0
 43
10.0
  0
INSERT
  5
A086C
330
A04F0
100
AcDbEntity
  8
SIZE
 62
     0
440
 16777216
370
    -2
100
AcDbBlockReference
  2
_ORIGIN
 10
501.999999999998
 20
-767.9080666113214
 30
0.0
 41
10.0
 42
10.0
 43
10.0
 50
180.0
  0
MTEXT
  5
A086D
330
A04F0
100
AcDbEntity
  8
SIZE
 62
     0
440
 16777216
100
AcDbMText
 10
424.3843396717974
 20
-732.9080666113212
 30
0.0
 40
50.0
 41
0.0
 71
     5
 72
     1
  1
\A1;138
 73
     1
 44
1.0
  0
POINT
  5
A086E
330
A04F0
100
AcDbEntity
  8
DEFPOINTS
 62
     0
440
 16777216
100
AcDbPoint
 10
501.999999999998
 20
-266.0
 30
0.0
  0
POINT
  5
A086F
330
A04F0
100
AcDbEntity
  8
DEFPOINTS
 62
     0
440
 16777216
100
AcDbPoint
 10
639.9999999999907
 20
-674.2441899999994
 30
0.0
  0
POINT
  5
A0870
330
A04F0
100
AcDbEntity
  8
DEFPOINTS
 62
     0
440
 16777216
100
AcDbPoint
 10
639.9999999999907
 20
-767.9080666113214
 30
0.0
  0
ENDBLK
  5
A04F2
330
A04F0
100
AcDbEntity
  8
0
100
AcDbBlockEnd
  0
BLOCK
  5
A0509
330
A0508
100
AcDbEntity
  8
0
100
AcDbBlockBegin
  2
*D33
 70
     1
 10
0.0
 20
0.0
 30
0.0
  3
*D33
  1

  0
LINE
  5
A0871
330
A0508
100
AcDbEntity
  8
SIZE
 62
     0
440
 16777216
370
    -2
100
AcDbLine
 10
593.999999999998
 20
-203.0
 30
0.0
 11
1014.872073111392
 21
-203.0000000000002
 31
0.0
  0
LINE
  5
A0872
330
A0508
100
AcDbEntity
  8
SIZE
 62
     0
440
 16777216
370
    -2
100
AcDbLine
 10
619.9999999999907
 20
-0.0000000000000057
 30
0.0
 11
1014.872073111392
 21
-0.0000000000001175
 31
0.0
  0
LINE
  5
A0873
330
A0508
100
AcDbEntity
  8
SIZE
 62
     0
440
 16777216
370
    -2
100
AcDbLine
 10
994.8720731113926
 20
-193.0000000000001
 30
0.0
 11
994.8720731113926
 21
-10.00000000000011
 31
0.0
  0
INSERT
  5
A0874
330
A0508
100
AcDbEntity
  8
SIZE
 62
     0
440
 16777216
370
    -2
100
AcDbBlockReference
  2
_ORIGIN
 10
994.8720731113926
 20
-203.0000000000002
 30
0.0
 41
10.0
 42
10.0
 43
10.0
 50
270.0
  0
INSERT
  5
A0875
330
A0508
100
AcDbEntity
  8
SIZE
 62
     0
440
 16777216
370
    -2
100
AcDbBlockReference
  2
_ORIGIN
 10
994.8720731113926
 20
-0.0000000000001119
 30
0.0
 41
10.0
 42
10.0
 43
10.0
 50
90.0
  0
MTEXT
  5
A0876
330
A0508
100
AcDbEntity
  8
SIZE
 62
     0
440
 16777216
100
AcDbMText
 10
959.8720731113926
 20
-101.4999999999999
 30
0.0
 40
50.0
 41
0.0
 71
     5
 72
     1
  1
\A1;203
 11
0.0000000000000001
 21
1.0
 31
0.0
 73
     1
 44
1.0
  0
POINT
  5
A0877
330
A0508
100
AcDbEntity
  8
DEFPOINTS
 62
     0
440
 16777216
100
AcDbPoint
 10
573.999999999998
 20
-203.0
 30
0.0
  0
POINT
  5
A0878
330
A0508
100
AcDbEntity
  8
DEFPOINTS
 62
     0
440
 16777216
100
AcDbPoint
 10
599.9999999999907
 20
0.0
 30
0.0
  0
POINT
  5
A0879
330
A0508
100
AcDbEntity
  8
DEFPOINTS
 62
     0
440
 16777216
100
AcDbPoint
 10
994.8720731113926
 20
-0.0000000000001119
 30
0.0
  0
ENDBLK
  5
A050A
330
A0508
100
AcDbEntity
  8
0
100
AcDbBlockEnd
  0
BLOCK
  5
A0516
330
A0515
100
AcDbEntity
  8
0
100
AcDbBlockBegin
  2
*D34
 70
     1
 10
0.0
 20
0.0
 30
0.0
  3
*D34
  1

  0
LINE
  5
A087A
330
A0515
100
AcDbEntity
  8
SIZE
 62
     0
440
 16777216
370
    -2
100
AcDbLine
 10
541.9999999999982
 20
-246.0000000000018
 30
0.0
 11
1130.240341140696
 21
-246.000000000002
 31
0.0
  0
LINE
  5
A087B
330
A0515
100
AcDbEntity
  8
SIZE
 62
     0
440
 16777216
370
    -2
100
AcDbLine
 10
619.9999999999907
 20
-0.0000000000000057
 30
0.0
 11
1130.240341140696
 21
-0.0000000000001502
 31
0.0
  0
LINE
  5
A087C
330
A0515
100
AcDbEntity
  8
SIZE
 62
     0
440
 16777216
370
    -2
100
AcDbLine
 10
1110.240341140697
 20
-236.000000000002
 30
0.0
 11
1110.240341140697
 21
-10.00000000000014
 31
0.0
  0
INSERT
  5
A087D
330
A0515
100
AcDbEntity
  8
SIZE
 62
     0
440
 16777216
370
    -2
100
AcDbBlockReference
  2
_ORIGIN
 10
1110.240341140697
 20
-246.000000000002
 30
0.0
 41
10.0
 42
10.0
 43
10.0
 50
270.0
  0
INSERT
  5
A087E
330
A0515
100
AcDbEntity
  8
SIZE
 62
     0
440
 16777216
370
    -2
100
AcDbBlockReference
  2
_ORIGIN
 10
1110.240341140697
 20
-0.0000000000001445
 30
0.0
 41
10.0
 42
10.0
 43
10.0
 50
90.0
  0
MTEXT
  5
A087F
330
A0515
100
AcDbEntity
  8
SIZE
 62
     0
440
 16777216
100
AcDbMText
 10
1075.240341140696
 20
-105.4371348074537
 30
0.0
 40
50.0
 41
0.0
 71
     5
 72
     1
  1
\A1;246
 11
0.0000000000000001
 21
1.0
 31
0.0
 73
     1
 44
1.0
  0
POINT
  5
A0880
330
A0515
100
AcDbEntity
  8
DEFPOINTS
 62
     0
440
 16777216
100
AcDbPoint
 10
521.9999999999981
 20
-246.0000000000018
 30
0.0
  0
POINT
  5
A0881
330
A0515
100
AcDbEntity
  8
DEFPOINTS
 62
     0
440
 16777216
100
AcDbPoint
 10
599.9999999999907
 20
0.0
 30
0.0
  0
POINT
  5
A0882
330
A0515
100
AcDbEntity
  8
DEFPOINTS
 62
     0
440
 16777216
100
AcDbPoint
 10
1110.240341140697
 20
-0.0000000000001445
 30
0.0
  0
ENDBLK
  5
A0517
330
A0515
100
AcDbEntity
  8
0
100
AcDbBlockEnd
  0
BLOCK
  5
A0536
330
A0535
100
AcDbEntity
  8
0
100
AcDbBlockBegin
  2
*D35
 70
     1
 10
0.0
 20
0.0
 30
0.0
  3
*D35
  1

  0
LINE
  5
A0883
330
A0535
100
AcDbEntity
  8
SIZE
 62
     0
440
 16777216
370
    -2
100
AcDbLine
 10
553.9999999999982
 20
-160.0
 30
0.0
 11
553.9999999999982
 21
130.9248358830609
 31
0.0
  0
LINE
  5
A0884
330
A0535
100
AcDbEntity
  8
SIZE
 62
     0
440
 16777216
370
    -2
100
AcDbLine
 10
468.9999999999977
 20
-144.0
 30
0.0
 11
468.9999999999977
 21
130.9248358830609
 31
0.0
  0
LINE
  5
A0885
330
A0535
100
AcDbEntity
  8
SIZE
 62
     0
440
 16777216
370
    -2
100
AcDbLine
 10
543.999999999998
 20
110.9248358830609
 30
0.0
 11
478.9999999999976
 21
110.9248358830609
 31
0.0
  0
INSERT
  5
A0886
330
A0535
100
AcDbEntity
  8
SIZE
 62
     0
440
 16777216
370
    -2
100
AcDbBlockReference
  2
_ORIGIN
 10
553.9999999999982
 20
110.9248358830609
 30
0.0
 41
10.0
 42
10.0
 43
10.0
  0
INSERT
  5
A0887
330
A0535
100
AcDbEntity
  8
SIZE
 62
     0
440
 16777216
370
    -2
100
AcDbBlockReference
  2
_ORIGIN
 10
468.9999999999977
 20
110.9248358830609
 30
0.0
 41
10.0
 42
10.0
 43
10.0
 50
180.0
  0
MTEXT
  5
A0888
330
A0535
100
AcDbEntity
  8
SIZE
 62
     0
440
 16777216
100
AcDbMText
 10
511.4999999999978
 20
145.9248358830609
 30
0.0
 40
50.0
 41
0.0
 71
     5
 72
     1
  1
\A1;85
 73
     1
 44
1.0
  0
POINT
  5
A0889
330
A0535
100
AcDbEntity
  8
DEFPOINTS
 62
     0
440
 16777216
100
AcDbPoint
 10
553.9999999999982
 20
-180.0
 30
0.0
  0
POINT
  5
A088A
330
A0535
100
AcDbEntity
  8
DEFPOINTS
 62
     0
440
 16777216
100
AcDbPoint
 10
468.9999999999977
 20
-164.0
 30
0.0
  0
POINT
  5
A088B
330
A0535
100
AcDbEntity
  8
DEFPOINTS
 62
     0
440
 16777216
100
AcDbPoint
 10
468.9999999999977
 20
110.9248358830609
 30
0.0
  0
ENDBLK
  5
A0537
330
A0535
100
AcDbEntity
  8
0
100
AcDbBlockEnd
  0
BLOCK
  5
A0544
330
A0543
100
AcDbEntity
  8
0
100
AcDbBlockBegin
  2
*D36
 70
     1
 10
0.0
 20
0.0
 30
0.0
  3
*D36
  1

  0
LINE
  5
A088C
330
A0543
100
AcDbEntity
  8
SIZE
 62
     0
440
 16777216
370
    -2
100
AcDbLine
 10
553.9999999999982
 20
-160.0
 30
0.0
 11
553.9999999999982
 21
130.9248358830609
 31
0.0
  0
LINE
  5
A088D
330
A0543
100
AcDbEntity
  8
SIZE
 62
     0
440
 16777216
370
    -2
100
AcDbLine
 10
640.0
 20
-467.9544675462001
 30
0.0
 11
640.0
 21
130.9248358830609
 31
0.0
  0
LINE
  5
A088E
330
A0543
100
AcDbEntity
  8
SIZE
 62
     0
440
 16777216
370
    -2
100
AcDbLine
 10
563.9999999999981
 20
110.9248358830609
 30
0.0
 11
630.0
 21
110.9248358830609
 31
0.0
  0
LINE
  5
A088F
330
A0543
100
AcDbEntity
  8
SIZE
 62
     0
440
 16777216
370
    -2
100
AcDbLine
 10
640.0
 20
110.9248358830609
 30
0.0
 11
740.7142857142858
 21
110.9248358830609
 31
0.0
  0
INSERT
  5
A0890
330
A0543
100
AcDbEntity
  8
SIZE
 62
     0
440
 16777216
370
    -2
100
AcDbBlockReference
  2
_ORIGIN
 10
553.9999999999982
 20
110.9248358830609
 30
0.0
 41
10.0
 42
10.0
 43
10.0
 50
180.0
  0
INSERT
  5
A0891
330
A0543
100
AcDbEntity
  8
SIZE
 62
     0
440
 16777216
370
    -2
100
AcDbBlockReference
  2
_ORIGIN
 10
640.0
 20
110.9248358830609
 30
0.0
 41
10.0
 42
10.0
 43
10.0
  0
MTEXT
  5
A0892
330
A0543
100
AcDbEntity
  8
SIZE
 62
     0
440
 16777216
100
AcDbMText
 10
695.3571428571429
 20
145.9248358830609
 30
0.0
 40
50.0
 41
0.0
 71
     5
 72
     1
  1
\A1;86
 73
     1
 44
1.0
  0
POINT
  5
A0893
330
A0543
100
AcDbEntity
  8
DEFPOINTS
 62
     0
440
 16777216
100
AcDbPoint
 10
553.9999999999982
 20
-180.0
 30
0.0
  0
POINT
  5
A0894
330
A0543
100
AcDbEntity
  8
DEFPOINTS
 62
     0
440
 16777216
100
AcDbPoint
 10
640.0
 20
-487.9544675462001
 30
0.0
  0
POINT
  5
A0895
330
A0543
100
AcDbEntity
  8
DEFPOINTS
 62
     0
440
 16777216
100
AcDbPoint
 10
640.0
 20
110.9248358830609
 30
0.0
  0
ENDBLK
  5
A0545
330
A0543
100
AcDbEntity
  8
0
100
AcDbBlockEnd
  0
BLOCK
  5
A056F
330
A056E
100
AcDbEntity
  8
0
100
AcDbBlockBegin
  2
*D37
 70
     1
 10
0.0
 20
0.0
 30
0.0
  3
*D37
  1

  0
LINE
  5
A0896
330
A056E
100
AcDbEntity
  8
SIZE
 62
     0
440
 16777216
370
    -2
100
AcDbLine
 10
355.9999999999982
 20
40.0
 30
0.0
 11
355.9999999999982
 21
511.777198372525
 31
0.0
  0
LINE
  5
A0897
330
A056E
100
AcDbEntity
  8
SIZE
 62
     0
440
 16777216
370
    -2
100
AcDbLine
 10
317.9999999999982
 20
40.0000000000001
 30
0.0
 11
317.9999999999982
 21
511.777198372525
 31
0.0
  0
LINE
  5
A0898
330
A056E
100
AcDbEntity
  8
SIZE
 62
     0
440
 16777216
370
    -2
100
AcDbLine
 10
365.9999999999982
 20
491.7771983725251
 30
0.0
 11
375.9999999999982
 21
491.7771983725251
 31
0.0
  0
LINE
  5
A0899
330
A056E
100
AcDbEntity
  8
SIZE
 62
     0
440
 16777216
370
    -2
100
AcDbLine
 10
307.9999999999982
 20
491.7771983725251
 30
0.0
 11
205.1428571428554
 21
491.7771983725251
 31
0.0
  0
LINE
  5
A089A
330
A056E
100
AcDbEntity
  8
SIZE
 62
     0
440
 16777216
370
    -2
100
AcDbLine
 10
355.9999999999982
 20
491.7771983725251
 30
0.0
 11
317.9999999999982
 21
491.7771983725251
 31
0.0
  0
INSERT
  5
A089B
330
A056E
100
AcDbEntity
  8
SIZE
 62
     0
440
 16777216
370
    -2
100
AcDbBlockReference
  2
_ORIGIN
 10
355.9999999999982
 20
491.7771983725251
 30
0.0
 41
10.0
 42
10.0
 43
10.0
 50
180.0
  0
INSERT
  5
A089C
330
A056E
100
AcDbEntity
  8
SIZE
 62
     0
440
 16777216
370
    -2
100
AcDbBlockReference
  2
_ORIGIN
 10
317.9999999999982
 20
491.7771983725251
 30
0.0
 41
10.0
 42
10.0
 43
10.0
  0
MTEXT
  5
A089D
330
A056E
100
AcDbEntity
  8
SIZE
 62
     0
440
 16777216
100
AcDbMText
 10
251.5714285714268
 20
526.7771983725252
 30
0.0
 40
50.0
 41
0.0
 71
     5
 72
     1
  1
\A1;38
 73
     1
 44
1.0
  0
POINT
  5
A089E
330
A056E
100
AcDbEntity
  8
DEFPOINTS
 62
     0
440
 16777216
100
AcDbPoint
 10
355.9999999999982
 20
20.0
 30
0.0
  0
POINT
  5
A089F
330
A056E
100
AcDbEntity
  8
DEFPOINTS
 62
     0
440
 16777216
100
AcDbPoint
 10
317.9999999999982
 20
20.00000000000011
 30
0.0
  0
POINT
  5
A08A0
330
A056E
100
AcDbEntity
  8
DEFPOINTS
 62
     0
440
 16777216
100
AcDbPoint
 10
317.9999999999982
 20
491.7771983725251
 30
0.0
  0
ENDBLK
  5
A0570
330
A056E
100
AcDbEntity
  8
0
100
AcDbBlockEnd
  0
BLOCK
  5
A057E
330
A057D
100
AcDbEntity
  8
0
100
AcDbBlockBegin
  2
*D38
 70
     1
 10
0.0
 20
0.0
 30
0.0
  3
*D38
  1

  0
LINE
  5
A08A1
330
A057D
100
AcDbEntity
  8
SIZE
 62
     0
440
 16777216
370
    -2
100
AcDbLine
 10
361.9999999999982
 20
40.0
 30
0.0
 11
361.9999999999982
 21
424.6092996373691
 31
0.0
  0
LINE
  5
A08A2
330
A057D
100
AcDbEntity
  8
SIZE
 62
     0
440
 16777216
370
    -2
100
AcDbLine
 10
323.9999999999982
 20
40.0
 30
0.0
 11
323.9999999999982
 21
424.6092996373691
 31
0.0
  0
LINE
  5
A08A3
330
A057D
100
AcDbEntity
  8
SIZE
 62
     0
440
 16777216
370
    -2
100
AcDbLine
 10
371.9999999999982
 20
404.609299637369
 30
0.0
 11
381.9999999999982
 21
404.609299637369
 31
0.0
  0
LINE
  5
A08A4
330
A057D
100
AcDbEntity
  8
SIZE
 62
     0
440
 16777216
370
    -2
100
AcDbLine
 10
313.9999999999982
 20
404.609299637369
 30
0.0
 11
211.1428571428553
 21
404.609299637369
 31
0.0
  0
LINE
  5
A08A5
330
A057D
100
AcDbEntity
  8
SIZE
 62
     0
440
 16777216
370
    -2
100
AcDbLine
 10
361.9999999999982
 20
404.609299637369
 30
0.0
 11
323.9999999999982
 21
404.609299637369
 31
0.0
  0
INSERT
  5
A08A6
330
A057D
100
AcDbEntity
  8
SIZE
 62
     0
440
 16777216
370
    -2
100
AcDbBlockReference
  2
_ORIGIN
 10
361.9999999999982
 20
404.609299637369
 30
0.0
 41
10.0
 42
10.0
 43
10.0
 50
180.0
  0
INSERT
  5
A08A7
330
A057D
100
AcDbEntity
  8
SIZE
 62
     0
440
 16777216
370
    -2
100
AcDbBlockReference
  2
_ORIGIN
 10
323.9999999999982
 20
404.609299637369
 30
0.0
 41
10.0
 42
10.0
 43
10.0
  0
MTEXT
  5
A08A8
330
A057D
100
AcDbEntity
  8
SIZE
 62
     0
440
 16777216
100
AcDbMText
 10
257.5714285714267
 20
439.609299637369
 30
0.0
 40
50.0
 41
0.0
 71
     5
 72
     1
  1
\A1;38
 73
     1
 44
1.0
  0
POINT
  5
A08A9
330
A057D
100
AcDbEntity
  8
DEFPOINTS
 62
     0
440
 16777216
100
AcDbPoint
 10
361.9999999999982
 20
20.0
 30
0.0
  0
POINT
  5
A08AA
330
A057D
100
AcDbEntity
  8
DEFPOINTS
 62
     0
440
 16777216
100
AcDbPoint
 10
323.9999999999982
 20
20.0
 30
0.0
  0
POINT
  5
A08AB
330
A057D
100
AcDbEntity
  8
DEFPOINTS
 62
     0
440
 16777216
100
AcDbPoint
 10
323.9999999999982
 20
404.609299637369
 30
0.0
  0
ENDBLK
  5
A057F
330
A057D
100
AcDbEntity
  8
0
100
AcDbBlockEnd
  0
BLOCK
  5
A058D
330
A058C
100
AcDbEntity
  8
0
100
AcDbBlockBegin
  2
*D39
 70
     1
 10
0.0
 20
0.0
 30
0.0
  3
*D39
  1

  0
LINE
  5
A08AC
330
A058C
100
AcDbEntity
  8
SIZE
 62
     0
440
 16777216
370
    -2
100
AcDbLine
 10
355.9999999999982
 20
40.0
 30
0.0
 11
355.9999999999982
 21
511.777198372525
 31
0.0
  0
LINE
  5
A08AD
330
A058C
100
AcDbEntity
  8
SIZE
 62
     0
440
 16777216
370
    -2
100
AcDbLine
 10
640.0
 20
-455.6424781380028
 30
0.0
 11
640.0000000000001
 21
511.777198372525
 31
0.0
  0
LINE
  5
A08AE
330
A058C
100
AcDbEntity
  8
SIZE
 62
     0
440
 16777216
370
    -2
100
AcDbLine
 10
365.9999999999982
 20
491.7771983725251
 30
0.0
 11
630.0000000000001
 21
491.7771983725251
 31
0.0
  0
INSERT
  5
A08AF
330
A058C
100
AcDbEntity
  8
SIZE
 62
     0
440
 16777216
370
    -2
100
AcDbBlockReference
  2
_ORIGIN
 10
355.9999999999982
 20
491.7771983725251
 30
0.0
 41
10.0
 42
10.0
 43
10.0
 50
180.0
  0
INSERT
  5
A08B0
330
A058C
100
AcDbEntity
  8
SIZE
 62
     0
440
 16777216
370
    -2
100
AcDbBlockReference
  2
_ORIGIN
 10
640.0000000000001
 20
491.7771983725251
 30
0.0
 41
10.0
 42
10.0
 43
10.0
  0
MTEXT
  5
A08B1
330
A058C
100
AcDbEntity
  8
SIZE
 62
     0
440
 16777216
100
AcDbMText
 10
497.9999999999991
 20
526.7771983725252
 30
0.0
 40
50.0
 41
0.0
 71
     5
 72
     1
  1
\A1;284
 73
     1
 44
1.0
  0
POINT
  5
A08B2
330
A058C
100
AcDbEntity
  8
DEFPOINTS
 62
     0
440
 16777216
100
AcDbPoint
 10
355.9999999999982
 20
20.0
 30
0.0
  0
POINT
  5
A08B3
330
A058C
100
AcDbEntity
  8
DEFPOINTS
 62
     0
440
 16777216
100
AcDbPoint
 10
640.0
 20
-475.6424781380028
 30
0.0
  0
POINT
  5
A08B4
330
A058C
100
AcDbEntity
  8
DEFPOINTS
 62
     0
440
 16777216
100
AcDbPoint
 10
640.0000000000001
 20
491.7771983725251
 30
0.0
  0
ENDBLK
  5
A058E
330
A058C
100
AcDbEntity
  8
0
100
AcDbBlockEnd
  0
BLOCK
  5
A059A
330
A0599
100
AcDbEntity
  8
0
100
AcDbBlockBegin
  2
*D40
 70
     1
 10
0.0
 20
0.0
 30
0.0
  3
*D40
  1

  0
LINE
  5
A08B5
330
A0599
100
AcDbEntity
  8
SIZE
 62
     0
440
 16777216
370
    -2
100
AcDbLine
 10
361.9999999999982
 20
40.0
 30
0.0
 11
361.9999999999982
 21
424.6092996373691
 31
0.0
  0
LINE
  5
A08B6
330
A0599
100
AcDbEntity
  8
SIZE
 62
     0
440
 16777216
370
    -2
100
AcDbLine
 10
640.0
 20
-455.6424781380028
 30
0.0
 11
640.0
 21
424.6092996373691
 31
0.0
  0
LINE
  5
A08B7
330
A0599
100
AcDbEntity
  8
SIZE
 62
     0
440
 16777216
370
    -2
100
AcDbLine
 10
371.9999999999982
 20
404.609299637369
 30
0.0
 11
630.0
 21
404.609299637369
 31
0.0
  0
INSERT
  5
A08B8
330
A0599
100
AcDbEntity
  8
SIZE
 62
     0
440
 16777216
370
    -2
100
AcDbBlockReference
  2
_ORIGIN
 10
361.9999999999982
 20
404.609299637369
 30
0.0
 41
10.0
 42
10.0
 43
10.0
 50
180.0
  0
INSERT
  5
A08B9
330
A0599
100
AcDbEntity
  8
SIZE
 62
     0
440
 16777216
370
    -2
100
AcDbBlockReference
  2
_ORIGIN
 10
640.0
 20
404.609299637369
 30
0.0
 41
10.0
 42
10.0
 43
10.0
  0
MTEXT
  5
A08BA
330
A0599
100
AcDbEntity
  8
SIZE
 62
     0
440
 16777216
100
AcDbMText
 10
500.999999999999
 20
439.609299637369
 30
0.0
 40
50.0
 41
0.0
 71
     5
 72
     1
  1
\A1;278
 73
     1
 44
1.0
  0
POINT
  5
A08BB
330
A0599
100
AcDbEntity
  8
DEFPOINTS
 62
     0
440
 16777216
100
AcDbPoint
 10
361.9999999999982
 20
20.0
 30
0.0
  0
POINT
  5
A08BC
330
A0599
100
AcDbEntity
  8
DEFPOINTS
 62
     0
440
 16777216
100
AcDbPoint
 10
640.0
 20
-475.6424781380028
 30
0.0
  0
POINT
  5
A08BD
330
A0599
100
AcDbEntity
  8
DEFPOINTS
 62
     0
440
 16777216
100
AcDbPoint
 10
640.0
 20
404.609299637369
 30
0.0
  0
ENDBLK
  5
A059B
330
A0599
100
AcDbEntity
  8
0
100
AcDbBlockEnd
  0
BLOCK
  5
A0905
330
A0904
100
AcDbEntity
  8
0
100
AcDbBlockBegin
  2
*D41
 70
     1
 10
0.0
 20
0.0
 30
0.0
  3
*D41
  1

  0
LINE
  5
A0906
330
A0904
100
AcDbEntity
  8
SIZE
 62
     0
440
 16777216
370
    -2
100
AcDbLine
 10
-433.2091265941362
 20
-210.0
 30
0.0
 11
-433.2091265941363
 21
-684.2847032386516
 31
0.0
  0
LINE
  5
A0907
330
A0904
100
AcDbEntity
  8
SIZE
 62
     0
440
 16777216
370
    -2
100
AcDbLine
 10
-679.6091265941286
 20
-249.9969975238364
 30
0.0
 11
-679.6091265941286
 21
-684.2847032386516
 31
0.0
  0
LINE
  5
A0908
330
A0904
100
AcDbEntity
  8
SIZE
 62
     0
440
 16777216
370
    -2
100
AcDbLine
 10
-443.2091265941362
 20
-664.2847032386517
 30
0.0
 11
-669.6091265941285
 21
-664.2847032386517
 31
0.0
  0
INSERT
  5
A0909
330
A0904
100
AcDbEntity
  8
SIZE
 62
     0
440
 16777216
370
    -2
100
AcDbBlockReference
  2
_ORIGIN
 10
-433.2091265941363
 20
-664.2847032386517
 30
0.0
 41
10.0
 42
10.0
 43
10.0
  0
INSERT
  5
A090A
330
A0904
100
AcDbEntity
  8
SIZE
 62
     0
440
 16777216
370
    -2
100
AcDbBlockReference
  2
_ORIGIN
 10
-679.6091265941286
 20
-664.2847032386517
 30
0.0
 41
10.0
 42
10.0
 43
10.0
 50
180.0
  0
MTEXT
  5
A090B
330
A0904
100
AcDbEntity
  8
SIZE
 62
     0
440
 16777216
100
AcDbMText
 10
-577.9626799847278
 20
-629.2847032386516
 30
0.0
 40
50.0
 41
0.0
 71
     5
 72
     1
  1
\A1;246
 73
     1
 44
1.0
  0
POINT
  5
A090C
330
A0904
100
AcDbEntity
  8
DEFPOINTS
 62
     0
440
 16777216
100
AcDbPoint
 10
-433.2091265941362
 20
-190.0
 30
0.0
  0
POINT
  5
A090D
330
A0904
100
AcDbEntity
  8
DEFPOINTS
 62
     0
440
 16777216
100
AcDbPoint
 10
-679.6091265941286
 20
-229.9969975238364
 30
0.0
  0
POINT
  5
A090E
330
A0904
100
AcDbEntity
  8
DEFPOINTS
 62
     0
440
 16777216
100
AcDbPoint
 10
-679.6091265941286
 20
-664.2847032386517
 30
0.0
  0
ENDBLK
  5
A090F
330
A0904
100
AcDbEntity
  8
0
100
AcDbBlockEnd
  0
BLOCK
  5
A0911
330
A0910
100
AcDbEntity
  8
0
100
AcDbBlockBegin
  2
*D42
 70
     1
 10
0.0
 20
0.0
 30
0.0
  3
*D42
  1

  0
LINE
  5
A0912
330
A0910
100
AcDbEntity
  8
SIZE
 62
     0
440
 16777216
370
    -2
100
AcDbLine
 10
-685.6479498076587
 20
-235.999999999999
 30
0.0
 11
-986.2354985279743
 21
-235.9999999999989
 31
0.0
  0
LINE
  5
A0913
330
A0910
100
AcDbEntity
  8
SIZE
 62
     0
440
 16777216
370
    -2
100
AcDbLine
 10
-719.6091265941285
 20
-198.9999999999945
 30
0.0
 11
-986.2354985279743
 21
-198.9999999999944
 31
0.0
  0
LINE
  5
A0914
330
A0910
100
AcDbEntity
  8
SIZE
 62
     0
440
 16777216
370
    -2
100
AcDbLine
 10
-966.2354985279744
 20
-188.9999999999944
 30
0.0
 11
-966.2354985279744
 21
-178.9999999999944
 31
0.0
  0
LINE
  5
A0915
330
A0910
100
AcDbEntity
  8
SIZE
 62
     0
440
 16777216
370
    -2
100
AcDbLine
 10
-966.2354985279744
 20
-245.9999999999989
 30
0.0
 11
-966.2354985279746
 21
-348.8571428571418
 31
0.0
  0
LINE
  5
A0916
330
A0910
100
AcDbEntity
  8
SIZE
 62
     0
440
 16777216
370
    -2
100
AcDbLine
 10
-966.2354985279744
 20
-198.9999999999944
 30
0.0
 11
-966.2354985279744
 21
-235.9999999999989
 31
0.0
  0
INSERT
  5
A0917
330
A0910
100
AcDbEntity
  8
SIZE
 62
     0
440
 16777216
370
    -2
100
AcDbBlockReference
  2
_ORIGIN
 10
-966.2354985279744
 20
-198.9999999999944
 30
0.0
 41
10.0
 42
10.0
 43
10.0
 50
270.0
  0
INSERT
  5
A0918
330
A0910
100
AcDbEntity
  8
SIZE
 62
     0
440
 16777216
370
    -2
100
AcDbBlockReference
  2
_ORIGIN
 10
-966.2354985279744
 20
-235.9999999999989
 30
0.0
 41
10.0
 42
10.0
 43
10.0
 50
90.0
  0
MTEXT
  5
A0919
330
A0910
100
AcDbEntity
  8
SIZE
 62
     0
440
 16777216
100
AcDbMText
 10
-1001.235498527974
 20
-302.4285714285705
 30
0.0
 40
50.0
 41
0.0
 71
     5
 72
     1
  1
\A1;37
 11
0.0000000000000001
 21
1.0
 31
0.0
 73
     1
 44
1.0
  0
POINT
  5
A091A
330
A0910
100
AcDbEntity
  8
DEFPOINTS
 62
     0
440
 16777216
100
AcDbPoint
 10
-665.6479498076587
 20
-235.999999999999
 30
0.0
  0
POINT
  5
A091B
330
A0910
100
AcDbEntity
  8
DEFPOINTS
 62
     0
440
 16777216
100
AcDbPoint
 10
-699.6091265941286
 20
-198.9999999999945
 30
0.0
  0
POINT
  5
A091C
330
A0910
100
AcDbEntity
  8
DEFPOINTS
 62
     0
440
 16777216
100
AcDbPoint
 10
-966.2354985279744
 20
-198.9999999999944
 30
0.0
  0
ENDBLK
  5
A091D
330
A0910
100
AcDbEntity
  8
0
100
AcDbBlockEnd
  0
BLOCK
  5
A091F
330
A091E
100
AcDbEntity
  8
0
100
AcDbBlockBegin
  2
*D43
 70
     1
 10
0.0
 20
0.0
 30
0.0
  3
*D43
  1

  0
LINE
  5
A0920
330
A091E
100
AcDbEntity
  8
SIZE
 62
     0
440
 16777216
370
    -2
100
AcDbLine
 10
-719.6091265941285
 20
-198.9999999999945
 30
0.0
 11
-986.2354985279743
 21
-198.9999999999944
 31
0.0
  0
LINE
  5
A0921
330
A091E
100
AcDbEntity
  8
SIZE
 62
     0
440
 16777216
370
    -2
100
AcDbLine
 10
-719.6091265941291
 20
-29.99999999999454
 30
0.0
 11
-986.2354985279743
 21
-29.99999999999446
 31
0.0
  0
LINE
  5
A0922
330
A091E
100
AcDbEntity
  8
SIZE
 62
     0
440
 16777216
370
    -2
100
AcDbLine
 10
-966.2354985279744
 20
-188.9999999999944
 30
0.0
 11
-966.2354985279744
 21
-39.99999999999447
 31
0.0
  0
INSERT
  5
A0923
330
A091E
100
AcDbEntity
  8
SIZE
 62
     0
440
 16777216
370
    -2
100
AcDbBlockReference
  2
_ORIGIN
 10
-966.2354985279744
 20
-198.9999999999944
 30
0.0
 41
10.0
 42
10.0
 43
10.0
 50
270.0
  0
INSERT
  5
A0924
330
A091E
100
AcDbEntity
  8
SIZE
 62
     0
440
 16777216
370
    -2
100
AcDbBlockReference
  2
_ORIGIN
 10
-966.2354985279744
 20
-29.99999999999447
 30
0.0
 41
10.0
 42
10.0
 43
10.0
 50
90.0
  0
MTEXT
  5
A0925
330
A091E
100
AcDbEntity
  8
SIZE
 62
     0
440
 16777216
100
AcDbMText
 10
-1001.235498527974
 20
-114.4999999999946
 30
0.0
 40
50.0
 41
0.0
 71
     5
 72
     1
  1
\A1;169
 11
0.0000000000000001
 21
1.0
 31
0.0
 73
     1
 44
1.0
  0
POINT
  5
A0926
330
A091E
100
AcDbEntity
  8
DEFPOINTS
 62
     0
440
 16777216
100
AcDbPoint
 10
-699.6091265941286
 20
-198.9999999999945
 30
0.0
  0
POINT
  5
A0927
330
A091E
100
AcDbEntity
  8
DEFPOINTS
 62
     0
440
 16777216
100
AcDbPoint
 10
-699.6091265941291
 20
-29.99999999999455
 30
0.0
  0
POINT
  5
A0928
330
A091E
100
AcDbEntity
  8
DEFPOINTS
 62
     0
440
 16777216
100
AcDbPoint
 10
-966.2354985279744
 20
-29.99999999999447
 30
0.0
  0
ENDBLK
  5
A0929
330
A091E
100
AcDbEntity
  8
0
100
AcDbBlockEnd
  0
BLOCK
  5
A092B
330
A092A
100
AcDbEntity
  8
0
100
AcDbBlockBegin
  2
*D44
 70
     1
 10
0.0
 20
0.0
 30
0.0
  3
*D44
  1

  0
LINE
  5
A092C
330
A092A
100
AcDbEntity
  8
SIZE
 62
     0
440
 16777216
370
    -2
100
AcDbLine
 10
-463.2488065941434
 20
-190.0
 30
0.0
 11
-1082.716264763032
 21
-189.9999999999998
 31
0.0
  0
LINE
  5
A092D
330
A092A
100
AcDbEntity
  8
SIZE
 62
     0
440
 16777216
370
    -2
100
AcDbLine
 10
-684.6847451258945
 20
0.0000000000000057
 30
0.0
 11
-1082.716264763032
 21
0.0000000000001184
 31
0.0
  0
LINE
  5
A092E
330
A092A
100
AcDbEntity
  8
SIZE
 62
     0
440
 16777216
370
    -2
100
AcDbLine
 10
-1062.716264763032
 20
-179.9999999999998
 30
0.0
 11
-1062.716264763032
 21
-9.999999999999886
 31
0.0
  0
INSERT
  5
A092F
330
A092A
100
AcDbEntity
  8
SIZE
 62
     0
440
 16777216
370
    -2
100
AcDbBlockReference
  2
_ORIGIN
 10
-1062.716264763032
 20
-189.9999999999998
 30
0.0
 41
10.0
 42
10.0
 43
10.0
 50
270.0
  0
INSERT
  5
A0930
330
A092A
100
AcDbEntity
  8
SIZE
 62
     0
440
 16777216
370
    -2
100
AcDbBlockReference
  2
_ORIGIN
 10
-1062.716264763032
 20
0.0000000000001128
 30
0.0
 41
10.0
 42
10.0
 43
10.0
 50
90.0
  0
MTEXT
  5
A0931
330
A092A
100
AcDbEntity
  8
SIZE
 62
     0
440
 16777216
100
AcDbMText
 10
-1097.716264763032
 20
-95.00000000000001
 30
0.0
 40
50.0
 41
0.0
 71
     5
 72
     1
  1
\A1;190
 11
0.0000000000000001
 21
1.0
 31
0.0
 73
     1
 44
1.0
  0
POINT
  5
A0932
330
A092A
100
AcDbEntity
  8
DEFPOINTS
 62
     0
440
 16777216
100
AcDbPoint
 10
-443.2488065941433
 20
-190.0
 30
0.0
  0
POINT
  5
A0933
330
A092A
100
AcDbEntity
  8
DEFPOINTS
 62
     0
440
 16777216
100
AcDbPoint
 10
-664.6847451258945
 20
0.0
 30
0.0
  0
POINT
  5
A0934
330
A092A
100
AcDbEntity
  8
DEFPOINTS
 62
     0
440
 16777216
100
AcDbPoint
 10
-1062.716264763032
 20
0.0000000000001128
 30
0.0
  0
ENDBLK
  5
A0935
330
A092A
100
AcDbEntity
  8
0
100
AcDbBlockEnd
  0
BLOCK
  5
A0937
330
A0936
100
AcDbEntity
  8
0
100
AcDbBlockBegin
  2
*D45
 70
     1
 10
0.0
 20
0.0
 30
0.0
  3
*D45
  1

  0
LINE
  5
A0938
330
A0936
100
AcDbEntity
  8
SIZE
 62
     0
440
 16777216
370
    -2
100
AcDbLine
 10
-679.6091265941286
 20
16.46384474257229
 30
0.0
 11
-679.6091265941286
 21
373.9973889233743
 31
0.0
  0
LINE
  5
A0939
330
A0936
100
AcDbEntity
  8
SIZE
 62
     0
440
 16777216
370
    -2
100
AcDbLine
 10
-599.6090943214003
 20
40.0
 30
0.0
 11
-599.6090943214003
 21
373.9973889233743
 31
0.0
  0
LINE
  5
A093A
330
A0936
100
AcDbEntity
  8
SIZE
 62
     0
440
 16777216
370
    -2
100
AcDbLine
 10
-609.6090943214003
 20
353.9973889233743
 30
0.0
 11
-669.6091265941285
 21
353.9973889233743
 31
0.0
  0
LINE
  5
A093B
330
A0936
100
AcDbEntity
  8
SIZE
 62
     0
440
 16777216
370
    -2
100
AcDbLine
 10
-679.6091265941286
 20
353.9973889233743
 30
0.0
 11
-782.4662694512716
 21
353.9973889233743
 31
0.0
  0
INSERT
  5
A093C
330
A0936
100
AcDbEntity
  8
SIZE
 62
     0
440
 16777216
370
    -2
100
AcDbBlockReference
  2
_ORIGIN
 10
-599.6090943214003
 20
353.9973889233743
 30
0.0
 41
10.0
 42
10.0
 43
10.0
  0
INSERT
  5
A093D
330
A0936
100
AcDbEntity
  8
SIZE
 62
     0
440
 16777216
370
    -2
100
AcDbBlockReference
  2
_ORIGIN
 10
-679.6091265941286
 20
353.9973889233743
 30
0.0
 41
10.0
 42
10.0
 43
10.0
 50
180.0
  0
MTEXT
  5
A093E
330
A0936
100
AcDbEntity
  8
SIZE
 62
     0
440
 16777216
100
AcDbMText
 10
-736.0376980227002
 20
388.9973889233743
 30
0.0
 40
50.0
 41
0.0
 71
     5
 72
     1
  1
\A1;80
 73
     1
 44
1.0
  0
POINT
  5
A093F
330
A0936
100
AcDbEntity
  8
DEFPOINTS
 62
     0
440
 16777216
100
AcDbPoint
 10
-679.6091265941286
 20
-3.536155257427708
 30
0.0
  0
POINT
  5
A0940
330
A0936
100
AcDbEntity
  8
DEFPOINTS
 62
     0
440
 16777216
100
AcDbPoint
 10
-599.6090943214003
 20
20.0
 30
0.0
  0
POINT
  5
A0941
330
A0936
100
AcDbEntity
  8
DEFPOINTS
 62
     0
440
 16777216
100
AcDbPoint
 10
-599.6090943214003
 20
353.9973889233743
 30
0.0
  0
ENDBLK
  5
A0942
330
A0936
100
AcDbEntity
  8
0
100
AcDbBlockEnd
  0
BLOCK
  5
A0944
330
A0943
100
AcDbEntity
  8
0
100
AcDbBlockBegin
  2
*D46
 70
     1
 10
0.0
 20
0.0
 30
0.0
  3
*D46
  1

  0
LINE
  5
A0945
330
A0943
100
AcDbEntity
  8
SIZE
 62
     0
440
 16777216
370
    -2
100
AcDbLine
 10
-279.6091275032122
 20
40.0
 30
0.0
 11
-279.6091275032122
 21
373.9973889233743
 31
0.0
  0
LINE
  5
A0946
330
A0943
100
AcDbEntity
  8
SIZE
 62
     0
440
 16777216
370
    -2
100
AcDbLine
 10
-599.6090943214003
 20
40.0
 30
0.0
 11
-599.6090943214003
 21
373.9973889233743
 31
0.0
  0
LINE
  5
A0947
330
A0943
100
AcDbEntity
  8
SIZE
 62
     0
440
 16777216
370
    -2
100
AcDbLine
 10
-289.6091275032122
 20
353.9973889233743
 30
0.0
 11
-589.6090943214003
 21
353.9973889233743
 31
0.0
  0
INSERT
  5
A0948
330
A0943
100
AcDbEntity
  8
SIZE
 62
     0
440
 16777216
370
    -2
100
AcDbBlockReference
  2
_ORIGIN
 10
-279.6091275032122
 20
353.9973889233743
 30
0.0
 41
10.0
 42
10.0
 43
10.0
  0
INSERT
  5
A0949
330
A0943
100
AcDbEntity
  8
SIZE
 62
     0
440
 16777216
370
    -2
100
AcDbBlockReference
  2
_ORIGIN
 10
-599.6090943214003
 20
353.9973889233743
 30
0.0
 41
10.0
 42
10.0
 43
10.0
 50
180.0
  0
MTEXT
  5
A094A
330
A0943
100
AcDbEntity
  8
SIZE
 62
     0
440
 16777216
100
AcDbMText
 10
-408.8547429406244
 20
388.9973889233743
 30
0.0
 40
50.0
 41
0.0
 71
     5
 72
     1
  1
\A1;320
 73
     1
 44
1.0
  0
POINT
  5
A094B
330
A0943
100
AcDbEntity
  8
DEFPOINTS
 62
     0
440
 16777216
100
AcDbPoint
 10
-279.6091275032122
 20
20.0
 30
0.0
  0
POINT
  5
A094C
330
A0943
100
AcDbEntity
  8
DEFPOINTS
 62
     0
440
 16777216
100
AcDbPoint
 10
-599.6090943214003
 20
20.0
 30
0.0
  0
POINT
  5
A094D
330
A0943
100
AcDbEntity
  8
DEFPOINTS
 62
     0
440
 16777216
100
AcDbPoint
 10
-599.6090943214003
 20
353.9973889233743
 30
0.0
  0
ENDBLK
  5
A094E
330
A0943
100
AcDbEntity
  8
0
100
AcDbBlockEnd
  0
BLOCK
  5
A0950
330
A094F
100
AcDbEntity
  8
0
100
AcDbBlockBegin
  2
*D47
 70
     1
 10
0.0
 20
0.0
 30
0.0
  3
*D47
  1

  0
LINE
  5
A0951
330
A094F
100
AcDbEntity
  8
SIZE
 62
     0
440
 16777216
370
    -2
100
AcDbLine
 10
-679.6091265941286
 20
20.00000028571412
 30
0.0
 11
-679.6091265941286
 21
601.2531448982563
 31
0.0
  0
LINE
  5
A0952
330
A094F
100
AcDbEntity
  8
SIZE
 62
     0
440
 16777216
370
    -2
100
AcDbLine
 10
0.3908734058713902
 20
-25.99999999999909
 30
0.0
 11
0.3908734058714286
 21
601.2531448982563
 31
0.0
  0
LINE
  5
A0953
330
A094F
100
AcDbEntity
  8
SIZE
 62
     0
440
 16777216
370
    -2
100
AcDbLine
 10
-669.6091265941285
 20
581.2531448982563
 30
0.0
 11
-9.609126594128571
 21
581.2531448982563
 31
0.0
  0
INSERT
  5
A0954
330
A094F
100
AcDbEntity
  8
SIZE
 62
     0
440
 16777216
370
    -2
100
AcDbBlockReference
  2
_ORIGIN
 10
-679.6091265941286
 20
581.2531448982563
 30
0.0
 41
10.0
 42
10.0
 43
10.0
 50
180.0
  0
INSERT
  5
A0955
330
A094F
100
AcDbEntity
  8
SIZE
 62
     0
440
 16777216
370
    -2
100
AcDbBlockReference
  2
_ORIGIN
 10
0.3908734058714274
 20
581.2531448982563
 30
0.0
 41
10.0
 42
10.0
 43
10.0
  0
MTEXT
  5
A0956
330
A094F
100
AcDbEntity
  8
SIZE
 62
     0
440
 16777216
100
AcDbMText
 10
-328.8913236828303
 20
616.2531448982563
 30
0.0
 40
50.0
 41
0.0
 71
     5
 72
     1
  1
\A1;680
 73
     1
 44
1.0
  0
POINT
  5
A0957
330
A094F
100
AcDbEntity
  8
DEFPOINTS
 62
     0
440
 16777216
100
AcDbPoint
 10
-679.6091265941286
 20
0.0000002857141226
 30
0.0
  0
POINT
  5
A0958
330
A094F
100
AcDbEntity
  8
DEFPOINTS
 62
     0
440
 16777216
100
AcDbPoint
 10
0.390873405871389
 20
-45.99999999999909
 30
0.0
  0
POINT
  5
A0959
330
A094F
100
AcDbEntity
  8
DEFPOINTS
 62
     0
440
 16777216
100
AcDbPoint
 10
0.3908734058714274
 20
581.2531448982563
 30
0.0
  0
ENDBLK
  5
A095A
330
A094F
100
AcDbEntity
  8
0
100
AcDbBlockEnd
  0
BLOCK
  5
A095C
330
A095B
100
AcDbEntity
  8
0
100
AcDbBlockBegin
  2
*D48
 70
     1
 10
0.0
 20
0.0
 30
0.0
  3
*D48
  1

  0
LINE
  5
A095D
330
A095B
100
AcDbEntity
  8
SIZE
 62
     0
440
 16777216
370
    -2
100
AcDbLine
 10
-50.60912659413225
 20
20.0
 30
0.0
 11
-50.60912659413222
 21
295.9378419719951
 31
0.0
  0
LINE
  5
A095E
330
A095B
100
AcDbEntity
  8
SIZE
 62
     0
440
 16777216
370
    -2
100
AcDbLine
 10
0.3908734058713902
 20
-25.99999999999909
 30
0.0
 11
0.3908734058714099
 21
295.9378419719951
 31
0.0
  0
LINE
  5
A095F
330
A095B
100
AcDbEntity
  8
SIZE
 62
     0
440
 16777216
370
    -2
100
AcDbLine
 10
-40.60912659413223
 20
275.9378419719951
 30
0.0
 11
-9.609126594128591
 21
275.9378419719951
 31
0.0
  0
LINE
  5
A0960
330
A095B
100
AcDbEntity
  8
SIZE
 62
     0
440
 16777216
370
    -2
100
AcDbLine
 10
0.3908734058714087
 20
275.9378419719951
 30
0.0
 11
83.9623019773
 21
275.9378419719951
 31
0.0
  0
INSERT
  5
A0961
330
A095B
100
AcDbEntity
  8
SIZE
 62
     0
440
 16777216
370
    -2
100
AcDbBlockReference
  2
_ORIGIN
 10
-50.60912659413223
 20
275.9378419719951
 30
0.0
 41
10.0
 42
10.0
 43
10.0
 50
180.0
  0
INSERT
  5
A0962
330
A095B
100
AcDbEntity
  8
SIZE
 62
     0
440
 16777216
370
    -2
100
AcDbBlockReference
  2
_ORIGIN
 10
0.3908734058714087
 20
275.9378419719951
 30
0.0
 41
10.0
 42
10.0
 43
10.0
  0
MTEXT
  5
A0963
330
A095B
100
AcDbEntity
  8
SIZE
 62
     0
440
 16777216
100
AcDbMText
 10
47.17658769158572
 20
310.9378419719951
 30
0.0
 40
50.0
 41
0.0
 71
     5
 72
     1
  1
\A1;51
 73
     1
 44
1.0
  0
POINT
  5
A0964
330
A095B
100
AcDbEntity
  8
DEFPOINTS
 62
     0
440
 16777216
100
AcDbPoint
 10
-50.60912659413225
 20
0.0
 30
0.0
  0
POINT
  5
A0965
330
A095B
100
AcDbEntity
  8
DEFPOINTS
 62
     0
440
 16777216
100
AcDbPoint
 10
0.390873405871389
 20
-45.99999999999909
 30
0.0
  0
POINT
  5
A0966
330
A095B
100
AcDbEntity
  8
DEFPOINTS
 62
     0
440
 16777216
100
AcDbPoint
 10
0.3908734058714087
 20
275.9378419719951
 30
0.0
  0
ENDBLK
  5
A0967
330
A095B
100
AcDbEntity
  8
0
100
AcDbBlockEnd
  0
BLOCK
  5
A0969
330
A0968
100
AcDbEntity
  8
0
100
AcDbBlockBegin
  2
*D49
 70
     1
 10
0.0
 20
0.0
 30
0.0
  3
*D49
  1

  0
LINE
  5
A096A
330
A0968
100
AcDbEntity
  8
SIZE
 62
     0
440
 16777216
370
    -2
100
AcDbLine
 10
0.3908734058713902
 20
-25.99999999999909
 30
0.0
 11
0.3908734058714052
 21
218.5381145137408
 31
0.0
  0
LINE
  5
A096B
330
A0968
100
AcDbEntity
  8
SIZE
 62
     0
440
 16777216
370
    -2
100
AcDbLine
 10
-9.609126594128609
 20
-20.99999999999909
 30
0.0
 11
-9.609126594128595
 21
218.5381145137408
 31
0.0
  0
LINE
  5
A096C
330
A0968
100
AcDbEntity
  8
SIZE
 62
     0
440
 16777216
370
    -2
100
AcDbLine
 10
-19.6091265941286
 20
198.5381145137407
 30
0.0
 11
-29.6091265941286
 21
198.5381145137407
 31
0.0
  0
LINE
  5
A096D
330
A0968
100
AcDbEntity
  8
SIZE
 62
     0
440
 16777216
370
    -2
100
AcDbLine
 10
10.3908734058714
 20
198.5381145137407
 30
0.0
 11
104.6765876915858
 21
198.5381145137407
 31
0.0
  0
LINE
  5
A096E
330
A0968
100
AcDbEntity
  8
SIZE
 62
     0
440
 16777216
370
    -2
100
AcDbLine
 10
-9.609126594128596
 20
198.5381145137407
 30
0.0
 11
0.390873405871404
 21
198.5381145137407
 31
0.0
  0
INSERT
  5
A096F
330
A0968
100
AcDbEntity
  8
SIZE
 62
     0
440
 16777216
370
    -2
100
AcDbBlockReference
  2
_ORIGIN
 10
-9.609126594128596
 20
198.5381145137407
 30
0.0
 41
10.0
 42
10.0
 43
10.0
  0
INSERT
  5
A0970
330
A0968
100
AcDbEntity
  8
SIZE
 62
     0
440
 16777216
370
    -2
100
AcDbBlockReference
  2
_ORIGIN
 10
0.390873405871404
 20
198.5381145137407
 30
0.0
 41
10.0
 42
10.0
 43
10.0
 50
180.0
  0
MTEXT
  5
A0971
330
A0968
100
AcDbEntity
  8
SIZE
 62
     0
440
 16777216
100
AcDbMText
 10
62.53373054872873
 20
233.5381145137408
 30
0.0
 40
50.0
 41
0.0
 71
     5
 72
     1
  1
\A1;10
 73
     1
 44
1.0
  0
POINT
  5
A0972
330
A0968
100
AcDbEntity
  8
DEFPOINTS
 62
     0
440
 16777216
100
AcDbPoint
 10
0.390873405871389
 20
-45.99999999999909
 30
0.0
  0
POINT
  5
A0973
330
A0968
100
AcDbEntity
  8
DEFPOINTS
 62
     0
440
 16777216
100
AcDbPoint
 10
-9.609126594128611
 20
-40.99999999999909
 30
0.0
  0
POINT
  5
A0974
330
A0968
100
AcDbEntity
  8
DEFPOINTS
 62
     0
440
 16777216
100
AcDbPoint
 10
-9.609126594128596
 20
198.5381145137407
 30
0.0
  0
ENDBLK
  5
A0975
330
A0968
100
AcDbEntity
  8
0
100
AcDbBlockEnd
  0
BLOCK
  5
A0977
330
A0976
100
AcDbEntity
  8
0
100
AcDbBlockBegin
  2
*D50
 70
     1
 10
0.0
 20
0.0
 30
0.0
  3
*D50
  1

  0
LINE
  5
A0978
330
A0976
100
AcDbEntity
  8
SIZE
 62
     0
440
 16777216
370
    -2
100
AcDbLine
 10
-30.60912659413225
 20
-0.0000000000000057
 30
0.0
 11
150.2647588175314
 21
-0.0000000000000569
 31
0.0
  0
LINE
  5
A0979
330
A0976
100
AcDbEntity
  8
SIZE
 62
     0
440
 16777216
370
    -2
100
AcDbLine
 10
14.9766634058542
 20
-40.99999999999818
 30
0.0
 11
150.2647588175314
 21
-40.99999999999822
 31
0.0
  0
LINE
  5
A097A
330
A0976
100
AcDbEntity
  8
SIZE
 62
     0
440
 16777216
370
    -2
100
AcDbLine
 10
130.2647588175314
 20
-30.99999999999822
 30
0.0
 11
130.2647588175314
 21
-10.00000000000005
 31
0.0
  0
LINE
  5
A097B
330
A0976
100
AcDbEntity
  8
SIZE
 62
     0
440
 16777216
370
    -2
100
AcDbLine
 10
130.2647588175314
 20
-0.0000000000000512
 30
0.0
 11
130.2647588175314
 21
93.59939188056669
 31
0.0
  0
INSERT
  5
A097C
330
A0976
100
AcDbEntity
  8
SIZE
 62
     0
440
 16777216
370
    -2
100
AcDbBlockReference
  2
_ORIGIN
 10
130.2647588175314
 20
-40.99999999999822
 30
0.0
 41
10.0
 42
10.0
 43
10.0
 50
270.0
  0
INSERT
  5
A097D
330
A0976
100
AcDbEntity
  8
SIZE
 62
     0
440
 16777216
370
    -2
100
AcDbBlockReference
  2
_ORIGIN
 10
130.2647588175314
 20
-0.0000000000000512
 30
0.0
 41
10.0
 42
10.0
 43
10.0
 50
90.0
  0
MTEXT
  5
A097E
330
A0976
100
AcDbEntity
  8
SIZE
 62
     0
440
 16777216
100
AcDbMText
 10
95.26475881753141
 20
56.81367759485242
 30
0.0
 40
50.0
 41
0.0
 71
     5
 72
     1
  1
\A1;41
 11
0.0000000000000001
 21
1.0
 31
0.0
 73
     1
 44
1.0
  0
POINT
  5
A097F
330
A0976
100
AcDbEntity
  8
DEFPOINTS
 62
     0
440
 16777216
100
AcDbPoint
 10
-50.60912659413225
 20
0.0
 30
0.0
  0
POINT
  5
A0980
330
A0976
100
AcDbEntity
  8
DEFPOINTS
 62
     0
440
 16777216
100
AcDbPoint
 10
-5.023336594145803
 20
-40.99999999999818
 30
0.0
  0
POINT
  5
A0981
330
A0976
100
AcDbEntity
  8
DEFPOINTS
 62
     0
440
 16777216
100
AcDbPoint
 10
130.2647588175314
 20
-40.99999999999822
 30
0.0
  0
ENDBLK
  5
A0982
330
A0976
100
AcDbEntity
  8
0
100
AcDbBlockEnd
  0
BLOCK
  5
A0984
330
A0983
100
AcDbEntity
  8
0
100
AcDbBlockBegin
  2
*D51
 70
     1
 10
0.0
 20
0.0
 30
0.0
  3
*D51
  1

  0
LINE
  5
A0985
330
A0983
100
AcDbEntity
  8
SIZE
 62
     0
440
 16777216
370
    -2
100
AcDbLine
 10
20.39087340587139
 20
-45.99999999999909
 30
0.0
 11
230.7305371444891
 21
-45.99999999999915
 31
0.0
  0
LINE
  5
A0986
330
A0983
100
AcDbEntity
  8
SIZE
 62
     0
440
 16777216
370
    -2
100
AcDbLine
 10
-30.60912659413225
 20
-0.0000000000000057
 30
0.0
 11
230.7305371444891
 21
-0.0000000000000797
 31
0.0
  0
LINE
  5
A0987
330
A0983
100
AcDbEntity
  8
SIZE
 62
     0
440
 16777216
370
    -2
100
AcDbLine
 10
210.7305371444891
 20
-35.99999999999916
 30
0.0
 11
210.7305371444891
 21
-10.00000000000007
 31
0.0
  0
LINE
  5
A0988
330
A0983
100
AcDbEntity
  8
SIZE
 62
     0
440
 16777216
370
    -2
100
AcDbLine
 10
210.7305371444891
 20
-0.000000000000074
 30
0.0
 11
210.7305371444891
 21
100.7142857142856
 31
0.0
  0
INSERT
  5
A0989
330
A0983
100
AcDbEntity
  8
SIZE
 62
     0
440
 16777216
370
    -2
100
AcDbBlockReference
  2
_ORIGIN
 10
210.7305371444891
 20
-45.99999999999915
 30
0.0
 41
10.0
 42
10.0
 43
10.0
 50
270.0
  0
INSERT
  5
A098A
330
A0983
100
AcDbEntity
  8
SIZE
 62
     0
440
 16777216
370
    -2
100
AcDbBlockReference
  2
_ORIGIN
 10
210.7305371444891
 20
-0.000000000000074
 30
0.0
 41
10.0
 42
10.0
 43
10.0
 50
90.0
  0
MTEXT
  5
A098B
330
A0983
100
AcDbEntity
  8
SIZE
 62
     0
440
 16777216
100
AcDbMText
 10
175.730537144489
 20
55.35714285714281
 30
0.0
 40
50.0
 41
0.0
 71
     5
 72
     1
  1
\A1;46
 11
0.0000000000000001
 21
1.0
 31
0.0
 73
     1
 44
1.0
  0
POINT
  5
A098C
330
A0983
100
AcDbEntity
  8
DEFPOINTS
 62
     0
440
 16777216
100
AcDbPoint
 10
0.390873405871389
 20
-45.99999999999909
 30
0.0
  0
POINT
  5
A098D
330
A0983
100
AcDbEntity
  8
DEFPOINTS
 62
     0
440
 16777216
100
AcDbPoint
 10
-50.60912659413225
 20
0.0
 30
0.0
  0
POINT
  5
A098E
330
A0983
100
AcDbEntity
  8
DEFPOINTS
 62
     0
440
 16777216
100
AcDbPoint
 10
210.7305371444891
 20
-0.000000000000074
 30
0.0
  0
ENDBLK
  5
A098F
330
A0983
100
AcDbEntity
  8
0
100
AcDbBlockEnd
  0
BLOCK
  5
A0991
330
A0990
100
AcDbEntity
  8
0
100
AcDbBlockBegin
  2
*D52
 70
     1
 10
0.0
 20
0.0
 30
0.0
  3
*D52
  1

  0
LINE
  5
A0992
330
A0990
100
AcDbEntity
  8
SIZE
 62
     0
440
 16777216
370
    -2
100
AcDbLine
 10
20.39087340587139
 20
-45.99999999999909
 30
0.0
 11
230.7305371444891
 21
-45.99999999999915
 31
0.0
  0
LINE
  5
A0993
330
A0990
100
AcDbEntity
  8
SIZE
 62
     0
440
 16777216
370
    -2
100
AcDbLine
 10
-29.18597886145699
 20
-194.7305747863397
 30
0.0
 11
230.730537144489
 21
-194.7305747863398
 31
0.0
  0
LINE
  5
A0994
330
A0990
100
AcDbEntity
  8
SIZE
 62
     0
440
 16777216
370
    -2
100
AcDbLine
 10
210.7305371444891
 20
-55.99999999999916
 30
0.0
 11
210.730537144489
 21
-184.7305747863398
 31
0.0
  0
INSERT
  5
A0995
330
A0990
100
AcDbEntity
  8
SIZE
 62
     0
440
 16777216
370
    -2
100
AcDbBlockReference
  2
_ORIGIN
 10
210.7305371444891
 20
-45.99999999999915
 30
0.0
 41
10.0
 42
10.0
 43
10.0
 50
90.0
  0
INSERT
  5
A0996
330
A0990
100
AcDbEntity
  8
SIZE
 62
     0
440
 16777216
370
    -2
100
AcDbBlockReference
  2
_ORIGIN
 10
210.730537144489
 20
-194.7305747863398
 30
0.0
 41
10.0
 42
10.0
 43
10.0
 50
270.0
  0
MTEXT
  5
A0997
330
A0990
100
AcDbEntity
  8
SIZE
 62
     0
440
 16777216
100
AcDbMText
 10
175.730537144489
 20
-120.365287393169
 30
0.0
 40
50.0
 41
0.0
 71
     5
 72
     1
  1
\A1;149
 11
0.0000000000000001
 21
1.0
 31
0.0
 73
     1
 44
1.0
  0
POINT
  5
A0998
330
A0990
100
AcDbEntity
  8
DEFPOINTS
 62
     0
440
 16777216
100
AcDbPoint
 10
0.390873405871389
 20
-45.99999999999909
 30
0.0
  0
POINT
  5
A0999
330
A0990
100
AcDbEntity
  8
DEFPOINTS
 62
     0
440
 16777216
100
AcDbPoint
 10
-49.18597886145699
 20
-194.7305747863397
 30
0.0
  0
POINT
  5
A099A
330
A0990
100
AcDbEntity
  8
DEFPOINTS
 62
     0
440
 16777216
100
AcDbPoint
 10
210.730537144489
 20
-194.7305747863398
 30
0.0
  0
ENDBLK
  5
A099B
330
A0990
100
AcDbEntity
  8
0
100
AcDbBlockEnd
  0
BLOCK
  5
A099D
330
A099C
100
AcDbEntity
  8
0
100
AcDbBlockBegin
  2
*D53
 70
     1
 10
0.0
 20
0.0
 30
0.0
  3
*D53
  1

  0
LINE
  5
A099E
330
A099C
100
AcDbEntity
  8
SIZE
 62
     0
440
 16777216
370
    -2
100
AcDbLine
 10
-30.60912659413225
 20
-0.0000000000000057
 30
0.0
 11
324.3051409566178
 21
-0.0000000000001062
 31
0.0
  0
LINE
  5
A099F
330
A099C
100
AcDbEntity
  8
SIZE
 62
     0
440
 16777216
370
    -2
100
AcDbLine
 10
-502.4349553856305
 20
-235.999999999999
 30
0.0
 11
324.3051409566178
 21
-235.9999999999992
 31
0.0
  0
LINE
  5
A09A0
330
A099C
100
AcDbEntity
  8
SIZE
 62
     0
440
 16777216
370
    -2
100
AcDbLine
 10
304.3051409566178
 20
-10.0000000000001
 30
0.0
 11
304.3051409566178
 21
-225.9999999999992
 31
0.0
  0
INSERT
  5
A09A1
330
A099C
100
AcDbEntity
  8
SIZE
 62
     0
440
 16777216
370
    -2
100
AcDbBlockReference
  2
_ORIGIN
 10
304.3051409566178
 20
-0.0000000000001005
 30
0.0
 41
10.0
 42
10.0
 43
10.0
 50
90.0
  0
INSERT
  5
A09A2
330
A099C
100
AcDbEntity
  8
SIZE
 62
     0
440
 16777216
370
    -2
100
AcDbBlockReference
  2
_ORIGIN
 10
304.3051409566178
 20
-235.9999999999992
 30
0.0
 41
10.0
 42
10.0
 43
10.0
 50
270.0
  0
MTEXT
  5
A09A3
330
A099C
100
AcDbEntity
  8
SIZE
 62
     0
440
 16777216
100
AcDbMText
 10
269.3051409566178
 20
-115.3626253280954
 30
0.0
 40
50.0
 41
0.0
 71
     5
 72
     1
  1
\A1;236
 11
0.0000000000000001
 21
1.0
 31
0.0
 73
     1
 44
1.0
  0
POINT
  5
A09A4
330
A099C
100
AcDbEntity
  8
DEFPOINTS
 62
     0
440
 16777216
100
AcDbPoint
 10
-50.60912659413225
 20
0.0
 30
0.0
  0
POINT
  5
A09A5
330
A099C
100
AcDbEntity
  8
DEFPOINTS
 62
     0
440
 16777216
100
AcDbPoint
 10
-522.4349553856304
 20
-235.999999999999
 30
0.0
  0
POINT
  5
A09A6
330
A099C
100
AcDbEntity
  8
DEFPOINTS
 62
     0
440
 16777216
100
AcDbPoint
 10
304.3051409566178
 20
-235.9999999999992
 30
0.0
  0
ENDBLK
  5
A09A7
330
A099C
100
AcDbEntity
  8
0
100
AcDbBlockEnd
  0
BLOCK
  5
A09A9
330
A09A8
100
AcDbEntity
  8
0
100
AcDbBlockBegin
  2
*D54
 70
     1
 10
0.0
 20
0.0
 30
0.0
  3
*D54
  1

  0
LINE
  5
A09AA
330
A09A8
100
AcDbEntity
  8
SIZE
 62
     0
440
 16777216
370
    -2
100
AcDbLine
 10
-9.609126594128609
 20
-20.99999971428042
 30
0.0
 11
-9.609126594128598
 21
148.7106260269138
 31
0.0
  0
LINE
  5
A09AB
330
A09A8
100
AcDbEntity
  8
SIZE
 62
     0
440
 16777216
370
    -2
100
AcDbLine
 10
-4.60912659412861
 20
-20.99999971428042
 30
0.0
 11
-4.609126594128599
 21
148.7106260269138
 31
0.0
  0
LINE
  5
A09AC
330
A09A8
100
AcDbEntity
  8
SIZE
 62
     0
440
 16777216
370
    -2
100
AcDbLine
 10
-19.6091265941286
 20
128.7106260269138
 30
0.0
 11
-29.6091265941286
 21
128.7106260269138
 31
0.0
  0
LINE
  5
A09AD
330
A09A8
100
AcDbEntity
  8
SIZE
 62
     0
440
 16777216
370
    -2
100
AcDbLine
 10
5.390873405871399
 20
128.7106260269138
 30
0.0
 11
69.76664591637382
 21
128.7106260269138
 31
0.0
  0
LINE
  5
A09AE
330
A09A8
100
AcDbEntity
  8
SIZE
 62
     0
440
 16777216
370
    -2
100
AcDbLine
 10
-9.6091265941286
 20
128.7106260269138
 30
0.0
 11
-4.6091265941286
 21
128.7106260269138
 31
0.0
  0
INSERT
  5
A09AF
330
A09A8
100
AcDbEntity
  8
SIZE
 62
     0
440
 16777216
370
    -2
100
AcDbBlockReference
  2
_ORIGIN
 10
-9.6091265941286
 20
128.7106260269138
 30
0.0
 41
10.0
 42
10.0
 43
10.0
  0
INSERT
  5
A09B0
330
A09A8
100
AcDbEntity
  8
SIZE
 62
     0
440
 16777216
370
    -2
100
AcDbBlockReference
  2
_ORIGIN
 10
-4.6091265941286
 20
128.7106260269138
 30
0.0
 41
10.0
 42
10.0
 43
10.0
 50
180.0
  0
MTEXT
  5
A09B1
330
A09A8
100
AcDbEntity
  8
SIZE
 62
     0
440
 16777216
100
AcDbMText
 10
44.76664591637382
 20
163.7106260269138
 30
0.0
 40
50.0
 41
0.0
 71
     5
 72
     1
  1
\A1;5
 73
     1
 44
1.0
  0
POINT
  5
A09B2
330
A09A8
100
AcDbEntity
  8
DEFPOINTS
 62
     0
440
 16777216
100
AcDbPoint
 10
-9.609126594128611
 20
-40.99999971428042
 30
0.0
  0
POINT
  5
A09B3
330
A09A8
100
AcDbEntity
  8
DEFPOINTS
 62
     0
440
 16777216
100
AcDbPoint
 10
-4.609126594128611
 20
-40.99999971428042
 30
0.0
  0
POINT
  5
A09B4
330
A09A8
100
AcDbEntity
  8
DEFPOINTS
 62
     0
440
 16777216
100
AcDbPoint
 10
-4.6091265941286
 20
128.7106260269138
 30
0.0
  0
ENDBLK
  5
A09B5
330
A09A8
100
AcDbEntity
  8
0
100
AcDbBlockEnd
  0
BLOCK
  5
A0AF3
330
A0AF2
100
AcDbEntity
  8
0
100
AcDbBlockBegin
  2
*D56
 70
     1
 10
0.0
 20
0.0
 30
0.0
  3
*D56
  1

  0
LINE
  5
A0CB0
330
A0AF2
100
AcDbEntity
  8
SIZE
 62
     0
440
 16777216
370
    -2
100
AcDbLine
 10
670.0
 20
-20.99999999999454
 30
0.0
 11
670.0
 21
148.7106257411997
 31
0.0
  0
LINE
  5
A0CB1
330
A0AF2
100
AcDbEntity
  8
SIZE
 62
     0
440
 16777216
370
    -2
100
AcDbLine
 10
675.0
 20
-20.99999999999454
 30
0.0
 11
675.0
 21
148.7106257411997
 31
0.0
  0
LINE
  5
A0CB2
330
A0AF2
100
AcDbEntity
  8
SIZE
 62
     0
440
 16777216
370
    -2
100
AcDbLine
 10
660.0
 20
128.7106257411997
 30
0.0
 11
650.0
 21
128.7106257411997
 31
0.0
  0
LINE
  5
A0CB3
330
A0AF2
100
AcDbEntity
  8
SIZE
 62
     0
440
 16777216
370
    -2
100
AcDbLine
 10
685.0
 20
128.7106257411997
 30
0.0
 11
749.3757725105024
 21
128.7106257411997
 31
0.0
  0
LINE
  5
A0CB4
330
A0AF2
100
AcDbEntity
  8
SIZE
 62
     0
440
 16777216
370
    -2
100
AcDbLine
 10
670.0
 20
128.7106257411997
 30
0.0
 11
675.0
 21
128.7106257411997
 31
0.0
  0
INSERT
  5
A0CB5
330
A0AF2
100
AcDbEntity
  8
SIZE
 62
     0
440
 16777216
370
    -2
100
AcDbBlockReference
  2
_ORIGIN
 10
670.0
 20
128.7106257411997
 30
0.0
 41
10.0
 42
10.0
 43
10.0
  0
INSERT
  5
A0CB6
330
A0AF2
100
AcDbEntity
  8
SIZE
 62
     0
440
 16777216
370
    -2
100
AcDbBlockReference
  2
_ORIGIN
 10
675.0
 20
128.7106257411997
 30
0.0
 41
10.0
 42
10.0
 43
10.0
 50
180.0
  0
MTEXT
  5
A0CB7
330
A0AF2
100
AcDbEntity
  8
SIZE
 62
     0
440
 16777216
100
AcDbMText
 10
724.3757725105024
 20
163.7106257411997
 30
0.0
 40
50.0
 41
0.0
 71
     5
 72
     1
  1
\A1;5
 73
     1
 44
1.0
  0
POINT
  5
A0CB8
330
A0AF2
100
AcDbEntity
  8
DEFPOINTS
 62
     0
440
 16777216
100
AcDbPoint
 10
670.0
 20
-40.99999999999454
 30
0.0
  0
POINT
  5
A0CB9
330
A0AF2
100
AcDbEntity
  8
DEFPOINTS
 62
     0
440
 16777216
100
AcDbPoint
 10
675.0
 20
-40.99999999999454
 30
0.0
  0
POINT
  5
A0CBA
330
A0AF2
100
AcDbEntity
  8
DEFPOINTS
 62
     0
440
 16777216
100
AcDbPoint
 10
675.0
 20
128.7106257411997
 30
0.0
  0
ENDBLK
  5
A0AF4
330
A0AF2
100
AcDbEntity
  8
0
100
AcDbBlockEnd
  0
BLOCK
  5
A0B01
330
A0B00
100
AcDbEntity
  8
0
100
AcDbBlockBegin
  2
*D57
 70
     1
 10
0.0
 20
0.0
 30
0.0
  3
*D57
  1

  0
LINE
  5
A0C33
330
A0B00
100
AcDbEntity
  8
SIZE
 62
     0
440
 16777216
370
    -2
100
AcDbLine
 10
246.3999999999924
 20
-210.0000002857141
 30
0.0
 11
246.3999999999924
 21
-684.2847035243657
 31
0.0
  0
LINE
  5
A0C34
330
A0B00
100
AcDbEntity
  8
SIZE
 62
     0
440
 16777216
370
    -2
100
AcDbLine
 10
-0.0000000000000012
 20
-249.9969978095505
 30
0.0
 11
-0.0000000000000278
 21
-684.2847035243657
 31
0.0
  0
LINE
  5
A0C35
330
A0B00
100
AcDbEntity
  8
SIZE
 62
     0
440
 16777216
370
    -2
100
AcDbLine
 10
236.3999999999923
 20
-664.2847035243658
 30
0.0
 11
9.999999999999973
 21
-664.2847035243658
 31
0.0
  0
INSERT
  5
A0C36
330
A0B00
100
AcDbEntity
  8
SIZE
 62
     0
440
 16777216
370
    -2
100
AcDbBlockReference
  2
_ORIGIN
 10
246.3999999999924
 20
-664.2847035243658
 30
0.0
 41
10.0
 42
10.0
 43
10.0
  0
INSERT
  5
A0C37
330
A0B00
100
AcDbEntity
  8
SIZE
 62
     0
440
 16777216
370
    -2
100
AcDbBlockReference
  2
_ORIGIN
 10
-0.0000000000000266
 20
-664.2847035243658
 30
0.0
 41
10.0
 42
10.0
 43
10.0
 50
180.0
  0
MTEXT
  5
A0C38
330
A0B00
100
AcDbEntity
  8
SIZE
 62
     0
440
 16777216
100
AcDbMText
 10
101.6464466094007
 20
-629.2847035243657
 30
0.0
 40
50.0
 41
0.0
 71
     5
 72
     1
  1
\A1;246
 73
     1
 44
1.0
  0
POINT
  5
A0C39
330
A0B00
100
AcDbEntity
  8
DEFPOINTS
 62
     0
440
 16777216
100
AcDbPoint
 10
246.3999999999924
 20
-190.0000002857141
 30
0.0
  0
POINT
  5
A0C3A
330
A0B00
100
AcDbEntity
  8
DEFPOINTS
 62
     0
440
 16777216
100
AcDbPoint
 10
0.0
 20
-229.9969978095505
 30
0.0
  0
POINT
  5
A0C3B
330
A0B00
100
AcDbEntity
  8
DEFPOINTS
 62
     0
440
 16777216
100
AcDbPoint
 10
-0.0000000000000266
 20
-664.2847035243658
 30
0.0
  0
ENDBLK
  5
A0B02
330
A0B00
100
AcDbEntity
  8
0
100
AcDbBlockEnd
  0
BLOCK
  5
A0B0D
330
A0B0C
100
AcDbEntity
  8
0
100
AcDbBlockBegin
  2
*D58
 70
     1
 10
0.0
 20
0.0
 30
0.0
  3
*D58
  1

  0
LINE
  5
A0C3C
330
A0B0C
100
AcDbEntity
  8
SIZE
 62
     0
440
 16777216
370
    -2
100
AcDbLine
 10
-6.038823213530121
 20
-236.0000002857131
 30
0.0
 11
-306.6263719338459
 21
-236.000000285713
 31
0.0
  0
LINE
  5
A0C3D
330
A0B0C
100
AcDbEntity
  8
SIZE
 62
     0
440
 16777216
370
    -2
100
AcDbLine
 10
-40.0
 20
-199.0000002857087
 30
0.0
 11
-306.6263719338459
 21
-199.0000002857086
 31
0.0
  0
LINE
  5
A0C3E
330
A0B0C
100
AcDbEntity
  8
SIZE
 62
     0
440
 16777216
370
    -2
100
AcDbLine
 10
-286.6263719338459
 20
-189.0000002857085
 30
0.0
 11
-286.6263719338459
 21
-179.0000002857086
 31
0.0
  0
LINE
  5
A0C3F
330
A0B0C
100
AcDbEntity
  8
SIZE
 62
     0
440
 16777216
370
    -2
100
AcDbLine
 10
-286.6263719338459
 20
-246.000000285713
 30
0.0
 11
-286.6263719338459
 21
-348.8571431428559
 31
0.0
  0
LINE
  5
A0C40
330
A0B0C
100
AcDbEntity
  8
SIZE
 62
     0
440
 16777216
370
    -2
100
AcDbLine
 10
-286.6263719338459
 20
-199.0000002857086
 30
0.0
 11
-286.6263719338459
 21
-236.000000285713
 31
0.0
  0
INSERT
  5
A0C41
330
A0B0C
100
AcDbEntity
  8
SIZE
 62
     0
440
 16777216
370
    -2
100
AcDbBlockReference
  2
_ORIGIN
 10
-286.6263719338459
 20
-199.0000002857086
 30
0.0
 41
10.0
 42
10.0
 43
10.0
 50
270.0
  0
INSERT
  5
A0C42
330
A0B0C
100
AcDbEntity
  8
SIZE
 62
     0
440
 16777216
370
    -2
100
AcDbBlockReference
  2
_ORIGIN
 10
-286.6263719338459
 20
-236.000000285713
 30
0.0
 41
10.0
 42
10.0
 43
10.0
 50
90.0
  0
MTEXT
  5
A0C43
330
A0B0C
100
AcDbEntity
  8
SIZE
 62
     0
440
 16777216
100
AcDbMText
 10
-321.6263719338458
 20
-302.4285717142846
 30
0.0
 40
50.0
 41
0.0
 71
     5
 72
     1
  1
\A1;37
 11
0.0000000000000001
 21
1.0
 31
0.0
 73
     1
 44
1.0
  0
POINT
  5
A0C44
330
A0B0C
100
AcDbEntity
  8
DEFPOINTS
 62
     0
440
 16777216
100
AcDbPoint
 10
13.96117678646987
 20
-236.0000002857131
 30
0.0
  0
POINT
  5
A0C45
330
A0B0C
100
AcDbEntity
  8
DEFPOINTS
 62
     0
440
 16777216
100
AcDbPoint
 10
-20.0
 20
-199.0000002857087
 30
0.0
  0
POINT
  5
A0C46
330
A0B0C
100
AcDbEntity
  8
DEFPOINTS
 62
     0
440
 16777216
100
AcDbPoint
 10
-286.6263719338459
 20
-199.0000002857086
 30
0.0
  0
ENDBLK
  5
A0B0E
330
A0B0C
100
AcDbEntity
  8
0
100
AcDbBlockEnd
  0
BLOCK
  5
A0B1B
330
A0B1A
100
AcDbEntity
  8
0
100
AcDbBlockBegin
  2
*D59
 70
     1
 10
0.0
 20
0.0
 30
0.0
  3
*D59
  1

  0
LINE
  5
A0C47
330
A0B1A
100
AcDbEntity
  8
SIZE
 62
     0
440
 16777216
370
    -2
100
AcDbLine
 10
-40.0
 20
-199.0000002857087
 30
0.0
 11
-306.6263719338459
 21
-199.0000002857086
 31
0.0
  0
LINE
  5
A0C48
330
A0B1A
100
AcDbEntity
  8
SIZE
 62
     0
440
 16777216
370
    -2
100
AcDbLine
 10
-40.00000000000045
 20
-30.00000028570866
 30
0.0
 11
-306.6263719338458
 21
-30.00000028570859
 31
0.0
  0
LINE
  5
A0C49
330
A0B1A
100
AcDbEntity
  8
SIZE
 62
     0
440
 16777216
370
    -2
100
AcDbLine
 10
-286.6263719338459
 20
-189.0000002857085
 30
0.0
 11
-286.6263719338458
 21
-40.00000028570858
 31
0.0
  0
INSERT
  5
A0C4A
330
A0B1A
100
AcDbEntity
  8
SIZE
 62
     0
440
 16777216
370
    -2
100
AcDbBlockReference
  2
_ORIGIN
 10
-286.6263719338459
 20
-199.0000002857086
 30
0.0
 41
10.0
 42
10.0
 43
10.0
 50
270.0
  0
INSERT
  5
A0C4B
330
A0B1A
100
AcDbEntity
  8
SIZE
 62
     0
440
 16777216
370
    -2
100
AcDbBlockReference
  2
_ORIGIN
 10
-286.6263719338458
 20
-30.00000028570859
 30
0.0
 41
10.0
 42
10.0
 43
10.0
 50
90.0
  0
MTEXT
  5
A0C4C
330
A0B1A
100
AcDbEntity
  8
SIZE
 62
     0
440
 16777216
100
AcDbMText
 10
-321.6263719338458
 20
-114.5000002857086
 30
0.0
 40
50.0
 41
0.0
 71
     5
 72
     1
  1
\A1;169
 11
0.0000000000000001
 21
1.0
 31
0.0
 73
     1
 44
1.0
  0
POINT
  5
A0C4D
330
A0B1A
100
AcDbEntity
  8
DEFPOINTS
 62
     0
440
 16777216
100
AcDbPoint
 10
-20.0
 20
-199.0000002857087
 30
0.0
  0
POINT
  5
A0C4E
330
A0B1A
100
AcDbEntity
  8
DEFPOINTS
 62
     0
440
 16777216
100
AcDbPoint
 10
-20.00000000000046
 20
-30.00000028570867
 30
0.0
  0
POINT
  5
A0C4F
330
A0B1A
100
AcDbEntity
  8
DEFPOINTS
 62
     0
440
 16777216
100
AcDbPoint
 10
-286.6263719338458
 20
-30.00000028570859
 30
0.0
  0
ENDBLK
  5
A0B1C
330
A0B1A
100
AcDbEntity
  8
0
100
AcDbBlockEnd
  0
BLOCK
  5
A0B27
330
A0B26
100
AcDbEntity
  8
0
100
AcDbBlockBegin
  2
*D60
 70
     1
 10
0.0
 20
0.0
 30
0.0
  3
*D60
  1

  0
LINE
  5
A0C50
330
A0B26
100
AcDbEntity
  8
SIZE
 62
     0
440
 16777216
370
    -2
100
AcDbLine
 10
216.3603199999852
 20
-190.0000002857141
 30
0.0
 11
-403.1071381689035
 21
-190.0000002857139
 31
0.0
  0
LINE
  5
A0C51
330
A0B26
100
AcDbEntity
  8
SIZE
 62
     0
440
 16777216
370
    -2
100
AcDbLine
 10
-5.07561853176594
 20
-0.0000002857141169
 30
0.0
 11
-403.1071381689034
 21
-0.0000002857140042
 31
0.0
  0
LINE
  5
A0C52
330
A0B26
100
AcDbEntity
  8
SIZE
 62
     0
440
 16777216
370
    -2
100
AcDbLine
 10
-383.1071381689035
 20
-180.0000002857139
 30
0.0
 11
-383.1071381689035
 21
-10.00000028571401
 31
0.0
  0
INSERT
  5
A0C53
330
A0B26
100
AcDbEntity
  8
SIZE
 62
     0
440
 16777216
370
    -2
100
AcDbBlockReference
  2
_ORIGIN
 10
-383.1071381689035
 20
-190.0000002857139
 30
0.0
 41
10.0
 42
10.0
 43
10.0
 50
270.0
  0
INSERT
  5
A0C54
330
A0B26
100
AcDbEntity
  8
SIZE
 62
     0
440
 16777216
370
    -2
100
AcDbBlockReference
  2
_ORIGIN
 10
-383.1071381689035
 20
-0.0000002857140098
 30
0.0
 41
10.0
 42
10.0
 43
10.0
 50
90.0
  0
MTEXT
  5
A0C55
330
A0B26
100
AcDbEntity
  8
SIZE
 62
     0
440
 16777216
100
AcDbMText
 10
-418.1071381689035
 20
-95.00000028571404
 30
0.0
 40
50.0
 41
0.0
 71
     5
 72
     1
  1
\A1;190
 11
0.0000000000000001
 21
1.0
 31
0.0
 73
     1
 44
1.0
  0
POINT
  5
A0C56
330
A0B26
100
AcDbEntity
  8
DEFPOINTS
 62
     0
440
 16777216
100
AcDbPoint
 10
236.3603199999852
 20
-190.0000002857141
 30
0.0
  0
POINT
  5
A0C57
330
A0B26
100
AcDbEntity
  8
DEFPOINTS
 62
     0
440
 16777216
100
AcDbPoint
 10
14.92438146823406
 20
-0.0000002857141226
 30
0.0
  0
POINT
  5
A0C58
330
A0B26
100
AcDbEntity
  8
DEFPOINTS
 62
     0
440
 16777216
100
AcDbPoint
 10
-383.1071381689035
 20
-0.0000002857140098
 30
0.0
  0
ENDBLK
  5
A0B28
330
A0B26
100
AcDbEntity
  8
0
100
AcDbBlockEnd
  0
BLOCK
  5
A0B33
330
A0B32
100
AcDbEntity
  8
0
100
AcDbBlockBegin
  2
*D61
 70
     1
 10
0.0
 20
0.0
 30
0.0
  3
*D61
  1

  0
LINE
  5
A0C59
330
A0B32
100
AcDbEntity
  8
SIZE
 62
     0
440
 16777216
370
    -2
100
AcDbLine
 10
0.0000000000000012
 20
16.46384445685817
 30
0.0
 11
0.0000000000000231
 21
373.9973886376601
 31
0.0
  0
LINE
  5
A0C5A
330
A0B32
100
AcDbEntity
  8
SIZE
 62
     0
440
 16777216
370
    -2
100
AcDbLine
 10
80.00003227272827
 20
39.99999971428588
 30
0.0
 11
80.00003227272831
 21
373.9973886376601
 31
0.0
  0
LINE
  5
A0C5B
330
A0B32
100
AcDbEntity
  8
SIZE
 62
     0
440
 16777216
370
    -2
100
AcDbLine
 10
70.00003227272829
 20
353.9973886376602
 30
0.0
 11
10.00000000000002
 21
353.9973886376602
 31
0.0
  0
LINE
  5
A0C5C
330
A0B32
100
AcDbEntity
  8
SIZE
 62
     0
440
 16777216
370
    -2
100
AcDbLine
 10
0.0000000000000219
 20
353.9973886376602
 30
0.0
 11
-102.857142857143
 21
353.9973886376602
 31
0.0
  0
INSERT
  5
A0C5D
330
A0B32
100
AcDbEntity
  8
SIZE
 62
     0
440
 16777216
370
    -2
100
AcDbBlockReference
  2
_ORIGIN
 10
80.00003227272829
 20
353.9973886376602
 30
0.0
 41
10.0
 42
10.0
 43
10.0
  0
INSERT
  5
A0C5E
330
A0B32
100
AcDbEntity
  8
SIZE
 62
     0
440
 16777216
370
    -2
100
AcDbBlockReference
  2
_ORIGIN
 10
0.0000000000000219
 20
353.9973886376602
 30
0.0
 41
10.0
 42
10.0
 43
10.0
 50
180.0
  0
MTEXT
  5
A0C5F
330
A0B32
100
AcDbEntity
  8
SIZE
 62
     0
440
 16777216
100
AcDbMText
 10
-56.42857142857156
 20
388.9973886376602
 30
0.0
 40
50.0
 41
0.0
 71
     5
 72
     1
  1
\A1;80
 73
     1
 44
1.0
  0
POINT
  5
A0C60
330
A0B32
100
AcDbEntity
  8
DEFPOINTS
 62
     0
440
 16777216
100
AcDbPoint
 10
0.0
 20
-3.536155543141831
 30
0.0
  0
POINT
  5
A0C61
330
A0B32
100
AcDbEntity
  8
DEFPOINTS
 62
     0
440
 16777216
100
AcDbPoint
 10
80.00003227272827
 20
19.99999971428588
 30
0.0
  0
POINT
  5
A0C62
330
A0B32
100
AcDbEntity
  8
DEFPOINTS
 62
     0
440
 16777216
100
AcDbPoint
 10
80.00003227272829
 20
353.9973886376602
 30
0.0
  0
ENDBLK
  5
A0B34
330
A0B32
100
AcDbEntity
  8
0
100
AcDbBlockEnd
  0
BLOCK
  5
A0B40
330
A0B3F
100
AcDbEntity
  8
0
100
AcDbBlockBegin
  2
*D62
 70
     1
 10
0.0
 20
0.0
 30
0.0
  3
*D62
  1

  0
LINE
  5
A0C63
330
A0B3F
100
AcDbEntity
  8
SIZE
 62
     0
440
 16777216
370
    -2
100
AcDbLine
 10
399.9999990909164
 20
39.99999971428588
 30
0.0
 11
399.9999990909164
 21
373.9973886376601
 31
0.0
  0
LINE
  5
A0C64
330
A0B3F
100
AcDbEntity
  8
SIZE
 62
     0
440
 16777216
370
    -2
100
AcDbLine
 10
80.00003227272827
 20
39.99999971428588
 30
0.0
 11
80.00003227272831
 21
373.9973886376601
 31
0.0
  0
LINE
  5
A0C65
330
A0B3F
100
AcDbEntity
  8
SIZE
 62
     0
440
 16777216
370
    -2
100
AcDbLine
 10
389.9999990909164
 20
353.9973886376602
 30
0.0
 11
90.00003227272829
 21
353.9973886376602
 31
0.0
  0
INSERT
  5
A0C66
330
A0B3F
100
AcDbEntity
  8
SIZE
 62
     0
440
 16777216
370
    -2
100
AcDbBlockReference
  2
_ORIGIN
 10
399.9999990909164
 20
353.9973886376602
 30
0.0
 41
10.0
 42
10.0
 43
10.0
  0
INSERT
  5
A0C67
330
A0B3F
100
AcDbEntity
  8
SIZE
 62
     0
440
 16777216
370
    -2
100
AcDbBlockReference
  2
_ORIGIN
 10
80.00003227272829
 20
353.9973886376602
 30
0.0
 41
10.0
 42
10.0
 43
10.0
 50
180.0
  0
MTEXT
  5
A0C68
330
A0B3F
100
AcDbEntity
  8
SIZE
 62
     0
440
 16777216
100
AcDbMText
 10
270.7543836535042
 20
388.9973886376602
 30
0.0
 40
50.0
 41
0.0
 71
     5
 72
     1
  1
\A1;320
 73
     1
 44
1.0
  0
POINT
  5
A0C69
330
A0B3F
100
AcDbEntity
  8
DEFPOINTS
 62
     0
440
 16777216
100
AcDbPoint
 10
399.9999990909164
 20
19.99999971428588
 30
0.0
  0
POINT
  5
A0C6A
330
A0B3F
100
AcDbEntity
  8
DEFPOINTS
 62
     0
440
 16777216
100
AcDbPoint
 10
80.00003227272827
 20
19.99999971428588
 30
0.0
  0
POINT
  5
A0C6B
330
A0B3F
100
AcDbEntity
  8
DEFPOINTS
 62
     0
440
 16777216
100
AcDbPoint
 10
80.00003227272829
 20
353.9973886376602
 30
0.0
  0
ENDBLK
  5
A0B41
330
A0B3F
100
AcDbEntity
  8
0
100
AcDbBlockEnd
  0
BLOCK
  5
A0B4C
330
A0B4B
100
AcDbEntity
  8
0
100
AcDbBlockBegin
  2
*D63
 70
     1
 10
0.0
 20
0.0
 30
0.0
  3
*D63
  1

  0
LINE
  5
A0C6C
330
A0B4B
100
AcDbEntity
  8
SIZE
 62
     0
440
 16777216
370
    -2
100
AcDbLine
 10
0.0000000000000012
 20
20.0
 30
0.0
 11
0.0000000000000368
 21
601.2531446125422
 31
0.0
  0
LINE
  5
A0C6D
330
A0B4B
100
AcDbEntity
  8
SIZE
 62
     0
440
 16777216
370
    -2
100
AcDbLine
 10
680.0
 20
-26.00000028571321
 30
0.0
 11
680.0
 21
601.2531446125422
 31
0.0
  0
LINE
  5
A0C6E
330
A0B4B
100
AcDbEntity
  8
SIZE
 62
     0
440
 16777216
370
    -2
100
AcDbLine
 10
10.00000000000003
 20
581.2531446125421
 30
0.0
 11
670.0
 21
581.2531446125421
 31
0.0
  0
INSERT
  5
A0C6F
330
A0B4B
100
AcDbEntity
  8
SIZE
 62
     0
440
 16777216
370
    -2
100
AcDbBlockReference
  2
_ORIGIN
 10
0.0000000000000356
 20
581.2531446125421
 30
0.0
 41
10.0
 42
10.0
 43
10.0
 50
180.0
  0
INSERT
  5
A0C70
330
A0B4B
100
AcDbEntity
  8
SIZE
 62
     0
440
 16777216
370
    -2
100
AcDbBlockReference
  2
_ORIGIN
 10
680.0
 20
581.2531446125421
 30
0.0
 41
10.0
 42
10.0
 43
10.0
  0
MTEXT
  5
A0C71
330
A0B4B
100
AcDbEntity
  8
SIZE
 62
     0
440
 16777216
100
AcDbMText
 10
350.7178029112984
 20
616.2531446125422
 30
0.0
 40
50.0
 41
0.0
 71
     5
 72
     1
  1
\A1;680
 73
     1
 44
1.0
  0
POINT
  5
A0C72
330
A0B4B
100
AcDbEntity
  8
DEFPOINTS
 62
     0
440
 16777216
100
AcDbPoint
 10
0.0
 20
0.0
 30
0.0
  0
POINT
  5
A0C73
330
A0B4B
100
AcDbEntity
  8
DEFPOINTS
 62
     0
440
 16777216
100
AcDbPoint
 10
680.0
 20
-46.00000028571321
 30
0.0
  0
POINT
  5
A0C74
330
A0B4B
100
AcDbEntity
  8
DEFPOINTS
 62
     0
440
 16777216
100
AcDbPoint
 10
680.0
 20
581.2531446125421
 30
0.0
  0
ENDBLK
  5
A0B4D
330
A0B4B
100
AcDbEntity
  8
0
100
AcDbBlockEnd
  0
BLOCK
  5
A0B58
330
A0B57
100
AcDbEntity
  8
0
100
AcDbBlockBegin
  2
*D64
 70
     1
 10
0.0
 20
0.0
 30
0.0
  3
*D64
  1

  0
LINE
  5
A0C75
330
A0B57
100
AcDbEntity
  8
SIZE
 62
     0
440
 16777216
370
    -2
100
AcDbLine
 10
628.9999999999963
 20
19.99999971428588
 30
0.0
 11
628.9999999999963
 21
295.937841686281
 31
0.0
  0
LINE
  5
A0C76
330
A0B57
100
AcDbEntity
  8
SIZE
 62
     0
440
 16777216
370
    -2
100
AcDbLine
 10
680.0
 20
-26.00000028571321
 30
0.0
 11
680.0
 21
295.937841686281
 31
0.0
  0
LINE
  5
A0C77
330
A0B57
100
AcDbEntity
  8
SIZE
 62
     0
440
 16777216
370
    -2
100
AcDbLine
 10
638.9999999999964
 20
275.937841686281
 30
0.0
 11
670.0
 21
275.937841686281
 31
0.0
  0
LINE
  5
A0C78
330
A0B57
100
AcDbEntity
  8
SIZE
 62
     0
440
 16777216
370
    -2
100
AcDbLine
 10
680.0
 20
275.937841686281
 30
0.0
 11
763.5714285714286
 21
275.937841686281
 31
0.0
  0
INSERT
  5
A0C79
330
A0B57
100
AcDbEntity
  8
SIZE
 62
     0
440
 16777216
370
    -2
100
AcDbBlockReference
  2
_ORIGIN
 10
628.9999999999963
 20
275.937841686281
 30
0.0
 41
10.0
 42
10.0
 43
10.0
 50
180.0
  0
INSERT
  5
A0C7A
330
A0B57
100
AcDbEntity
  8
SIZE
 62
     0
440
 16777216
370
    -2
100
AcDbBlockReference
  2
_ORIGIN
 10
680.0
 20
275.937841686281
 30
0.0
 41
10.0
 42
10.0
 43
10.0
  0
MTEXT
  5
A0C7B
330
A0B57
100
AcDbEntity
  8
SIZE
 62
     0
440
 16777216
100
AcDbMText
 10
726.7857142857143
 20
310.937841686281
 30
0.0
 40
50.0
 41
0.0
 71
     5
 72
     1
  1
\A1;51
 73
     1
 44
1.0
  0
POINT
  5
A0C7C
330
A0B57
100
AcDbEntity
  8
DEFPOINTS
 62
     0
440
 16777216
100
AcDbPoint
 10
628.9999999999963
 20
-0.0000002857141226
 30
0.0
  0
POINT
  5
A0C7D
330
A0B57
100
AcDbEntity
  8
DEFPOINTS
 62
     0
440
 16777216
100
AcDbPoint
 10
680.0
 20
-46.00000028571321
 30
0.0
  0
POINT
  5
A0C7E
330
A0B57
100
AcDbEntity
  8
DEFPOINTS
 62
     0
440
 16777216
100
AcDbPoint
 10
680.0
 20
275.937841686281
 30
0.0
  0
ENDBLK
  5
A0B59
330
A0B57
100
AcDbEntity
  8
0
100
AcDbBlockEnd
  0
BLOCK
  5
A0B65
330
A0B64
100
AcDbEntity
  8
0
100
AcDbBlockBegin
  2
*D65
 70
     1
 10
0.0
 20
0.0
 30
0.0
  3
*D65
  1

  0
LINE
  5
A0C7F
330
A0B64
100
AcDbEntity
  8
SIZE
 62
     0
440
 16777216
370
    -2
100
AcDbLine
 10
680.0
 20
-26.00000028571321
 30
0.0
 11
680.0
 21
218.5381142280267
 31
0.0
  0
LINE
  5
A0C80
330
A0B64
100
AcDbEntity
  8
SIZE
 62
     0
440
 16777216
370
    -2
100
AcDbLine
 10
670.0
 20
-21.00000028571321
 30
0.0
 11
670.0
 21
218.5381142280267
 31
0.0
  0
LINE
  5
A0C81
330
A0B64
100
AcDbEntity
  8
SIZE
 62
     0
440
 16777216
370
    -2
100
AcDbLine
 10
660.0
 20
198.5381142280266
 30
0.0
 11
650.0
 21
198.5381142280266
 31
0.0
  0
LINE
  5
A0C82
330
A0B64
100
AcDbEntity
  8
SIZE
 62
     0
440
 16777216
370
    -2
100
AcDbLine
 10
690.0
 20
198.5381142280266
 30
0.0
 11
784.2857142857144
 21
198.5381142280266
 31
0.0
  0
LINE
  5
A0C83
330
A0B64
100
AcDbEntity
  8
SIZE
 62
     0
440
 16777216
370
    -2
100
AcDbLine
 10
670.0
 20
198.5381142280266
 30
0.0
 11
680.0
 21
198.5381142280266
 31
0.0
  0
INSERT
  5
A0C84
330
A0B64
100
AcDbEntity
  8
SIZE
 62
     0
440
 16777216
370
    -2
100
AcDbBlockReference
  2
_ORIGIN
 10
670.0
 20
198.5381142280266
 30
0.0
 41
10.0
 42
10.0
 43
10.0
  0
INSERT
  5
A0C85
330
A0B64
100
AcDbEntity
  8
SIZE
 62
     0
440
 16777216
370
    -2
100
AcDbBlockReference
  2
_ORIGIN
 10
680.0
 20
198.5381142280266
 30
0.0
 41
10.0
 42
10.0
 43
10.0
 50
180.0
  0
MTEXT
  5
A0C86
330
A0B64
100
AcDbEntity
  8
SIZE
 62
     0
440
 16777216
100
AcDbMText
 10
742.1428571428573
 20
233.5381142280267
 30
0.0
 40
50.0
 41
0.0
 71
     5
 72
     1
  1
\A1;10
 73
     1
 44
1.0
  0
POINT
  5
A0C87
330
A0B64
100
AcDbEntity
  8
DEFPOINTS
 62
     0
440
 16777216
100
AcDbPoint
 10
680.0
 20
-46.00000028571321
 30
0.0
  0
POINT
  5
A0C88
330
A0B64
100
AcDbEntity
  8
DEFPOINTS
 62
     0
440
 16777216
100
AcDbPoint
 10
670.0
 20
-41.00000028571321
 30
0.0
  0
POINT
  5
A0C89
330
A0B64
100
AcDbEntity
  8
DEFPOINTS
 62
     0
440
 16777216
100
AcDbPoint
 10
670.0
 20
198.5381142280266
 30
0.0
  0
ENDBLK
  5
A0B66
330
A0B64
100
AcDbEntity
  8
0
100
AcDbBlockEnd
  0
BLOCK
  5
A0B73
330
A0B72
100
AcDbEntity
  8
0
100
AcDbBlockBegin
  2
*D66
 70
     1
 10
0.0
 20
0.0
 30
0.0
  3
*D66
  1

  0
LINE
  5
A0C8A
330
A0B72
100
AcDbEntity
  8
SIZE
 62
     0
440
 16777216
370
    -2
100
AcDbLine
 10
648.9999999999963
 20
-0.0000002857141282
 30
0.0
 11
829.8738854116599
 21
-0.0000002857141795
 31
0.0
  0
LINE
  5
A0C8B
330
A0B72
100
AcDbEntity
  8
SIZE
 62
     0
440
 16777216
370
    -2
100
AcDbLine
 10
694.5857899999828
 20
-41.00000028571231
 30
0.0
 11
829.8738854116599
 21
-41.00000028571234
 31
0.0
  0
LINE
  5
A0C8C
330
A0B72
100
AcDbEntity
  8
SIZE
 62
     0
440
 16777216
370
    -2
100
AcDbLine
 10
809.87388541166
 20
-31.00000028571234
 30
0.0
 11
809.87388541166
 21
-10.00000028571417
 31
0.0
  0
LINE
  5
A0C8D
330
A0B72
100
AcDbEntity
  8
SIZE
 62
     0
440
 16777216
370
    -2
100
AcDbLine
 10
809.87388541166
 20
-0.0000002857141738
 30
0.0
 11
809.87388541166
 21
93.59939159485241
 31
0.0
  0
INSERT
  5
A0C8E
330
A0B72
100
AcDbEntity
  8
SIZE
 62
     0
440
 16777216
370
    -2
100
AcDbBlockReference
  2
_ORIGIN
 10
809.87388541166
 20
-41.00000028571233
 30
0.0
 41
10.0
 42
10.0
 43
10.0
 50
270.0
  0
INSERT
  5
A0C8F
330
A0B72
100
AcDbEntity
  8
SIZE
 62
     0
440
 16777216
370
    -2
100
AcDbBlockReference
  2
_ORIGIN
 10
809.87388541166
 20
-0.0000002857141738
 30
0.0
 41
10.0
 42
10.0
 43
10.0
 50
90.0
  0
MTEXT
  5
A0C90
330
A0B72
100
AcDbEntity
  8
SIZE
 62
     0
440
 16777216
100
AcDbMText
 10
774.87388541166
 20
56.81367730913826
 30
0.0
 40
50.0
 41
0.0
 71
     5
 72
     1
  1
\A1;41
 11
0.0000000000000001
 21
1.0
 31
0.0
 73
     1
 44
1.0
  0
POINT
  5
A0C91
330
A0B72
100
AcDbEntity
  8
DEFPOINTS
 62
     0
440
 16777216
100
AcDbPoint
 10
628.9999999999963
 20
-0.0000002857141226
 30
0.0
  0
POINT
  5
A0C92
330
A0B72
100
AcDbEntity
  8
DEFPOINTS
 62
     0
440
 16777216
100
AcDbPoint
 10
674.5857899999828
 20
-41.0000002857123
 30
0.0
  0
POINT
  5
A0C93
330
A0B72
100
AcDbEntity
  8
DEFPOINTS
 62
     0
440
 16777216
100
AcDbPoint
 10
809.87388541166
 20
-41.00000028571233
 30
0.0
  0
ENDBLK
  5
A0B74
330
A0B72
100
AcDbEntity
  8
0
100
AcDbBlockEnd
  0
BLOCK
  5
A0B80
330
A0B7F
100
AcDbEntity
  8
0
100
AcDbBlockBegin
  2
*D67
 70
     1
 10
0.0
 20
0.0
 30
0.0
  3
*D67
  1

  0
LINE
  5
A0C94
330
A0B7F
100
AcDbEntity
  8
SIZE
 62
     0
440
 16777216
370
    -2
100
AcDbLine
 10
700.0
 20
-46.00000028571321
 30
0.0
 11
910.3396637386177
 21
-46.00000028571328
 31
0.0
  0
LINE
  5
A0C95
330
A0B7F
100
AcDbEntity
  8
SIZE
 62
     0
440
 16777216
370
    -2
100
AcDbLine
 10
648.9999999999963
 20
-0.0000002857141282
 30
0.0
 11
910.3396637386177
 21
-0.0000002857142023
 31
0.0
  0
LINE
  5
A0C96
330
A0B7F
100
AcDbEntity
  8
SIZE
 62
     0
440
 16777216
370
    -2
100
AcDbLine
 10
890.3396637386176
 20
-36.00000028571328
 30
0.0
 11
890.3396637386176
 21
-10.00000028571419
 31
0.0
  0
LINE
  5
A0C97
330
A0B7F
100
AcDbEntity
  8
SIZE
 62
     0
440
 16777216
370
    -2
100
AcDbLine
 10
890.3396637386176
 20
-0.0000002857141966
 30
0.0
 11
890.3396637386176
 21
100.7142854285715
 31
0.0
  0
INSERT
  5
A0C98
330
A0B7F
100
AcDbEntity
  8
SIZE
 62
     0
440
 16777216
370
    -2
100
AcDbBlockReference
  2
_ORIGIN
 10
890.3396637386176
 20
-46.00000028571328
 30
0.0
 41
10.0
 42
10.0
 43
10.0
 50
270.0
  0
INSERT
  5
A0C99
330
A0B7F
100
AcDbEntity
  8
SIZE
 62
     0
440
 16777216
370
    -2
100
AcDbBlockReference
  2
_ORIGIN
 10
890.3396637386176
 20
-0.0000002857141966
 30
0.0
 41
10.0
 42
10.0
 43
10.0
 50
90.0
  0
MTEXT
  5
A0C9A
330
A0B7F
100
AcDbEntity
  8
SIZE
 62
     0
440
 16777216
100
AcDbMText
 10
855.3396637386176
 20
55.3571425714288
 30
0.0
 40
50.0
 41
0.0
 71
     5
 72
     1
  1
\A1;46
 11
0.0000000000000001
 21
1.0
 31
0.0
 73
     1
 44
1.0
  0
POINT
  5
A0C9B
330
A0B7F
100
AcDbEntity
  8
DEFPOINTS
 62
     0
440
 16777216
100
AcDbPoint
 10
680.0
 20
-46.00000028571321
 30
0.0
  0
POINT
  5
A0C9C
330
A0B7F
100
AcDbEntity
  8
DEFPOINTS
 62
     0
440
 16777216
100
AcDbPoint
 10
628.9999999999963
 20
-0.0000002857141226
 30
0.0
  0
POINT
  5
A0C9D
330
A0B7F
100
AcDbEntity
  8
DEFPOINTS
 62
     0
440
 16777216
100
AcDbPoint
 10
890.3396637386176
 20
-0.0000002857141966
 30
0.0
  0
ENDBLK
  5
A0B81
330
A0B7F
100
AcDbEntity
  8
0
100
AcDbBlockEnd
  0
BLOCK
  5
A0B8D
330
A0B8C
100
AcDbEntity
  8
0
100
AcDbBlockBegin
  2
*D68
 70
     1
 10
0.0
 20
0.0
 30
0.0
  3
*D68
  1

  0
LINE
  5
A0C9E
330
A0B8C
100
AcDbEntity
  8
SIZE
 62
     0
440
 16777216
370
    -2
100
AcDbLine
 10
700.0
 20
-46.00000028571321
 30
0.0
 11
910.3396637386177
 21
-46.00000028571328
 31
0.0
  0
LINE
  5
A0C9F
330
A0B8C
100
AcDbEntity
  8
SIZE
 62
     0
440
 16777216
370
    -2
100
AcDbLine
 10
650.4231477326716
 20
-194.7305750720538
 30
0.0
 11
910.3396637386177
 21
-194.7305750720539
 31
0.0
  0
LINE
  5
A0CA0
330
A0B8C
100
AcDbEntity
  8
SIZE
 62
     0
440
 16777216
370
    -2
100
AcDbLine
 10
890.3396637386176
 20
-56.00000028571328
 30
0.0
 11
890.3396637386176
 21
-184.7305750720539
 31
0.0
  0
INSERT
  5
A0CA1
330
A0B8C
100
AcDbEntity
  8
SIZE
 62
     0
440
 16777216
370
    -2
100
AcDbBlockReference
  2
_ORIGIN
 10
890.3396637386176
 20
-46.00000028571328
 30
0.0
 41
10.0
 42
10.0
 43
10.0
 50
90.0
  0
INSERT
  5
A0CA2
330
A0B8C
100
AcDbEntity
  8
SIZE
 62
     0
440
 16777216
370
    -2
100
AcDbBlockReference
  2
_ORIGIN
 10
890.3396637386176
 20
-194.7305750720539
 30
0.0
 41
10.0
 42
10.0
 43
10.0
 50
270.0
  0
MTEXT
  5
A0CA3
330
A0B8C
100
AcDbEntity
  8
SIZE
 62
     0
440
 16777216
100
AcDbMText
 10
855.3396637386176
 20
-120.3652876788831
 30
0.0
 40
50.0
 41
0.0
 71
     5
 72
     1
  1
\A1;149
 11
0.0000000000000001
 21
1.0
 31
0.0
 73
     1
 44
1.0
  0
POINT
  5
A0CA4
330
A0B8C
100
AcDbEntity
  8
DEFPOINTS
 62
     0
440
 16777216
100
AcDbPoint
 10
680.0
 20
-46.00000028571321
 30
0.0
  0
POINT
  5
A0CA5
330
A0B8C
100
AcDbEntity
  8
DEFPOINTS
 62
     0
440
 16777216
100
AcDbPoint
 10
630.4231477326716
 20
-194.7305750720538
 30
0.0
  0
POINT
  5
A0CA6
330
A0B8C
100
AcDbEntity
  8
DEFPOINTS
 62
     0
440
 16777216
100
AcDbPoint
 10
890.3396637386176
 20
-194.7305750720539
 30
0.0
  0
ENDBLK
  5
A0B8E
330
A0B8C
100
AcDbEntity
  8
0
100
AcDbBlockEnd
  0
BLOCK
  5
A0B99
330
A0B98
100
AcDbEntity
  8
0
100
AcDbBlockBegin
  2
*D69
 70
     1
 10
0.0
 20
0.0
 30
0.0
  3
*D69
  1

  0
LINE
  5
A0CA7
330
A0B98
100
AcDbEntity
  8
SIZE
 62
     0
440
 16777216
370
    -2
100
AcDbLine
 10
648.9999999999963
 20
-0.0000002857141282
 30
0.0
 11
1003.914267550746
 21
-0.0000002857142288
 31
0.0
  0
LINE
  5
A0CA8
330
A0B98
100
AcDbEntity
  8
SIZE
 62
     0
440
 16777216
370
    -2
100
AcDbLine
 10
177.1741712084981
 20
-236.0000002857131
 30
0.0
 11
1003.914267550746
 21
-236.0000002857133
 31
0.0
  0
LINE
  5
A0CA9
330
A0B98
100
AcDbEntity
  8
SIZE
 62
     0
440
 16777216
370
    -2
100
AcDbLine
 10
983.9142675507464
 20
-10.00000028571422
 30
0.0
 11
983.9142675507464
 21
-226.0000002857133
 31
0.0
  0
INSERT
  5
A0CAA
330
A0B98
100
AcDbEntity
  8
SIZE
 62
     0
440
 16777216
370
    -2
100
AcDbBlockReference
  2
_ORIGIN
 10
983.9142675507464
 20
-0.0000002857142231
 30
0.0
 41
10.0
 42
10.0
 43
10.0
 50
90.0
  0
INSERT
  5
A0CAB
330
A0B98
100
AcDbEntity
  8
SIZE
 62
     0
440
 16777216
370
    -2
100
AcDbBlockReference
  2
_ORIGIN
 10
983.9142675507464
 20
-236.0000002857133
 30
0.0
 41
10.0
 42
10.0
 43
10.0
 50
270.0
  0
MTEXT
  5
A0CAC
330
A0B98
100
AcDbEntity
  8
SIZE
 62
     0
440
 16777216
100
AcDbMText
 10
948.9142675507464
 20
-115.3626256138095
 30
0.0
 40
50.0
 41
0.0
 71
     5
 72
     1
  1
\A1;236
 11
0.0000000000000001
 21
1.0
 31
0.0
 73
     1
 44
1.0
  0
POINT
  5
A0CAD
330
A0B98
100
AcDbEntity
  8
DEFPOINTS
 62
     0
440
 16777216
100
AcDbPoint
 10
628.9999999999963
 20
-0.0000002857141226
 30
0.0
  0
POINT
  5
A0CAE
330
A0B98
100
AcDbEntity
  8
DEFPOINTS
 62
     0
440
 16777216
100
AcDbPoint
 10
157.1741712084981
 20
-236.0000002857131
 30
0.0
  0
POINT
  5
A0CAF
330
A0B98
100
AcDbEntity
  8
DEFPOINTS
 62
     0
440
 16777216
100
AcDbPoint
 10
983.9142675507464
 20
-236.0000002857133
 30
0.0
  0
ENDBLK
  5
A0B9A
330
A0B98
100
AcDbEntity
  8
0
100
AcDbBlockEnd
  0
ENDSEC
  0
SECTION
  2
ENTITIES
  0
MTEXT
  5
38341
330
1E
100
AcDbEntity
  8
0
  6
Continuous
100
AcDbMText
 10
383.9605305094082
 20
4023.282340837186
 30
0.0
 40
64.0
 41
187.9848
 71
     1
 72
     5
  1

 73
     1
 44
1.0
  0
CIRCLE
  5
A02B8
330
1E
100
AcDbEntity
  8
ARRANGE
  6
Continuous
100
AcDbCircle
 10
0.0
 20
0.0
 30
0.0
 40
40.0
  0
POINT
  5
A02B9
330
1E
100
AcDbEntity
  8
ARRANGE
  6
Continuous
100
AcDbPoint
 10
0.0
 20
0.0
 30
0.0
  0
TEXT
  5
A0A57
330
1E
100
AcDbEntity
  8
ETC
  6
Continuous
100
AcDbText
 10
863.4495493442464
 20
432.8614335878101
 30
0.0
 40
64.0
  1
SPAC7165
 41
0.9
100
AcDbText
  0
TEXT
  5
A0A58
330
1E
100
AcDbEntity
  8
ETC
  6
Continuous
100
AcDbText
 10
867.0466684551884
 20
516.1610960256289
 30
0.0
 40
64.0
  1
PAC
 41
0.9
100
AcDbText
  0
TEXT
  5
A0A59
330
1E
100
AcDbEntity
  8
NOTE
100
AcDbText
 10
10.88639039476766
 20
426.2521318669151
 30
0.0
 40
60.0
  1
（吊りボルトピッチ）
 41
0.9
100
AcDbText
  0
LINE
  5
A0A5A
330
1E
100
AcDbEntity
  8
NOTE
  6
Continuous
100
AcDbLine
 10
-629.8425130168143
 20
-452.0776652645863
 30
0.0
 11
-187.455732497584
 21
-452.0776652645863
 31
0.0
  0
LINE
  5
A0A5B
330
1E
100
AcDbEntity
  8
NOTE
  6
Continuous
100
AcDbLine
 10
-713.2440464818751
 20
159.2489046943913
 30
0.0
 11
-172.980441332993
 21
159.0500171321964
 31
0.0
  0
TEXT
  5
A0A5C
330
1E
100
AcDbEntity
  8
NOTE
  6
Continuous
100
AcDbText
 10
375.7312565918176
 20
-488.2423668603879
 30
0.0
 40
64.0
  1
D \U+03C626(VP-20)
 41
0.9
100
AcDbText
  0
LINE
  5
A0A5D
330
1E
100
AcDbEntity
  8
NOTE
  6
Continuous
100
AcDbLine
 10
1012.746929261945
 20
-517.9806044061805
 30
0.0
 11
343.9813412591029
 21
-517.9806044061787
 31
0.0
  0
TEXT
  5
A0A5E
330
1E
100
AcDbEntity
  8
NOTE
  6
Continuous
100
AcDbText
 10
-620.5333159727711
 20
-435.2124268352828
 30
0.0
 40
64.0
  1
EL 2-\U+03C626
 41
0.9
100
AcDbText
  0
TEXT
  5
A0A5F
330
1E
100
AcDbEntity
  8
NOTE
  6
Continuous
100
AcDbText
 10
-688.3358347117598
 20
173.0568033935119
 30
0.0
 40
64.0
  1
EL 2-\U+03C622.2
 41
0.9
100
AcDbText
  0
LINE
  5
A0A60
330
1E
100
AcDbEntity
  8
BASIS
100
AcDbLine
 10
289.4993499999873
 20
-190.0000002857141
 30
0.0
 11
236.3603199999852
 21
-190.0000002857141
 31
0.0
  0
LINE
  5
A0A61
330
1E
100
AcDbEntity
  8
NOTE
  6
Continuous
100
AcDbLine
 10
0.000000000001819
 20
-30.00000028570867
 30
0.0
 11
-172.980441332993
 21
159.0500171321964
 31
0.0
  0
LINE
  5
A0A62
330
1E
100
AcDbEntity
  8
NOTE
  6
Continuous
100
AcDbLine
 10
0.0
 20
-199.0000002857087
 30
0.0
 11
-187.455732497584
 21
-452.0776652645863
 31
0.0
  0
LINE
  5
A0A63
330
1E
100
AcDbEntity
  8
NOTE
  6
Continuous
100
AcDbLine
 10
80.00006444015525
 20
-0.0000028906433727
 30
0.0
 11
-168.818712244758
 21
286.7530686329537
 31
0.0
  0
LINE
  5
A0A65
330
1E
100
AcDbEntity
  8
NOTE
  6
Continuous
100
AcDbLine
 10
580.3104112227156
 20
104.9354896090752
 30
0.0
 11
463.2876795198535
 21
104.9354896090752
 31
0.0
  0
LINE
  5
A0A66
330
1E
100
AcDbEntity
  8
BASIS
  6
DASHDOT
100
AcDbLine
 10
339.8045632970643
 20
20.35704887616885
 30
0.0
 11
339.8045632970643
 21
-266.8274602040256
 31
0.0
  0
LWPOLYLINE
  5
A0A67
330
1E
100
AcDbEntity
  8
NOTE
  6
Continuous
100
AcDbPolyline
 90
        3
 70
     0
 43
0.0
 10
266.8229229312838
 20
-224.3933748980435
 10
246.3999999999942
 20
-190.0000002857122
 10
246.8900822542946
 20
-229.9969978095505
  0
LINE
  5
A0A68
330
1E
100
AcDbEntity
  8
NOTE
  6
Continuous
100
AcDbLine
 10
246.3999999999942
 20
-190.0000002857141
 30
0.0
 11
343.9813412591029
 21
-517.9806044061787
 31
0.0
  0
LWPOLYLINE
  5
A0A69
330
1E
100
AcDbEntity
  8
NOTE
  6
Continuous
100
AcDbPolyline
 90
        3
 70
     0
 43
0.0
 10
-15.09133165413914
 20
-236.0439166905429
 10
0.0
 20
-199.0000002857087
 10
-31.591433842671
 20
-223.5353074692134
  0
LINE
  5
A0A6A
330
1E
100
AcDbEntity
  8
NOTE
  6
Continuous
100
AcDbLine
 10
-20.0
 20
-199.0000002857087
 30
0.0
 11
20.0
 21
-199.0000002857087
 31
0.0
  0
LINE
  5
A0A6B
330
1E
100
AcDbEntity
  8
NOTE
  6
Continuous
100
AcDbLine
 10
0.0
 20
-179.0000002857086
 30
0.0
 11
0.0
 21
-219.0000002857086
 31
0.0
  0
LINE
  5
A0A6C
330
1E
100
AcDbEntity
  8
NOTE
  6
Continuous
100
AcDbLine
 10
246.3999999999924
 20
-170.0000002857131
 30
0.0
 11
246.3999999999924
 21
-210.0000002857131
 31
0.0
  0
LWPOLYLINE
  5
A0A6D
330
1E
100
AcDbEntity
  8
NOTE
  6
Continuous
100
AcDbPolyline
 90
        3
 70
     0
 43
0.0
 10
411.0408450909162
 20
38.4460627142862
 10
399.9999990909164
 20
-0.0000002857141226
 10
428.7846830909147
 20
27.77484371428637
  0
LINE
  5
A0A6E
330
1E
100
AcDbEntity
  8
NOTE
  6
Continuous
100
AcDbLine
 10
399.9999990909164
 20
-0.0000002857141226
 30
0.0
 11
463.2876795198535
 21
104.9354896090752
 31
0.0
  0
LINE
  5
A0A6F
330
1E
100
AcDbEntity
  8
NOTE
  6
Continuous
100
AcDbLine
 10
379.9999990909164
 20
-0.0000002857141226
 30
0.0
 11
419.9999990909163
 21
-0.0000002857141226
 31
0.0
  0
CIRCLE
  5
A0A70
330
1E
100
AcDbEntity
  8
FIX
  6
Continuous
100
AcDbCircle
 10
399.9999990909164
 20
-0.0000002857141226
 30
0.0
 40
5.0
  0
LINE
  5
A0A71
330
1E
100
AcDbEntity
  8
NOTE
  6
Continuous
100
AcDbLine
 10
399.9999990909164
 20
19.99999971428588
 30
0.0
 11
399.9999990909164
 21
-20.00000028571412
 31
0.0
  0
LWPOLYLINE
  5
A0A72
330
1E
100
AcDbEntity
  8
NOTE
  6
Continuous
100
AcDbPolyline
 90
        3
 70
     0
 43
0.0
 10
-32.94119123512701
 20
-7.309078010177472
 10
0.0000000000013642
 20
-30.00000028570935
 10
-17.18244784671333
 20
6.121509605487176
  0
LINE
  5
A0A73
330
1E
100
AcDbEntity
  8
NOTE
  6
Continuous
100
AcDbLine
 10
0.0
 20
-10.00000028570866
 30
0.0
 11
0.0
 21
-50.00000028570866
 31
0.0
  0
LINE
  5
A0A74
330
1E
100
AcDbEntity
  8
NOTE
  6
Continuous
100
AcDbLine
 10
-20.0
 20
-30.00000028570867
 30
0.0
 11
20.0
 21
-30.00000028570867
 31
0.0
  0
LWPOLYLINE
  5
A0A75
330
1E
100
AcDbEntity
  8
NOTE
  6
Continuous
100
AcDbPolyline
 90
        3
 70
     0
 43
0.0
 10
46.49729353917154
 20
21.85324179758197
 10
80.00006438722994
 20
-0.0000034775403037
 10
61.91243611679829
 20
35.67684688979046
  0
LINE
  5
A0A76
330
1E
100
AcDbEntity
  8
NOTE
  6
Continuous
100
AcDbLine
 10
60.00003227272827
 20
-0.0000002857141226
 30
0.0
 11
100.0000322727282
 21
-0.0000002857141226
 31
0.0
  0
CIRCLE
  5
A0A77
330
1E
100
AcDbEntity
  8
FIX
  6
Continuous
100
AcDbCircle
 10
80.00003227272827
 20
-0.0000002857141226
 30
0.0
 40
5.0
  0
LINE
  5
A0A78
330
1E
100
AcDbEntity
  8
NOTE
  6
Continuous
100
AcDbLine
 10
80.00003227272827
 20
19.99999971428588
 30
0.0
 11
80.00003227272827
 21
-20.00000028571412
 31
0.0
  0
LINE
  5
A0A7A
330
1E
100
AcDbEntity
  8
NOTE
  6
Continuous
100
AcDbLine
 10
-168.818712244758
 20
286.7530686329537
 30
0.0
 11
-293.9631976327218
 21
286.7530686329537
 31
0.0
  0
LINE
  5
A0A7B
330
1E
100
AcDbEntity
  8
SIZE
100
AcDbLine
 10
-20.0
 20
-0.0000002857141226
 30
0.0
 11
-324.6883325590825
 21
-0.0000002857142363
 31
0.0
  0
LINE
  5
A0A7C
330
1E
100
AcDbEntity
  8
SIZE
100
AcDbLine
 10
216.3603199999852
 20
-190.0000002857141
 30
0.0
 11
-324.6883325590825
 21
-190.0000002857142
 31
0.0
  0
LINE
  5
A0A7D
330
1E
100
AcDbEntity
  8
SIZE
100
AcDbLine
 10
-20.0
 20
-0.0000002857141226
 30
0.0
 11
-179.9198508175395
 21
-0.0000002857141226
 31
0.0
  0
LINE
  5
A0A7E
330
1E
100
AcDbEntity
  8
SIZE
100
AcDbLine
 10
0.0
 20
-255.0000002857141
 30
0.0
 11
0.0
 21
-525.1530125846348
 31
0.0
  0
LINE
  5
A0A7F
330
1E
100
AcDbEntity
  8
SIZE
100
AcDbLine
 10
-0.0000000000145519
 20
-255.0000002857141
 30
0.0
 11
-0.0000000000145519
 21
-667.9297977470432
 31
0.0
  0
LINE
  5
A0A80
330
1E
100
AcDbEntity
  8
SIZE
100
AcDbLine
 10
648.9999999999963
 20
-0.0000002857141226
 30
0.0
 11
933.0603729508238
 21
-0.0000002857140089
 31
0.0
  0
LINE
  5
A0A81
330
1E
100
AcDbEntity
  8
SIZE
100
AcDbLine
 10
648.9999999999963
 20
-0.0000002857141226
 30
0.0
 11
800.9229659928022
 21
-0.0000002857141226
 31
0.0
  0
LINE
  5
A0A82
330
1E
100
AcDbEntity
  8
SIZE
100
AcDbLine
 10
680.0
 20
-26.00000028570867
 30
0.0
 11
680.0
 21
126.0017893512031
 31
0.0
  0
LINE
  5
A0A83
330
1E
100
AcDbEntity
  8
SIZE
100
AcDbLine
 10
80.00003227272827
 20
39.99999971428588
 30
0.0
 11
80.00003227272827
 21
118.0605339405647
 31
0.0
  0
LINE
  5
A0A84
330
1E
100
AcDbEntity
  8
SIZE
100
AcDbLine
 10
399.9999990909164
 20
39.99999971428588
 30
0.0
 11
399.9999990909164
 21
118.0605339405647
 31
0.0
  0
LINE
  5
A0A85
330
1E
100
AcDbEntity
  8
SIZE
100
AcDbLine
 10
0.0
 20
19.99999971428588
 30
0.0
 11
0.0
 21
118.0605339405647
 31
0.0
  0
LINE
  5
A0A86
330
1E
100
AcDbEntity
  8
SIZE
100
AcDbLine
 10
80.00003227272827
 20
39.99999971428588
 30
0.0
 11
80.00003227272827
 21
118.0605339405647
 31
0.0
  0
TEXT
  5
A0A87
330
1E
100
AcDbEntity
  8
NOTE
  6
Continuous
100
AcDbText
 10
-280.2211012982152
 20
295.9179070579348
 30
0.0
 40
64.0
  1
AH
 41
0.9
100
AcDbText
  0
TEXT
  5
A0A88
330
1E
100
AcDbEntity
  8
NOTE
  6
Continuous
100
AcDbText
 10
474.0413021961721
 20
113.1726437641564
 30
0.0
 40
64.0
  1
AH
 41
0.9
100
AcDbText
  0
DIMENSION
  5
A0A89
330
1E
100
AcDbEntity
  8
SIZE
100
AcDbDimension
  2
*D57
 10
-0.0000000000000266
 20
-664.2847035243658
 30
0.0
 11
101.6464466094007
 21
-664.2847035243658
 31
0.0
 70
   160
 71
     5
 42
246.3999999999924
  3
STANDARD
100
AcDbAlignedDimension
 13
246.3999999999924
 23
-190.0000002857141
 33
0.0
 14
0.0
 24
-229.9969978095505
 34
0.0
 50
180.0
100
AcDbRotatedDimension
1001
ACAD
1000
DSTYLE
1002
{
1070
    41
1040
10.0
1070
    42
1040
20.0
1070
    43
1040
200.0
1070
    44
1040
20.0
1070
    73
1070
     0
1070
    74
1070
     0
1070
    77
1070
     1
1070
    78
1070
     8
1070
   140
1040
50.0
1070
   141
1040
0.082
1070
   147
1040
10.0
1070
   172
1070
     1
1070
   271
1070
     0
1070
   272
1070
     3
1070
   341
1005
46
1070
   342
1005
46
1002
}
  0
DIMENSION
  5
A0A8A
330
1E
100
AcDbEntity
  8
SIZE
100
AcDbDimension
  2
*D58
 10
-286.6263719338459
 20
-199.0000002857086
 30
0.0
 11
-286.6263719338458
 21
-302.4285717142846
 31
0.0
 70
   160
 71
     5
 42
37.00000000000443
  3
STANDARD
100
AcDbAlignedDimension
 13
13.96117678646987
 23
-236.0000002857131
 33
0.0
 14
-20.0
 24
-199.0000002857087
 34
0.0
 50
90.0
100
AcDbRotatedDimension
1001
ACAD
1000
DSTYLE
1002
{
1070
    41
1040
10.0
1070
    42
1040
20.0
1070
    43
1040
200.0
1070
    44
1040
20.0
1070
    73
1070
     0
1070
    74
1070
     0
1070
    77
1070
     1
1070
    78
1070
     8
1070
   140
1040
50.0
1070
   141
1040
0.082
1070
   147
1040
10.0
1070
   172
1070
     1
1070
   271
1070
     3
1070
   272
1070
     3
1070
   341
1005
46
1070
   342
1005
46
1002
}
  0
DIMENSION
  5
A0A8B
330
1E
100
AcDbEntity
  8
SIZE
100
AcDbDimension
  2
*D59
 10
-286.6263719338458
 20
-30.00000028570859
 30
0.0
 11
-321.6263719338458
 21
-114.5000002857086
 31
0.0
 70
    32
 71
     5
 42
169.0
  3
STANDARD
100
AcDbAlignedDimension
 13
-20.0
 23
-199.0000002857087
 33
0.0
 14
-20.00000000000046
 24
-30.00000028570867
 34
0.0
 50
90.0
100
AcDbRotatedDimension
1001
ACAD
1000
DSTYLE
1002
{
1070
    41
1040
10.0
1070
    42
1040
20.0
1070
    43
1040
200.0
1070
    44
1040
20.0
1070
    73
1070
     0
1070
    74
1070
     0
1070
    77
1070
     1
1070
    78
1070
     8
1070
   140
1040
50.0
1070
   141
1040
0.082
1070
   147
1040
10.0
1070
   172
1070
     1
1070
   271
1070
     3
1070
   272
1070
     3
1070
   341
1005
46
1070
   342
1005
46
1002
}
  0
DIMENSION
  5
A0A8C
330
1E
100
AcDbEntity
  8
SIZE
100
AcDbDimension
  2
*D60
 10
-383.1071381689035
 20
-0.0000002857140098
 30
0.0
 11
-418.1071381689035
 21
-95.00000028571404
 31
0.0
 70
    32
 71
     5
 42
189.9999999999999
  3
STANDARD
100
AcDbAlignedDimension
 13
236.3603199999852
 23
-190.0000002857141
 33
0.0
 14
14.92438146823406
 24
-0.0000002857141226
 34
0.0
 50
90.0
100
AcDbRotatedDimension
1001
ACAD
1000
DSTYLE
1002
{
1070
    41
1040
10.0
1070
    42
1040
20.0
1070
    43
1040
200.0
1070
    44
1040
20.0
1070
    73
1070
     0
1070
    74
1070
     0
1070
    77
1070
     1
1070
    78
1070
     8
1070
   140
1040
50.0
1070
   141
1040
0.082
1070
   147
1040
10.0
1070
   172
1070
     1
1070
   271
1070
     3
1070
   272
1070
     3
1070
   341
1005
46
1070
   342
1005
46
1002
}
  0
DIMENSION
  5
A0A8D
330
1E
100
AcDbEntity
  8
SIZE
100
AcDbDimension
  2
*D61
 10
80.00003227272829
 20
353.9973886376602
 30
0.0
 11
-56.42857142857156
 21
353.9973886376602
 31
0.0
 70
   160
 71
     5
 42
80.00003227272827
  3
STANDARD
100
AcDbAlignedDimension
 13
0.0
 23
-3.536155543141831
 33
0.0
 14
80.00003227272827
 24
19.99999971428588
 34
0.0
 50
180.0
100
AcDbRotatedDimension
1001
ACAD
1000
DSTYLE
1002
{
1070
    41
1040
10.0
1070
    42
1040
20.0
1070
    43
1040
200.0
1070
    44
1040
20.0
1070
    73
1070
     0
1070
    74
1070
     0
1070
    77
1070
     1
1070
    78
1070
     8
1070
   140
1040
50.0
1070
   141
1040
0.082
1070
   147
1040
10.0
1070
   172
1070
     1
1070
   271
1070
     3
1070
   272
1070
     3
1070
   341
1005
46
1070
   342
1005
46
1002
}
  0
DIMENSION
  5
A0A8E
330
1E
100
AcDbEntity
  8
SIZE
100
AcDbDimension
  2
*D62
 10
80.00003227272829
 20
353.9973886376602
 30
0.0
 11
270.7543836535042
 21
353.9973886376602
 31
0.0
 70
   160
 71
     5
 42
319.9999668181881
  3
STANDARD
100
AcDbAlignedDimension
 13
399.9999990909164
 23
19.99999971428588
 33
0.0
 14
80.00003227272827
 24
19.99999971428588
 34
0.0
 50
180.0
100
AcDbRotatedDimension
1001
ACAD
1000
DSTYLE
1002
{
1070
    41
1040
10.0
1070
    42
1040
20.0
1070
    43
1040
200.0
1070
    44
1040
20.0
1070
    73
1070
     0
1070
    74
1070
     0
1070
    77
1070
     1
1070
    78
1070
     8
1070
   140
1040
50.0
1070
   141
1040
0.082
1070
   147
1040
10.0
1070
   172
1070
     1
1070
   271
1070
     3
1070
   272
1070
     3
1070
   341
1005
46
1070
   342
1005
46
1002
}
  0
DIMENSION
  5
A0A8F
330
1E
100
AcDbEntity
  8
SIZE
100
AcDbDimension
  2
*D63
 10
680.0
 20
581.2531446125421
 30
0.0
 11
350.7178029112984
 21
581.2531446125421
 31
0.0
 70
   160
 71
     5
 42
680.0
  3
STANDARD
100
AcDbAlignedDimension
 13
0.0
 23
0.0
 33
0.0
 14
680.0
 24
-46.00000028571321
 34
0.0
 50
180.0
100
AcDbRotatedDimension
1001
ACAD
1000
DSTYLE
1002
{
1070
    41
1040
10.0
1070
    42
1040
20.0
1070
    43
1040
200.0
1070
    44
1040
20.0
1070
    73
1070
     0
1070
    74
1070
     0
1070
    77
1070
     1
1070
    78
1070
     8
1070
   140
1040
50.0
1070
   141
1040
0.082
1070
   147
1040
10.0
1070
   172
1070
     1
1070
   271
1070
     3
1070
   272
1070
     3
1070
   341
1005
46
1070
   342
1005
46
1002
}
  0
DIMENSION
  5
A0A90
330
1E
100
AcDbEntity
  8
SIZE
100
AcDbDimension
  2
*D64
 10
680.0
 20
275.937841686281
 30
0.0
 11
726.7857142857143
 21
275.937841686281
 31
0.0
 70
   160
 71
     5
 42
51.00000000000363
  3
STANDARD
100
AcDbAlignedDimension
 13
628.9999999999963
 23
-0.0000002857141226
 33
0.0
 14
680.0
 24
-46.00000028571321
 34
0.0
 50
180.0
100
AcDbRotatedDimension
1001
ACAD
1000
DSTYLE
1002
{
1070
    41
1040
10.0
1070
    42
1040
20.0
1070
    43
1040
200.0
1070
    44
1040
20.0
1070
    73
1070
     0
1070
    74
1070
     0
1070
    77
1070
     1
1070
    78
1070
     8
1070
   140
1040
50.0
1070
   141
1040
0.082
1070
   147
1040
10.0
1070
   172
1070
     1
1070
   271
1070
     3
1070
   272
1070
     3
1070
   341
1005
46
1070
   342
1005
46
1002
}
  0
DIMENSION
  5
A0A91
330
1E
100
AcDbEntity
  8
SIZE
100
AcDbDimension
  2
*D65
 10
670.0
 20
198.5381142280266
 30
0.0
 11
742.1428571428573
 21
198.5381142280266
 31
0.0
 70
   160
 71
     5
 42
10.0
  3
STANDARD
100
AcDbAlignedDimension
 13
680.0
 23
-46.00000028571321
 33
0.0
 14
670.0
 24
-41.00000028571321
 34
0.0
 50
180.0
100
AcDbRotatedDimension
1001
ACAD
1000
DSTYLE
1002
{
1070
    41
1040
10.0
1070
    42
1040
20.0
1070
    43
1040
200.0
1070
    44
1040
20.0
1070
    73
1070
     0
1070
    74
1070
     0
1070
    77
1070
     1
1070
    78
1070
     8
1070
   140
1040
50.0
1070
   141
1040
0.082
1070
   147
1040
10.0
1070
   172
1070
     1
1070
   271
1070
     3
1070
   272
1070
     3
1070
   341
1005
46
1070
   342
1005
46
1002
}
  0
DIMENSION
  5
A0A92
330
1E
100
AcDbEntity
  8
SIZE
100
AcDbDimension
  2
*D66
 10
809.87388541166
 20
-41.00000028571233
 30
0.0
 11
809.87388541166
 21
56.81367730913826
 31
0.0
 70
   160
 71
     5
 42
40.99999999999817
  3
STANDARD
100
AcDbAlignedDimension
 13
628.9999999999963
 23
-0.0000002857141226
 33
0.0
 14
674.5857899999828
 24
-41.0000002857123
 34
0.0
 50
90.0
100
AcDbRotatedDimension
1001
ACAD
1000
DSTYLE
1002
{
1070
    41
1040
10.0
1070
    42
1040
20.0
1070
    43
1040
200.0
1070
    44
1040
20.0
1070
    73
1070
     0
1070
    74
1070
     0
1070
    77
1070
     1
1070
    78
1070
     8
1070
   140
1040
50.0
1070
   141
1040
0.082
1070
   147
1040
10.0
1070
   172
1070
     1
1070
   271
1070
     3
1070
   272
1070
     3
1070
   341
1005
46
1070
   342
1005
46
1002
}
  0
DIMENSION
  5
A0A93
330
1E
100
AcDbEntity
  8
SIZE
100
AcDbDimension
  2
*D67
 10
890.3396637386176
 20
-0.0000002857141966
 30
0.0
 11
855.3396637386176
 21
55.3571425714288
 31
0.0
 70
    32
 71
     5
 42
45.99999999999908
  3
STANDARD
100
AcDbAlignedDimension
 13
680.0
 23
-46.00000028571321
 33
0.0
 14
628.9999999999963
 24
-0.0000002857141226
 34
0.0
 50
90.0
100
AcDbRotatedDimension
1001
ACAD
1000
DSTYLE
1002
{
1070
    41
1040
10.0
1070
    42
1040
20.0
1070
    43
1040
200.0
1070
    44
1040
20.0
1070
    73
1070
     0
1070
    74
1070
     0
1070
    77
1070
     1
1070
    78
1070
     8
1070
   140
1040
50.0
1070
   141
1040
0.082
1070
   147
1040
10.0
1070
   172
1070
     1
1070
   271
1070
     3
1070
   272
1070
     3
1070
   341
1005
46
1070
   342
1005
46
1002
}
  0
DIMENSION
  5
A0A94
330
1E
100
AcDbEntity
  8
SIZE
100
AcDbDimension
  2
*D68
 10
890.3396637386176
 20
-194.7305750720539
 30
0.0
 11
890.3396637386176
 21
-120.3652876788831
 31
0.0
 70
   160
 71
     5
 42
148.7305747863406
  3
STANDARD
100
AcDbAlignedDimension
 13
680.0
 23
-46.00000028571321
 33
0.0
 14
630.4231477326716
 24
-194.7305750720538
 34
0.0
 50
90.0
100
AcDbRotatedDimension
1001
ACAD
1000
DSTYLE
1002
{
1070
    41
1040
10.0
1070
    42
1040
20.0
1070
    43
1040
200.0
1070
    44
1040
20.0
1070
    73
1070
     0
1070
    74
1070
     0
1070
    77
1070
     1
1070
    78
1070
     8
1070
   140
1040
50.0
1070
   141
1040
0.082
1070
   147
1040
10.0
1070
   172
1070
     1
1070
   271
1070
     0
1070
   272
1070
     3
1070
   341
1005
46
1070
   342
1005
46
1002
}
  0
DIMENSION
  5
A0A95
330
1E
100
AcDbEntity
  8
SIZE
100
AcDbDimension
  2
*D69
 10
983.9142675507464
 20
-236.0000002857133
 30
0.0
 11
983.9142675507464
 21
-115.3626256138095
 31
0.0
 70
   160
 71
     5
 42
235.9999999999991
  3
STANDARD
100
AcDbAlignedDimension
 13
628.9999999999963
 23
-0.0000002857141226
 33
0.0
 14
157.1741712084981
 24
-236.0000002857131
 34
0.0
 50
90.0
100
AcDbRotatedDimension
1001
ACAD
1000
DSTYLE
1002
{
1070
    41
1040
10.0
1070
    42
1040
20.0
1070
    43
1040
200.0
1070
    44
1040
20.0
1070
    73
1070
     0
1070
    74
1070
     0
1070
    77
1070
     1
1070
    78
1070
     8
1070
   140
1040
50.0
1070
   141
1040
0.082
1070
   147
1040
10.0
1070
   172
1070
     1
1070
   271
1070
     3
1070
   272
1070
     3
1070
   341
1005
46
1070
   342
1005
46
1002
}
  0
ARC
  5
A0A96
330
1E
100
AcDbEntity
  8
DETAIL
100
AcDbCircle
 10
170.0001799999881
 20
2792.918289999998
 30
0.0
 40
3028.918299999999
100
AcDbArc
 50
270.0
 51
277.8830930000243
  0
ARC
  5
A0A97
330
1E
100
AcDbEntity
  8
DETAIL
100
AcDbCircle
 10
170.0001799999881
 20
2792.918289999998
 30
0.0
 40
2997.9183
100
AcDbArc
 50
269.9953201948589
 51
278.9950289999961
  0
ARC
  5
A0A98
330
1E
100
AcDbEntity
  8
DETAIL
100
AcDbCircle
 10
170.0001799999881
 20
2792.918289999998
 30
0.0
 40
3002.9183
100
AcDbArc
 50
269.9953240920251
 51
278.9571159999671
  0
ARC
  5
A0A99
330
1E
100
AcDbEntity
  8
DETAIL
100
AcDbCircle
 10
170.0001799999881
 20
2792.918289999998
 30
0.0
 40
3022.9183
100
AcDbArc
 50
269.9953395862138
 51
278.7608619999512
  0
LINE
  5
A0A9A
330
1E
100
AcDbEntity
  8
DETAIL
100
AcDbLine
 10
628.9999999999963
 20
0.0
 30
0.0
 11
0.0
 21
0.0
 31
0.0
  0
LINE
  5
A0A9B
330
1E
100
AcDbEntity
  8
DETAIL
100
AcDbLine
 10
497.6291200000014
 20
-13.00000000000182
 30
0.0
 11
0.0
 21
-13.00000000000182
 31
0.0
  0
LINE
  5
A0A9C
330
1E
100
AcDbEntity
  8
DETAIL
100
AcDbLine
 10
448.7077799999861
 20
-8.999999999996362
 30
0.0
 11
0.0
 21
-8.999999999996362
 31
0.0
  0
LINE
  5
A0A9D
330
1E
100
AcDbEntity
  8
DETAIL
100
AcDbLine
 10
674.585790000001
 20
-40.99999999999454
 30
0.0
 11
0.0
 21
-40.99999999999454
 31
0.0
  0
LINE
  5
A0A9E
330
1E
100
AcDbEntity
  8
DETAIL
100
AcDbLine
 10
680.0
 20
-45.99999999999454
 30
0.0
 11
0.0
 21
-45.99999999999454
 31
0.0
  0
LINE
  5
A0A9F
330
1E
100
AcDbEntity
  8
DETAIL
100
AcDbLine
 10
0.0
 20
0.0
 30
0.0
 11
0.0
 21
-235.0
 31
0.0
  0
LINE
  5
A0AA0
330
1E
100
AcDbEntity
  8
DETAIL
100
AcDbLine
 10
7.999999999992724
 20
-205.5000000000018
 30
0.0
 11
7.999999999992724
 21
-81.49999999999636
 31
0.0
  0
LINE
  5
A0AA1
330
1E
100
AcDbEntity
  8
DETAIL
100
AcDbLine
 10
56.19999999998981
 20
-205.5000000000018
 30
0.0
 11
56.19999999998981
 21
-81.49999999999636
 31
0.0
  0
ARC
  5
A0AA2
330
1E
100
AcDbEntity
  8
DETAIL
100
AcDbCircle
 10
170.0001799999881
 20
2792.918289999998
 30
0.0
 40
3002.9183
100
AcDbArc
 50
270.0
 51
270.2253330000423
  0
ARC
  5
A0AA3
330
1E
100
AcDbEntity
  8
DETAIL
100
AcDbCircle
 10
170.0001799999881
 20
2792.918289999998
 30
0.0
 40
2997.9183
100
AcDbArc
 50
269.9999990000051
 51
270.2142709999612
  0
ARC
  5
A0AA4
330
1E
100
AcDbEntity
  8
DETAIL
100
AcDbCircle
 10
170.0001799999881
 20
2792.918289999998
 30
0.0
 40
3022.9183
100
AcDbArc
 50
270.0000009999949
 51
270.2132790000019
  0
LINE
  5
A0AA5
330
1E
100
AcDbEntity
  8
NOTE
  6
Continuous
100
AcDbLine
 10
246.3999999999851
 20
-169.9999999999727
 30
0.0
 11
246.3999999999924
 21
-209.9999999999726
 31
0.0
  0
LINE
  5
A0AA6
330
1E
100
AcDbEntity
  8
NOTE
  6
Continuous
100
AcDbLine
 10
226.3999999999887
 20
-189.9999999999745
 30
0.0
 11
266.3999999999887
 21
-189.9999999999699
 31
0.0
  0
LINE
  5
A0AA7
330
1E
100
AcDbEntity
  8
NOTE
  6
Continuous
100
AcDbLine
 10
-20.0
 20
-198.9999999999945
 30
0.0
 11
20.0
 21
-198.9999999999945
 31
0.0
  0
LINE
  5
A0AA8
330
1E
100
AcDbEntity
  8
DETAIL
100
AcDbLine
 10
60.0
 20
-165.0
 30
0.0
 11
0.0
 21
-165.0
 31
0.0
  0
LINE
  5
A0AA9
330
1E
100
AcDbEntity
  8
DETAIL
100
AcDbLine
 10
60.0
 20
-166.999999999998
 30
0.0
 11
0.0
 21
-166.999999999998
 31
0.0
  0
LINE
  5
A0AAA
330
1E
100
AcDbEntity
  8
DETAIL
100
AcDbLine
 10
60.0
 20
-210.9999999999945
 30
0.0
 11
0.0
 21
-210.9999999999945
 31
0.0
  0
LINE
  5
A0AAB
330
1E
100
AcDbEntity
  8
DETAIL
100
AcDbLine
 10
60.0
 20
-208.9999999999963
 30
0.0
 11
0.0
 21
-208.9999999999963
 31
0.0
  0
LINE
  5
A0AAC
330
1E
100
AcDbEntity
  8
NOTE
  6
Continuous
100
AcDbLine
 10
0.0
 20
-178.9999999999945
 30
0.0
 11
0.0
 21
-218.9999999999945
 31
0.0
  0
ARC
  5
A0AAD
330
1E
100
AcDbEntity
  8
DETAIL
100
AcDbCircle
 10
0.999999999985448
 20
-228.9999999999963
 30
0.0
 40
1.0
100
AcDbArc
 50
180.0
 51
270.0
  0
ARC
  5
A0AAE
330
1E
100
AcDbEntity
  8
DETAIL
100
AcDbCircle
 10
0.999999999985448
 20
-235.0
 30
0.0
 40
1.0
100
AcDbArc
 50
180.0
 51
270.0
  0
LINE
  5
A0AAF
330
1E
100
AcDbEntity
  8
DETAIL
100
AcDbLine
 10
71.99999999998908
 20
-198.9999999999963
 30
0.0
 11
71.99999999998908
 21
-176.999999999998
 31
0.0
  0
LINE
  5
A0AB0
330
1E
100
AcDbEntity
  8
DETAIL
100
AcDbLine
 10
70.0
 20
-198.9999999999963
 30
0.0
 11
70.0
 21
-176.999999999998
 31
0.0
  0
ARC
  5
A0AB1
330
1E
100
AcDbEntity
  8
DETAIL
100
AcDbCircle
 10
60.0
 20
-176.999999999998
 30
0.0
 40
12.0
100
AcDbArc
 50
0.0
 51
90.0
  0
ARC
  5
A0AB2
330
1E
100
AcDbEntity
  8
DETAIL
100
AcDbCircle
 10
60.0
 20
-176.999999999998
 30
0.0
 40
10.0
100
AcDbArc
 50
0.0
 51
90.0
  0
ARC
  5
A0AB3
330
1E
100
AcDbEntity
  8
DETAIL
100
AcDbCircle
 10
60.0
 20
-198.9999999999963
 30
0.0
 40
12.0
100
AcDbArc
 50
270.0
 51
0.0
  0
ARC
  5
A0AB4
330
1E
100
AcDbEntity
  8
DETAIL
100
AcDbCircle
 10
60.0
 20
-198.9999999999963
 30
0.0
 40
10.0
100
AcDbArc
 50
270.0
 51
0.0
  0
LINE
  5
A0AB5
330
1E
100
AcDbEntity
  8
DETAIL
100
AcDbLine
 10
7.999999999992724
 20
-205.5000000000018
 30
0.0
 11
56.19999999998981
 21
-205.5000000000018
 31
0.0
  0
LINE
  5
A0AB6
330
1E
100
AcDbEntity
  8
DETAIL
100
AcDbLine
 10
0.999999999985448
 20
-235.9999999999946
 30
0.0
 11
170.0001700000029
 21
-235.9999999999946
 31
0.0
  0
LINE
  5
A0AB7
330
1E
100
AcDbEntity
  8
DETAIL
100
AcDbLine
 10
0.999999999985448
 20
-230.0
 30
0.0
 11
170.0002099999983
 21
-230.0
 31
0.0
  0
LINE
  5
A0AB8
330
1E
100
AcDbEntity
  8
DETAIL
100
AcDbLine
 10
64.79583000000275
 20
-210.0
 30
0.0
 11
170.0001799999881
 21
-210.0
 31
0.0
  0
LINE
  5
A0AB9
330
1E
100
AcDbEntity
  8
DETAIL
100
AcDbLine
 10
70.39230000000316
 20
-205.0
 30
0.0
 11
170.0001399999928
 21
-205.0
 31
0.0
  0
LINE
  5
A0ABA
330
1E
100
AcDbEntity
  8
NOTE
  6
Continuous
100
AcDbLine
 10
80.00003227273191
 20
-20.0
 30
0.0
 11
80.00003227273191
 21
20.0
 31
0.0
  0
LINE
  5
A0ABB
330
1E
100
AcDbEntity
  8
NOTE
  6
Continuous
100
AcDbLine
 10
-20.0
 20
-29.99999999999455
 30
0.0
 11
20.0
 21
-29.99999999999455
 31
0.0
  0
LINE
  5
A0ABC
330
1E
100
AcDbEntity
  8
NOTE
  6
Continuous
100
AcDbLine
 10
0.0
 20
-9.999999999994543
 30
0.0
 11
0.0
 21
-49.99999999999454
 31
0.0
  0
LINE
  5
A0ABD
330
1E
100
AcDbEntity
  8
DETAIL
100
AcDbLine
 10
56.19999999998981
 20
-81.49999999999636
 30
0.0
 11
7.999999999992724
 21
-81.49999999999636
 31
0.0
  0
LINE
  5
A0ABE
330
1E
100
AcDbEntity
  8
NOTE
  6
Continuous
100
AcDbLine
 10
60.00003227273191
 20
0.0
 30
0.0
 11
100.0000322727319
 21
0.0
 31
0.0
  0
CIRCLE
  5
A0ABF
330
1E
100
AcDbEntity
  8
FIX
  6
Continuous
100
AcDbCircle
 10
80.00003227273191
 20
0.0
 30
0.0
 40
5.0
  0
LINE
  5
A0AC0
330
1E
100
AcDbEntity
  8
DETAIL
100
AcDbLine
 10
639.5133799999894
 20
-167.459859999999
 30
0.0
 11
679.8045599999932
 21
-46.5863199999967
 31
0.0
  0
ARC
  5
A0AC1
330
1E
100
AcDbEntity
  8
DETAIL
100
AcDbCircle
 10
628.8611299999866
 20
-193.092059999999
 30
0.0
 40
2.0
100
AcDbArc
 50
285.6966509999713
 51
341.5650509999737
  0
LINE
  5
A0AC2
330
1E
100
AcDbEntity
  8
DETAIL
100
AcDbLine
 10
629.4022199999926
 20
-195.0174799999967
 30
0.0
 11
585.4231400000026
 21
-207.3766599999999
 31
0.0
  0
ARC
  5
A0AC3
330
1E
100
AcDbEntity
  8
DETAIL
100
AcDbCircle
 10
638.564699999988
 20
-167.1436300000005
 30
0.0
 40
1.0
100
AcDbArc
 50
278.9950289999961
 51
341.5650509999737
  0
ARC
  5
A0AC4
330
1E
100
AcDbEntity
  8
DETAIL
100
AcDbCircle
 10
170.0001799999881
 20
2792.918289999998
 30
0.0
 40
2997.9183
100
AcDbArc
 50
278.9950289999961
 51
279.0066430000199
  0
LINE
  5
A0AC5
330
1E
100
AcDbEntity
  8
DETAIL
100
AcDbLine
 10
639.3212499999935
 20
-168.0362599999989
 30
0.0
 11
639.5133799999894
 21
-167.459859999999
 31
0.0
  0
LINE
  5
A0AC6
330
1E
100
AcDbEntity
  8
DETAIL
100
AcDbLine
 10
630.7584999999926
 20
-193.7245199999961
 30
0.0
 11
637.3998299999948
 21
-173.8005100000009
 31
0.0
  0
ARC
  5
A0AC7
330
1E
100
AcDbEntity
  8
DETAIL
100
AcDbCircle
 10
636.4511499999935
 20
-173.4842800000023
 30
0.0
 40
1.0
100
AcDbArc
 50
341.5650509999737
 51
29.38983000003446
  0
LINE
  5
A0AC8
330
1E
100
AcDbEntity
  8
DETAIL
100
AcDbLine
 10
637.3224499999923
 20
-172.9935399999976
 30
0.0
 11
634.9212499999885
 21
-168.730319999995
 31
0.0
  0
LINE
  5
A0AC9
330
1E
100
AcDbEntity
  8
DETAIL
100
AcDbLine
 10
670.0
 20
-40.99999999999454
 30
0.0
 11
628.9999999999963
 21
0.0
 31
0.0
  0
LINE
  5
A0ACA
330
1E
100
AcDbEntity
  8
DETAIL
100
AcDbLine
 10
457.9999999999927
 20
-8.999999999996362
 30
0.0
 11
457.9999999999927
 21
0.0
 31
0.0
  0
LINE
  5
A0ACB
330
1E
100
AcDbEntity
  8
DETAIL
100
AcDbLine
 10
487.9999999999927
 20
0.0
 30
0.0
 11
487.9999999999927
 21
-13.00000000000182
 31
0.0
  0
ARC
  5
A0ACC
330
1E
100
AcDbEntity
  8
DETAIL
100
AcDbCircle
 10
497.2922199999993
 20
126.999999999998
 30
0.0
 40
140.0
100
AcDbArc
 50
262.4053570000498
 51
270.0
  0
LINE
  5
A0ACD
330
1E
100
AcDbEntity
  8
DETAIL
100
AcDbLine
 10
478.789289999986
 20
-11.77190999999766
 30
0.0
 11
467.210699999996
 21
-10.22809999999481
 31
0.0
  0
ARC
  5
A0ACE
330
1E
100
AcDbEntity
  8
DETAIL
100
AcDbCircle
 10
448.7077799999861
 20
-148.9999999999963
 30
0.0
 40
140.0
100
AcDbArc
 50
82.40535700004977
 51
90.0
  0
CIRCLE
  5
A0ACF
330
1E
100
AcDbEntity
  8
FIX
  6
Continuous
100
AcDbCircle
 10
400.0
 20
0.0
 30
0.0
 40
5.0
  0
LINE
  5
A0AD0
330
1E
100
AcDbEntity
  8
NOTE
  6
Continuous
100
AcDbLine
 10
400.0
 20
20.0
 30
0.0
 11
400.0
 21
-20.0
 31
0.0
  0
LINE
  5
A0AD1
330
1E
100
AcDbEntity
  8
NOTE
  6
Continuous
100
AcDbLine
 10
380.0
 20
0.0
 30
0.0
 11
420.0
 21
0.0
 31
0.0
  0
LINE
  5
A0AD2
330
1E
100
AcDbEntity
  8
DETAIL
100
AcDbLine
 10
675.0
 20
-40.99999999999454
 30
0.0
 11
674.585790000001
 21
-40.99999999999454
 31
0.0
  0
LINE
  5
A0AD3
330
1E
100
AcDbEntity
  8
DETAIL
100
AcDbLine
 10
675.2928900000006
 20
-41.29289999999855
 30
0.0
 11
675.0
 21
-40.99999999999454
 31
0.0
  0
ARC
  5
A0AD4
330
1E
100
AcDbEntity
  8
DETAIL
100
AcDbCircle
 10
674.585790000001
 20
-41.99999999999818
 30
0.0
 40
1.0
100
AcDbArc
 50
44.99999999999078
 51
90.0
  0
ARC
  5
A0AD5
330
1E
100
AcDbEntity
  8
DETAIL
100
AcDbCircle
 10
678.8558799999918
 20
-46.27010000000154
 30
0.0
 40
1.0
100
AcDbArc
 50
341.5650509999737
 51
44.99999999999078
  0
LINE
  5
A0AD6
330
1E
100
AcDbEntity
  8
DETAIL
100
AcDbLine
 10
679.8045599999932
 20
-46.5863199999967
 30
0.0
 11
680.0
 21
-45.99999999999454
 31
0.0
  0
LINE
  5
A0AD7
330
1E
100
AcDbEntity
  8
DETAIL
100
AcDbLine
 10
680.0
 20
-45.99999999999454
 30
0.0
 11
679.5629799999915
 21
-45.56298999999853
 31
0.0
  0
LINE
  5
A0AD8
330
1E
100
AcDbEntity
  8
DETAIL
100
AcDbLine
 10
679.5629799999915
 20
-45.56298999999853
 30
0.0
 11
675.2928900000006
 21
-41.29289999999855
 31
0.0
  0
LINE
  5
A0AD9
330
1E
100
AcDbEntity
  8
OUTLINE
100
AcDbLine
 10
628.9999999999963
 20
0.0
 30
0.0
 11
0.0
 21
0.0
 31
0.0
  0
LINE
  5
A0ADA
330
1E
100
AcDbEntity
  8
OUTLINE
100
AcDbLine
 10
674.585790000001
 20
-40.99999999999454
 30
0.0
 11
670.0
 21
-40.99999999999454
 31
0.0
  0
LINE
  5
A0ADB
330
1E
100
AcDbEntity
  8
OUTLINE
100
AcDbLine
 10
0.999999999985448
 20
-235.9999999999946
 30
0.0
 11
170.0001700000029
 21
-235.9999999999946
 31
0.0
  0
LINE
  5
A0ADC
330
1E
100
AcDbEntity
  8
OUTLINE
100
AcDbLine
 10
0.0
 20
0.0
 30
0.0
 11
0.0
 21
-235.0
 31
0.0
  0
ARC
  5
A0ADD
330
1E
100
AcDbEntity
  8
OUTLINE
100
AcDbCircle
 10
0.999999999985448
 20
-235.0
 30
0.0
 40
1.0
100
AcDbArc
 50
180.0
 51
270.0
  0
ARC
  5
A0ADE
330
1E
100
AcDbEntity
  8
OUTLINE
100
AcDbCircle
 10
170.0001799999881
 20
2792.918289999998
 30
0.0
 40
3028.918299999999
100
AcDbArc
 50
270.0
 51
277.8830930000243
  0
ARC
  5
A0ADF
330
1E
100
AcDbEntity
  8
OUTLINE
100
AcDbCircle
 10
170.0001799999881
 20
2792.918289999998
 30
0.0
 40
2997.9183
100
AcDbArc
 50
278.9215115409498
 51
278.9950289999961
  0
LINE
  5
A0AE0
330
1E
100
AcDbEntity
  8
OUTLINE
100
AcDbLine
 10
639.5133799999894
 20
-167.459859999999
 30
0.0
 11
679.8045599999932
 21
-46.5863199999967
 31
0.0
  0
LINE
  5
A0AE1
330
1E
100
AcDbEntity
  8
OUTLINE
100
AcDbLine
 10
629.4022199999926
 20
-195.0174799999967
 30
0.0
 11
585.4231400000026
 21
-207.3766599999999
 31
0.0
  0
ARC
  5
A0AE2
330
1E
100
AcDbEntity
  8
OUTLINE
100
AcDbCircle
 10
638.564699999988
 20
-167.1436300000005
 30
0.0
 40
1.0
100
AcDbArc
 50
278.9950289999961
 51
341.5650509999737
  0
ARC
  5
A0AE3
330
1E
100
AcDbEntity
  8
OUTLINE
100
AcDbCircle
 10
170.0001799999881
 20
2792.918289999998
 30
0.0
 40
2997.9183
100
AcDbArc
 50
278.9950289999961
 51
279.0066430000199
  0
LINE
  5
A0AE4
330
1E
100
AcDbEntity
  8
OUTLINE
100
AcDbLine
 10
639.3212499999935
 20
-168.0362599999989
 30
0.0
 11
639.5133799999894
 21
-167.459859999999
 31
0.0
  0
ARC
  5
A0AE5
330
1E
100
AcDbEntity
  8
OUTLINE
100
AcDbCircle
 10
636.4511499999935
 20
-173.4842800000023
 30
0.0
 40
1.0
100
AcDbArc
 50
341.5650509999737
 51
29.38983000003446
  0
ARC
  5
A0AE6
330
1E
100
AcDbEntity
  8
OUTLINE
100
AcDbCircle
 10
628.8611299999866
 20
-193.092059999999
 30
0.0
 40
2.0
100
AcDbArc
 50
285.6966509999713
 51
341.5650509999737
  0
LINE
  5
A0AE7
330
1E
100
AcDbEntity
  8
OUTLINE
100
AcDbLine
 10
630.7584999999926
 20
-193.7245199999961
 30
0.0
 11
637.3998299999948
 21
-173.8005100000009
 31
0.0
  0
LINE
  5
A0AE8
330
1E
100
AcDbEntity
  8
OUTLINE
100
AcDbLine
 10
637.3224499999923
 20
-172.9935399999976
 30
0.0
 11
634.9212499999885
 21
-168.730319999995
 31
0.0
  0
LINE
  5
A0AE9
330
1E
100
AcDbEntity
  8
OUTLINE
100
AcDbLine
 10
675.0
 20
-40.99999999999454
 30
0.0
 11
674.585790000001
 21
-40.99999999999454
 31
0.0
  0
LINE
  5
A0AEA
330
1E
100
AcDbEntity
  8
OUTLINE
100
AcDbLine
 10
675.2928900000006
 20
-41.29289999999855
 30
0.0
 11
675.0
 21
-40.99999999999454
 31
0.0
  0
ARC
  5
A0AEB
330
1E
100
AcDbEntity
  8
OUTLINE
100
AcDbCircle
 10
674.585790000001
 20
-41.99999999999818
 30
0.0
 40
1.0
100
AcDbArc
 50
44.99999999999078
 51
90.0
  0
ARC
  5
A0AEC
330
1E
100
AcDbEntity
  8
OUTLINE
100
AcDbCircle
 10
678.8558799999918
 20
-46.27010000000154
 30
0.0
 40
1.0
100
AcDbArc
 50
341.5650509999737
 51
44.99999999999078
  0
LINE
  5
A0AED
330
1E
100
AcDbEntity
  8
OUTLINE
100
AcDbLine
 10
679.8045599999932
 20
-46.5863199999967
 30
0.0
 11
680.0
 21
-45.99999999999454
 31
0.0
  0
LINE
  5
A0AEE
330
1E
100
AcDbEntity
  8
OUTLINE
100
AcDbLine
 10
680.0
 20
-45.99999999999454
 30
0.0
 11
679.5629799999915
 21
-45.56298999999853
 31
0.0
  0
LINE
  5
A0AEF
330
1E
100
AcDbEntity
  8
OUTLINE
100
AcDbLine
 10
679.5629799999915
 20
-45.56298999999853
 30
0.0
 11
675.2928900000006
 21
-41.29289999999855
 31
0.0
  0
LINE
  5
A0AF0
330
1E
100
AcDbEntity
  8
OUTLINE
100
AcDbLine
 10
670.0
 20
-40.99999999999454
 30
0.0
 11
628.9999999999963
 21
0.0
 31
0.0
  0
DIMENSION
  5
A0AF1
330
1E
100
AcDbEntity
  8
SIZE
100
AcDbDimension
  2
*D56
 10
675.0
 20
128.7106257411997
 30
0.0
 11
724.3757725105024
 21
128.7106257411997
 31
0.0
 70
   160
 71
     5
 42
5.0
  3
STANDARD
100
AcDbAlignedDimension
 13
670.0
 23
-40.99999999999454
 33
0.0
 14
675.0
 24
-40.99999999999454
 34
0.0
100
AcDbRotatedDimension
1001
ACAD
1000
DSTYLE
1002
{
1070
    41
1040
10.0
1070
    42
1040
20.0
1070
    43
1040
200.0
1070
    44
1040
20.0
1070
    73
1070
     0
1070
    74
1070
     0
1070
    77
1070
     1
1070
    78
1070
     8
1070
   140
1040
50.0
1070
   141
1040
0.082
1070
   147
1040
10.0
1070
   172
1070
     1
1070
   271
1070
     3
1070
   272
1070
     3
1070
   341
1005
46
1070
   342
1005
46
1002
}
  0
ENDSEC
  0
SECTION
  2
OBJECTS
  0
DICTIONARY
  5
C
330
0
100
AcDbDictionary
281
     1
  3
ACAD_CIP_PREVIOUS_PRODUCT_INFO
350
9F0F1
  3
ACAD_COLOR
350
9F0D1
  3
ACAD_DETAILVIEWSTYLE
350
9F0EA
  3
ACAD_GROUP
350
D
  3
ACAD_LAYOUT
350
19
  3
ACAD_MATERIAL
350
9F09F
  3
ACAD_MLEADERSTYLE
350
9F0E6
  3
ACAD_MLINESTYLE
350
16
  3
ACAD_PLOTSETTINGS
350
18
  3
ACAD_PLOTSTYLENAME
350
E
  3
ACAD_SCALELIST
350
9F0D4
  3
ACAD_SECTIONVIEWSTYLE
350
9F0E8
  3
ACAD_TABLESTYLE
350
9F0D2
  3
ACAD_VISUALSTYLE
350
9F0B8
  3
ACDB_RECOMPOSE_DATA
350
A0CBE
  3
ACDBVARIABLEDICTIONARY
350
96EEA
  0
DICTIONARY
  5
9F1AA
330
2
100
AcDbDictionary
280
     1
281
     1
  3
ACAD_LAYERSTATES
360
9F1AB
  0
DICTIONARY
  5
9F0F4
330
10
100
AcDbDictionary
280
     1
281
     1
  3
ADSK_XREC_LAYER_RECONCILED
360
9F0F5
  0
DICTIONARY
  5
9F0F6
330
22
100
AcDbDictionary
280
     1
281
     1
  3
ADSK_XREC_LAYER_RECONCILED
360
9F0F7
  0
DICTIONARY
  5
9F0F8
330
31
100
AcDbDictionary
280
     1
281
     1
  3
ADSK_XREC_LAYER_RECONCILED
360
9F0F9
  0
DICTIONARY
  5
9F0FA
330
32
100
AcDbDictionary
280
     1
281
     1
  3
ADSK_XREC_LAYER_RECONCILED
360
9F0FB
  0
DICTIONARY
  5
9F0FC
330
33
100
AcDbDictionary
280
     1
281
     1
  3
ADSK_XREC_LAYER_RECONCILED
360
9F0FD
  0
DICTIONARY
  5
9F0FE
330
34
100
AcDbDictionary
280
     1
281
     1
  3
ADSK_XREC_LAYER_RECONCILED
360
9F0FF
  0
DICTIONARY
  5
9F100
330
35
100
AcDbDictionary
280
     1
281
     1
  3
ADSK_XREC_LAYER_RECONCILED
360
9F101
  0
DICTIONARY
  5
9F102
330
37
100
AcDbDictionary
280
     1
281
     1
  3
ADSK_XREC_LAYER_RECONCILED
360
9F103
  0
DICTIONARY
  5
9F1A3
330
9F1A2
100
AcDbDictionary
280
     1
281
     1
  0
DICTIONARY
  5
9F1A5
330
9F1A4
100
AcDbDictionary
280
     1
281
     1
  0
DICTIONARY
  5
66E76
330
1E
100
AcDbDictionary
280
     1
281
     1
  3
ACAD_LAYOUTSELFREF
360
9F09A
  3
ACAD_SORTENTS
360
9FA99
  0
DICTIONARY
  5
66E74
330
1A
100
AcDbDictionary
280
     1
281
     1
  3
ACAD_LAYOUTSELFREF
360
9F099
  0
XRECORD
  5
9F0F1
102
{ACAD_REACTORS
330
C
102
}
330
C
100
AcDbXrecord
280
     1
300
ACDLT
300
2014
300
ACDLT_F_S
  0
DICTIONARY
  5
9F0D1
102
{ACAD_REACTORS
330
C
102
}
330
C
100
AcDbDictionary
281
     1
  0
DICTIONARY
  5
9F0EA
102
{ACAD_REACTORS
330
C
102
}
330
C
100
AcDbDictionary
281
     1
  3
Imperial24
350
9F0EB
  3
Metric50
350
9F1AD
  0
DICTIONARY
  5
D
102
{ACAD_REACTORS
330
C
102
}
330
C
100
AcDbDictionary
281
     1
  0
DICTIONARY
  5
19
102
{ACAD_REACTORS
330
C
102
}
330
C
100
AcDbDictionary
281
     1
  3
Model
350
9F0EC
  3
レイアウト1
350
9F0ED
  0
DICTIONARY
  5
9F09F
102
{ACAD_REACTORS
330
C
102
}
330
C
100
AcDbDictionary
281
     1
  3
ByBlock
350
9F0A8
  3
ByLayer
350
9F0A0
  3
Global
350
9F0B0
  0
DICTIONARY
  5
9F0E6
102
{ACAD_REACTORS
330
C
102
}
330
C
100
AcDbDictionary
281
     1
  3
Standard
350
9F0E7
  0
DICTIONARY
  5
16
102
{ACAD_REACTORS
330
C
102
}
330
C
100
AcDbDictionary
281
     1
  3
STANDARD
350
17
  0
DICTIONARY
  5
18
102
{ACAD_REACTORS
330
C
102
}
330
C
100
AcDbDictionary
281
     1
  0
ACDBDICTIONARYWDFLT
  5
E
102
{ACAD_REACTORS
330
C
102
}
330
C
100
AcDbDictionary
281
     1
  3
Normal
350
F
100
AcDbDictionaryWithDefault
340
F
  0
DICTIONARY
  5
9F0D4
102
{ACAD_REACTORS
330
C
102
}
330
C
100
AcDbDictionary
281
     1
  3
A0
350
9F0D5
  3
A1
350
9F0D6
  3
A2
350
9F0D7
  3
A3
350
9F0D8
  3
A4
350
9F0D9
  3
A5
350
9F0DA
  3
A6
350
9F0DB
  3
A7
350
9F0DC
  3
A8
350
9F0DD
  3
A9
350
9F0DE
  3
B0
350
9F0DF
  3
B1
350
9F0E0
  3
B2
350
9F0E1
  3
B3
350
9F0E2
  3
B4
350
9F0E3
  3
B5
350
9F0E4
  3
B6
350
9F0E5
  0
DICTIONARY
  5
9F0E8
102
{ACAD_REACTORS
330
C
102
}
330
C
100
AcDbDictionary
281
     1
  3
Imperial24
350
9F0E9
  3
Metric50
350
9F1AC
  0
DICTIONARY
  5
9F0D2
102
{ACAD_REACTORS
330
C
102
}
330
C
100
AcDbDictionary
281
     1
  3
Standard
350
9F0D3
  0
DICTIONARY
  5
9F0B8
102
{ACAD_REACTORS
330
C
102
}
330
C
100
AcDbDictionary
281
     1
  3
2dWireframe
350
9F0BE
  3
Basic
350
9F0BD
  3
Brighten
350
9F0C4
  3
ColorChange
350
9F0C8
  3
Conceptual
350
9F0C1
  3
Dim
350
9F0C3
  3
EdgeColorOff
350
9F0D0
  3
Facepattern
350
9F0C7
  3
Flat
350
9F0B9
  3
FlatWithEdges
350
9F0BA
  3
Gouraud
350
9F0BB
  3
GouraudWithEdges
350
9F0BC
  3
Hidden
350
9F0C0
  3
JitterOff
350
9F0CE
  3
Linepattern
350
9F0C6
  3
OverhangOff
350
9F0CF
  3
Realistic
350
9F0C2
  3
Shaded
350
9F0CD
  3
Shaded with edges
350
9F0CC
  3
Shades of Gray
350
9F0C9
  3
Sketchy
350
9F0CA
  3
Thicken
350
9F0C5
  3
Wireframe
350
9F0BF
  3
X-Ray
350
9F0CB
  0
XRECORD
  5
A0CBE
102
{ACAD_REACTORS
330
C
102
}
330
C
100
AcDbXrecord
280
     1
 90
        1
330
9F0D3
  0
DICTIONARY
  5
96EEA
102
{ACAD_REACTORS
330
C
102
}
330
C
100
AcDbDictionary
281
     1
  3
CANNOSCALE
350
9F108
  3
CMLEADERSTYLE
350
9F105
  3
CTABLESTYLE
350
9F104
  3
CVIEWDETAILSTYLE
350
9F106
  3
CVIEWSECTIONSTYLE
350
9F107
  3
SORTENTS
350
96EEB
  3
XCLIPFRAME
350
A0CBB
  0
DICTIONARY
  5
9F1AB
102
{ACAD_REACTORS
330
9F1AA
102
}
330
9F1AA
100
AcDbDictionary
281
     1
  0
XRECORD
  5
9F0F5
102
{ACAD_REACTORS
330
9F0F4
102
}
330
9F0F4
100
AcDbXrecord
280
     1
290
     1
  0
XRECORD
  5
9F0F7
102
{ACAD_REACTORS
330
9F0F6
102
}
330
9F0F6
100
AcDbXrecord
280
     1
290
     1
  0
XRECORD
  5
9F0F9
102
{ACAD_REACTORS
330
9F0F8
102
}
330
9F0F8
100
AcDbXrecord
280
     1
290
     1
  0
XRECORD
  5
9F0FB
102
{ACAD_REACTORS
330
9F0FA
102
}
330
9F0FA
100
AcDbXrecord
280
     1
290
     1
  0
XRECORD
  5
9F0FD
102
{ACAD_REACTORS
330
9F0FC
102
}
330
9F0FC
100
AcDbXrecord
280
     1
290
     1
  0
XRECORD
  5
9F0FF
102
{ACAD_REACTORS
330
9F0FE
102
}
330
9F0FE
100
AcDbXrecord
280
     1
290
     1
  0
XRECORD
  5
9F101
102
{ACAD_REACTORS
330
9F100
102
}
330
9F100
100
AcDbXrecord
280
     1
290
     1
  0
XRECORD
  5
9F103
102
{ACAD_REACTORS
330
9F102
102
}
330
9F102
100
AcDbXrecord
280
     1
290
     1
  0
XRECORD
  5
9F09A
102
{ACAD_REACTORS
330
66E76
102
}
330
66E76
100
AcDbXrecord
280
     1
340
1E
  0
SORTENTSTABLE
  5
9FA99
102
{ACAD_REACTORS
330
66E76
102
}
330
66E76
100
AcDbSortentsTable
330
1E
331
38341
  5
38341
331
A02B8
  5
A02B8
331
A02B9
  5
A02B9
  0
XRECORD
  5
9F099
102
{ACAD_REACTORS
330
66E74
102
}
330
66E74
100
AcDbXrecord
280
     1
340
1A
  0
ACDBDETAILVIEWSTYLE
  5
9F0EB
102
{ACAD_XDICTIONARY
360
A0CF2
102
}
102
{ACAD_REACTORS
330
9F0EA
102
}
330
9F0EA
100
AcDbModelDocViewStyle
 70
     0
  3
Imperial24
290
     0
100
AcDbDetailViewStyle
 70
     0
 71
     0
 90
        3
 71
     1
340
11
 62
   256
 40
0.24
340
0
 62
   256
 40
0.24
300

 40
0.36
280
     3
 71
     2
340
15
 90
       25
 62
   256
 71
     3
340
11
 62
   256
 40
0.24
 90
        1
 40
0.75
 90
        1
300
%<\AcVar ViewType \f "%tc1">% %<\AcVar ViewDetailId>%\PSCALE %<\AcVar ViewScale \f "%sn">%
 71
     4
340
15
 90
       25
 62
   256
340
15
 90
       25
 62
   256
280
     0
  0
ACDBDETAILVIEWSTYLE
  5
9F1AD
102
{ACAD_XDICTIONARY
360
A0CF6
102
}
102
{ACAD_REACTORS
330
9F0EA
102
}
330
9F0EA
100
AcDbModelDocViewStyle
 70
     0
  3
Metric50
290
     0
100
AcDbDetailViewStyle
 70
     0
 71
     0
 90
        3
 71
     1
340
11
 62
   256
 40
5.0
340
0
 62
   256
 40
5.0
300

 40
0.0
280
     1
 71
     2
340
15
 90
       25
 62
   256
 71
     3
340
11
 62
   256
 40
5.0
 90
        0
 40
15.0
 90
        1
300
%<\AcVar ViewDetailId>% (%<\AcVar ViewScale \f "%sn">%)
 71
     4
340
15
 90
       25
 62
   256
340
15
 90
       25
 62
   256
280
     0
  0
LAYOUT
  5
9F0EC
102
{ACAD_REACTORS
330
19
102
}
330
19
100
AcDbPlotSettings
  1

  2
none_device
  4
Letter_(8.50_x_11.00_Inches)
  6

 40
6.349999904632567
 41
6.349999904632567
 42
6.350006103515625
 43
6.350006103515625
 44
215.8999938964844
 45
279.3999938964844
 46
0.0
 47
0.0
 48
0.0
 49
0.0
140
0.0
141
0.0
142
1.0
143
168.6852425728759
 70
 11952
 72
     0
 73
     1
 74
     0
  7

 75
     0
147
0.0059282008594675
 76
     0
 77
     2
 78
   300
148
26027.26477195405
149
10165.15916413343
100
AcDbLayout
  1
Model
 70
     1
 71
     0
 10
0.0
 20
0.0
 11
12.0
 21
9.0
 12
0.0
 22
0.0
 32
0.0
 14
0.0
 24
0.0
 34
0.0
 15
0.0
 25
0.0
 35
0.0
146
0.0
 13
0.0
 23
0.0
 33
0.0
 16
1.0
 26
0.0
 36
0.0
 17
0.0
 27
1.0
 37
0.0
 76
     0
330
1E
331
9F077
1001
ACAD_PSEXT
1000
なし
1000
なし
1000
適切ではありません
1000
新しいプロッタ環境設定名を選択しない限り、レイアウトは印刷されません。
1070
     0
  0
LAYOUT
  5
9F0ED
102
{ACAD_REACTORS
330
19
102
}
330
19
100
AcDbPlotSettings
  1

  2
なし
  4

  6

 40
0.0
 41
0.0
 42
0.0
 43
0.0
 44
0.0
 45
0.0
 46
0.0
 47
0.0
 48
0.0
 49
0.0
140
0.0
141
0.0
142
1.0
143
1.0
 70
   688
 72
     0
 73
     0
 74
     5
  7

 75
    16
147
1.0
 76
     0
 77
     2
 78
   300
148
0.0
149
0.0
100
AcDbLayout
  1
レイアウト1
 70
     1
 71
     1
 10
0.0
 20
0.0
 11
12.0
 21
9.0
 12
0.0
 22
0.0
 32
0.0
 14
1.000000000000000E+20
 24
1.000000000000000E+20
 34
1.000000000000000E+20
 15
-1.000000000000000E+20
 25
-1.000000000000000E+20
 35
-1.000000000000000E+20
146
0.0
 13
0.0
 23
0.0
 33
0.0
 16
1.0
 26
0.0
 36
0.0
 17
0.0
 27
1.0
 37
0.0
 76
     0
330
1A
  0
MATERIAL
  5
9F0A8
102
{ACAD_XDICTIONARY
360
9F0A9
102
}
102
{ACAD_REACTORS
330
9F09F
102
}
330
9F09F
100
AcDbMaterial
  1
ByBlock
 72
     0
 43
0.0208333333333333
 43
0.0
 43
0.0
 43
0.0
 43
0.0
 43
0.0208333333333333
 43
0.0
 43
0.0
 43
0.0
 43
0.0
 43
1.0
 43
0.0
 43
0.0
 43
0.0
 43
0.0
 43
1.0
 77
     0
 47
0.0208333333333333
 47
0.0
 47
0.0
 47
0.0
 47
0.0
 47
0.0208333333333333
 47
0.0
 47
0.0
 47
0.0
 47
0.0
 47
1.0
 47
0.0
 47
0.0
 47
0.0
 47
0.0
 47
1.0
171
     0
 49
0.0208333333333333
 49
0.0
 49
0.0
 49
0.0
 49
0.0
 49
0.0208333333333333
 49
0.0
 49
0.0
 49
0.0
 49
0.0
 49
1.0
 49
0.0
 49
0.0
 49
0.0
 49
0.0
 49
1.0
175
     0
142
0.0208333333333333
142
0.0
142
0.0
142
0.0
142
0.0
142
0.0208333333333333
142
0.0
142
0.0
142
0.0
142
0.0
142
1.0
142
0.0
142
0.0
142
0.0
142
0.0
142
1.0
179
     0
144
0.0208333333333333
144
0.0
144
0.0
144
0.0
144
0.0
144
0.0208333333333333
144
0.0
144
0.0
144
0.0
144
0.0
144
1.0
144
0.0
144
0.0
144
0.0
144
0.0
144
1.0
147
0.0208333333333333
147
0.0
147
0.0
147
0.0
147
0.0
147
0.0208333333333333
147
0.0
147
0.0
147
0.0
147
0.0
147
1.0
147
0.0
147
0.0
147
0.0
147
0.0
147
1.0
  0
MATERIAL
  5
9F0A0
102
{ACAD_XDICTIONARY
360
9F0A1
102
}
102
{ACAD_REACTORS
330
9F09F
102
}
330
9F09F
100
AcDbMaterial
  1
ByLayer
 72
     0
 43
0.0208333333333333
 43
0.0
 43
0.0
 43
0.0
 43
0.0
 43
0.0208333333333333
 43
0.0
 43
0.0
 43
0.0
 43
0.0
 43
1.0
 43
0.0
 43
0.0
 43
0.0
 43
0.0
 43
1.0
 77
     0
 47
0.0208333333333333
 47
0.0
 47
0.0
 47
0.0
 47
0.0
 47
0.0208333333333333
 47
0.0
 47
0.0
 47
0.0
 47
0.0
 47
1.0
 47
0.0
 47
0.0
 47
0.0
 47
0.0
 47
1.0
171
     0
 49
0.0208333333333333
 49
0.0
 49
0.0
 49
0.0
 49
0.0
 49
0.0208333333333333
 49
0.0
 49
0.0
 49
0.0
 49
0.0
 49
1.0
 49
0.0
 49
0.0
 49
0.0
 49
0.0
 49
1.0
175
     0
142
0.0208333333333333
142
0.0
142
0.0
142
0.0
142
0.0
142
0.0208333333333333
142
0.0
142
0.0
142
0.0
142
0.0
142
1.0
142
0.0
142
0.0
142
0.0
142
0.0
142
1.0
179
     0
144
0.0208333333333333
144
0.0
144
0.0
144
0.0
144
0.0
144
0.0208333333333333
144
0.0
144
0.0
144
0.0
144
0.0
144
1.0
144
0.0
144
0.0
144
0.0
144
0.0
144
1.0
147
0.0208333333333333
147
0.0
147
0.0
147
0.0
147
0.0
147
0.0208333333333333
147
0.0
147
0.0
147
0.0
147
0.0
147
1.0
147
0.0
147
0.0
147
0.0
147
0.0
147
1.0
  0
MATERIAL
  5
9F0B0
102
{ACAD_XDICTIONARY
360
9F0B1
102
}
102
{ACAD_REACTORS
330
9F09F
102
}
330
9F09F
100
AcDbMaterial
  1
Global
 72
     0
 43
0.0208333333333333
 43
0.0
 43
0.0
 43
0.0
 43
0.0
 43
0.0208333333333333
 43
0.0
 43
0.0
 43
0.0
 43
0.0
 43
1.0
 43
0.0
 43
0.0
 43
0.0
 43
0.0
 43
1.0
 77
     0
 47
0.0208333333333333
 47
0.0
 47
0.0
 47
0.0
 47
0.0
 47
0.0208333333333333
 47
0.0
 47
0.0
 47
0.0
 47
0.0
 47
1.0
 47
0.0
 47
0.0
 47
0.0
 47
0.0
 47
1.0
171
     0
 49
0.0208333333333333
 49
0.0
 49
0.0
 49
0.0
 49
0.0
 49
0.0208333333333333
 49
0.0
 49
0.0
 49
0.0
 49
0.0
 49
1.0
 49
0.0
 49
0.0
 49
0.0
 49
0.0
 49
1.0
175
     0
142
0.0208333333333333
142
0.0
142
0.0
142
0.0
142
0.0
142
0.0208333333333333
142
0.0
142
0.0
142
0.0
142
0.0
142
1.0
142
0.0
142
0.0
142
0.0
142
0.0
142
1.0
179
     0
144
0.0208333333333333
144
0.0
144
0.0
144
0.0
144
0.0
144
0.0208333333333333
144
0.0
144
0.0
144
0.0
144
0.0
144
1.0
144
0.0
144
0.0
144
0.0
144
0.0
144
1.0
147
0.0208333333333333
147
0.0
147
0.0
147
0.0
147
0.0
147
0.0208333333333333
147
0.0
147
0.0
147
0.0
147
0.0
147
1.0
147
0.0
147
0.0
147
0.0
147
0.0
147
1.0
  0
MLEADERSTYLE
  5
9F0E7
102
{ACAD_REACTORS
330
9F0E6
102
}
330
9F0E6
100
AcDbMLeaderStyle
170
     2
171
     1
172
     0
 90
        2
 40
0.0
 41
0.0
173
     1
 91
-1056964608
340
13
 92
       -2
290
     1
 42
0.09
291
     1
 43
0.36
  3
Standard
 44
0.18
300

342
11
174
     1
178
     6
175
     1
176
     0
 93
-1056964608
 45
0.18
292
     0
297
     0
 46
0.18
 94
-1056964608
 47
1.0
 49
1.0
140
1.0
293
     1
141
0.0
294
     1
177
     0
142
1.0
295
     0
296
     0
143
0.125
1001
ACAD_MLEADERVER
1070
     2
  0
MLINESTYLE
  5
17
102
{ACAD_REACTORS
330
16
102
}
330
16
100
AcDbMlineStyle
  2
STANDARD
 70
     0
  3

 62
   256
 51
90.0
 52
90.0
 71
     2
 49
0.5
 62
   256
  6
BYLAYER
 49
-0.5
 62
   256
  6
BYLAYER
  0
ACDBPLACEHOLDER
  5
F
102
{ACAD_REACTORS
330
E
102
}
330
E
  0
SCALE
  5
9F0D5
102
{ACAD_REACTORS
330
9F0D4
102
}
330
9F0D4
100
AcDbScale
 70
     0
300
1:1
140
1.0
141
1.0
290
     1
  0
SCALE
  5
9F0D6
102
{ACAD_REACTORS
330
9F0D4
102
}
330
9F0D4
100
AcDbScale
 70
     0
300
1/128" = 1'-0"
140
0.0078125
141
12.0
290
     0
  0
SCALE
  5
9F0D7
102
{ACAD_REACTORS
330
9F0D4
102
}
330
9F0D4
100
AcDbScale
 70
     0
300
1/64" = 1'-0"
140
0.015625
141
12.0
290
     0
  0
SCALE
  5
9F0D8
102
{ACAD_REACTORS
330
9F0D4
102
}
330
9F0D4
100
AcDbScale
 70
     0
300
1/32" = 1'-0"
140
0.03125
141
12.0
290
     0
  0
SCALE
  5
9F0D9
102
{ACAD_REACTORS
330
9F0D4
102
}
330
9F0D4
100
AcDbScale
 70
     0
300
1/16" = 1'-0"
140
0.0625
141
12.0
290
     0
  0
SCALE
  5
9F0DA
102
{ACAD_REACTORS
330
9F0D4
102
}
330
9F0D4
100
AcDbScale
 70
     0
300
3/32" = 1'-0"
140
0.09375
141
12.0
290
     0
  0
SCALE
  5
9F0DB
102
{ACAD_REACTORS
330
9F0D4
102
}
330
9F0D4
100
AcDbScale
 70
     0
300
1/8" = 1'-0"
140
0.125
141
12.0
290
     0
  0
SCALE
  5
9F0DC
102
{ACAD_REACTORS
330
9F0D4
102
}
330
9F0D4
100
AcDbScale
 70
     0
300
3/16" = 1'-0"
140
0.1875
141
12.0
290
     0
  0
SCALE
  5
9F0DD
102
{ACAD_REACTORS
330
9F0D4
102
}
330
9F0D4
100
AcDbScale
 70
     0
300
1/4" = 1'-0"
140
0.25
141
12.0
290
     0
  0
SCALE
  5
9F0DE
102
{ACAD_REACTORS
330
9F0D4
102
}
330
9F0D4
100
AcDbScale
 70
     0
300
3/8" = 1'-0"
140
0.375
141
12.0
290
     0
  0
SCALE
  5
9F0DF
102
{ACAD_REACTORS
330
9F0D4
102
}
330
9F0D4
100
AcDbScale
 70
     0
300
1/2" = 1'-0"
140
0.5
141
12.0
290
     0
  0
SCALE
  5
9F0E0
102
{ACAD_REACTORS
330
9F0D4
102
}
330
9F0D4
100
AcDbScale
 70
     0
300
3/4" = 1'-0"
140
0.75
141
12.0
290
     0
  0
SCALE
  5
9F0E1
102
{ACAD_REACTORS
330
9F0D4
102
}
330
9F0D4
100
AcDbScale
 70
     0
300
1" = 1'-0"
140
1.0
141
12.0
290
     0
  0
SCALE
  5
9F0E2
102
{ACAD_REACTORS
330
9F0D4
102
}
330
9F0D4
100
AcDbScale
 70
     0
300
1-1/2" = 1'-0"
140
1.5
141
12.0
290
     0
  0
SCALE
  5
9F0E3
102
{ACAD_REACTORS
330
9F0D4
102
}
330
9F0D4
100
AcDbScale
 70
     0
300
3" = 1'-0"
140
3.0
141
12.0
290
     0
  0
SCALE
  5
9F0E4
102
{ACAD_REACTORS
330
9F0D4
102
}
330
9F0D4
100
AcDbScale
 70
     0
300
6" = 1'-0"
140
6.0
141
12.0
290
     0
  0
SCALE
  5
9F0E5
102
{ACAD_REACTORS
330
9F0D4
102
}
330
9F0D4
100
AcDbScale
 70
     0
300
1'-0" = 1'-0"
140
12.0
141
12.0
290
     0
  0
ACDBSECTIONVIEWSTYLE
  5
9F0E9
102
{ACAD_XDICTIONARY
360
A0CF0
102
}
102
{ACAD_REACTORS
330
9F0E8
102
}
330
9F0E8
100
AcDbModelDocViewStyle
 70
     0
  3
Imperial24
290
     0
100
AcDbSectionViewStyle
 70
     0
 71
     0
 90
       78
 71
     1
340
11
 62
   256
 40
0.24
340
0
340
0
 62
   256
 40
0.24
300
I, O, Q, S, X, Z
 40
0.48
 90
        3
 40
0.18
 90
        1
 71
     2
340
15
 90
       25
 62
   256
340
15
 90
       50
 62
   256
 40
0.24
 40
0.0
 40
0.24
 71
     3
340
11
 62
   256
 40
0.24
 90
        1
 40
0.75
 90
        1
300
%<\AcVar ViewType \f "%tc1">% %<\AcVar ViewSectionStartId>%-%<\AcVar ViewSectionEndId>%\PSCALE %<\AcVar ViewScale \f "%sn">%
 71
     4
 62
   256
 62
   257
300
ANSI31
 40
1.0
 90
        0
290
     0
290
     0
 90
        6
 40
0.0
 40
1.570796326794896
 40
0.2617993877991494
 40
1.308996938995747
 40
-0.2617993877991494
 40
1.832595714594044
  0
ACDBSECTIONVIEWSTYLE
  5
9F1AC
102
{ACAD_XDICTIONARY
360
A0CF4
102
}
102
{ACAD_REACTORS
330
9F0E8
102
}
330
9F0E8
100
AcDbModelDocViewStyle
 70
     0
  3
Metric50
290
     0
100
AcDbSectionViewStyle
 70
     0
 71
     0
 90
      102
 71
     1
340
11
 62
   256
 40
5.0
340
0
340
0
 62
   256
 40
5.0
300
I, O, Q, S, X, Z
 40
10.0
 90
        0
 40
2.5
 90
        0
 71
     2
340
15
 90
       25
 62
   256
340
15
 90
       50
 62
   256
 40
5.0
 40
2.5
 40
5.0
 71
     3
340
11
 62
   256
 40
5.0
 90
        0
 40
15.0
 90
        1
300
%<\AcVar ViewSectionStartId>%-%<\AcVar ViewSectionEndId>% (%<\AcVar ViewScale \f "%sn">%)
 71
     4
 62
   256
 62
   257
300
ANSI31
 40
1.0
 90
        0
290
     0
290
     0
 90
        6
 40
0.0
 40
1.570796326794896
 40
0.2617993877991494
 40
1.308996938995747
 40
-0.2617993877991494
 40
1.832595714594044
  0
TABLESTYLE
  5
9F0D3
102
{ACAD_XDICTIONARY
360
9F10B
102
}
102
{ACAD_REACTORS
330
9F0D2
102
}
330
9F0D2
100
AcDbTableStyle
  3
Standard
 70
     0
 71
     0
 40
0.06
 41
0.06
280
     0
281
     0
  7
STANDARD
140
0.18
170
     2
 62
     0
 63
     7
283
     0
274
    -2
284
     1
 64
     0
275
    -2
285
     1
 65
     0
276
    -2
286
     1
 66
     0
277
    -2
287
     1
 67
     0
278
    -2
288
     1
 68
     0
279
    -2
289
     1
 69
     0
  7
STANDARD
140
0.25
170
     5
 62
     0
 63
     7
283
     0
274
    -2
284
     1
 64
     0
275
    -2
285
     1
 65
     0
276
    -2
286
     1
 66
     0
277
    -2
287
     1
 67
     0
278
    -2
288
     1
 68
     0
279
    -2
289
     1
 69
     0
  7
STANDARD
140
0.18
170
     5
 62
     0
 63
     7
283
     0
274
    -2
284
     1
 64
     0
275
    -2
285
     1
 65
     0
276
    -2
286
     1
 66
     0
277
    -2
287
     1
 67
     0
278
    -2
288
     1
 68
     0
279
    -2
289
     1
 69
     0
  0
VISUALSTYLE
  5
9F0BE
102
{ACAD_XDICTIONARY
360
A0CC9
102
}
102
{ACAD_REACTORS
330
9F0B8
102
}
330
9F0B8
100
AcDbVisualStyle
  2

 70
     4
 71
     0
 72
     2
 73
     0
 90
        0
 40
-0.6
 41
-30.0
 62
     5
 63
     7
421
 16777215
 74
     1
 91
        4
 64
     7
 65
   257
 75
     1
175
     1
 42
1.0
 92
        0
 66
   257
 43
1.0
 76
     1
 77
     6
 78
     2
 67
     7
 79
     5
170
     0
171
     0
290
     0
174
     0
 93
        1
 44
0.0
173
     0
291
     0
 45
0.0
1001
ACAD
1000
AcDbSavedByObjectVersion
1070
     0
  0
VISUALSTYLE
  5
9F0BD
102
{ACAD_XDICTIONARY
360
A0CC7
102
}
102
{ACAD_REACTORS
330
9F0B8
102
}
330
9F0B8
100
AcDbVisualStyle
  2

 70
     7
 71
     1
 72
     0
 73
     1
 90
        0
 40
-0.6
 41
-30.0
 62
     5
 63
     7
421
 16777215
 74
     0
 91
        4
 64
     7
 65
   257
 75
     1
175
     1
 42
1.0
 92
        8
 66
     7
 43
1.0
 76
     1
 77
     6
 78
     2
 67
     7
 79
     5
170
     0
171
     0
290
     0
174
     0
 93
        1
 44
0.0
173
     0
291
     1
 45
0.0
1001
ACAD
1000
AcDbSavedByObjectVersion
1070
     0
  0
VISUALSTYLE
  5
9F0C4
102
{ACAD_XDICTIONARY
360
A0CD5
102
}
102
{ACAD_REACTORS
330
9F0B8
102
}
330
9F0B8
100
AcDbVisualStyle
  2

 70
    12
 71
     2
 72
     2
 73
     0
 90
        0
 40
-0.6
 41
-30.0
 62
     5
 63
     7
421
 16777215
 74
     1
 91
        4
 64
     7
 65
   257
 75
     1
175
     1
 42
1.0
 92
        8
 66
     7
 43
1.0
 76
     1
 77
     6
 78
     2
 67
     7
 79
     5
170
     0
171
     0
290
     0
174
     0
 93
        1
 44
50.0
173
     0
291
     1
 45
0.0
1001
ACAD
1000
AcDbSavedByObjectVersion
1070
     0
  0
VISUALSTYLE
  5
9F0C8
102
{ACAD_XDICTIONARY
360
A0CDD
102
}
102
{ACAD_REACTORS
330
9F0B8
102
}
330
9F0B8
100
AcDbVisualStyle
  2

 70
    16
 71
     2
 72
     2
 73
     3
 90
        0
 40
-0.6
 41
-30.0
 62
     5
 63
     8
421
  8421504
 74
     1
 91
        4
 64
     7
 65
   257
 75
     1
175
     1
 42
1.0
 92
        8
 66
     8
424
  8421504
 43
1.0
 76
     1
 77
     6
 78
     2
 67
     7
 79
     5
170
     0
171
     0
290
     0
174
     0
 93
        1
 44
0.0
173
     0
291
     1
 45
0.0
1001
ACAD
1000
AcDbSavedByObjectVersion
1070
     0
  0
VISUALSTYLE
  5
9F0C1
102
{ACAD_XDICTIONARY
360
A0CCF
102
}
102
{ACAD_REACTORS
330
9F0B8
102
}
330
9F0B8
100
AcDbVisualStyle
  2

 70
     9
 71
     3
 72
     2
 73
     0
 90
        0
 40
-0.6
 41
-30.0
 62
     5
 63
     7
421
 16777215
 74
     2
 91
        2
 64
     7
 65
   257
 75
     1
175
     1
 42
179.0
 92
        8
 66
     7
 43
1.0
 76
     1
 77
     6
 78
     2
 67
     7
 79
     3
170
     0
171
     0
290
     0
174
     0
 93
        1
 44
0.0
173
     0
291
     0
 45
0.0
1001
ACAD
1000
AcDbSavedByObjectVersion
1070
     0
  0
VISUALSTYLE
  5
9F0C3
102
{ACAD_XDICTIONARY
360
A0CD3
102
}
102
{ACAD_REACTORS
330
9F0B8
102
}
330
9F0B8
100
AcDbVisualStyle
  2

 70
    11
 71
     2
 72
     2
 73
     0
 90
        0
 40
-0.6
 41
-30.0
 62
     5
 63
     7
421
 16777215
 74
     1
 91
        4
 64
     7
 65
   257
 75
     1
175
     1
 42
1.0
 92
        8
 66
     7
 43
1.0
 76
     1
 77
     6
 78
     2
 67
     7
 79
     5
170
     0
171
     0
290
     0
174
     0
 93
        1
 44
-50.0
173
     0
291
     1
 45
0.0
1001
ACAD
1000
AcDbSavedByObjectVersion
1070
     0
  0
VISUALSTYLE
  5
9F0D0
102
{ACAD_XDICTIONARY
360
A0CED
102
}
102
{ACAD_REACTORS
330
9F0B8
102
}
330
9F0B8
100
AcDbVisualStyle
  2

 70
    22
 71
     2
 72
     2
 73
     0
 90
        0
 40
-0.6
 41
-30.0
 62
     5
 63
     7
421
 16777215
 74
     1
 91
        4
 64
     7
 65
   257
 75
     1
175
     1
 42
1.0
 92
        8
 66
     7
 43
1.0
 76
     1
 77
     6
 78
     2
 67
     7
 79
     5
170
     0
171
     0
290
     0
174
     0
 93
        1
 44
0.0
173
     0
291
     1
 45
0.0
1001
ACAD
1000
AcDbSavedByObjectVersion
1070
     0
  0
VISUALSTYLE
  5
9F0C7
102
{ACAD_XDICTIONARY
360
A0CDB
102
}
102
{ACAD_REACTORS
330
9F0B8
102
}
330
9F0B8
100
AcDbVisualStyle
  2

 70
    15
 71
     2
 72
     2
 73
     0
 90
        0
 40
-0.6
 41
-30.0
 62
     5
 63
     7
421
 16777215
 74
     1
 91
        4
 64
     7
 65
   257
 75
     1
175
     1
 42
1.0
 92
        8
 66
     7
 43
1.0
 76
     1
 77
     6
 78
     2
 67
     7
 79
     5
170
     0
171
     0
290
     0
174
     0
 93
        1
 44
0.0
173
     0
291
     1
 45
0.0
1001
ACAD
1000
AcDbSavedByObjectVersion
1070
     0
  0
VISUALSTYLE
  5
9F0B9
102
{ACAD_XDICTIONARY
360
A0CBF
102
}
102
{ACAD_REACTORS
330
9F0B8
102
}
330
9F0B8
100
AcDbVisualStyle
  2

 70
     0
 71
     2
 72
     1
 73
     1
 90
        2
 40
-0.6
 41
30.0
 62
     5
 63
     7
421
 16777215
 74
     0
 91
        0
 64
     7
 65
   257
 75
     1
175
     1
 42
1.0
 92
        8
 66
     7
 43
1.0
 76
     1
 77
     6
 78
     2
 67
     7
 79
     5
170
     0
171
     0
290
     0
174
     0
 93
       13
 44
0.0
173
     0
291
     1
 45
0.0
1001
ACAD
1000
AcDbSavedByObjectVersion
1070
     0
  0
VISUALSTYLE
  5
9F0BA
102
{ACAD_XDICTIONARY
360
A0CC1
102
}
102
{ACAD_REACTORS
330
9F0B8
102
}
330
9F0B8
100
AcDbVisualStyle
  2

 70
     1
 71
     2
 72
     1
 73
     1
 90
        2
 40
-0.6
 41
30.0
 62
     5
 63
     7
421
 16777215
 74
     1
 91
        0
 64
     7
 65
   257
 75
     1
175
     1
 42
1.0
 92
        0
 66
   257
 43
1.0
 76
     1
 77
     6
 78
     2
 67
     7
 79
     5
170
     0
171
     0
290
     0
174
     0
 93
       13
 44
0.0
173
     0
291
     1
 45
0.0
1001
ACAD
1000
AcDbSavedByObjectVersion
1070
     0
  0
VISUALSTYLE
  5
9F0BB
102
{ACAD_XDICTIONARY
360
A0CC3
102
}
102
{ACAD_REACTORS
330
9F0B8
102
}
330
9F0B8
100
AcDbVisualStyle
  2

 70
     2
 71
     2
 72
     2
 73
     1
 90
        2
 40
-0.6
 41
30.0
 62
     5
 63
     7
421
 16777215
 74
     0
 91
        0
 64
     7
 65
   257
 75
     1
175
     1
 42
1.0
 92
        0
 66
     7
 43
1.0
 76
     1
 77
     6
 78
     2
 67
     7
 79
     5
170
     0
171
     0
290
     0
174
     0
 93
       13
 44
0.0
173
     0
291
     1
 45
0.0
1001
ACAD
1000
AcDbSavedByObjectVersion
1070
     0
  0
VISUALSTYLE
  5
9F0BC
102
{ACAD_XDICTIONARY
360
A0CC5
102
}
102
{ACAD_REACTORS
330
9F0B8
102
}
330
9F0B8
100
AcDbVisualStyle
  2

 70
     3
 71
     2
 72
     2
 73
     1
 90
        2
 40
-0.6
 41
30.0
 62
     5
 63
     7
421
 16777215
 74
     1
 91
        0
 64
     7
 65
   257
 75
     1
175
     1
 42
1.0
 92
        0
 66
   257
 43
1.0
 76
     1
 77
     6
 78
     2
 67
     7
 79
     5
170
     0
171
     0
290
     0
174
     0
 93
       13
 44
0.0
173
     0
291
     1
 45
0.0
1001
ACAD
1000
AcDbSavedByObjectVersion
1070
     0
  0
VISUALSTYLE
  5
9F0C0
102
{ACAD_XDICTIONARY
360
A0CCD
102
}
102
{ACAD_REACTORS
330
9F0B8
102
}
330
9F0B8
100
AcDbVisualStyle
  2

 70
     6
 71
     1
 72
     2
 73
     2
 90
        0
 40
-0.6
 41
-30.0
 62
     5
 63
     7
421
 16777215
 74
     2
 91
        2
 64
     7
 65
   257
 75
     2
175
     1
 42
40.0
 92
        0
 66
   257
 43
1.0
 76
     1
 77
     6
 78
     2
 67
     7
 79
     3
170
     0
171
     0
290
     0
174
     0
 93
        1
 44
0.0
173
     0
291
     0
 45
0.0
1001
ACAD
1000
AcDbSavedByObjectVersion
1070
     0
  0
VISUALSTYLE
  5
9F0CE
102
{ACAD_XDICTIONARY
360
A0CE9
102
}
102
{ACAD_REACTORS
330
9F0B8
102
}
330
9F0B8
100
AcDbVisualStyle
  2

 70
    20
 71
     2
 72
     2
 73
     0
 90
        0
 40
-0.6
 41
-30.0
 62
     5
 63
     7
421
 16777215
 74
     1
 91
        4
 64
     7
 65
   257
 75
     1
175
     1
 42
1.0
 92
       10
 66
     7
 43
1.0
 76
     1
 77
     6
 78
     2
 67
     7
 79
     5
170
     0
171
     0
290
     0
174
     0
 93
        1
 44
0.0
173
     0
291
     1
 45
0.0
1001
ACAD
1000
AcDbSavedByObjectVersion
1070
     0
  0
VISUALSTYLE
  5
9F0C6
102
{ACAD_XDICTIONARY
360
A0CD9
102
}
102
{ACAD_REACTORS
330
9F0B8
102
}
330
9F0B8
100
AcDbVisualStyle
  2

 70
    14
 71
     2
 72
     2
 73
     0
 90
        0
 40
-0.6
 41
-30.0
 62
     5
 63
     7
421
 16777215
 74
     1
 91
        4
 64
     7
 65
   257
 75
     7
175
     7
 42
1.0
 92
        8
 66
     7
 43
1.0
 76
     1
 77
     6
 78
     2
 67
     7
 79
     5
170
     0
171
     0
290
     0
174
     0
 93
        1
 44
0.0
173
     0
291
     1
 45
0.0
1001
ACAD
1000
AcDbSavedByObjectVersion
1070
     0
  0
VISUALSTYLE
  5
9F0CF
102
{ACAD_XDICTIONARY
360
A0CEB
102
}
102
{ACAD_REACTORS
330
9F0B8
102
}
330
9F0B8
100
AcDbVisualStyle
  2

 70
    21
 71
     2
 72
     2
 73
     0
 90
        0
 40
-0.6
 41
-30.0
 62
     5
 63
     7
421
 16777215
 74
     1
 91
        4
 64
     7
 65
   257
 75
     1
175
     1
 42
1.0
 92
        9
 66
     7
 43
1.0
 76
     1
 77
     6
 78
     2
 67
     7
 79
     5
170
     0
171
     0
290
     0
174
     0
 93
        1
 44
0.0
173
     0
291
     1
 45
0.0
1001
ACAD
1000
AcDbSavedByObjectVersion
1070
     0
  0
VISUALSTYLE
  5
9F0C2
102
{ACAD_XDICTIONARY
360
A0CD1
102
}
102
{ACAD_REACTORS
330
9F0B8
102
}
330
9F0B8
100
AcDbVisualStyle
  2

 70
     8
 71
     2
 72
     3
 73
     0
 90
        2
 40
-0.6
 41
30.0
 62
     5
 63
     7
421
 16777215
 74
     0
 91
        0
 64
     7
 65
   257
 75
     1
175
     1
 42
1.0
 92
        8
 66
   257
 43
1.0
 76
     1
 77
     6
 78
     2
 67
     7
 79
     3
170
     0
171
     0
290
     0
174
     0
 93
       13
 44
0.0
173
     0
291
     0
 45
0.0
1001
ACAD
1000
AcDbSavedByObjectVersion
1070
     0
  0
VISUALSTYLE
  5
9F0CD
102
{ACAD_XDICTIONARY
360
A0CE7
102
}
102
{ACAD_REACTORS
330
9F0B8
102
}
330
9F0B8
100
AcDbVisualStyle
  2

 70
    27
 71
     2
 72
     2
 73
     1
 90
        2
 40
-0.6
 41
30.0
 62
     5
 63
     7
421
 16777215
 74
     0
 91
        4
 64
     7
 65
   257
 75
     1
175
     1
 42
1.0
 92
        8
 66
   257
 43
1.0
 76
     1
 77
     6
 78
     2
 67
     8
425
  7895160
 79
     3
170
     0
171
     0
290
     0
174
     0
 93
        5
 44
0.0
173
     0
291
     0
 45
0.0
1001
ACAD
1000
AcDbSavedByObjectVersion
1070
     0
  0
VISUALSTYLE
  5
9F0CC
102
{ACAD_XDICTIONARY
360
A0CE5
102
}
102
{ACAD_REACTORS
330
9F0B8
102
}
330
9F0B8
100
AcDbVisualStyle
  2

 70
    26
 71
     2
 72
     2
 73
     1
 90
        2
 40
-0.6
 41
30.0
 62
     5
 63
     7
421
 16777215
 74
     1
 91
       10
 64
     7
 65
   257
 75
     2
175
     1
 42
1.0
 92
        8
 66
   257
 43
1.0
 76
     1
 77
     6
 78
     2
 67
     7
 79
     3
170
     0
171
     0
290
     0
174
     0
 93
        5
 44
0.0
173
     0
291
     0
 45
0.0
1001
ACAD
1000
AcDbSavedByObjectVersion
1070
     0
  0
VISUALSTYLE
  5
9F0C9
102
{ACAD_XDICTIONARY
360
A0CDF
102
}
102
{ACAD_REACTORS
330
9F0B8
102
}
330
9F0B8
100
AcDbVisualStyle
  2

 70
    23
 71
     2
 72
     2
 73
     3
 90
        0
 40
-0.6
 41
-30.0
 62
     5
 63
     7
421
 16777215
 74
     2
 91
        2
 64
     7
 65
     7
 75
     1
175
     1
 42
40.0
 92
        8
 66
     7
 43
1.0
 76
     1
 77
     6
 78
     2
 67
     7
 79
     3
170
     0
171
     0
290
     0
174
     0
 93
        1
 44
0.0
173
     0
291
     0
 45
0.0
1001
ACAD
1000
AcDbSavedByObjectVersion
1070
     0
  0
VISUALSTYLE
  5
9F0CA
102
{ACAD_XDICTIONARY
360
A0CE1
102
}
102
{ACAD_REACTORS
330
9F0B8
102
}
330
9F0B8
100
AcDbVisualStyle
  2

 70
    24
 71
     1
 72
     2
 73
     2
 90
        0
 40
-0.6
 41
-30.0
 62
     5
 63
     7
421
 16777215
 74
     2
 91
        2
 64
     7
 65
     7
 75
     1
175
     1
 42
40.0
 92
       11
 66
     7
 43
1.0
 76
     1
 77
     6
 78
     2
 67
     7
 79
     6
170
     0
171
     0
290
     0
174
     0
 93
        1
 44
0.0
173
     0
291
     0
 45
0.0
1001
ACAD
1000
AcDbSavedByObjectVersion
1070
     0
  0
VISUALSTYLE
  5
9F0C5
102
{ACAD_XDICTIONARY
360
A0CD7
102
}
102
{ACAD_REACTORS
330
9F0B8
102
}
330
9F0B8
100
AcDbVisualStyle
  2

 70
    13
 71
     2
 72
     2
 73
     0
 90
        0
 40
-0.6
 41
-30.0
 62
     5
 63
     7
421
 16777215
 74
     1
 91
        4
 64
     7
 65
   257
 75
     1
175
     1
 42
1.0
 92
       12
 66
     7
 43
1.0
 76
     1
 77
     6
 78
     2
 67
     7
 79
     5
170
     0
171
     0
290
     0
174
     0
 93
        1
 44
0.0
173
     0
291
     1
 45
0.0
1001
ACAD
1000
AcDbSavedByObjectVersion
1070
     0
  0
VISUALSTYLE
  5
9F0BF
102
{ACAD_XDICTIONARY
360
A0CCB
102
}
102
{ACAD_REACTORS
330
9F0B8
102
}
330
9F0B8
100
AcDbVisualStyle
  2

 70
     5
 71
     0
 72
     2
 73
     0
 90
        0
 40
-0.6
 41
-30.0
 62
     5
 63
     7
421
 16777215
 74
     1
 91
        4
 64
     7
 65
   257
 75
     1
175
     1
 42
1.0
 92
        0
 66
   257
 43
1.0
 76
     1
 77
     6
 78
     2
 67
     7
 79
     3
170
     0
171
     0
290
     0
174
     0
 93
        1
 44
0.0
173
     0
291
     0
 45
0.0
1001
ACAD
1000
AcDbSavedByObjectVersion
1070
     0
  0
VISUALSTYLE
  5
9F0CB
102
{ACAD_XDICTIONARY
360
A0CE3
102
}
102
{ACAD_REACTORS
330
9F0B8
102
}
330
9F0B8
100
AcDbVisualStyle
  2

 70
    25
 71
     2
 72
     2
 73
     1
 90
        1
 40
0.5
 41
-30.0
 62
     5
 63
     7
421
 16777215
 74
     1
 91
        0
 64
     7
 65
   257
 75
     1
175
     1
 42
1.0
 92
        8
 66
     7
 43
1.0
 76
     1
 77
     6
 78
     2
 67
     7
 79
     3
170
     0
171
     0
290
     0
174
     0
 93
       13
 44
0.0
173
     0
291
     0
 45
0.0
1001
ACAD
1000
AcDbSavedByObjectVersion
1070
     0
  0
DICTIONARYVAR
  5
9F108
102
{ACAD_REACTORS
330
96EEA
102
}
330
96EEA
100
DictionaryVariables
280
     0
  1
1:1
  0
DICTIONARYVAR
  5
9F105
102
{ACAD_REACTORS
330
96EEA
102
}
330
96EEA
100
DictionaryVariables
280
     0
  1
STANDARD
  0
DICTIONARYVAR
  5
9F104
102
{ACAD_REACTORS
330
96EEA
102
}
330
96EEA
100
DictionaryVariables
280
     0
  1
STANDARD
  0
DICTIONARYVAR
  5
9F106
102
{ACAD_REACTORS
330
96EEA
102
}
330
96EEA
100
DictionaryVariables
280
     0
  1
Imperial24
  0
DICTIONARYVAR
  5
9F107
102
{ACAD_REACTORS
330
96EEA
102
}
330
96EEA
100
DictionaryVariables
280
     0
  1
Imperial24
  0
DICTIONARYVAR
  5
96EEB
102
{ACAD_REACTORS
330
96EEA
102
}
330
96EEA
100
DictionaryVariables
280
     0
  1
96
  0
DICTIONARYVAR
  5
A0CBB
102
{ACAD_REACTORS
330
96EEA
102
}
330
96EEA
100
DictionaryVariables
280
     0
  1
2
  0
DICTIONARY
  5
A0CF2
330
9F0EB
100
AcDbDictionary
280
     1
281
     1
  3
ACAD_XREC_ROUNDTRIP
360
A0CF3
  0
DICTIONARY
  5
A0CF6
330
9F1AD
100
AcDbDictionary
280
     1
281
     1
  3
ACAD_XREC_ROUNDTRIP
360
A0CF7
  0
DICTIONARY
  5
9F0A9
330
9F0A8
100
AcDbDictionary
280
     1
281
     1
  3
ACAD_XREC_ROUNDTRIP
360
9F10F
  3
BUMPTILE
360
9F0AB
  3
DIFFUSETILE
360
9F0AA
  3
OPACITYTILE
360
9F0AE
  3
REFLECTIONTILE
360
9F0AD
  3
REFRACTIONTILE
360
9F0AF
  3
SPECULARTILE
360
9F0AC
  0
DICTIONARY
  5
9F0A1
330
9F0A0
100
AcDbDictionary
280
     1
281
     1
  3
ACAD_XREC_ROUNDTRIP
360
9F10E
  3
BUMPTILE
360
9F0A3
  3
DIFFUSETILE
360
9F0A2
  3
OPACITYTILE
360
9F0A6
  3
REFLECTIONTILE
360
9F0A5
  3
REFRACTIONTILE
360
9F0A7
  3
SPECULARTILE
360
9F0A4
  0
DICTIONARY
  5
9F0B1
330
9F0B0
100
AcDbDictionary
280
     1
281
     1
  3
ACAD_XREC_ROUNDTRIP
360
9F110
  3
BUMPTILE
360
9F0B3
  3
DIFFUSETILE
360
9F0B2
  3
OPACITYTILE
360
9F0B6
  3
REFLECTIONTILE
360
9F0B5
  3
REFRACTIONTILE
360
9F0B7
  3
SPECULARTILE
360
9F0B4
  0
DICTIONARY
  5
A0CF0
330
9F0E9
100
AcDbDictionary
280
     1
281
     1
  3
ACAD_XREC_ROUNDTRIP
360
A0CF1
  0
DICTIONARY
  5
A0CF4
330
9F1AC
100
AcDbDictionary
280
     1
281
     1
  3
ACAD_XREC_ROUNDTRIP
360
A0CF5
  0
DICTIONARY
  5
9F10B
330
9F0D3
100
AcDbDictionary
280
     1
281
     1
  3
ACAD_ROUNDTRIP_2008_TABLESTYLE_CELLSTYLEMAP
360
A0CBC
  3
ACAD_XREC_ROUNDTRIP
360
A0CEF
  0
DICTIONARY
  5
A0CC9
330
9F0BE
100
AcDbDictionary
280
     1
281
     1
  3
ACAD_XREC_ROUNDTRIP
360
A0CCA
  0
DICTIONARY
  5
A0CC7
330
9F0BD
100
AcDbDictionary
280
     1
281
     1
  3
ACAD_XREC_ROUNDTRIP
360
A0CC8
  0
DICTIONARY
  5
A0CD5
330
9F0C4
100
AcDbDictionary
280
     1
281
     1
  3
ACAD_XREC_ROUNDTRIP
360
A0CD6
  0
DICTIONARY
  5
A0CDD
330
9F0C8
100
AcDbDictionary
280
     1
281
     1
  3
ACAD_XREC_ROUNDTRIP
360
A0CDE
  0
DICTIONARY
  5
A0CCF
330
9F0C1
100
AcDbDictionary
280
     1
281
     1
  3
ACAD_XREC_ROUNDTRIP
360
A0CD0
  0
DICTIONARY
  5
A0CD3
330
9F0C3
100
AcDbDictionary
280
     1
281
     1
  3
ACAD_XREC_ROUNDTRIP
360
A0CD4
  0
DICTIONARY
  5
A0CED
330
9F0D0
100
AcDbDictionary
280
     1
281
     1
  3
ACAD_XREC_ROUNDTRIP
360
A0CEE
  0
DICTIONARY
  5
A0CDB
330
9F0C7
100
AcDbDictionary
280
     1
281
     1
  3
ACAD_XREC_ROUNDTRIP
360
A0CDC
  0
DICTIONARY
  5
A0CBF
330
9F0B9
100
AcDbDictionary
280
     1
281
     1
  3
ACAD_XREC_ROUNDTRIP
360
A0CC0
  0
DICTIONARY
  5
A0CC1
330
9F0BA
100
AcDbDictionary
280
     1
281
     1
  3
ACAD_XREC_ROUNDTRIP
360
A0CC2
  0
DICTIONARY
  5
A0CC3
330
9F0BB
100
AcDbDictionary
280
     1
281
     1
  3
ACAD_XREC_ROUNDTRIP
360
A0CC4
  0
DICTIONARY
  5
A0CC5
330
9F0BC
100
AcDbDictionary
280
     1
281
     1
  3
ACAD_XREC_ROUNDTRIP
360
A0CC6
  0
DICTIONARY
  5
A0CCD
330
9F0C0
100
AcDbDictionary
280
     1
281
     1
  3
ACAD_XREC_ROUNDTRIP
360
A0CCE
  0
DICTIONARY
  5
A0CE9
330
9F0CE
100
AcDbDictionary
280
     1
281
     1
  3
ACAD_XREC_ROUNDTRIP
360
A0CEA
  0
DICTIONARY
  5
A0CD9
330
9F0C6
100
AcDbDictionary
280
     1
281
     1
  3
ACAD_XREC_ROUNDTRIP
360
A0CDA
  0
DICTIONARY
  5
A0CEB
330
9F0CF
100
AcDbDictionary
280
     1
281
     1
  3
ACAD_XREC_ROUNDTRIP
360
A0CEC
  0
DICTIONARY
  5
A0CD1
330
9F0C2
100
AcDbDictionary
280
     1
281
     1
  3
ACAD_XREC_ROUNDTRIP
360
A0CD2
  0
DICTIONARY
  5
A0CE7
330
9F0CD
100
AcDbDictionary
280
     1
281
     1
  3
ACAD_XREC_ROUNDTRIP
360
A0CE8
  0
DICTIONARY
  5
A0CE5
330
9F0CC
100
AcDbDictionary
280
     1
281
     1
  3
ACAD_XREC_ROUNDTRIP
360
A0CE6
  0
DICTIONARY
  5
A0CDF
330
9F0C9
100
AcDbDictionary
280
     1
281
     1
  3
ACAD_XREC_ROUNDTRIP
360
A0CE0
  0
DICTIONARY
  5
A0CE1
330
9F0CA
100
AcDbDictionary
280
     1
281
     1
  3
ACAD_XREC_ROUNDTRIP
360
A0CE2
  0
DICTIONARY
  5
A0CD7
330
9F0C5
100
AcDbDictionary
280
     1
281
     1
  3
ACAD_XREC_ROUNDTRIP
360
A0CD8
  0
DICTIONARY
  5
A0CCB
330
9F0BF
100
AcDbDictionary
280
     1
281
     1
  3
ACAD_XREC_ROUNDTRIP
360
A0CCC
  0
DICTIONARY
  5
A0CE3
330
9F0CB
100
AcDbDictionary
280
     1
281
     1
  3
ACAD_XREC_ROUNDTRIP
360
A0CE4
  0
XRECORD
  5
A0CF3
102
{ACAD_REACTORS
330
A0CF2
102
}
330
A0CF2
100
AcDbXrecord
280
     1
102
DISPLAYNAME
  1
Imperial24
102
FLAGS
 90
        0
  0
XRECORD
  5
A0CF7
102
{ACAD_REACTORS
330
A0CF6
102
}
330
A0CF6
100
AcDbXrecord
280
     1
102
DISPLAYNAME
  1
Metric50
102
FLAGS
 90
        0
  0
XRECORD
  5
9F10F
102
{ACAD_REACTORS
330
9F0A9
102
}
330
9F0A9
100
AcDbXrecord
280
     1
102
MATERIAL
148
0.0
149
0.0
149
0.0
 93
        0
 94
      127
282
     0
 72
     0
 77
     0
171
     0
175
     0
179
     0
273
     0
  0
XRECORD
  5
9F0AB
102
{ACAD_REACTORS
330
9F0A9
102
}
330
9F0A9
100
AcDbXrecord
280
     1
270
     1
271
     1
  0
XRECORD
  5
9F0AA
102
{ACAD_REACTORS
330
9F0A9
102
}
330
9F0A9
100
AcDbXrecord
280
     1
270
     1
271
     1
  0
XRECORD
  5
9F0AE
102
{ACAD_REACTORS
330
9F0A9
102
}
330
9F0A9
100
AcDbXrecord
280
     1
270
     1
271
     1
  0
XRECORD
  5
9F0AD
102
{ACAD_REACTORS
330
9F0A9
102
}
330
9F0A9
100
AcDbXrecord
280
     1
270
     1
271
     1
  0
XRECORD
  5
9F0AF
102
{ACAD_REACTORS
330
9F0A9
102
}
330
9F0A9
100
AcDbXrecord
280
     1
270
     1
271
     1
  0
XRECORD
  5
9F0AC
102
{ACAD_REACTORS
330
9F0A9
102
}
330
9F0A9
100
AcDbXrecord
280
     1
270
     1
271
     1
  0
XRECORD
  5
9F10E
102
{ACAD_REACTORS
330
9F0A1
102
}
330
9F0A1
100
AcDbXrecord
280
     1
102
MATERIAL
148
0.0
149
0.0
149
0.0
 93
        0
 94
      127
282
     0
 72
     0
 77
     0
171
     0
175
     0
179
     0
273
     0
  0
XRECORD
  5
9F0A3
102
{ACAD_REACTORS
330
9F0A1
102
}
330
9F0A1
100
AcDbXrecord
280
     1
270
     1
271
     1
  0
XRECORD
  5
9F0A2
102
{ACAD_REACTORS
330
9F0A1
102
}
330
9F0A1
100
AcDbXrecord
280
     1
270
     1
271
     1
  0
XRECORD
  5
9F0A6
102
{ACAD_REACTORS
330
9F0A1
102
}
330
9F0A1
100
AcDbXrecord
280
     1
270
     1
271
     1
  0
XRECORD
  5
9F0A5
102
{ACAD_REACTORS
330
9F0A1
102
}
330
9F0A1
100
AcDbXrecord
280
     1
270
     1
271
     1
  0
XRECORD
  5
9F0A7
102
{ACAD_REACTORS
330
9F0A1
102
}
330
9F0A1
100
AcDbXrecord
280
     1
270
     1
271
     1
  0
XRECORD
  5
9F0A4
102
{ACAD_REACTORS
330
9F0A1
102
}
330
9F0A1
100
AcDbXrecord
280
     1
270
     1
271
     1
  0
XRECORD
  5
9F110
102
{ACAD_REACTORS
330
9F0B1
102
}
330
9F0B1
100
AcDbXrecord
280
     1
102
MATERIAL
148
0.0
149
0.0
149
0.0
 93
        0
 94
      127
282
     0
 72
     0
 77
     0
171
     0
175
     0
179
     0
273
     0
  0
XRECORD
  5
9F0B3
102
{ACAD_REACTORS
330
9F0B1
102
}
330
9F0B1
100
AcDbXrecord
280
     1
270
     1
271
     1
  0
XRECORD
  5
9F0B2
102
{ACAD_REACTORS
330
9F0B1
102
}
330
9F0B1
100
AcDbXrecord
280
     1
270
     1
271
     1
  0
XRECORD
  5
9F0B6
102
{ACAD_REACTORS
330
9F0B1
102
}
330
9F0B1
100
AcDbXrecord
280
     1
270
     1
271
     1
  0
XRECORD
  5
9F0B5
102
{ACAD_REACTORS
330
9F0B1
102
}
330
9F0B1
100
AcDbXrecord
280
     1
270
     1
271
     1
  0
XRECORD
  5
9F0B7
102
{ACAD_REACTORS
330
9F0B1
102
}
330
9F0B1
100
AcDbXrecord
280
     1
270
     1
271
     1
  0
XRECORD
  5
9F0B4
102
{ACAD_REACTORS
330
9F0B1
102
}
330
9F0B1
100
AcDbXrecord
280
     1
270
     1
271
     1
  0
XRECORD
  5
A0CF1
102
{ACAD_REACTORS
330
A0CF0
102
}
330
A0CF0
100
AcDbXrecord
280
     1
102
DISPLAYNAME
  1
Imperial24
102
FLAGS
 90
        0
  0
XRECORD
  5
A0CF5
102
{ACAD_REACTORS
330
A0CF4
102
}
330
A0CF4
100
AcDbXrecord
280
     1
102
DISPLAYNAME
  1
Metric50
102
FLAGS
 90
        0
  0
CELLSTYLEMAP
  5
A0CBC
102
{ACAD_REACTORS
330
9F10B
102
}
330
9F10B
100
AcDbCellStyleMap
 90
        3
300
CELLSTYLE
  1
TABLEFORMAT_BEGIN
 90
        5
170
     1
 91
        0
 92
    32768
 62
   257
 93
        1
300
CONTENTFORMAT
  1
CONTENTFORMAT_BEGIN
 90
        0
 91
        0
 92
      512
 93
        0
300

 40
0.0
140
1.0
 94
        5
 62
     0
340
11
144
0.25
309
CONTENTFORMAT_END
171
     1
301
MARGIN
  1
CELLMARGIN_BEGIN
 40
0.06
 40
0.06
 40
0.06
 40
0.06
 40
0.18
 40
0.18
309
CELLMARGIN_END
 94
        6
 95
        1
302
GRIDFORMAT
  1
GRIDFORMAT_BEGIN
 90
        0
 91
        1
 62
     0
 92
       -2
340
0
 93
        0
 40
0.045
309
GRIDFORMAT_END
 95
        2
302
GRIDFORMAT
  1
GRIDFORMAT_BEGIN
 90
        0
 91
        1
 62
     0
 92
       -2
340
0
 93
        0
 40
0.045
309
GRIDFORMAT_END
 95
        4
302
GRIDFORMAT
  1
GRIDFORMAT_BEGIN
 90
        0
 91
        1
 62
     0
 92
       -2
340
0
 93
        0
 40
0.045
309
GRIDFORMAT_END
 95
        8
302
GRIDFORMAT
  1
GRIDFORMAT_BEGIN
 90
        0
 91
        1
 62
     0
 92
       -2
340
0
 93
        0
 40
0.045
309
GRIDFORMAT_END
 95
       16
302
GRIDFORMAT
  1
GRIDFORMAT_BEGIN
 90
        0
 91
        1
 62
     0
 92
       -2
340
0
 93
        0
 40
0.045
309
GRIDFORMAT_END
 95
       32
302
GRIDFORMAT
  1
GRIDFORMAT_BEGIN
 90
        0
 91
        1
 62
     0
 92
       -2
340
0
 93
        0
 40
0.045
309
GRIDFORMAT_END
309
TABLEFORMAT_END
  1
CELLSTYLE_BEGIN
 90
        1
 91
        1
300
_TITLE
309
CELLSTYLE_END
300
CELLSTYLE
  1
TABLEFORMAT_BEGIN
 90
        5
170
     1
 91
        0
 92
        0
 62
   257
 93
        1
300
CONTENTFORMAT
  1
CONTENTFORMAT_BEGIN
 90
        0
 91
        0
 92
      512
 93
        0
300

 40
0.0
140
1.0
 94
        5
 62
     0
340
11
144
0.18
309
CONTENTFORMAT_END
171
     1
301
MARGIN
  1
CELLMARGIN_BEGIN
 40
0.06
 40
0.06
 40
0.06
 40
0.06
 40
0.18
 40
0.18
309
CELLMARGIN_END
 94
        6
 95
        1
302
GRIDFORMAT
  1
GRIDFORMAT_BEGIN
 90
        0
 91
        1
 62
     0
 92
       -2
340
0
 93
        0
 40
0.045
309
GRIDFORMAT_END
 95
        2
302
GRIDFORMAT
  1
GRIDFORMAT_BEGIN
 90
        0
 91
        1
 62
     0
 92
       -2
340
0
 93
        0
 40
0.045
309
GRIDFORMAT_END
 95
        4
302
GRIDFORMAT
  1
GRIDFORMAT_BEGIN
 90
        0
 91
        1
 62
     0
 92
       -2
340
0
 93
        0
 40
0.045
309
GRIDFORMAT_END
 95
        8
302
GRIDFORMAT
  1
GRIDFORMAT_BEGIN
 90
        0
 91
        1
 62
     0
 92
       -2
340
0
 93
        0
 40
0.045
309
GRIDFORMAT_END
 95
       16
302
GRIDFORMAT
  1
GRIDFORMAT_BEGIN
 90
        0
 91
        1
 62
     0
 92
       -2
340
0
 93
        0
 40
0.045
309
GRIDFORMAT_END
 95
       32
302
GRIDFORMAT
  1
GRIDFORMAT_BEGIN
 90
        0
 91
        1
 62
     0
 92
       -2
340
0
 93
        0
 40
0.045
309
GRIDFORMAT_END
309
TABLEFORMAT_END
  1
CELLSTYLE_BEGIN
 90
        2
 91
        1
300
_HEADER
309
CELLSTYLE_END
300
CELLSTYLE
  1
TABLEFORMAT_BEGIN
 90
        5
170
     1
 91
        0
 92
        0
 62
   257
 93
        1
300
CONTENTFORMAT
  1
CONTENTFORMAT_BEGIN
 90
        0
 91
        0
 92
      512
 93
        0
300

 40
0.0
140
1.0
 94
        2
 62
     0
340
11
144
0.18
309
CONTENTFORMAT_END
171
     1
301
MARGIN
  1
CELLMARGIN_BEGIN
 40
0.06
 40
0.06
 40
0.06
 40
0.06
 40
0.18
 40
0.18
309
CELLMARGIN_END
 94
        6
 95
        1
302
GRIDFORMAT
  1
GRIDFORMAT_BEGIN
 90
        0
 91
        1
 62
     0
 92
       -2
340
0
 93
        0
 40
0.045
309
GRIDFORMAT_END
 95
        2
302
GRIDFORMAT
  1
GRIDFORMAT_BEGIN
 90
        0
 91
        1
 62
     0
 92
       -2
340
0
 93
        0
 40
0.045
309
GRIDFORMAT_END
 95
        4
302
GRIDFORMAT
  1
GRIDFORMAT_BEGIN
 90
        0
 91
        1
 62
     0
 92
       -2
340
0
 93
        0
 40
0.045
309
GRIDFORMAT_END
 95
        8
302
GRIDFORMAT
  1
GRIDFORMAT_BEGIN
 90
        0
 91
        1
 62
     0
 92
       -2
340
0
 93
        0
 40
0.045
309
GRIDFORMAT_END
 95
       16
302
GRIDFORMAT
  1
GRIDFORMAT_BEGIN
 90
        0
 91
        1
 62
     0
 92
       -2
340
0
 93
        0
 40
0.045
309
GRIDFORMAT_END
 95
       32
302
GRIDFORMAT
  1
GRIDFORMAT_BEGIN
 90
        0
 91
        1
 62
     0
 92
       -2
340
0
 93
        0
 40
0.045
309
GRIDFORMAT_END
309
TABLEFORMAT_END
  1
CELLSTYLE_BEGIN
 90
        3
 91
        2
300
_DATA
309
CELLSTYLE_END
  0
XRECORD
  5
A0CEF
102
{ACAD_REACTORS
330
9F10B
102
}
330
9F10B
100
AcDbXrecord
280
     1
102
ACAD_ROUNDTRIP_PRE2007_TABLESTYLE
 90
      512
 91
        0
  1

 92
      512
 93
        0
  2

 94
      512
 95
        0
  3

  0
XRECORD
  5
A0CCA
102
{ACAD_REACTORS
330
A0CC9
102
}
330
A0CC9
100
AcDbXrecord
280
     1
102
RTVSPost2010Prop28
280
     1
102
RTVSPost2010PropOp28
 70
     1
102
RTVSPost2010Prop29
280
     1
102
RTVSPost2010PropOp29
 70
     1
102
RTVSPost2010Prop30
280
     0
102
RTVSPost2010PropOp30
 70
     1
102
RTVSPost2010Prop31
280
     0
102
RTVSPost2010PropOp31
 70
     1
102
RTVSPost2010Prop32
280
     0
102
RTVSPost2010PropOp32
 70
     1
102
RTVSPost2010Prop33
280
     0
102
RTVSPost2010PropOp33
 70
     1
102
RTVSPost2010Prop34
280
     0
102
RTVSPost2010PropOp34
 70
     1
102
RTVSPost2010Prop35
280
     0
102
RTVSPost2010PropOp35
 70
     1
102
RTVSPost2010Prop36
280
     0
102
RTVSPost2010PropOp36
 70
     1
102
RTVSPost2010Prop37
 90
       50
102
RTVSPost2010PropOp37
 70
     1
102
RTVSPost2010Prop38
140
0.0
102
RTVSPost2010PropOp38
 70
     1
102
RTVSPost2010Prop39
140
1.0
102
RTVSPost2010PropOp39
 70
     1
102
RTVSPost2010Prop40
 90
        0
102
RTVSPost2010PropOp40
 70
     1
102
RTVSPost2010Prop41ColorIndex
 90
       18
102
RTVSPost2010Prop41ColorRGB
 90
        0
102
RTVSPost2010PropOp41
 70
     1
102
RTVSPost2010Prop42
 90
       50
102
RTVSPost2010PropOp42
 70
     1
102
RTVSPost2010Prop43
 90
        3
102
RTVSPost2010PropOp43
 70
     1
102
RTVSPost2010Prop44ColorIndex
 90
        5
102
RTVSPost2010Prop44ColorRGB
 90
      255
102
RTVSPost2010PropOp44
 70
     1
102
RTVSPost2010Prop45
280
     0
102
RTVSPost2010PropOp45
 70
     1
102
RTVSPost2010Prop46
 90
       50
102
RTVSPost2010PropOp46
 70
     1
102
RTVSPost2010Prop47
 90
       50
102
RTVSPost2010PropOp47
 70
     1
102
RTVSPost2010Prop48
 90
       50
102
RTVSPost2010PropOp48
 70
     1
102
RTVSPost2010Prop49
280
     0
102
RTVSPost2010PropOp49
 70
     1
102
RTVSPost2010Prop50
 90
       50
102
RTVSPost2010PropOp50
 70
     1
102
RTVSPost2010Prop51ColorIndex
 90
      256
102
RTVSPost2010Prop51ColorRGB
 90
-16777216
102
RTVSPost2010PropOp51
 70
     0
102
RTVSPost2010Prop52
140
1.0
102
RTVSPost2010PropOp52
 70
     0
102
RTVSPost2010Prop53
 90
        2
102
RTVSPost2010PropOp53
 70
     1
102
RTVSPost2010Prop54
  1
strokes_ogs.tif
102
RTVSPost2010PropOp54
 70
     1
102
RTVSPost2010Prop55
280
     0
102
RTVSPost2010PropOp55
 70
     1
102
RTVSPost2010Prop56
140
1.0
102
RTVSPost2010PropOp56
 70
     1
102
RTVSPost2010Prop57
140
1.0
102
RTVSPost2010PropOp57
 70
     1
102
RTVSPropertyOp0
 70
     1
102
RTVSPropertyOp1
 70
     1
102
RTVSPropertyOp2
 70
     1
102
RTVSPropertyOp3
 70
     1
102
RTVSPropertyOp4
 70
     1
102
RTVSPropertyOp5
 70
     1
102
RTVSPropertyOp6
 70
     1
102
RTVSPropertyOp7
 70
     1
102
RTVSPropertyOp8
 70
     1
102
RTVSPropertyOp9
 70
     1
102
RTVSPropertyOp10
 70
     1
102
RTVSPropertyOp11
 70
     1
102
RTVSPropertyOp12
 70
     1
102
RTVSPropertyOp13
 70
     1
102
RTVSPropertyOp14
 70
     1
102
RTVSPropertyOp15
 70
     1
102
RTVSPropertyOp16
 70
     1
102
RTVSPropertyOp17
 70
     1
102
RTVSPropertyOp18
 70
     1
102
RTVSPropertyOp19
 70
     1
102
RTVSPropertyOp20
 70
     1
102
RTVSPropertyOp21
 70
     1
102
RTVSPropertyOp22
 70
     1
102
RTVSPropertyOp23
 70
     1
102
RTVSPropertyOp24
 70
     1
102
RTVSPropertyOp25
 70
     1
102
RTVSPropertyOp26
 70
     1
102
RTVSPropertyOp27
 70
     1
102
RTVSPropertyOp28
 70
     1
102
RTVSPropertyOp29
 70
     1
102
RTVSPropertyOp30
 70
     1
102
RTVSPropertyOp31
 70
     1
102
RTVSPropertyOp32
 70
     1
102
RTVSPropertyOp33
 70
     1
102
RTVSPropertyOp34
 70
     1
102
RTVSPropertyOp35
 70
     1
102
RTVSPropertyOp36
 70
     1
102
RTVSPropertyOp37
 70
     1
102
RTVSPropertyOp38
 70
     1
102
RTVSPropertyOp39
 70
     1
102
RTVSPropertyOp40
 70
     1
102
RTVSPropertyOp41
 70
     1
102
RTVSPropertyOp42
 70
     1
102
RTVSPropertyOp43
 70
     1
102
RTVSPropertyOp44
 70
     1
102
RTVSPropertyOp45
 70
     1
102
RTVSPropertyOp46
 70
     1
102
RTVSPropertyOp47
 70
     1
102
RTVSPropertyOp48
 70
     1
102
RTVSPropertyOp49
 70
     1
102
RTVSPropertyOp50
 70
     1
102
RTVSPropertyOp51
 70
     0
102
RTVSPropertyOp52
 70
     0
102
RTVSPropertyOp53
 70
     1
102
RTVSPropertyOp54
 70
     1
102
RTVSPropertyOp55
 70
     1
102
RTVSPropertyOp56
 70
     1
102
RTVSPropertyOp57
 70
     1
102
RTVSPropertyOp58
 70
     1
102
RTVSPropertyOp59
 70
     1
102
RTVSPropertyOp60
 70
     1
102
RTVSPropertyOp61
 70
     1
102
RTVSPropertyOp62
 70
     1
  0
XRECORD
  5
A0CC8
102
{ACAD_REACTORS
330
A0CC7
102
}
330
A0CC7
100
AcDbXrecord
280
     1
102
RTVSPost2010Prop28
280
     0
102
RTVSPost2010PropOp28
 70
     1
102
RTVSPost2010Prop29
280
     1
102
RTVSPost2010PropOp29
 70
     1
102
RTVSPost2010Prop30
280
     1
102
RTVSPost2010PropOp30
 70
     1
102
RTVSPost2010Prop31
280
     0
102
RTVSPost2010PropOp31
 70
     1
102
RTVSPost2010Prop32
280
     0
102
RTVSPost2010PropOp32
 70
     1
102
RTVSPost2010Prop33
280
     0
102
RTVSPost2010PropOp33
 70
     1
102
RTVSPost2010Prop34
280
     0
102
RTVSPost2010PropOp34
 70
     1
102
RTVSPost2010Prop35
280
     0
102
RTVSPost2010PropOp35
 70
     1
102
RTVSPost2010Prop36
280
     0
102
RTVSPost2010PropOp36
 70
     1
102
RTVSPost2010Prop37
 90
       50
102
RTVSPost2010PropOp37
 70
     1
102
RTVSPost2010Prop38
140
0.0
102
RTVSPost2010PropOp38
 70
     1
102
RTVSPost2010Prop39
140
1.0
102
RTVSPost2010PropOp39
 70
     1
102
RTVSPost2010Prop40
 90
        0
102
RTVSPost2010PropOp40
 70
     1
102
RTVSPost2010Prop41ColorIndex
 90
       18
102
RTVSPost2010Prop41ColorRGB
 90
        0
102
RTVSPost2010PropOp41
 70
     1
102
RTVSPost2010Prop42
 90
       50
102
RTVSPost2010PropOp42
 70
     1
102
RTVSPost2010Prop43
 90
        3
102
RTVSPost2010PropOp43
 70
     1
102
RTVSPost2010Prop44ColorIndex
 90
        5
102
RTVSPost2010Prop44ColorRGB
 90
      255
102
RTVSPost2010PropOp44
 70
     1
102
RTVSPost2010Prop45
280
     0
102
RTVSPost2010PropOp45
 70
     1
102
RTVSPost2010Prop46
 90
       50
102
RTVSPost2010PropOp46
 70
     1
102
RTVSPost2010Prop47
 90
       50
102
RTVSPost2010PropOp47
 70
     1
102
RTVSPost2010Prop48
 90
       50
102
RTVSPost2010PropOp48
 70
     1
102
RTVSPost2010Prop49
280
     0
102
RTVSPost2010PropOp49
 70
     1
102
RTVSPost2010Prop50
 90
       50
102
RTVSPost2010PropOp50
 70
     1
102
RTVSPost2010Prop51ColorIndex
 90
      256
102
RTVSPost2010Prop51ColorRGB
 90
-16777216
102
RTVSPost2010PropOp51
 70
     0
102
RTVSPost2010Prop52
140
1.0
102
RTVSPost2010PropOp52
 70
     0
102
RTVSPost2010Prop53
 90
        2
102
RTVSPost2010PropOp53
 70
     1
102
RTVSPost2010Prop54
  1
strokes_ogs.tif
102
RTVSPost2010PropOp54
 70
     1
102
RTVSPost2010Prop55
280
     0
102
RTVSPost2010PropOp55
 70
     1
102
RTVSPost2010Prop56
140
1.0
102
RTVSPost2010PropOp56
 70
     1
102
RTVSPost2010Prop57
140
1.0
102
RTVSPost2010PropOp57
 70
     1
102
RTVSPropertyOp0
 70
     1
102
RTVSPropertyOp1
 70
     1
102
RTVSPropertyOp2
 70
     1
102
RTVSPropertyOp3
 70
     1
102
RTVSPropertyOp4
 70
     1
102
RTVSPropertyOp5
 70
     1
102
RTVSPropertyOp6
 70
     1
102
RTVSPropertyOp7
 70
     1
102
RTVSPropertyOp8
 70
     1
102
RTVSPropertyOp9
 70
     1
102
RTVSPropertyOp10
 70
     1
102
RTVSPropertyOp11
 70
     1
102
RTVSPropertyOp12
 70
     1
102
RTVSPropertyOp13
 70
     1
102
RTVSPropertyOp14
 70
     1
102
RTVSPropertyOp15
 70
     1
102
RTVSPropertyOp16
 70
     1
102
RTVSPropertyOp17
 70
     1
102
RTVSPropertyOp18
 70
     1
102
RTVSPropertyOp19
 70
     1
102
RTVSPropertyOp20
 70
     1
102
RTVSPropertyOp21
 70
     1
102
RTVSPropertyOp22
 70
     1
102
RTVSPropertyOp23
 70
     1
102
RTVSPropertyOp24
 70
     1
102
RTVSPropertyOp25
 70
     1
102
RTVSPropertyOp26
 70
     1
102
RTVSPropertyOp27
 70
     1
102
RTVSPropertyOp28
 70
     1
102
RTVSPropertyOp29
 70
     1
102
RTVSPropertyOp30
 70
     1
102
RTVSPropertyOp31
 70
     1
102
RTVSPropertyOp32
 70
     1
102
RTVSPropertyOp33
 70
     1
102
RTVSPropertyOp34
 70
     1
102
RTVSPropertyOp35
 70
     1
102
RTVSPropertyOp36
 70
     1
102
RTVSPropertyOp37
 70
     1
102
RTVSPropertyOp38
 70
     1
102
RTVSPropertyOp39
 70
     1
102
RTVSPropertyOp40
 70
     1
102
RTVSPropertyOp41
 70
     1
102
RTVSPropertyOp42
 70
     1
102
RTVSPropertyOp43
 70
     1
102
RTVSPropertyOp44
 70
     1
102
RTVSPropertyOp45
 70
     1
102
RTVSPropertyOp46
 70
     1
102
RTVSPropertyOp47
 70
     1
102
RTVSPropertyOp48
 70
     1
102
RTVSPropertyOp49
 70
     1
102
RTVSPropertyOp50
 70
     1
102
RTVSPropertyOp51
 70
     0
102
RTVSPropertyOp52
 70
     0
102
RTVSPropertyOp53
 70
     1
102
RTVSPropertyOp54
 70
     1
102
RTVSPropertyOp55
 70
     1
102
RTVSPropertyOp56
 70
     1
102
RTVSPropertyOp57
 70
     1
102
RTVSPropertyOp58
 70
     1
102
RTVSPropertyOp59
 70
     1
102
RTVSPropertyOp60
 70
     1
102
RTVSPropertyOp61
 70
     1
102
RTVSPropertyOp62
 70
     1
  0
XRECORD
  5
A0CD6
102
{ACAD_REACTORS
330
A0CD5
102
}
330
A0CD5
100
AcDbXrecord
280
     1
102
RTVSPost2010Prop28
280
     0
102
RTVSPost2010PropOp28
 70
     1
102
RTVSPost2010Prop29
280
     1
102
RTVSPost2010PropOp29
 70
     1
102
RTVSPost2010Prop30
280
     1
102
RTVSPost2010PropOp30
 70
     1
102
RTVSPost2010Prop31
280
     0
102
RTVSPost2010PropOp31
 70
     1
102
RTVSPost2010Prop32
280
     0
102
RTVSPost2010PropOp32
 70
     1
102
RTVSPost2010Prop33
280
     0
102
RTVSPost2010PropOp33
 70
     1
102
RTVSPost2010Prop34
280
     0
102
RTVSPost2010PropOp34
 70
     1
102
RTVSPost2010Prop35
280
     0
102
RTVSPost2010PropOp35
 70
     1
102
RTVSPost2010Prop36
280
     0
102
RTVSPost2010PropOp36
 70
     1
102
RTVSPost2010Prop37
 90
       50
102
RTVSPost2010PropOp37
 70
     1
102
RTVSPost2010Prop38
140
0.0
102
RTVSPost2010PropOp38
 70
     1
102
RTVSPost2010Prop39
140
1.0
102
RTVSPost2010PropOp39
 70
     1
102
RTVSPost2010Prop40
 90
        0
102
RTVSPost2010PropOp40
 70
     1
102
RTVSPost2010Prop41ColorIndex
 90
       18
102
RTVSPost2010Prop41ColorRGB
 90
        0
102
RTVSPost2010PropOp41
 70
     1
102
RTVSPost2010Prop42
 90
       50
102
RTVSPost2010PropOp42
 70
     1
102
RTVSPost2010Prop43
 90
        3
102
RTVSPost2010PropOp43
 70
     1
102
RTVSPost2010Prop44ColorIndex
 90
        5
102
RTVSPost2010Prop44ColorRGB
 90
      255
102
RTVSPost2010PropOp44
 70
     1
102
RTVSPost2010Prop45
280
     0
102
RTVSPost2010PropOp45
 70
     1
102
RTVSPost2010Prop46
 90
       50
102
RTVSPost2010PropOp46
 70
     1
102
RTVSPost2010Prop47
 90
       50
102
RTVSPost2010PropOp47
 70
     1
102
RTVSPost2010Prop48
 90
       50
102
RTVSPost2010PropOp48
 70
     1
102
RTVSPost2010Prop49
280
     0
102
RTVSPost2010PropOp49
 70
     1
102
RTVSPost2010Prop50
 90
       50
102
RTVSPost2010PropOp50
 70
     1
102
RTVSPost2010Prop51ColorIndex
 90
      256
102
RTVSPost2010Prop51ColorRGB
 90
-16777216
102
RTVSPost2010PropOp51
 70
     0
102
RTVSPost2010Prop52
140
1.0
102
RTVSPost2010PropOp52
 70
     0
102
RTVSPost2010Prop53
 90
        2
102
RTVSPost2010PropOp53
 70
     1
102
RTVSPost2010Prop54
  1
strokes_ogs.tif
102
RTVSPost2010PropOp54
 70
     1
102
RTVSPost2010Prop55
280
     0
102
RTVSPost2010PropOp55
 70
     1
102
RTVSPost2010Prop56
140
1.0
102
RTVSPost2010PropOp56
 70
     1
102
RTVSPost2010Prop57
140
1.0
102
RTVSPost2010PropOp57
 70
     1
102
RTVSPropertyOp0
 70
     1
102
RTVSPropertyOp1
 70
     1
102
RTVSPropertyOp2
 70
     1
102
RTVSPropertyOp3
 70
     1
102
RTVSPropertyOp4
 70
     1
102
RTVSPropertyOp5
 70
     1
102
RTVSPropertyOp6
 70
     1
102
RTVSPropertyOp7
 70
     1
102
RTVSPropertyOp8
 70
     1
102
RTVSPropertyOp9
 70
     1
102
RTVSPropertyOp10
 70
     1
102
RTVSPropertyOp11
 70
     1
102
RTVSPropertyOp12
 70
     1
102
RTVSPropertyOp13
 70
     1
102
RTVSPropertyOp14
 70
     1
102
RTVSPropertyOp15
 70
     1
102
RTVSPropertyOp16
 70
     1
102
RTVSPropertyOp17
 70
     1
102
RTVSPropertyOp18
 70
     1
102
RTVSPropertyOp19
 70
     1
102
RTVSPropertyOp20
 70
     1
102
RTVSPropertyOp21
 70
     1
102
RTVSPropertyOp22
 70
     1
102
RTVSPropertyOp23
 70
     1
102
RTVSPropertyOp24
 70
     1
102
RTVSPropertyOp25
 70
     1
102
RTVSPropertyOp26
 70
     1
102
RTVSPropertyOp27
 70
     1
102
RTVSPropertyOp28
 70
     1
102
RTVSPropertyOp29
 70
     1
102
RTVSPropertyOp30
 70
     1
102
RTVSPropertyOp31
 70
     1
102
RTVSPropertyOp32
 70
     1
102
RTVSPropertyOp33
 70
     1
102
RTVSPropertyOp34
 70
     1
102
RTVSPropertyOp35
 70
     1
102
RTVSPropertyOp36
 70
     1
102
RTVSPropertyOp37
 70
     1
102
RTVSPropertyOp38
 70
     1
102
RTVSPropertyOp39
 70
     1
102
RTVSPropertyOp40
 70
     1
102
RTVSPropertyOp41
 70
     1
102
RTVSPropertyOp42
 70
     1
102
RTVSPropertyOp43
 70
     1
102
RTVSPropertyOp44
 70
     1
102
RTVSPropertyOp45
 70
     1
102
RTVSPropertyOp46
 70
     1
102
RTVSPropertyOp47
 70
     1
102
RTVSPropertyOp48
 70
     1
102
RTVSPropertyOp49
 70
     1
102
RTVSPropertyOp50
 70
     1
102
RTVSPropertyOp51
 70
     0
102
RTVSPropertyOp52
 70
     0
102
RTVSPropertyOp53
 70
     1
102
RTVSPropertyOp54
 70
     1
102
RTVSPropertyOp55
 70
     1
102
RTVSPropertyOp56
 70
     1
102
RTVSPropertyOp57
 70
     1
102
RTVSPropertyOp58
 70
     1
102
RTVSPropertyOp59
 70
     1
102
RTVSPropertyOp60
 70
     1
102
RTVSPropertyOp61
 70
     1
102
RTVSPropertyOp62
 70
     1
  0
XRECORD
  5
A0CDE
102
{ACAD_REACTORS
330
A0CDD
102
}
330
A0CDD
100
AcDbXrecord
280
     1
102
RTVSPost2010Prop28
280
     0
102
RTVSPost2010PropOp28
 70
     1
102
RTVSPost2010Prop29
280
     1
102
RTVSPost2010PropOp29
 70
     1
102
RTVSPost2010Prop30
280
     1
102
RTVSPost2010PropOp30
 70
     1
102
RTVSPost2010Prop31
280
     0
102
RTVSPost2010PropOp31
 70
     1
102
RTVSPost2010Prop32
280
     0
102
RTVSPost2010PropOp32
 70
     1
102
RTVSPost2010Prop33
280
     0
102
RTVSPost2010PropOp33
 70
     1
102
RTVSPost2010Prop34
280
     0
102
RTVSPost2010PropOp34
 70
     1
102
RTVSPost2010Prop35
280
     0
102
RTVSPost2010PropOp35
 70
     1
102
RTVSPost2010Prop36
280
     0
102
RTVSPost2010PropOp36
 70
     1
102
RTVSPost2010Prop37
 90
       50
102
RTVSPost2010PropOp37
 70
     1
102
RTVSPost2010Prop38
140
0.0
102
RTVSPost2010PropOp38
 70
     1
102
RTVSPost2010Prop39
140
1.0
102
RTVSPost2010PropOp39
 70
     1
102
RTVSPost2010Prop40
 90
        0
102
RTVSPost2010PropOp40
 70
     1
102
RTVSPost2010Prop41ColorIndex
 90
       18
102
RTVSPost2010Prop41ColorRGB
 90
        0
102
RTVSPost2010PropOp41
 70
     1
102
RTVSPost2010Prop42
 90
       50
102
RTVSPost2010PropOp42
 70
     1
102
RTVSPost2010Prop43
 90
        3
102
RTVSPost2010PropOp43
 70
     1
102
RTVSPost2010Prop44ColorIndex
 90
        5
102
RTVSPost2010Prop44ColorRGB
 90
      255
102
RTVSPost2010PropOp44
 70
     1
102
RTVSPost2010Prop45
280
     0
102
RTVSPost2010PropOp45
 70
     1
102
RTVSPost2010Prop46
 90
       50
102
RTVSPost2010PropOp46
 70
     1
102
RTVSPost2010Prop47
 90
       50
102
RTVSPost2010PropOp47
 70
     1
102
RTVSPost2010Prop48
 90
       50
102
RTVSPost2010PropOp48
 70
     1
102
RTVSPost2010Prop49
280
     0
102
RTVSPost2010PropOp49
 70
     1
102
RTVSPost2010Prop50
 90
       50
102
RTVSPost2010PropOp50
 70
     1
102
RTVSPost2010Prop51ColorIndex
 90
      256
102
RTVSPost2010Prop51ColorRGB
 90
-16777216
102
RTVSPost2010PropOp51
 70
     0
102
RTVSPost2010Prop52
140
1.0
102
RTVSPost2010PropOp52
 70
     0
102
RTVSPost2010Prop53
 90
        2
102
RTVSPost2010PropOp53
 70
     1
102
RTVSPost2010Prop54
  1
strokes_ogs.tif
102
RTVSPost2010PropOp54
 70
     1
102
RTVSPost2010Prop55
280
     0
102
RTVSPost2010PropOp55
 70
     1
102
RTVSPost2010Prop56
140
1.0
102
RTVSPost2010PropOp56
 70
     1
102
RTVSPost2010Prop57
140
1.0
102
RTVSPost2010PropOp57
 70
     1
102
RTVSPropertyOp0
 70
     1
102
RTVSPropertyOp1
 70
     1
102
RTVSPropertyOp2
 70
     1
102
RTVSPropertyOp3
 70
     1
102
RTVSPropertyOp4
 70
     1
102
RTVSPropertyOp5
 70
     1
102
RTVSPropertyOp6
 70
     1
102
RTVSPropertyOp7
 70
     1
102
RTVSPropertyOp8
 70
     1
102
RTVSPropertyOp9
 70
     1
102
RTVSPropertyOp10
 70
     1
102
RTVSPropertyOp11
 70
     1
102
RTVSPropertyOp12
 70
     1
102
RTVSPropertyOp13
 70
     1
102
RTVSPropertyOp14
 70
     1
102
RTVSPropertyOp15
 70
     1
102
RTVSPropertyOp16
 70
     1
102
RTVSPropertyOp17
 70
     1
102
RTVSPropertyOp18
 70
     1
102
RTVSPropertyOp19
 70
     1
102
RTVSPropertyOp20
 70
     1
102
RTVSPropertyOp21
 70
     1
102
RTVSPropertyOp22
 70
     1
102
RTVSPropertyOp23
 70
     1
102
RTVSPropertyOp24
 70
     1
102
RTVSPropertyOp25
 70
     1
102
RTVSPropertyOp26
 70
     1
102
RTVSPropertyOp27
 70
     1
102
RTVSPropertyOp28
 70
     1
102
RTVSPropertyOp29
 70
     1
102
RTVSPropertyOp30
 70
     1
102
RTVSPropertyOp31
 70
     1
102
RTVSPropertyOp32
 70
     1
102
RTVSPropertyOp33
 70
     1
102
RTVSPropertyOp34
 70
     1
102
RTVSPropertyOp35
 70
     1
102
RTVSPropertyOp36
 70
     1
102
RTVSPropertyOp37
 70
     1
102
RTVSPropertyOp38
 70
     1
102
RTVSPropertyOp39
 70
     1
102
RTVSPropertyOp40
 70
     1
102
RTVSPropertyOp41
 70
     1
102
RTVSPropertyOp42
 70
     1
102
RTVSPropertyOp43
 70
     1
102
RTVSPropertyOp44
 70
     1
102
RTVSPropertyOp45
 70
     1
102
RTVSPropertyOp46
 70
     1
102
RTVSPropertyOp47
 70
     1
102
RTVSPropertyOp48
 70
     1
102
RTVSPropertyOp49
 70
     1
102
RTVSPropertyOp50
 70
     1
102
RTVSPropertyOp51
 70
     0
102
RTVSPropertyOp52
 70
     0
102
RTVSPropertyOp53
 70
     1
102
RTVSPropertyOp54
 70
     1
102
RTVSPropertyOp55
 70
     1
102
RTVSPropertyOp56
 70
     1
102
RTVSPropertyOp57
 70
     1
102
RTVSPropertyOp58
 70
     1
102
RTVSPropertyOp59
 70
     1
102
RTVSPropertyOp60
 70
     1
102
RTVSPropertyOp61
 70
     1
102
RTVSPropertyOp62
 70
     1
  0
XRECORD
  5
A0CD0
102
{ACAD_REACTORS
330
A0CCF
102
}
330
A0CCF
100
AcDbXrecord
280
     1
102
RTVSPost2010Prop28
280
     0
102
RTVSPost2010PropOp28
 70
     1
102
RTVSPost2010Prop29
280
     1
102
RTVSPost2010PropOp29
 70
     1
102
RTVSPost2010Prop30
280
     1
102
RTVSPost2010PropOp30
 70
     1
102
RTVSPost2010Prop31
280
     0
102
RTVSPost2010PropOp31
 70
     1
102
RTVSPost2010Prop32
280
     0
102
RTVSPost2010PropOp32
 70
     1
102
RTVSPost2010Prop33
280
     0
102
RTVSPost2010PropOp33
 70
     1
102
RTVSPost2010Prop34
280
     0
102
RTVSPost2010PropOp34
 70
     1
102
RTVSPost2010Prop35
280
     0
102
RTVSPost2010PropOp35
 70
     1
102
RTVSPost2010Prop36
280
     0
102
RTVSPost2010PropOp36
 70
     1
102
RTVSPost2010Prop37
 90
       50
102
RTVSPost2010PropOp37
 70
     1
102
RTVSPost2010Prop38
140
0.0
102
RTVSPost2010PropOp38
 70
     1
102
RTVSPost2010Prop39
140
1.0
102
RTVSPost2010PropOp39
 70
     1
102
RTVSPost2010Prop40
 90
        0
102
RTVSPost2010PropOp40
 70
     1
102
RTVSPost2010Prop41ColorIndex
 90
       18
102
RTVSPost2010Prop41ColorRGB
 90
        0
102
RTVSPost2010PropOp41
 70
     1
102
RTVSPost2010Prop42
 90
       50
102
RTVSPost2010PropOp42
 70
     1
102
RTVSPost2010Prop43
 90
        3
102
RTVSPost2010PropOp43
 70
     1
102
RTVSPost2010Prop44ColorIndex
 90
        5
102
RTVSPost2010Prop44ColorRGB
 90
      255
102
RTVSPost2010PropOp44
 70
     1
102
RTVSPost2010Prop45
280
     0
102
RTVSPost2010PropOp45
 70
     1
102
RTVSPost2010Prop46
 90
       50
102
RTVSPost2010PropOp46
 70
     1
102
RTVSPost2010Prop47
 90
       50
102
RTVSPost2010PropOp47
 70
     1
102
RTVSPost2010Prop48
 90
       50
102
RTVSPost2010PropOp48
 70
     1
102
RTVSPost2010Prop49
280
     0
102
RTVSPost2010PropOp49
 70
     1
102
RTVSPost2010Prop50
 90
       50
102
RTVSPost2010PropOp50
 70
     1
102
RTVSPost2010Prop51ColorIndex
 90
      256
102
RTVSPost2010Prop51ColorRGB
 90
-16777216
102
RTVSPost2010PropOp51
 70
     0
102
RTVSPost2010Prop52
140
1.0
102
RTVSPost2010PropOp52
 70
     0
102
RTVSPost2010Prop53
 90
        2
102
RTVSPost2010PropOp53
 70
     1
102
RTVSPost2010Prop54
  1
strokes_ogs.tif
102
RTVSPost2010PropOp54
 70
     1
102
RTVSPost2010Prop55
280
     0
102
RTVSPost2010PropOp55
 70
     1
102
RTVSPost2010Prop56
140
1.0
102
RTVSPost2010PropOp56
 70
     1
102
RTVSPost2010Prop57
140
1.0
102
RTVSPost2010PropOp57
 70
     1
102
RTVSPropertyOp0
 70
     1
102
RTVSPropertyOp1
 70
     1
102
RTVSPropertyOp2
 70
     1
102
RTVSPropertyOp3
 70
     1
102
RTVSPropertyOp4
 70
     1
102
RTVSPropertyOp5
 70
     1
102
RTVSPropertyOp6
 70
     1
102
RTVSPropertyOp7
 70
     1
102
RTVSPropertyOp8
 70
     1
102
RTVSPropertyOp9
 70
     1
102
RTVSPropertyOp10
 70
     1
102
RTVSPropertyOp11
 70
     1
102
RTVSPropertyOp12
 70
     1
102
RTVSPropertyOp13
 70
     1
102
RTVSPropertyOp14
 70
     1
102
RTVSPropertyOp15
 70
     1
102
RTVSPropertyOp16
 70
     1
102
RTVSPropertyOp17
 70
     1
102
RTVSPropertyOp18
 70
     1
102
RTVSPropertyOp19
 70
     1
102
RTVSPropertyOp20
 70
     1
102
RTVSPropertyOp21
 70
     1
102
RTVSPropertyOp22
 70
     1
102
RTVSPropertyOp23
 70
     1
102
RTVSPropertyOp24
 70
     1
102
RTVSPropertyOp25
 70
     1
102
RTVSPropertyOp26
 70
     1
102
RTVSPropertyOp27
 70
     1
102
RTVSPropertyOp28
 70
     1
102
RTVSPropertyOp29
 70
     1
102
RTVSPropertyOp30
 70
     1
102
RTVSPropertyOp31
 70
     1
102
RTVSPropertyOp32
 70
     1
102
RTVSPropertyOp33
 70
     1
102
RTVSPropertyOp34
 70
     1
102
RTVSPropertyOp35
 70
     1
102
RTVSPropertyOp36
 70
     1
102
RTVSPropertyOp37
 70
     1
102
RTVSPropertyOp38
 70
     1
102
RTVSPropertyOp39
 70
     1
102
RTVSPropertyOp40
 70
     1
102
RTVSPropertyOp41
 70
     1
102
RTVSPropertyOp42
 70
     1
102
RTVSPropertyOp43
 70
     1
102
RTVSPropertyOp44
 70
     1
102
RTVSPropertyOp45
 70
     1
102
RTVSPropertyOp46
 70
     1
102
RTVSPropertyOp47
 70
     1
102
RTVSPropertyOp48
 70
     1
102
RTVSPropertyOp49
 70
     1
102
RTVSPropertyOp50
 70
     1
102
RTVSPropertyOp51
 70
     0
102
RTVSPropertyOp52
 70
     0
102
RTVSPropertyOp53
 70
     1
102
RTVSPropertyOp54
 70
     1
102
RTVSPropertyOp55
 70
     1
102
RTVSPropertyOp56
 70
     1
102
RTVSPropertyOp57
 70
     1
102
RTVSPropertyOp58
 70
     1
102
RTVSPropertyOp59
 70
     1
102
RTVSPropertyOp60
 70
     1
102
RTVSPropertyOp61
 70
     1
102
RTVSPropertyOp62
 70
     1
  0
XRECORD
  5
A0CD4
102
{ACAD_REACTORS
330
A0CD3
102
}
330
A0CD3
100
AcDbXrecord
280
     1
102
RTVSPost2010Prop28
280
     0
102
RTVSPost2010PropOp28
 70
     1
102
RTVSPost2010Prop29
280
     1
102
RTVSPost2010PropOp29
 70
     1
102
RTVSPost2010Prop30
280
     1
102
RTVSPost2010PropOp30
 70
     1
102
RTVSPost2010Prop31
280
     0
102
RTVSPost2010PropOp31
 70
     1
102
RTVSPost2010Prop32
280
     0
102
RTVSPost2010PropOp32
 70
     1
102
RTVSPost2010Prop33
280
     0
102
RTVSPost2010PropOp33
 70
     1
102
RTVSPost2010Prop34
280
     0
102
RTVSPost2010PropOp34
 70
     1
102
RTVSPost2010Prop35
280
     0
102
RTVSPost2010PropOp35
 70
     1
102
RTVSPost2010Prop36
280
     0
102
RTVSPost2010PropOp36
 70
     1
102
RTVSPost2010Prop37
 90
       50
102
RTVSPost2010PropOp37
 70
     1
102
RTVSPost2010Prop38
140
0.0
102
RTVSPost2010PropOp38
 70
     1
102
RTVSPost2010Prop39
140
1.0
102
RTVSPost2010PropOp39
 70
     1
102
RTVSPost2010Prop40
 90
        0
102
RTVSPost2010PropOp40
 70
     1
102
RTVSPost2010Prop41ColorIndex
 90
       18
102
RTVSPost2010Prop41ColorRGB
 90
        0
102
RTVSPost2010PropOp41
 70
     1
102
RTVSPost2010Prop42
 90
       50
102
RTVSPost2010PropOp42
 70
     1
102
RTVSPost2010Prop43
 90
        3
102
RTVSPost2010PropOp43
 70
     1
102
RTVSPost2010Prop44ColorIndex
 90
        5
102
RTVSPost2010Prop44ColorRGB
 90
      255
102
RTVSPost2010PropOp44
 70
     1
102
RTVSPost2010Prop45
280
     0
102
RTVSPost2010PropOp45
 70
     1
102
RTVSPost2010Prop46
 90
       50
102
RTVSPost2010PropOp46
 70
     1
102
RTVSPost2010Prop47
 90
       50
102
RTVSPost2010PropOp47
 70
     1
102
RTVSPost2010Prop48
 90
       50
102
RTVSPost2010PropOp48
 70
     1
102
RTVSPost2010Prop49
280
     0
102
RTVSPost2010PropOp49
 70
     1
102
RTVSPost2010Prop50
 90
       50
102
RTVSPost2010PropOp50
 70
     1
102
RTVSPost2010Prop51ColorIndex
 90
      256
102
RTVSPost2010Prop51ColorRGB
 90
-16777216
102
RTVSPost2010PropOp51
 70
     0
102
RTVSPost2010Prop52
140
1.0
102
RTVSPost2010PropOp52
 70
     0
102
RTVSPost2010Prop53
 90
        2
102
RTVSPost2010PropOp53
 70
     1
102
RTVSPost2010Prop54
  1
strokes_ogs.tif
102
RTVSPost2010PropOp54
 70
     1
102
RTVSPost2010Prop55
280
     0
102
RTVSPost2010PropOp55
 70
     1
102
RTVSPost2010Prop56
140
1.0
102
RTVSPost2010PropOp56
 70
     1
102
RTVSPost2010Prop57
140
1.0
102
RTVSPost2010PropOp57
 70
     1
102
RTVSPropertyOp0
 70
     1
102
RTVSPropertyOp1
 70
     1
102
RTVSPropertyOp2
 70
     1
102
RTVSPropertyOp3
 70
     1
102
RTVSPropertyOp4
 70
     1
102
RTVSPropertyOp5
 70
     1
102
RTVSPropertyOp6
 70
     1
102
RTVSPropertyOp7
 70
     1
102
RTVSPropertyOp8
 70
     1
102
RTVSPropertyOp9
 70
     1
102
RTVSPropertyOp10
 70
     1
102
RTVSPropertyOp11
 70
     1
102
RTVSPropertyOp12
 70
     1
102
RTVSPropertyOp13
 70
     1
102
RTVSPropertyOp14
 70
     1
102
RTVSPropertyOp15
 70
     1
102
RTVSPropertyOp16
 70
     1
102
RTVSPropertyOp17
 70
     1
102
RTVSPropertyOp18
 70
     1
102
RTVSPropertyOp19
 70
     1
102
RTVSPropertyOp20
 70
     1
102
RTVSPropertyOp21
 70
     1
102
RTVSPropertyOp22
 70
     1
102
RTVSPropertyOp23
 70
     1
102
RTVSPropertyOp24
 70
     1
102
RTVSPropertyOp25
 70
     1
102
RTVSPropertyOp26
 70
     1
102
RTVSPropertyOp27
 70
     1
102
RTVSPropertyOp28
 70
     1
102
RTVSPropertyOp29
 70
     1
102
RTVSPropertyOp30
 70
     1
102
RTVSPropertyOp31
 70
     1
102
RTVSPropertyOp32
 70
     1
102
RTVSPropertyOp33
 70
     1
102
RTVSPropertyOp34
 70
     1
102
RTVSPropertyOp35
 70
     1
102
RTVSPropertyOp36
 70
     1
102
RTVSPropertyOp37
 70
     1
102
RTVSPropertyOp38
 70
     1
102
RTVSPropertyOp39
 70
     1
102
RTVSPropertyOp40
 70
     1
102
RTVSPropertyOp41
 70
     1
102
RTVSPropertyOp42
 70
     1
102
RTVSPropertyOp43
 70
     1
102
RTVSPropertyOp44
 70
     1
102
RTVSPropertyOp45
 70
     1
102
RTVSPropertyOp46
 70
     1
102
RTVSPropertyOp47
 70
     1
102
RTVSPropertyOp48
 70
     1
102
RTVSPropertyOp49
 70
     1
102
RTVSPropertyOp50
 70
     1
102
RTVSPropertyOp51
 70
     0
102
RTVSPropertyOp52
 70
     0
102
RTVSPropertyOp53
 70
     1
102
RTVSPropertyOp54
 70
     1
102
RTVSPropertyOp55
 70
     1
102
RTVSPropertyOp56
 70
     1
102
RTVSPropertyOp57
 70
     1
102
RTVSPropertyOp58
 70
     1
102
RTVSPropertyOp59
 70
     1
102
RTVSPropertyOp60
 70
     1
102
RTVSPropertyOp61
 70
     1
102
RTVSPropertyOp62
 70
     1
  0
XRECORD
  5
A0CEE
102
{ACAD_REACTORS
330
A0CED
102
}
330
A0CED
100
AcDbXrecord
280
     1
102
RTVSPost2010Prop28
280
     0
102
RTVSPost2010PropOp28
 70
     1
102
RTVSPost2010Prop29
280
     1
102
RTVSPost2010PropOp29
 70
     1
102
RTVSPost2010Prop30
280
     1
102
RTVSPost2010PropOp30
 70
     1
102
RTVSPost2010Prop31
280
     0
102
RTVSPost2010PropOp31
 70
     1
102
RTVSPost2010Prop32
280
     0
102
RTVSPost2010PropOp32
 70
     1
102
RTVSPost2010Prop33
280
     0
102
RTVSPost2010PropOp33
 70
     1
102
RTVSPost2010Prop34
280
     0
102
RTVSPost2010PropOp34
 70
     1
102
RTVSPost2010Prop35
280
     0
102
RTVSPost2010PropOp35
 70
     1
102
RTVSPost2010Prop36
280
     0
102
RTVSPost2010PropOp36
 70
     1
102
RTVSPost2010Prop37
 90
       50
102
RTVSPost2010PropOp37
 70
     0
102
RTVSPost2010Prop38
140
0.0
102
RTVSPost2010PropOp38
 70
     0
102
RTVSPost2010Prop39
140
1.0
102
RTVSPost2010PropOp39
 70
     0
102
RTVSPost2010Prop40
 90
        0
102
RTVSPost2010PropOp40
 70
     0
102
RTVSPost2010Prop41ColorIndex
 90
       18
102
RTVSPost2010Prop41ColorRGB
 90
        0
102
RTVSPost2010PropOp41
 70
     0
102
RTVSPost2010Prop42
 90
       50
102
RTVSPost2010PropOp42
 70
     0
102
RTVSPost2010Prop43
 90
        3
102
RTVSPost2010PropOp43
 70
     0
102
RTVSPost2010Prop44ColorIndex
 90
        5
102
RTVSPost2010Prop44ColorRGB
 90
      255
102
RTVSPost2010PropOp44
 70
     0
102
RTVSPost2010Prop45
280
     0
102
RTVSPost2010PropOp45
 70
     1
102
RTVSPost2010Prop46
 90
       50
102
RTVSPost2010PropOp46
 70
     0
102
RTVSPost2010Prop47
 90
       50
102
RTVSPost2010PropOp47
 70
     0
102
RTVSPost2010Prop48
 90
       50
102
RTVSPost2010PropOp48
 70
     0
102
RTVSPost2010Prop49
280
     0
102
RTVSPost2010PropOp49
 70
     1
102
RTVSPost2010Prop50
 90
       50
102
RTVSPost2010PropOp50
 70
     0
102
RTVSPost2010Prop51ColorIndex
 90
      256
102
RTVSPost2010Prop51ColorRGB
 90
-16777216
102
RTVSPost2010PropOp51
 70
     0
102
RTVSPost2010Prop52
140
1.0
102
RTVSPost2010PropOp52
 70
     0
102
RTVSPost2010Prop53
 90
        2
102
RTVSPost2010PropOp53
 70
     0
102
RTVSPost2010Prop54
  1
strokes_ogs.tif
102
RTVSPost2010PropOp54
 70
     0
102
RTVSPost2010Prop55
280
     0
102
RTVSPost2010PropOp55
 70
     1
102
RTVSPost2010Prop56
140
1.0
102
RTVSPost2010PropOp56
 70
     0
102
RTVSPost2010Prop57
140
1.0
102
RTVSPost2010PropOp57
 70
     0
102
RTVSPropertyOp0
 70
     0
102
RTVSPropertyOp1
 70
     0
102
RTVSPropertyOp2
 70
     0
102
RTVSPropertyOp3
 70
     0
102
RTVSPropertyOp4
 70
     0
102
RTVSPropertyOp5
 70
     0
102
RTVSPropertyOp6
 70
     0
102
RTVSPropertyOp7
 70
     0
102
RTVSPropertyOp8
 70
     0
102
RTVSPropertyOp9
 70
     0
102
RTVSPropertyOp10
 70
     0
102
RTVSPropertyOp11
 70
     0
102
RTVSPropertyOp12
 70
     0
102
RTVSPropertyOp13
 70
     0
102
RTVSPropertyOp14
 70
     2
102
RTVSPropertyOp15
 70
     0
102
RTVSPropertyOp16
 70
     0
102
RTVSPropertyOp17
 70
     0
102
RTVSPropertyOp18
 70
     0
102
RTVSPropertyOp19
 70
     0
102
RTVSPropertyOp20
 70
     0
102
RTVSPropertyOp21
 70
     0
102
RTVSPropertyOp22
 70
     0
102
RTVSPropertyOp23
 70
     0
102
RTVSPropertyOp24
 70
     0
102
RTVSPropertyOp25
 70
     0
102
RTVSPropertyOp26
 70
     0
102
RTVSPropertyOp27
 70
     0
102
RTVSPropertyOp28
 70
     1
102
RTVSPropertyOp29
 70
     1
102
RTVSPropertyOp30
 70
     1
102
RTVSPropertyOp31
 70
     1
102
RTVSPropertyOp32
 70
     1
102
RTVSPropertyOp33
 70
     1
102
RTVSPropertyOp34
 70
     1
102
RTVSPropertyOp35
 70
     1
102
RTVSPropertyOp36
 70
     1
102
RTVSPropertyOp37
 70
     0
102
RTVSPropertyOp38
 70
     0
102
RTVSPropertyOp39
 70
     0
102
RTVSPropertyOp40
 70
     0
102
RTVSPropertyOp41
 70
     0
102
RTVSPropertyOp42
 70
     0
102
RTVSPropertyOp43
 70
     0
102
RTVSPropertyOp44
 70
     0
102
RTVSPropertyOp45
 70
     1
102
RTVSPropertyOp46
 70
     0
102
RTVSPropertyOp47
 70
     0
102
RTVSPropertyOp48
 70
     0
102
RTVSPropertyOp49
 70
     1
102
RTVSPropertyOp50
 70
     0
102
RTVSPropertyOp51
 70
     0
102
RTVSPropertyOp52
 70
     0
102
RTVSPropertyOp53
 70
     0
102
RTVSPropertyOp54
 70
     0
102
RTVSPropertyOp55
 70
     1
102
RTVSPropertyOp56
 70
     0
102
RTVSPropertyOp57
 70
     0
102
RTVSPropertyOp58
 70
     0
102
RTVSPropertyOp59
 70
     0
102
RTVSPropertyOp60
 70
     0
102
RTVSPropertyOp61
 70
     0
102
RTVSPropertyOp62
 70
     0
  0
XRECORD
  5
A0CDC
102
{ACAD_REACTORS
330
A0CDB
102
}
330
A0CDB
100
AcDbXrecord
280
     1
102
RTVSPost2010Prop28
280
     0
102
RTVSPost2010PropOp28
 70
     1
102
RTVSPost2010Prop29
280
     1
102
RTVSPost2010PropOp29
 70
     1
102
RTVSPost2010Prop30
280
     1
102
RTVSPost2010PropOp30
 70
     1
102
RTVSPost2010Prop31
280
     0
102
RTVSPost2010PropOp31
 70
     1
102
RTVSPost2010Prop32
280
     0
102
RTVSPost2010PropOp32
 70
     1
102
RTVSPost2010Prop33
280
     0
102
RTVSPost2010PropOp33
 70
     1
102
RTVSPost2010Prop34
280
     0
102
RTVSPost2010PropOp34
 70
     1
102
RTVSPost2010Prop35
280
     0
102
RTVSPost2010PropOp35
 70
     1
102
RTVSPost2010Prop36
280
     0
102
RTVSPost2010PropOp36
 70
     1
102
RTVSPost2010Prop37
 90
       50
102
RTVSPost2010PropOp37
 70
     1
102
RTVSPost2010Prop38
140
0.0
102
RTVSPost2010PropOp38
 70
     1
102
RTVSPost2010Prop39
140
1.0
102
RTVSPost2010PropOp39
 70
     1
102
RTVSPost2010Prop40
 90
        0
102
RTVSPost2010PropOp40
 70
     1
102
RTVSPost2010Prop41ColorIndex
 90
       18
102
RTVSPost2010Prop41ColorRGB
 90
        0
102
RTVSPost2010PropOp41
 70
     1
102
RTVSPost2010Prop42
 90
       50
102
RTVSPost2010PropOp42
 70
     1
102
RTVSPost2010Prop43
 90
        3
102
RTVSPost2010PropOp43
 70
     1
102
RTVSPost2010Prop44ColorIndex
 90
        5
102
RTVSPost2010Prop44ColorRGB
 90
      255
102
RTVSPost2010PropOp44
 70
     1
102
RTVSPost2010Prop45
280
     0
102
RTVSPost2010PropOp45
 70
     1
102
RTVSPost2010Prop46
 90
       50
102
RTVSPost2010PropOp46
 70
     1
102
RTVSPost2010Prop47
 90
       50
102
RTVSPost2010PropOp47
 70
     1
102
RTVSPost2010Prop48
 90
       50
102
RTVSPost2010PropOp48
 70
     1
102
RTVSPost2010Prop49
280
     0
102
RTVSPost2010PropOp49
 70
     1
102
RTVSPost2010Prop50
 90
       50
102
RTVSPost2010PropOp50
 70
     1
102
RTVSPost2010Prop51ColorIndex
 90
      256
102
RTVSPost2010Prop51ColorRGB
 90
-16777216
102
RTVSPost2010PropOp51
 70
     0
102
RTVSPost2010Prop52
140
1.0
102
RTVSPost2010PropOp52
 70
     0
102
RTVSPost2010Prop53
 90
        2
102
RTVSPost2010PropOp53
 70
     1
102
RTVSPost2010Prop54
  1
strokes_ogs.tif
102
RTVSPost2010PropOp54
 70
     1
102
RTVSPost2010Prop55
280
     0
102
RTVSPost2010PropOp55
 70
     1
102
RTVSPost2010Prop56
140
1.0
102
RTVSPost2010PropOp56
 70
     1
102
RTVSPost2010Prop57
140
1.0
102
RTVSPost2010PropOp57
 70
     1
102
RTVSPropertyOp0
 70
     1
102
RTVSPropertyOp1
 70
     1
102
RTVSPropertyOp2
 70
     1
102
RTVSPropertyOp3
 70
     1
102
RTVSPropertyOp4
 70
     1
102
RTVSPropertyOp5
 70
     1
102
RTVSPropertyOp6
 70
     1
102
RTVSPropertyOp7
 70
     1
102
RTVSPropertyOp8
 70
     1
102
RTVSPropertyOp9
 70
     1
102
RTVSPropertyOp10
 70
     1
102
RTVSPropertyOp11
 70
     1
102
RTVSPropertyOp12
 70
     1
102
RTVSPropertyOp13
 70
     1
102
RTVSPropertyOp14
 70
     1
102
RTVSPropertyOp15
 70
     1
102
RTVSPropertyOp16
 70
     1
102
RTVSPropertyOp17
 70
     1
102
RTVSPropertyOp18
 70
     1
102
RTVSPropertyOp19
 70
     1
102
RTVSPropertyOp20
 70
     1
102
RTVSPropertyOp21
 70
     1
102
RTVSPropertyOp22
 70
     1
102
RTVSPropertyOp23
 70
     1
102
RTVSPropertyOp24
 70
     1
102
RTVSPropertyOp25
 70
     1
102
RTVSPropertyOp26
 70
     1
102
RTVSPropertyOp27
 70
     1
102
RTVSPropertyOp28
 70
     1
102
RTVSPropertyOp29
 70
     1
102
RTVSPropertyOp30
 70
     1
102
RTVSPropertyOp31
 70
     1
102
RTVSPropertyOp32
 70
     1
102
RTVSPropertyOp33
 70
     1
102
RTVSPropertyOp34
 70
     1
102
RTVSPropertyOp35
 70
     1
102
RTVSPropertyOp36
 70
     1
102
RTVSPropertyOp37
 70
     1
102
RTVSPropertyOp38
 70
     1
102
RTVSPropertyOp39
 70
     1
102
RTVSPropertyOp40
 70
     1
102
RTVSPropertyOp41
 70
     1
102
RTVSPropertyOp42
 70
     1
102
RTVSPropertyOp43
 70
     1
102
RTVSPropertyOp44
 70
     1
102
RTVSPropertyOp45
 70
     1
102
RTVSPropertyOp46
 70
     1
102
RTVSPropertyOp47
 70
     1
102
RTVSPropertyOp48
 70
     1
102
RTVSPropertyOp49
 70
     1
102
RTVSPropertyOp50
 70
     1
102
RTVSPropertyOp51
 70
     0
102
RTVSPropertyOp52
 70
     0
102
RTVSPropertyOp53
 70
     1
102
RTVSPropertyOp54
 70
     1
102
RTVSPropertyOp55
 70
     1
102
RTVSPropertyOp56
 70
     1
102
RTVSPropertyOp57
 70
     1
102
RTVSPropertyOp58
 70
     1
102
RTVSPropertyOp59
 70
     1
102
RTVSPropertyOp60
 70
     1
102
RTVSPropertyOp61
 70
     1
102
RTVSPropertyOp62
 70
     1
  0
XRECORD
  5
A0CC0
102
{ACAD_REACTORS
330
A0CBF
102
}
330
A0CBF
100
AcDbXrecord
280
     1
102
RTVSPost2010Prop28
280
     0
102
RTVSPost2010PropOp28
 70
     1
102
RTVSPost2010Prop29
280
     1
102
RTVSPost2010PropOp29
 70
     1
102
RTVSPost2010Prop30
280
     1
102
RTVSPost2010PropOp30
 70
     1
102
RTVSPost2010Prop31
280
     0
102
RTVSPost2010PropOp31
 70
     1
102
RTVSPost2010Prop32
280
     0
102
RTVSPost2010PropOp32
 70
     1
102
RTVSPost2010Prop33
280
     0
102
RTVSPost2010PropOp33
 70
     1
102
RTVSPost2010Prop34
280
     0
102
RTVSPost2010PropOp34
 70
     1
102
RTVSPost2010Prop35
280
     0
102
RTVSPost2010PropOp35
 70
     1
102
RTVSPost2010Prop36
280
     0
102
RTVSPost2010PropOp36
 70
     1
102
RTVSPost2010Prop37
 90
       50
102
RTVSPost2010PropOp37
 70
     1
102
RTVSPost2010Prop38
140
0.0
102
RTVSPost2010PropOp38
 70
     1
102
RTVSPost2010Prop39
140
1.0
102
RTVSPost2010PropOp39
 70
     1
102
RTVSPost2010Prop40
 90
        0
102
RTVSPost2010PropOp40
 70
     1
102
RTVSPost2010Prop41ColorIndex
 90
       18
102
RTVSPost2010Prop41ColorRGB
 90
        0
102
RTVSPost2010PropOp41
 70
     1
102
RTVSPost2010Prop42
 90
       50
102
RTVSPost2010PropOp42
 70
     1
102
RTVSPost2010Prop43
 90
        3
102
RTVSPost2010PropOp43
 70
     1
102
RTVSPost2010Prop44ColorIndex
 90
        5
102
RTVSPost2010Prop44ColorRGB
 90
      255
102
RTVSPost2010PropOp44
 70
     1
102
RTVSPost2010Prop45
280
     0
102
RTVSPost2010PropOp45
 70
     1
102
RTVSPost2010Prop46
 90
       50
102
RTVSPost2010PropOp46
 70
     1
102
RTVSPost2010Prop47
 90
       50
102
RTVSPost2010PropOp47
 70
     1
102
RTVSPost2010Prop48
 90
       50
102
RTVSPost2010PropOp48
 70
     1
102
RTVSPost2010Prop49
280
     0
102
RTVSPost2010PropOp49
 70
     1
102
RTVSPost2010Prop50
 90
       50
102
RTVSPost2010PropOp50
 70
     1
102
RTVSPost2010Prop51ColorIndex
 90
      256
102
RTVSPost2010Prop51ColorRGB
 90
-16777216
102
RTVSPost2010PropOp51
 70
     0
102
RTVSPost2010Prop52
140
1.0
102
RTVSPost2010PropOp52
 70
     0
102
RTVSPost2010Prop53
 90
        2
102
RTVSPost2010PropOp53
 70
     1
102
RTVSPost2010Prop54
  1
strokes_ogs.tif
102
RTVSPost2010PropOp54
 70
     1
102
RTVSPost2010Prop55
280
     0
102
RTVSPost2010PropOp55
 70
     1
102
RTVSPost2010Prop56
140
1.0
102
RTVSPost2010PropOp56
 70
     1
102
RTVSPost2010Prop57
140
1.0
102
RTVSPost2010PropOp57
 70
     1
102
RTVSPropertyOp0
 70
     1
102
RTVSPropertyOp1
 70
     1
102
RTVSPropertyOp2
 70
     1
102
RTVSPropertyOp3
 70
     1
102
RTVSPropertyOp4
 70
     1
102
RTVSPropertyOp5
 70
     1
102
RTVSPropertyOp6
 70
     1
102
RTVSPropertyOp7
 70
     1
102
RTVSPropertyOp8
 70
     1
102
RTVSPropertyOp9
 70
     1
102
RTVSPropertyOp10
 70
     1
102
RTVSPropertyOp11
 70
     1
102
RTVSPropertyOp12
 70
     1
102
RTVSPropertyOp13
 70
     1
102
RTVSPropertyOp14
 70
     1
102
RTVSPropertyOp15
 70
     1
102
RTVSPropertyOp16
 70
     1
102
RTVSPropertyOp17
 70
     1
102
RTVSPropertyOp18
 70
     1
102
RTVSPropertyOp19
 70
     1
102
RTVSPropertyOp20
 70
     1
102
RTVSPropertyOp21
 70
     1
102
RTVSPropertyOp22
 70
     1
102
RTVSPropertyOp23
 70
     1
102
RTVSPropertyOp24
 70
     1
102
RTVSPropertyOp25
 70
     1
102
RTVSPropertyOp26
 70
     1
102
RTVSPropertyOp27
 70
     1
102
RTVSPropertyOp28
 70
     1
102
RTVSPropertyOp29
 70
     1
102
RTVSPropertyOp30
 70
     1
102
RTVSPropertyOp31
 70
     1
102
RTVSPropertyOp32
 70
     1
102
RTVSPropertyOp33
 70
     1
102
RTVSPropertyOp34
 70
     1
102
RTVSPropertyOp35
 70
     1
102
RTVSPropertyOp36
 70
     1
102
RTVSPropertyOp37
 70
     1
102
RTVSPropertyOp38
 70
     1
102
RTVSPropertyOp39
 70
     1
102
RTVSPropertyOp40
 70
     1
102
RTVSPropertyOp41
 70
     1
102
RTVSPropertyOp42
 70
     1
102
RTVSPropertyOp43
 70
     1
102
RTVSPropertyOp44
 70
     1
102
RTVSPropertyOp45
 70
     1
102
RTVSPropertyOp46
 70
     1
102
RTVSPropertyOp47
 70
     1
102
RTVSPropertyOp48
 70
     1
102
RTVSPropertyOp49
 70
     1
102
RTVSPropertyOp50
 70
     1
102
RTVSPropertyOp51
 70
     0
102
RTVSPropertyOp52
 70
     0
102
RTVSPropertyOp53
 70
     1
102
RTVSPropertyOp54
 70
     1
102
RTVSPropertyOp55
 70
     1
102
RTVSPropertyOp56
 70
     1
102
RTVSPropertyOp57
 70
     1
102
RTVSPropertyOp58
 70
     1
102
RTVSPropertyOp59
 70
     1
102
RTVSPropertyOp60
 70
     1
102
RTVSPropertyOp61
 70
     1
102
RTVSPropertyOp62
 70
     1
  0
XRECORD
  5
A0CC2
102
{ACAD_REACTORS
330
A0CC1
102
}
330
A0CC1
100
AcDbXrecord
280
     1
102
RTVSPost2010Prop28
280
     0
102
RTVSPost2010PropOp28
 70
     1
102
RTVSPost2010Prop29
280
     1
102
RTVSPost2010PropOp29
 70
     1
102
RTVSPost2010Prop30
280
     1
102
RTVSPost2010PropOp30
 70
     1
102
RTVSPost2010Prop31
280
     0
102
RTVSPost2010PropOp31
 70
     1
102
RTVSPost2010Prop32
280
     0
102
RTVSPost2010PropOp32
 70
     1
102
RTVSPost2010Prop33
280
     0
102
RTVSPost2010PropOp33
 70
     1
102
RTVSPost2010Prop34
280
     0
102
RTVSPost2010PropOp34
 70
     1
102
RTVSPost2010Prop35
280
     0
102
RTVSPost2010PropOp35
 70
     1
102
RTVSPost2010Prop36
280
     0
102
RTVSPost2010PropOp36
 70
     1
102
RTVSPost2010Prop37
 90
       50
102
RTVSPost2010PropOp37
 70
     1
102
RTVSPost2010Prop38
140
0.0
102
RTVSPost2010PropOp38
 70
     1
102
RTVSPost2010Prop39
140
1.0
102
RTVSPost2010PropOp39
 70
     1
102
RTVSPost2010Prop40
 90
        0
102
RTVSPost2010PropOp40
 70
     1
102
RTVSPost2010Prop41ColorIndex
 90
       18
102
RTVSPost2010Prop41ColorRGB
 90
        0
102
RTVSPost2010PropOp41
 70
     1
102
RTVSPost2010Prop42
 90
       50
102
RTVSPost2010PropOp42
 70
     1
102
RTVSPost2010Prop43
 90
        3
102
RTVSPost2010PropOp43
 70
     1
102
RTVSPost2010Prop44ColorIndex
 90
        5
102
RTVSPost2010Prop44ColorRGB
 90
      255
102
RTVSPost2010PropOp44
 70
     1
102
RTVSPost2010Prop45
280
     0
102
RTVSPost2010PropOp45
 70
     1
102
RTVSPost2010Prop46
 90
       50
102
RTVSPost2010PropOp46
 70
     1
102
RTVSPost2010Prop47
 90
       50
102
RTVSPost2010PropOp47
 70
     1
102
RTVSPost2010Prop48
 90
       50
102
RTVSPost2010PropOp48
 70
     1
102
RTVSPost2010Prop49
280
     0
102
RTVSPost2010PropOp49
 70
     1
102
RTVSPost2010Prop50
 90
       50
102
RTVSPost2010PropOp50
 70
     1
102
RTVSPost2010Prop51ColorIndex
 90
      256
102
RTVSPost2010Prop51ColorRGB
 90
-16777216
102
RTVSPost2010PropOp51
 70
     0
102
RTVSPost2010Prop52
140
1.0
102
RTVSPost2010PropOp52
 70
     0
102
RTVSPost2010Prop53
 90
        2
102
RTVSPost2010PropOp53
 70
     1
102
RTVSPost2010Prop54
  1
strokes_ogs.tif
102
RTVSPost2010PropOp54
 70
     1
102
RTVSPost2010Prop55
280
     0
102
RTVSPost2010PropOp55
 70
     1
102
RTVSPost2010Prop56
140
1.0
102
RTVSPost2010PropOp56
 70
     1
102
RTVSPost2010Prop57
140
1.0
102
RTVSPost2010PropOp57
 70
     1
102
RTVSPropertyOp0
 70
     1
102
RTVSPropertyOp1
 70
     1
102
RTVSPropertyOp2
 70
     1
102
RTVSPropertyOp3
 70
     1
102
RTVSPropertyOp4
 70
     1
102
RTVSPropertyOp5
 70
     1
102
RTVSPropertyOp6
 70
     1
102
RTVSPropertyOp7
 70
     1
102
RTVSPropertyOp8
 70
     1
102
RTVSPropertyOp9
 70
     1
102
RTVSPropertyOp10
 70
     1
102
RTVSPropertyOp11
 70
     1
102
RTVSPropertyOp12
 70
     1
102
RTVSPropertyOp13
 70
     1
102
RTVSPropertyOp14
 70
     1
102
RTVSPropertyOp15
 70
     1
102
RTVSPropertyOp16
 70
     1
102
RTVSPropertyOp17
 70
     1
102
RTVSPropertyOp18
 70
     1
102
RTVSPropertyOp19
 70
     1
102
RTVSPropertyOp20
 70
     1
102
RTVSPropertyOp21
 70
     1
102
RTVSPropertyOp22
 70
     1
102
RTVSPropertyOp23
 70
     1
102
RTVSPropertyOp24
 70
     1
102
RTVSPropertyOp25
 70
     1
102
RTVSPropertyOp26
 70
     1
102
RTVSPropertyOp27
 70
     1
102
RTVSPropertyOp28
 70
     1
102
RTVSPropertyOp29
 70
     1
102
RTVSPropertyOp30
 70
     1
102
RTVSPropertyOp31
 70
     1
102
RTVSPropertyOp32
 70
     1
102
RTVSPropertyOp33
 70
     1
102
RTVSPropertyOp34
 70
     1
102
RTVSPropertyOp35
 70
     1
102
RTVSPropertyOp36
 70
     1
102
RTVSPropertyOp37
 70
     1
102
RTVSPropertyOp38
 70
     1
102
RTVSPropertyOp39
 70
     1
102
RTVSPropertyOp40
 70
     1
102
RTVSPropertyOp41
 70
     1
102
RTVSPropertyOp42
 70
     1
102
RTVSPropertyOp43
 70
     1
102
RTVSPropertyOp44
 70
     1
102
RTVSPropertyOp45
 70
     1
102
RTVSPropertyOp46
 70
     1
102
RTVSPropertyOp47
 70
     1
102
RTVSPropertyOp48
 70
     1
102
RTVSPropertyOp49
 70
     1
102
RTVSPropertyOp50
 70
     1
102
RTVSPropertyOp51
 70
     0
102
RTVSPropertyOp52
 70
     0
102
RTVSPropertyOp53
 70
     1
102
RTVSPropertyOp54
 70
     1
102
RTVSPropertyOp55
 70
     1
102
RTVSPropertyOp56
 70
     1
102
RTVSPropertyOp57
 70
     1
102
RTVSPropertyOp58
 70
     1
102
RTVSPropertyOp59
 70
     1
102
RTVSPropertyOp60
 70
     1
102
RTVSPropertyOp61
 70
     1
102
RTVSPropertyOp62
 70
     1
  0
XRECORD
  5
A0CC4
102
{ACAD_REACTORS
330
A0CC3
102
}
330
A0CC3
100
AcDbXrecord
280
     1
102
RTVSPost2010Prop28
280
     0
102
RTVSPost2010PropOp28
 70
     1
102
RTVSPost2010Prop29
280
     1
102
RTVSPost2010PropOp29
 70
     1
102
RTVSPost2010Prop30
280
     1
102
RTVSPost2010PropOp30
 70
     1
102
RTVSPost2010Prop31
280
     0
102
RTVSPost2010PropOp31
 70
     1
102
RTVSPost2010Prop32
280
     0
102
RTVSPost2010PropOp32
 70
     1
102
RTVSPost2010Prop33
280
     0
102
RTVSPost2010PropOp33
 70
     1
102
RTVSPost2010Prop34
280
     0
102
RTVSPost2010PropOp34
 70
     1
102
RTVSPost2010Prop35
280
     0
102
RTVSPost2010PropOp35
 70
     1
102
RTVSPost2010Prop36
280
     0
102
RTVSPost2010PropOp36
 70
     1
102
RTVSPost2010Prop37
 90
       50
102
RTVSPost2010PropOp37
 70
     1
102
RTVSPost2010Prop38
140
0.0
102
RTVSPost2010PropOp38
 70
     1
102
RTVSPost2010Prop39
140
1.0
102
RTVSPost2010PropOp39
 70
     1
102
RTVSPost2010Prop40
 90
        0
102
RTVSPost2010PropOp40
 70
     1
102
RTVSPost2010Prop41ColorIndex
 90
       18
102
RTVSPost2010Prop41ColorRGB
 90
        0
102
RTVSPost2010PropOp41
 70
     1
102
RTVSPost2010Prop42
 90
       50
102
RTVSPost2010PropOp42
 70
     1
102
RTVSPost2010Prop43
 90
        3
102
RTVSPost2010PropOp43
 70
     1
102
RTVSPost2010Prop44ColorIndex
 90
        5
102
RTVSPost2010Prop44ColorRGB
 90
      255
102
RTVSPost2010PropOp44
 70
     1
102
RTVSPost2010Prop45
280
     0
102
RTVSPost2010PropOp45
 70
     1
102
RTVSPost2010Prop46
 90
       50
102
RTVSPost2010PropOp46
 70
     1
102
RTVSPost2010Prop47
 90
       50
102
RTVSPost2010PropOp47
 70
     1
102
RTVSPost2010Prop48
 90
       50
102
RTVSPost2010PropOp48
 70
     1
102
RTVSPost2010Prop49
280
     0
102
RTVSPost2010PropOp49
 70
     1
102
RTVSPost2010Prop50
 90
       50
102
RTVSPost2010PropOp50
 70
     1
102
RTVSPost2010Prop51ColorIndex
 90
      256
102
RTVSPost2010Prop51ColorRGB
 90
-16777216
102
RTVSPost2010PropOp51
 70
     0
102
RTVSPost2010Prop52
140
1.0
102
RTVSPost2010PropOp52
 70
     0
102
RTVSPost2010Prop53
 90
        2
102
RTVSPost2010PropOp53
 70
     1
102
RTVSPost2010Prop54
  1
strokes_ogs.tif
102
RTVSPost2010PropOp54
 70
     1
102
RTVSPost2010Prop55
280
     0
102
RTVSPost2010PropOp55
 70
     1
102
RTVSPost2010Prop56
140
1.0
102
RTVSPost2010PropOp56
 70
     1
102
RTVSPost2010Prop57
140
1.0
102
RTVSPost2010PropOp57
 70
     1
102
RTVSPropertyOp0
 70
     1
102
RTVSPropertyOp1
 70
     1
102
RTVSPropertyOp2
 70
     1
102
RTVSPropertyOp3
 70
     1
102
RTVSPropertyOp4
 70
     1
102
RTVSPropertyOp5
 70
     1
102
RTVSPropertyOp6
 70
     1
102
RTVSPropertyOp7
 70
     1
102
RTVSPropertyOp8
 70
     1
102
RTVSPropertyOp9
 70
     1
102
RTVSPropertyOp10
 70
     1
102
RTVSPropertyOp11
 70
     1
102
RTVSPropertyOp12
 70
     1
102
RTVSPropertyOp13
 70
     1
102
RTVSPropertyOp14
 70
     1
102
RTVSPropertyOp15
 70
     1
102
RTVSPropertyOp16
 70
     1
102
RTVSPropertyOp17
 70
     1
102
RTVSPropertyOp18
 70
     1
102
RTVSPropertyOp19
 70
     1
102
RTVSPropertyOp20
 70
     1
102
RTVSPropertyOp21
 70
     1
102
RTVSPropertyOp22
 70
     1
102
RTVSPropertyOp23
 70
     1
102
RTVSPropertyOp24
 70
     1
102
RTVSPropertyOp25
 70
     1
102
RTVSPropertyOp26
 70
     1
102
RTVSPropertyOp27
 70
     1
102
RTVSPropertyOp28
 70
     1
102
RTVSPropertyOp29
 70
     1
102
RTVSPropertyOp30
 70
     1
102
RTVSPropertyOp31
 70
     1
102
RTVSPropertyOp32
 70
     1
102
RTVSPropertyOp33
 70
     1
102
RTVSPropertyOp34
 70
     1
102
RTVSPropertyOp35
 70
     1
102
RTVSPropertyOp36
 70
     1
102
RTVSPropertyOp37
 70
     1
102
RTVSPropertyOp38
 70
     1
102
RTVSPropertyOp39
 70
     1
102
RTVSPropertyOp40
 70
     1
102
RTVSPropertyOp41
 70
     1
102
RTVSPropertyOp42
 70
     1
102
RTVSPropertyOp43
 70
     1
102
RTVSPropertyOp44
 70
     1
102
RTVSPropertyOp45
 70
     1
102
RTVSPropertyOp46
 70
     1
102
RTVSPropertyOp47
 70
     1
102
RTVSPropertyOp48
 70
     1
102
RTVSPropertyOp49
 70
     1
102
RTVSPropertyOp50
 70
     1
102
RTVSPropertyOp51
 70
     0
102
RTVSPropertyOp52
 70
     0
102
RTVSPropertyOp53
 70
     1
102
RTVSPropertyOp54
 70
     1
102
RTVSPropertyOp55
 70
     1
102
RTVSPropertyOp56
 70
     1
102
RTVSPropertyOp57
 70
     1
102
RTVSPropertyOp58
 70
     1
102
RTVSPropertyOp59
 70
     1
102
RTVSPropertyOp60
 70
     1
102
RTVSPropertyOp61
 70
     1
102
RTVSPropertyOp62
 70
     1
  0
XRECORD
  5
A0CC6
102
{ACAD_REACTORS
330
A0CC5
102
}
330
A0CC5
100
AcDbXrecord
280
     1
102
RTVSPost2010Prop28
280
     0
102
RTVSPost2010PropOp28
 70
     1
102
RTVSPost2010Prop29
280
     1
102
RTVSPost2010PropOp29
 70
     1
102
RTVSPost2010Prop30
280
     1
102
RTVSPost2010PropOp30
 70
     1
102
RTVSPost2010Prop31
280
     0
102
RTVSPost2010PropOp31
 70
     1
102
RTVSPost2010Prop32
280
     0
102
RTVSPost2010PropOp32
 70
     1
102
RTVSPost2010Prop33
280
     0
102
RTVSPost2010PropOp33
 70
     1
102
RTVSPost2010Prop34
280
     0
102
RTVSPost2010PropOp34
 70
     1
102
RTVSPost2010Prop35
280
     0
102
RTVSPost2010PropOp35
 70
     1
102
RTVSPost2010Prop36
280
     0
102
RTVSPost2010PropOp36
 70
     1
102
RTVSPost2010Prop37
 90
       50
102
RTVSPost2010PropOp37
 70
     1
102
RTVSPost2010Prop38
140
0.0
102
RTVSPost2010PropOp38
 70
     1
102
RTVSPost2010Prop39
140
1.0
102
RTVSPost2010PropOp39
 70
     1
102
RTVSPost2010Prop40
 90
        0
102
RTVSPost2010PropOp40
 70
     1
102
RTVSPost2010Prop41ColorIndex
 90
       18
102
RTVSPost2010Prop41ColorRGB
 90
        0
102
RTVSPost2010PropOp41
 70
     1
102
RTVSPost2010Prop42
 90
       50
102
RTVSPost2010PropOp42
 70
     1
102
RTVSPost2010Prop43
 90
        3
102
RTVSPost2010PropOp43
 70
     1
102
RTVSPost2010Prop44ColorIndex
 90
        5
102
RTVSPost2010Prop44ColorRGB
 90
      255
102
RTVSPost2010PropOp44
 70
     1
102
RTVSPost2010Prop45
280
     0
102
RTVSPost2010PropOp45
 70
     1
102
RTVSPost2010Prop46
 90
       50
102
RTVSPost2010PropOp46
 70
     1
102
RTVSPost2010Prop47
 90
       50
102
RTVSPost2010PropOp47
 70
     1
102
RTVSPost2010Prop48
 90
       50
102
RTVSPost2010PropOp48
 70
     1
102
RTVSPost2010Prop49
280
     0
102
RTVSPost2010PropOp49
 70
     1
102
RTVSPost2010Prop50
 90
       50
102
RTVSPost2010PropOp50
 70
     1
102
RTVSPost2010Prop51ColorIndex
 90
      256
102
RTVSPost2010Prop51ColorRGB
 90
-16777216
102
RTVSPost2010PropOp51
 70
     0
102
RTVSPost2010Prop52
140
1.0
102
RTVSPost2010PropOp52
 70
     0
102
RTVSPost2010Prop53
 90
        2
102
RTVSPost2010PropOp53
 70
     1
102
RTVSPost2010Prop54
  1
strokes_ogs.tif
102
RTVSPost2010PropOp54
 70
     1
102
RTVSPost2010Prop55
280
     0
102
RTVSPost2010PropOp55
 70
     1
102
RTVSPost2010Prop56
140
1.0
102
RTVSPost2010PropOp56
 70
     1
102
RTVSPost2010Prop57
140
1.0
102
RTVSPost2010PropOp57
 70
     1
102
RTVSPropertyOp0
 70
     1
102
RTVSPropertyOp1
 70
     1
102
RTVSPropertyOp2
 70
     1
102
RTVSPropertyOp3
 70
     1
102
RTVSPropertyOp4
 70
     1
102
RTVSPropertyOp5
 70
     1
102
RTVSPropertyOp6
 70
     1
102
RTVSPropertyOp7
 70
     1
102
RTVSPropertyOp8
 70
     1
102
RTVSPropertyOp9
 70
     1
102
RTVSPropertyOp10
 70
     1
102
RTVSPropertyOp11
 70
     1
102
RTVSPropertyOp12
 70
     1
102
RTVSPropertyOp13
 70
     1
102
RTVSPropertyOp14
 70
     1
102
RTVSPropertyOp15
 70
     1
102
RTVSPropertyOp16
 70
     1
102
RTVSPropertyOp17
 70
     1
102
RTVSPropertyOp18
 70
     1
102
RTVSPropertyOp19
 70
     1
102
RTVSPropertyOp20
 70
     1
102
RTVSPropertyOp21
 70
     1
102
RTVSPropertyOp22
 70
     1
102
RTVSPropertyOp23
 70
     1
102
RTVSPropertyOp24
 70
     1
102
RTVSPropertyOp25
 70
     1
102
RTVSPropertyOp26
 70
     1
102
RTVSPropertyOp27
 70
     1
102
RTVSPropertyOp28
 70
     1
102
RTVSPropertyOp29
 70
     1
102
RTVSPropertyOp30
 70
     1
102
RTVSPropertyOp31
 70
     1
102
RTVSPropertyOp32
 70
     1
102
RTVSPropertyOp33
 70
     1
102
RTVSPropertyOp34
 70
     1
102
RTVSPropertyOp35
 70
     1
102
RTVSPropertyOp36
 70
     1
102
RTVSPropertyOp37
 70
     1
102
RTVSPropertyOp38
 70
     1
102
RTVSPropertyOp39
 70
     1
102
RTVSPropertyOp40
 70
     1
102
RTVSPropertyOp41
 70
     1
102
RTVSPropertyOp42
 70
     1
102
RTVSPropertyOp43
 70
     1
102
RTVSPropertyOp44
 70
     1
102
RTVSPropertyOp45
 70
     1
102
RTVSPropertyOp46
 70
     1
102
RTVSPropertyOp47
 70
     1
102
RTVSPropertyOp48
 70
     1
102
RTVSPropertyOp49
 70
     1
102
RTVSPropertyOp50
 70
     1
102
RTVSPropertyOp51
 70
     0
102
RTVSPropertyOp52
 70
     0
102
RTVSPropertyOp53
 70
     1
102
RTVSPropertyOp54
 70
     1
102
RTVSPropertyOp55
 70
     1
102
RTVSPropertyOp56
 70
     1
102
RTVSPropertyOp57
 70
     1
102
RTVSPropertyOp58
 70
     1
102
RTVSPropertyOp59
 70
     1
102
RTVSPropertyOp60
 70
     1
102
RTVSPropertyOp61
 70
     1
102
RTVSPropertyOp62
 70
     1
  0
XRECORD
  5
A0CCE
102
{ACAD_REACTORS
330
A0CCD
102
}
330
A0CCD
100
AcDbXrecord
280
     1
102
RTVSPost2010Prop28
280
     0
102
RTVSPost2010PropOp28
 70
     1
102
RTVSPost2010Prop29
280
     1
102
RTVSPost2010PropOp29
 70
     1
102
RTVSPost2010Prop30
280
     1
102
RTVSPost2010PropOp30
 70
     1
102
RTVSPost2010Prop31
280
     0
102
RTVSPost2010PropOp31
 70
     1
102
RTVSPost2010Prop32
280
     0
102
RTVSPost2010PropOp32
 70
     1
102
RTVSPost2010Prop33
280
     0
102
RTVSPost2010PropOp33
 70
     1
102
RTVSPost2010Prop34
280
     0
102
RTVSPost2010PropOp34
 70
     1
102
RTVSPost2010Prop35
280
     0
102
RTVSPost2010PropOp35
 70
     1
102
RTVSPost2010Prop36
280
     0
102
RTVSPost2010PropOp36
 70
     1
102
RTVSPost2010Prop37
 90
       50
102
RTVSPost2010PropOp37
 70
     1
102
RTVSPost2010Prop38
140
0.0
102
RTVSPost2010PropOp38
 70
     1
102
RTVSPost2010Prop39
140
1.0
102
RTVSPost2010PropOp39
 70
     1
102
RTVSPost2010Prop40
 90
        0
102
RTVSPost2010PropOp40
 70
     1
102
RTVSPost2010Prop41ColorIndex
 90
       18
102
RTVSPost2010Prop41ColorRGB
 90
        0
102
RTVSPost2010PropOp41
 70
     1
102
RTVSPost2010Prop42
 90
       50
102
RTVSPost2010PropOp42
 70
     1
102
RTVSPost2010Prop43
 90
        3
102
RTVSPost2010PropOp43
 70
     1
102
RTVSPost2010Prop44ColorIndex
 90
        5
102
RTVSPost2010Prop44ColorRGB
 90
      255
102
RTVSPost2010PropOp44
 70
     1
102
RTVSPost2010Prop45
280
     0
102
RTVSPost2010PropOp45
 70
     1
102
RTVSPost2010Prop46
 90
       50
102
RTVSPost2010PropOp46
 70
     1
102
RTVSPost2010Prop47
 90
       50
102
RTVSPost2010PropOp47
 70
     1
102
RTVSPost2010Prop48
 90
       50
102
RTVSPost2010PropOp48
 70
     1
102
RTVSPost2010Prop49
280
     0
102
RTVSPost2010PropOp49
 70
     1
102
RTVSPost2010Prop50
 90
       50
102
RTVSPost2010PropOp50
 70
     1
102
RTVSPost2010Prop51ColorIndex
 90
      256
102
RTVSPost2010Prop51ColorRGB
 90
-16777216
102
RTVSPost2010PropOp51
 70
     0
102
RTVSPost2010Prop52
140
1.0
102
RTVSPost2010PropOp52
 70
     0
102
RTVSPost2010Prop53
 90
        2
102
RTVSPost2010PropOp53
 70
     1
102
RTVSPost2010Prop54
  1
strokes_ogs.tif
102
RTVSPost2010PropOp54
 70
     1
102
RTVSPost2010Prop55
280
     0
102
RTVSPost2010PropOp55
 70
     1
102
RTVSPost2010Prop56
140
1.0
102
RTVSPost2010PropOp56
 70
     1
102
RTVSPost2010Prop57
140
1.0
102
RTVSPost2010PropOp57
 70
     1
102
RTVSPropertyOp0
 70
     1
102
RTVSPropertyOp1
 70
     1
102
RTVSPropertyOp2
 70
     1
102
RTVSPropertyOp3
 70
     1
102
RTVSPropertyOp4
 70
     1
102
RTVSPropertyOp5
 70
     1
102
RTVSPropertyOp6
 70
     1
102
RTVSPropertyOp7
 70
     1
102
RTVSPropertyOp8
 70
     1
102
RTVSPropertyOp9
 70
     1
102
RTVSPropertyOp10
 70
     1
102
RTVSPropertyOp11
 70
     1
102
RTVSPropertyOp12
 70
     1
102
RTVSPropertyOp13
 70
     1
102
RTVSPropertyOp14
 70
     1
102
RTVSPropertyOp15
 70
     1
102
RTVSPropertyOp16
 70
     1
102
RTVSPropertyOp17
 70
     1
102
RTVSPropertyOp18
 70
     1
102
RTVSPropertyOp19
 70
     1
102
RTVSPropertyOp20
 70
     1
102
RTVSPropertyOp21
 70
     1
102
RTVSPropertyOp22
 70
     1
102
RTVSPropertyOp23
 70
     1
102
RTVSPropertyOp24
 70
     1
102
RTVSPropertyOp25
 70
     1
102
RTVSPropertyOp26
 70
     1
102
RTVSPropertyOp27
 70
     1
102
RTVSPropertyOp28
 70
     1
102
RTVSPropertyOp29
 70
     1
102
RTVSPropertyOp30
 70
     1
102
RTVSPropertyOp31
 70
     1
102
RTVSPropertyOp32
 70
     1
102
RTVSPropertyOp33
 70
     1
102
RTVSPropertyOp34
 70
     1
102
RTVSPropertyOp35
 70
     1
102
RTVSPropertyOp36
 70
     1
102
RTVSPropertyOp37
 70
     1
102
RTVSPropertyOp38
 70
     1
102
RTVSPropertyOp39
 70
     1
102
RTVSPropertyOp40
 70
     1
102
RTVSPropertyOp41
 70
     1
102
RTVSPropertyOp42
 70
     1
102
RTVSPropertyOp43
 70
     1
102
RTVSPropertyOp44
 70
     1
102
RTVSPropertyOp45
 70
     1
102
RTVSPropertyOp46
 70
     1
102
RTVSPropertyOp47
 70
     1
102
RTVSPropertyOp48
 70
     1
102
RTVSPropertyOp49
 70
     1
102
RTVSPropertyOp50
 70
     1
102
RTVSPropertyOp51
 70
     0
102
RTVSPropertyOp52
 70
     0
102
RTVSPropertyOp53
 70
     1
102
RTVSPropertyOp54
 70
     1
102
RTVSPropertyOp55
 70
     1
102
RTVSPropertyOp56
 70
     1
102
RTVSPropertyOp57
 70
     1
102
RTVSPropertyOp58
 70
     1
102
RTVSPropertyOp59
 70
     1
102
RTVSPropertyOp60
 70
     1
102
RTVSPropertyOp61
 70
     1
102
RTVSPropertyOp62
 70
     1
  0
XRECORD
  5
A0CEA
102
{ACAD_REACTORS
330
A0CE9
102
}
330
A0CE9
100
AcDbXrecord
280
     1
102
RTVSPost2010Prop28
280
     0
102
RTVSPost2010PropOp28
 70
     1
102
RTVSPost2010Prop29
280
     1
102
RTVSPost2010PropOp29
 70
     1
102
RTVSPost2010Prop30
280
     1
102
RTVSPost2010PropOp30
 70
     1
102
RTVSPost2010Prop31
280
     0
102
RTVSPost2010PropOp31
 70
     1
102
RTVSPost2010Prop32
280
     0
102
RTVSPost2010PropOp32
 70
     1
102
RTVSPost2010Prop33
280
     0
102
RTVSPost2010PropOp33
 70
     1
102
RTVSPost2010Prop34
280
     0
102
RTVSPost2010PropOp34
 70
     1
102
RTVSPost2010Prop35
280
     0
102
RTVSPost2010PropOp35
 70
     1
102
RTVSPost2010Prop36
280
     0
102
RTVSPost2010PropOp36
 70
     1
102
RTVSPost2010Prop37
 90
       50
102
RTVSPost2010PropOp37
 70
     0
102
RTVSPost2010Prop38
140
0.0
102
RTVSPost2010PropOp38
 70
     0
102
RTVSPost2010Prop39
140
1.0
102
RTVSPost2010PropOp39
 70
     0
102
RTVSPost2010Prop40
 90
        0
102
RTVSPost2010PropOp40
 70
     0
102
RTVSPost2010Prop41ColorIndex
 90
       18
102
RTVSPost2010Prop41ColorRGB
 90
        0
102
RTVSPost2010PropOp41
 70
     0
102
RTVSPost2010Prop42
 90
       50
102
RTVSPost2010PropOp42
 70
     0
102
RTVSPost2010Prop43
 90
        3
102
RTVSPost2010PropOp43
 70
     0
102
RTVSPost2010Prop44ColorIndex
 90
        5
102
RTVSPost2010Prop44ColorRGB
 90
      255
102
RTVSPost2010PropOp44
 70
     0
102
RTVSPost2010Prop45
280
     0
102
RTVSPost2010PropOp45
 70
     1
102
RTVSPost2010Prop46
 90
       50
102
RTVSPost2010PropOp46
 70
     0
102
RTVSPost2010Prop47
 90
       50
102
RTVSPost2010PropOp47
 70
     0
102
RTVSPost2010Prop48
 90
       50
102
RTVSPost2010PropOp48
 70
     0
102
RTVSPost2010Prop49
280
     0
102
RTVSPost2010PropOp49
 70
     1
102
RTVSPost2010Prop50
 90
       50
102
RTVSPost2010PropOp50
 70
     0
102
RTVSPost2010Prop51ColorIndex
 90
      256
102
RTVSPost2010Prop51ColorRGB
 90
-16777216
102
RTVSPost2010PropOp51
 70
     0
102
RTVSPost2010Prop52
140
1.0
102
RTVSPost2010PropOp52
 70
     0
102
RTVSPost2010Prop53
 90
        2
102
RTVSPost2010PropOp53
 70
     0
102
RTVSPost2010Prop54
  1
strokes_ogs.tif
102
RTVSPost2010PropOp54
 70
     0
102
RTVSPost2010Prop55
280
     0
102
RTVSPost2010PropOp55
 70
     1
102
RTVSPost2010Prop56
140
1.0
102
RTVSPost2010PropOp56
 70
     0
102
RTVSPost2010Prop57
140
1.0
102
RTVSPost2010PropOp57
 70
     0
102
RTVSPropertyOp0
 70
     0
102
RTVSPropertyOp1
 70
     0
102
RTVSPropertyOp2
 70
     0
102
RTVSPropertyOp3
 70
     0
102
RTVSPropertyOp4
 70
     0
102
RTVSPropertyOp5
 70
     0
102
RTVSPropertyOp6
 70
     0
102
RTVSPropertyOp7
 70
     0
102
RTVSPropertyOp8
 70
     0
102
RTVSPropertyOp9
 70
     0
102
RTVSPropertyOp10
 70
     0
102
RTVSPropertyOp11
 70
     0
102
RTVSPropertyOp12
 70
     0
102
RTVSPropertyOp13
 70
     0
102
RTVSPropertyOp14
 70
     2
102
RTVSPropertyOp15
 70
     0
102
RTVSPropertyOp16
 70
     0
102
RTVSPropertyOp17
 70
     0
102
RTVSPropertyOp18
 70
     0
102
RTVSPropertyOp19
 70
     0
102
RTVSPropertyOp20
 70
     0
102
RTVSPropertyOp21
 70
     0
102
RTVSPropertyOp22
 70
     0
102
RTVSPropertyOp23
 70
     0
102
RTVSPropertyOp24
 70
     0
102
RTVSPropertyOp25
 70
     0
102
RTVSPropertyOp26
 70
     0
102
RTVSPropertyOp27
 70
     0
102
RTVSPropertyOp28
 70
     1
102
RTVSPropertyOp29
 70
     1
102
RTVSPropertyOp30
 70
     1
102
RTVSPropertyOp31
 70
     1
102
RTVSPropertyOp32
 70
     1
102
RTVSPropertyOp33
 70
     1
102
RTVSPropertyOp34
 70
     1
102
RTVSPropertyOp35
 70
     1
102
RTVSPropertyOp36
 70
     1
102
RTVSPropertyOp37
 70
     0
102
RTVSPropertyOp38
 70
     0
102
RTVSPropertyOp39
 70
     0
102
RTVSPropertyOp40
 70
     0
102
RTVSPropertyOp41
 70
     0
102
RTVSPropertyOp42
 70
     0
102
RTVSPropertyOp43
 70
     0
102
RTVSPropertyOp44
 70
     0
102
RTVSPropertyOp45
 70
     1
102
RTVSPropertyOp46
 70
     0
102
RTVSPropertyOp47
 70
     0
102
RTVSPropertyOp48
 70
     0
102
RTVSPropertyOp49
 70
     1
102
RTVSPropertyOp50
 70
     0
102
RTVSPropertyOp51
 70
     0
102
RTVSPropertyOp52
 70
     0
102
RTVSPropertyOp53
 70
     0
102
RTVSPropertyOp54
 70
     0
102
RTVSPropertyOp55
 70
     1
102
RTVSPropertyOp56
 70
     0
102
RTVSPropertyOp57
 70
     0
102
RTVSPropertyOp58
 70
     0
102
RTVSPropertyOp59
 70
     0
102
RTVSPropertyOp60
 70
     0
102
RTVSPropertyOp61
 70
     0
102
RTVSPropertyOp62
 70
     0
  0
XRECORD
  5
A0CDA
102
{ACAD_REACTORS
330
A0CD9
102
}
330
A0CD9
100
AcDbXrecord
280
     1
102
RTVSPost2010Prop28
280
     0
102
RTVSPost2010PropOp28
 70
     1
102
RTVSPost2010Prop29
280
     1
102
RTVSPost2010PropOp29
 70
     1
102
RTVSPost2010Prop30
280
     1
102
RTVSPost2010PropOp30
 70
     1
102
RTVSPost2010Prop31
280
     0
102
RTVSPost2010PropOp31
 70
     1
102
RTVSPost2010Prop32
280
     0
102
RTVSPost2010PropOp32
 70
     1
102
RTVSPost2010Prop33
280
     0
102
RTVSPost2010PropOp33
 70
     1
102
RTVSPost2010Prop34
280
     0
102
RTVSPost2010PropOp34
 70
     1
102
RTVSPost2010Prop35
280
     0
102
RTVSPost2010PropOp35
 70
     1
102
RTVSPost2010Prop36
280
     0
102
RTVSPost2010PropOp36
 70
     1
102
RTVSPost2010Prop37
 90
       50
102
RTVSPost2010PropOp37
 70
     1
102
RTVSPost2010Prop38
140
0.0
102
RTVSPost2010PropOp38
 70
     1
102
RTVSPost2010Prop39
140
1.0
102
RTVSPost2010PropOp39
 70
     1
102
RTVSPost2010Prop40
 90
        0
102
RTVSPost2010PropOp40
 70
     1
102
RTVSPost2010Prop41ColorIndex
 90
       18
102
RTVSPost2010Prop41ColorRGB
 90
        0
102
RTVSPost2010PropOp41
 70
     1
102
RTVSPost2010Prop42
 90
       50
102
RTVSPost2010PropOp42
 70
     1
102
RTVSPost2010Prop43
 90
        3
102
RTVSPost2010PropOp43
 70
     1
102
RTVSPost2010Prop44ColorIndex
 90
        5
102
RTVSPost2010Prop44ColorRGB
 90
      255
102
RTVSPost2010PropOp44
 70
     1
102
RTVSPost2010Prop45
280
     0
102
RTVSPost2010PropOp45
 70
     1
102
RTVSPost2010Prop46
 90
       50
102
RTVSPost2010PropOp46
 70
     1
102
RTVSPost2010Prop47
 90
       50
102
RTVSPost2010PropOp47
 70
     1
102
RTVSPost2010Prop48
 90
       50
102
RTVSPost2010PropOp48
 70
     1
102
RTVSPost2010Prop49
280
     0
102
RTVSPost2010PropOp49
 70
     1
102
RTVSPost2010Prop50
 90
       50
102
RTVSPost2010PropOp50
 70
     1
102
RTVSPost2010Prop51ColorIndex
 90
      256
102
RTVSPost2010Prop51ColorRGB
 90
-16777216
102
RTVSPost2010PropOp51
 70
     0
102
RTVSPost2010Prop52
140
1.0
102
RTVSPost2010PropOp52
 70
     0
102
RTVSPost2010Prop53
 90
        2
102
RTVSPost2010PropOp53
 70
     1
102
RTVSPost2010Prop54
  1
strokes_ogs.tif
102
RTVSPost2010PropOp54
 70
     1
102
RTVSPost2010Prop55
280
     0
102
RTVSPost2010PropOp55
 70
     1
102
RTVSPost2010Prop56
140
1.0
102
RTVSPost2010PropOp56
 70
     1
102
RTVSPost2010Prop57
140
1.0
102
RTVSPost2010PropOp57
 70
     1
102
RTVSPropertyOp0
 70
     1
102
RTVSPropertyOp1
 70
     1
102
RTVSPropertyOp2
 70
     1
102
RTVSPropertyOp3
 70
     1
102
RTVSPropertyOp4
 70
     1
102
RTVSPropertyOp5
 70
     1
102
RTVSPropertyOp6
 70
     1
102
RTVSPropertyOp7
 70
     1
102
RTVSPropertyOp8
 70
     1
102
RTVSPropertyOp9
 70
     1
102
RTVSPropertyOp10
 70
     1
102
RTVSPropertyOp11
 70
     1
102
RTVSPropertyOp12
 70
     1
102
RTVSPropertyOp13
 70
     1
102
RTVSPropertyOp14
 70
     1
102
RTVSPropertyOp15
 70
     1
102
RTVSPropertyOp16
 70
     1
102
RTVSPropertyOp17
 70
     1
102
RTVSPropertyOp18
 70
     1
102
RTVSPropertyOp19
 70
     1
102
RTVSPropertyOp20
 70
     1
102
RTVSPropertyOp21
 70
     1
102
RTVSPropertyOp22
 70
     1
102
RTVSPropertyOp23
 70
     1
102
RTVSPropertyOp24
 70
     1
102
RTVSPropertyOp25
 70
     1
102
RTVSPropertyOp26
 70
     1
102
RTVSPropertyOp27
 70
     1
102
RTVSPropertyOp28
 70
     1
102
RTVSPropertyOp29
 70
     1
102
RTVSPropertyOp30
 70
     1
102
RTVSPropertyOp31
 70
     1
102
RTVSPropertyOp32
 70
     1
102
RTVSPropertyOp33
 70
     1
102
RTVSPropertyOp34
 70
     1
102
RTVSPropertyOp35
 70
     1
102
RTVSPropertyOp36
 70
     1
102
RTVSPropertyOp37
 70
     1
102
RTVSPropertyOp38
 70
     1
102
RTVSPropertyOp39
 70
     1
102
RTVSPropertyOp40
 70
     1
102
RTVSPropertyOp41
 70
     1
102
RTVSPropertyOp42
 70
     1
102
RTVSPropertyOp43
 70
     1
102
RTVSPropertyOp44
 70
     1
102
RTVSPropertyOp45
 70
     1
102
RTVSPropertyOp46
 70
     1
102
RTVSPropertyOp47
 70
     1
102
RTVSPropertyOp48
 70
     1
102
RTVSPropertyOp49
 70
     1
102
RTVSPropertyOp50
 70
     1
102
RTVSPropertyOp51
 70
     0
102
RTVSPropertyOp52
 70
     0
102
RTVSPropertyOp53
 70
     1
102
RTVSPropertyOp54
 70
     1
102
RTVSPropertyOp55
 70
     1
102
RTVSPropertyOp56
 70
     1
102
RTVSPropertyOp57
 70
     1
102
RTVSPropertyOp58
 70
     1
102
RTVSPropertyOp59
 70
     1
102
RTVSPropertyOp60
 70
     1
102
RTVSPropertyOp61
 70
     1
102
RTVSPropertyOp62
 70
     1
  0
XRECORD
  5
A0CEC
102
{ACAD_REACTORS
330
A0CEB
102
}
330
A0CEB
100
AcDbXrecord
280
     1
102
RTVSPost2010Prop28
280
     0
102
RTVSPost2010PropOp28
 70
     1
102
RTVSPost2010Prop29
280
     1
102
RTVSPost2010PropOp29
 70
     1
102
RTVSPost2010Prop30
280
     1
102
RTVSPost2010PropOp30
 70
     1
102
RTVSPost2010Prop31
280
     0
102
RTVSPost2010PropOp31
 70
     1
102
RTVSPost2010Prop32
280
     0
102
RTVSPost2010PropOp32
 70
     1
102
RTVSPost2010Prop33
280
     0
102
RTVSPost2010PropOp33
 70
     1
102
RTVSPost2010Prop34
280
     0
102
RTVSPost2010PropOp34
 70
     1
102
RTVSPost2010Prop35
280
     0
102
RTVSPost2010PropOp35
 70
     1
102
RTVSPost2010Prop36
280
     0
102
RTVSPost2010PropOp36
 70
     1
102
RTVSPost2010Prop37
 90
       50
102
RTVSPost2010PropOp37
 70
     0
102
RTVSPost2010Prop38
140
0.0
102
RTVSPost2010PropOp38
 70
     0
102
RTVSPost2010Prop39
140
1.0
102
RTVSPost2010PropOp39
 70
     0
102
RTVSPost2010Prop40
 90
        0
102
RTVSPost2010PropOp40
 70
     0
102
RTVSPost2010Prop41ColorIndex
 90
       18
102
RTVSPost2010Prop41ColorRGB
 90
        0
102
RTVSPost2010PropOp41
 70
     0
102
RTVSPost2010Prop42
 90
       50
102
RTVSPost2010PropOp42
 70
     0
102
RTVSPost2010Prop43
 90
        3
102
RTVSPost2010PropOp43
 70
     0
102
RTVSPost2010Prop44ColorIndex
 90
        5
102
RTVSPost2010Prop44ColorRGB
 90
      255
102
RTVSPost2010PropOp44
 70
     0
102
RTVSPost2010Prop45
280
     0
102
RTVSPost2010PropOp45
 70
     1
102
RTVSPost2010Prop46
 90
       50
102
RTVSPost2010PropOp46
 70
     0
102
RTVSPost2010Prop47
 90
       50
102
RTVSPost2010PropOp47
 70
     0
102
RTVSPost2010Prop48
 90
       50
102
RTVSPost2010PropOp48
 70
     0
102
RTVSPost2010Prop49
280
     0
102
RTVSPost2010PropOp49
 70
     1
102
RTVSPost2010Prop50
 90
       50
102
RTVSPost2010PropOp50
 70
     0
102
RTVSPost2010Prop51ColorIndex
 90
      256
102
RTVSPost2010Prop51ColorRGB
 90
-16777216
102
RTVSPost2010PropOp51
 70
     0
102
RTVSPost2010Prop52
140
1.0
102
RTVSPost2010PropOp52
 70
     0
102
RTVSPost2010Prop53
 90
        2
102
RTVSPost2010PropOp53
 70
     0
102
RTVSPost2010Prop54
  1
strokes_ogs.tif
102
RTVSPost2010PropOp54
 70
     0
102
RTVSPost2010Prop55
280
     0
102
RTVSPost2010PropOp55
 70
     1
102
RTVSPost2010Prop56
140
1.0
102
RTVSPost2010PropOp56
 70
     0
102
RTVSPost2010Prop57
140
1.0
102
RTVSPost2010PropOp57
 70
     0
102
RTVSPropertyOp0
 70
     0
102
RTVSPropertyOp1
 70
     0
102
RTVSPropertyOp2
 70
     0
102
RTVSPropertyOp3
 70
     0
102
RTVSPropertyOp4
 70
     0
102
RTVSPropertyOp5
 70
     0
102
RTVSPropertyOp6
 70
     0
102
RTVSPropertyOp7
 70
     0
102
RTVSPropertyOp8
 70
     0
102
RTVSPropertyOp9
 70
     0
102
RTVSPropertyOp10
 70
     0
102
RTVSPropertyOp11
 70
     0
102
RTVSPropertyOp12
 70
     0
102
RTVSPropertyOp13
 70
     0
102
RTVSPropertyOp14
 70
     2
102
RTVSPropertyOp15
 70
     0
102
RTVSPropertyOp16
 70
     0
102
RTVSPropertyOp17
 70
     0
102
RTVSPropertyOp18
 70
     0
102
RTVSPropertyOp19
 70
     0
102
RTVSPropertyOp20
 70
     0
102
RTVSPropertyOp21
 70
     0
102
RTVSPropertyOp22
 70
     0
102
RTVSPropertyOp23
 70
     0
102
RTVSPropertyOp24
 70
     0
102
RTVSPropertyOp25
 70
     0
102
RTVSPropertyOp26
 70
     0
102
RTVSPropertyOp27
 70
     0
102
RTVSPropertyOp28
 70
     1
102
RTVSPropertyOp29
 70
     1
102
RTVSPropertyOp30
 70
     1
102
RTVSPropertyOp31
 70
     1
102
RTVSPropertyOp32
 70
     1
102
RTVSPropertyOp33
 70
     1
102
RTVSPropertyOp34
 70
     1
102
RTVSPropertyOp35
 70
     1
102
RTVSPropertyOp36
 70
     1
102
RTVSPropertyOp37
 70
     0
102
RTVSPropertyOp38
 70
     0
102
RTVSPropertyOp39
 70
     0
102
RTVSPropertyOp40
 70
     0
102
RTVSPropertyOp41
 70
     0
102
RTVSPropertyOp42
 70
     0
102
RTVSPropertyOp43
 70
     0
102
RTVSPropertyOp44
 70
     0
102
RTVSPropertyOp45
 70
     1
102
RTVSPropertyOp46
 70
     0
102
RTVSPropertyOp47
 70
     0
102
RTVSPropertyOp48
 70
     0
102
RTVSPropertyOp49
 70
     1
102
RTVSPropertyOp50
 70
     0
102
RTVSPropertyOp51
 70
     0
102
RTVSPropertyOp52
 70
     0
102
RTVSPropertyOp53
 70
     0
102
RTVSPropertyOp54
 70
     0
102
RTVSPropertyOp55
 70
     1
102
RTVSPropertyOp56
 70
     0
102
RTVSPropertyOp57
 70
     0
102
RTVSPropertyOp58
 70
     0
102
RTVSPropertyOp59
 70
     0
102
RTVSPropertyOp60
 70
     0
102
RTVSPropertyOp61
 70
     0
102
RTVSPropertyOp62
 70
     0
  0
XRECORD
  5
A0CD2
102
{ACAD_REACTORS
330
A0CD1
102
}
330
A0CD1
100
AcDbXrecord
280
     1
102
RTVSPost2010Prop28
280
     0
102
RTVSPost2010PropOp28
 70
     1
102
RTVSPost2010Prop29
280
     1
102
RTVSPost2010PropOp29
 70
     1
102
RTVSPost2010Prop30
280
     1
102
RTVSPost2010PropOp30
 70
     1
102
RTVSPost2010Prop31
280
     0
102
RTVSPost2010PropOp31
 70
     1
102
RTVSPost2010Prop32
280
     0
102
RTVSPost2010PropOp32
 70
     1
102
RTVSPost2010Prop33
280
     0
102
RTVSPost2010PropOp33
 70
     1
102
RTVSPost2010Prop34
280
     0
102
RTVSPost2010PropOp34
 70
     1
102
RTVSPost2010Prop35
280
     0
102
RTVSPost2010PropOp35
 70
     1
102
RTVSPost2010Prop36
280
     0
102
RTVSPost2010PropOp36
 70
     1
102
RTVSPost2010Prop37
 90
       50
102
RTVSPost2010PropOp37
 70
     1
102
RTVSPost2010Prop38
140
0.0
102
RTVSPost2010PropOp38
 70
     1
102
RTVSPost2010Prop39
140
1.0
102
RTVSPost2010PropOp39
 70
     1
102
RTVSPost2010Prop40
 90
        0
102
RTVSPost2010PropOp40
 70
     1
102
RTVSPost2010Prop41ColorIndex
 90
       18
102
RTVSPost2010Prop41ColorRGB
 90
        0
102
RTVSPost2010PropOp41
 70
     1
102
RTVSPost2010Prop42
 90
       50
102
RTVSPost2010PropOp42
 70
     1
102
RTVSPost2010Prop43
 90
        3
102
RTVSPost2010PropOp43
 70
     1
102
RTVSPost2010Prop44ColorIndex
 90
        5
102
RTVSPost2010Prop44ColorRGB
 90
      255
102
RTVSPost2010PropOp44
 70
     1
102
RTVSPost2010Prop45
280
     0
102
RTVSPost2010PropOp45
 70
     1
102
RTVSPost2010Prop46
 90
       50
102
RTVSPost2010PropOp46
 70
     1
102
RTVSPost2010Prop47
 90
       50
102
RTVSPost2010PropOp47
 70
     1
102
RTVSPost2010Prop48
 90
       50
102
RTVSPost2010PropOp48
 70
     1
102
RTVSPost2010Prop49
280
     0
102
RTVSPost2010PropOp49
 70
     1
102
RTVSPost2010Prop50
 90
       50
102
RTVSPost2010PropOp50
 70
     1
102
RTVSPost2010Prop51ColorIndex
 90
      256
102
RTVSPost2010Prop51ColorRGB
 90
-16777216
102
RTVSPost2010PropOp51
 70
     0
102
RTVSPost2010Prop52
140
1.0
102
RTVSPost2010PropOp52
 70
     0
102
RTVSPost2010Prop53
 90
        2
102
RTVSPost2010PropOp53
 70
     1
102
RTVSPost2010Prop54
  1
strokes_ogs.tif
102
RTVSPost2010PropOp54
 70
     1
102
RTVSPost2010Prop55
280
     0
102
RTVSPost2010PropOp55
 70
     1
102
RTVSPost2010Prop56
140
1.0
102
RTVSPost2010PropOp56
 70
     1
102
RTVSPost2010Prop57
140
1.0
102
RTVSPost2010PropOp57
 70
     1
102
RTVSPropertyOp0
 70
     1
102
RTVSPropertyOp1
 70
     1
102
RTVSPropertyOp2
 70
     1
102
RTVSPropertyOp3
 70
     1
102
RTVSPropertyOp4
 70
     1
102
RTVSPropertyOp5
 70
     1
102
RTVSPropertyOp6
 70
     1
102
RTVSPropertyOp7
 70
     1
102
RTVSPropertyOp8
 70
     1
102
RTVSPropertyOp9
 70
     1
102
RTVSPropertyOp10
 70
     1
102
RTVSPropertyOp11
 70
     1
102
RTVSPropertyOp12
 70
     1
102
RTVSPropertyOp13
 70
     1
102
RTVSPropertyOp14
 70
     1
102
RTVSPropertyOp15
 70
     1
102
RTVSPropertyOp16
 70
     1
102
RTVSPropertyOp17
 70
     1
102
RTVSPropertyOp18
 70
     1
102
RTVSPropertyOp19
 70
     1
102
RTVSPropertyOp20
 70
     1
102
RTVSPropertyOp21
 70
     1
102
RTVSPropertyOp22
 70
     1
102
RTVSPropertyOp23
 70
     1
102
RTVSPropertyOp24
 70
     1
102
RTVSPropertyOp25
 70
     1
102
RTVSPropertyOp26
 70
     1
102
RTVSPropertyOp27
 70
     1
102
RTVSPropertyOp28
 70
     1
102
RTVSPropertyOp29
 70
     1
102
RTVSPropertyOp30
 70
     1
102
RTVSPropertyOp31
 70
     1
102
RTVSPropertyOp32
 70
     1
102
RTVSPropertyOp33
 70
     1
102
RTVSPropertyOp34
 70
     1
102
RTVSPropertyOp35
 70
     1
102
RTVSPropertyOp36
 70
     1
102
RTVSPropertyOp37
 70
     1
102
RTVSPropertyOp38
 70
     1
102
RTVSPropertyOp39
 70
     1
102
RTVSPropertyOp40
 70
     1
102
RTVSPropertyOp41
 70
     1
102
RTVSPropertyOp42
 70
     1
102
RTVSPropertyOp43
 70
     1
102
RTVSPropertyOp44
 70
     1
102
RTVSPropertyOp45
 70
     1
102
RTVSPropertyOp46
 70
     1
102
RTVSPropertyOp47
 70
     1
102
RTVSPropertyOp48
 70
     1
102
RTVSPropertyOp49
 70
     1
102
RTVSPropertyOp50
 70
     1
102
RTVSPropertyOp51
 70
     0
102
RTVSPropertyOp52
 70
     0
102
RTVSPropertyOp53
 70
     1
102
RTVSPropertyOp54
 70
     1
102
RTVSPropertyOp55
 70
     1
102
RTVSPropertyOp56
 70
     1
102
RTVSPropertyOp57
 70
     1
102
RTVSPropertyOp58
 70
     1
102
RTVSPropertyOp59
 70
     1
102
RTVSPropertyOp60
 70
     1
102
RTVSPropertyOp61
 70
     1
102
RTVSPropertyOp62
 70
     1
  0
XRECORD
  5
A0CE8
102
{ACAD_REACTORS
330
A0CE7
102
}
330
A0CE7
100
AcDbXrecord
280
     1
102
RTVSPost2010Prop28
280
     0
102
RTVSPost2010PropOp28
 70
     1
102
RTVSPost2010Prop29
280
     1
102
RTVSPost2010PropOp29
 70
     1
102
RTVSPost2010Prop30
280
     1
102
RTVSPost2010PropOp30
 70
     1
102
RTVSPost2010Prop31
280
     0
102
RTVSPost2010PropOp31
 70
     1
102
RTVSPost2010Prop32
280
     0
102
RTVSPost2010PropOp32
 70
     1
102
RTVSPost2010Prop33
280
     0
102
RTVSPost2010PropOp33
 70
     1
102
RTVSPost2010Prop34
280
     0
102
RTVSPost2010PropOp34
 70
     1
102
RTVSPost2010Prop35
280
     0
102
RTVSPost2010PropOp35
 70
     1
102
RTVSPost2010Prop36
280
     0
102
RTVSPost2010PropOp36
 70
     1
102
RTVSPost2010Prop37
 90
       50
102
RTVSPost2010PropOp37
 70
     1
102
RTVSPost2010Prop38
140
0.0
102
RTVSPost2010PropOp38
 70
     1
102
RTVSPost2010Prop39
140
1.0
102
RTVSPost2010PropOp39
 70
     1
102
RTVSPost2010Prop40
 90
        0
102
RTVSPost2010PropOp40
 70
     1
102
RTVSPost2010Prop41ColorIndex
 90
       18
102
RTVSPost2010Prop41ColorRGB
 90
        0
102
RTVSPost2010PropOp41
 70
     1
102
RTVSPost2010Prop42
 90
       50
102
RTVSPost2010PropOp42
 70
     1
102
RTVSPost2010Prop43
 90
        3
102
RTVSPost2010PropOp43
 70
     1
102
RTVSPost2010Prop44ColorIndex
 90
        5
102
RTVSPost2010Prop44ColorRGB
 90
      255
102
RTVSPost2010PropOp44
 70
     1
102
RTVSPost2010Prop45
280
     0
102
RTVSPost2010PropOp45
 70
     1
102
RTVSPost2010Prop46
 90
       50
102
RTVSPost2010PropOp46
 70
     1
102
RTVSPost2010Prop47
 90
       50
102
RTVSPost2010PropOp47
 70
     1
102
RTVSPost2010Prop48
 90
       50
102
RTVSPost2010PropOp48
 70
     1
102
RTVSPost2010Prop49
280
     0
102
RTVSPost2010PropOp49
 70
     1
102
RTVSPost2010Prop50
 90
       50
102
RTVSPost2010PropOp50
 70
     1
102
RTVSPost2010Prop51ColorIndex
 90
      256
102
RTVSPost2010Prop51ColorRGB
 90
-16777216
102
RTVSPost2010PropOp51
 70
     0
102
RTVSPost2010Prop52
140
1.0
102
RTVSPost2010PropOp52
 70
     0
102
RTVSPost2010Prop53
 90
        2
102
RTVSPost2010PropOp53
 70
     1
102
RTVSPost2010Prop54
  1
strokes_ogs.tif
102
RTVSPost2010PropOp54
 70
     1
102
RTVSPost2010Prop55
280
     0
102
RTVSPost2010PropOp55
 70
     1
102
RTVSPost2010Prop56
140
1.0
102
RTVSPost2010PropOp56
 70
     1
102
RTVSPost2010Prop57
140
1.0
102
RTVSPost2010PropOp57
 70
     1
102
RTVSPropertyOp0
 70
     1
102
RTVSPropertyOp1
 70
     1
102
RTVSPropertyOp2
 70
     1
102
RTVSPropertyOp3
 70
     1
102
RTVSPropertyOp4
 70
     1
102
RTVSPropertyOp5
 70
     1
102
RTVSPropertyOp6
 70
     1
102
RTVSPropertyOp7
 70
     1
102
RTVSPropertyOp8
 70
     1
102
RTVSPropertyOp9
 70
     1
102
RTVSPropertyOp10
 70
     1
102
RTVSPropertyOp11
 70
     1
102
RTVSPropertyOp12
 70
     1
102
RTVSPropertyOp13
 70
     1
102
RTVSPropertyOp14
 70
     1
102
RTVSPropertyOp15
 70
     1
102
RTVSPropertyOp16
 70
     1
102
RTVSPropertyOp17
 70
     1
102
RTVSPropertyOp18
 70
     1
102
RTVSPropertyOp19
 70
     1
102
RTVSPropertyOp20
 70
     1
102
RTVSPropertyOp21
 70
     1
102
RTVSPropertyOp22
 70
     1
102
RTVSPropertyOp23
 70
     1
102
RTVSPropertyOp24
 70
     1
102
RTVSPropertyOp25
 70
     1
102
RTVSPropertyOp26
 70
     1
102
RTVSPropertyOp27
 70
     1
102
RTVSPropertyOp28
 70
     1
102
RTVSPropertyOp29
 70
     1
102
RTVSPropertyOp30
 70
     1
102
RTVSPropertyOp31
 70
     1
102
RTVSPropertyOp32
 70
     1
102
RTVSPropertyOp33
 70
     1
102
RTVSPropertyOp34
 70
     1
102
RTVSPropertyOp35
 70
     1
102
RTVSPropertyOp36
 70
     1
102
RTVSPropertyOp37
 70
     1
102
RTVSPropertyOp38
 70
     1
102
RTVSPropertyOp39
 70
     1
102
RTVSPropertyOp40
 70
     1
102
RTVSPropertyOp41
 70
     1
102
RTVSPropertyOp42
 70
     1
102
RTVSPropertyOp43
 70
     1
102
RTVSPropertyOp44
 70
     1
102
RTVSPropertyOp45
 70
     1
102
RTVSPropertyOp46
 70
     1
102
RTVSPropertyOp47
 70
     1
102
RTVSPropertyOp48
 70
     1
102
RTVSPropertyOp49
 70
     1
102
RTVSPropertyOp50
 70
     1
102
RTVSPropertyOp51
 70
     0
102
RTVSPropertyOp52
 70
     0
102
RTVSPropertyOp53
 70
     1
102
RTVSPropertyOp54
 70
     1
102
RTVSPropertyOp55
 70
     1
102
RTVSPropertyOp56
 70
     1
102
RTVSPropertyOp57
 70
     1
102
RTVSPropertyOp58
 70
     1
102
RTVSPropertyOp59
 70
     1
102
RTVSPropertyOp60
 70
     1
102
RTVSPropertyOp61
 70
     1
102
RTVSPropertyOp62
 70
     1
  0
XRECORD
  5
A0CE6
102
{ACAD_REACTORS
330
A0CE5
102
}
330
A0CE5
100
AcDbXrecord
280
     1
102
RTVSPost2010Prop28
280
     0
102
RTVSPost2010PropOp28
 70
     1
102
RTVSPost2010Prop29
280
     1
102
RTVSPost2010PropOp29
 70
     1
102
RTVSPost2010Prop30
280
     1
102
RTVSPost2010PropOp30
 70
     1
102
RTVSPost2010Prop31
280
     0
102
RTVSPost2010PropOp31
 70
     1
102
RTVSPost2010Prop32
280
     0
102
RTVSPost2010PropOp32
 70
     1
102
RTVSPost2010Prop33
280
     0
102
RTVSPost2010PropOp33
 70
     1
102
RTVSPost2010Prop34
280
     0
102
RTVSPost2010PropOp34
 70
     1
102
RTVSPost2010Prop35
280
     0
102
RTVSPost2010PropOp35
 70
     1
102
RTVSPost2010Prop36
280
     0
102
RTVSPost2010PropOp36
 70
     1
102
RTVSPost2010Prop37
 90
       50
102
RTVSPost2010PropOp37
 70
     1
102
RTVSPost2010Prop38
140
0.0
102
RTVSPost2010PropOp38
 70
     1
102
RTVSPost2010Prop39
140
1.0
102
RTVSPost2010PropOp39
 70
     1
102
RTVSPost2010Prop40
 90
        0
102
RTVSPost2010PropOp40
 70
     1
102
RTVSPost2010Prop41ColorIndex
 90
       18
102
RTVSPost2010Prop41ColorRGB
 90
        0
102
RTVSPost2010PropOp41
 70
     1
102
RTVSPost2010Prop42
 90
       50
102
RTVSPost2010PropOp42
 70
     1
102
RTVSPost2010Prop43
 90
        3
102
RTVSPost2010PropOp43
 70
     1
102
RTVSPost2010Prop44ColorIndex
 90
        5
102
RTVSPost2010Prop44ColorRGB
 90
      255
102
RTVSPost2010PropOp44
 70
     1
102
RTVSPost2010Prop45
280
     0
102
RTVSPost2010PropOp45
 70
     1
102
RTVSPost2010Prop46
 90
       50
102
RTVSPost2010PropOp46
 70
     1
102
RTVSPost2010Prop47
 90
       50
102
RTVSPost2010PropOp47
 70
     1
102
RTVSPost2010Prop48
 90
       50
102
RTVSPost2010PropOp48
 70
     1
102
RTVSPost2010Prop49
280
     0
102
RTVSPost2010PropOp49
 70
     1
102
RTVSPost2010Prop50
 90
       50
102
RTVSPost2010PropOp50
 70
     1
102
RTVSPost2010Prop51ColorIndex
 90
      256
102
RTVSPost2010Prop51ColorRGB
 90
-16777216
102
RTVSPost2010PropOp51
 70
     0
102
RTVSPost2010Prop52
140
1.0
102
RTVSPost2010PropOp52
 70
     0
102
RTVSPost2010Prop53
 90
        2
102
RTVSPost2010PropOp53
 70
     1
102
RTVSPost2010Prop54
  1
strokes_ogs.tif
102
RTVSPost2010PropOp54
 70
     1
102
RTVSPost2010Prop55
280
     0
102
RTVSPost2010PropOp55
 70
     1
102
RTVSPost2010Prop56
140
1.0
102
RTVSPost2010PropOp56
 70
     1
102
RTVSPost2010Prop57
140
1.0
102
RTVSPost2010PropOp57
 70
     1
102
RTVSPropertyOp0
 70
     1
102
RTVSPropertyOp1
 70
     1
102
RTVSPropertyOp2
 70
     1
102
RTVSPropertyOp3
 70
     1
102
RTVSPropertyOp4
 70
     1
102
RTVSPropertyOp5
 70
     1
102
RTVSPropertyOp6
 70
     1
102
RTVSPropertyOp7
 70
     1
102
RTVSPropertyOp8
 70
     1
102
RTVSPropertyOp9
 70
     1
102
RTVSPropertyOp10
 70
     1
102
RTVSPropertyOp11
 70
     1
102
RTVSPropertyOp12
 70
     1
102
RTVSPropertyOp13
 70
     1
102
RTVSPropertyOp14
 70
     1
102
RTVSPropertyOp15
 70
     1
102
RTVSPropertyOp16
 70
     1
102
RTVSPropertyOp17
 70
     1
102
RTVSPropertyOp18
 70
     1
102
RTVSPropertyOp19
 70
     1
102
RTVSPropertyOp20
 70
     1
102
RTVSPropertyOp21
 70
     1
102
RTVSPropertyOp22
 70
     1
102
RTVSPropertyOp23
 70
     1
102
RTVSPropertyOp24
 70
     1
102
RTVSPropertyOp25
 70
     1
102
RTVSPropertyOp26
 70
     1
102
RTVSPropertyOp27
 70
     1
102
RTVSPropertyOp28
 70
     1
102
RTVSPropertyOp29
 70
     1
102
RTVSPropertyOp30
 70
     1
102
RTVSPropertyOp31
 70
     1
102
RTVSPropertyOp32
 70
     1
102
RTVSPropertyOp33
 70
     1
102
RTVSPropertyOp34
 70
     1
102
RTVSPropertyOp35
 70
     1
102
RTVSPropertyOp36
 70
     1
102
RTVSPropertyOp37
 70
     1
102
RTVSPropertyOp38
 70
     1
102
RTVSPropertyOp39
 70
     1
102
RTVSPropertyOp40
 70
     1
102
RTVSPropertyOp41
 70
     1
102
RTVSPropertyOp42
 70
     1
102
RTVSPropertyOp43
 70
     1
102
RTVSPropertyOp44
 70
     1
102
RTVSPropertyOp45
 70
     1
102
RTVSPropertyOp46
 70
     1
102
RTVSPropertyOp47
 70
     1
102
RTVSPropertyOp48
 70
     1
102
RTVSPropertyOp49
 70
     1
102
RTVSPropertyOp50
 70
     1
102
RTVSPropertyOp51
 70
     0
102
RTVSPropertyOp52
 70
     0
102
RTVSPropertyOp53
 70
     1
102
RTVSPropertyOp54
 70
     1
102
RTVSPropertyOp55
 70
     1
102
RTVSPropertyOp56
 70
     1
102
RTVSPropertyOp57
 70
     1
102
RTVSPropertyOp58
 70
     1
102
RTVSPropertyOp59
 70
     1
102
RTVSPropertyOp60
 70
     1
102
RTVSPropertyOp61
 70
     1
102
RTVSPropertyOp62
 70
     1
  0
XRECORD
  5
A0CE0
102
{ACAD_REACTORS
330
A0CDF
102
}
330
A0CDF
100
AcDbXrecord
280
     1
102
RTVSPost2010Prop28
280
     0
102
RTVSPost2010PropOp28
 70
     1
102
RTVSPost2010Prop29
280
     1
102
RTVSPost2010PropOp29
 70
     1
102
RTVSPost2010Prop30
280
     1
102
RTVSPost2010PropOp30
 70
     1
102
RTVSPost2010Prop31
280
     0
102
RTVSPost2010PropOp31
 70
     1
102
RTVSPost2010Prop32
280
     0
102
RTVSPost2010PropOp32
 70
     1
102
RTVSPost2010Prop33
280
     0
102
RTVSPost2010PropOp33
 70
     1
102
RTVSPost2010Prop34
280
     0
102
RTVSPost2010PropOp34
 70
     1
102
RTVSPost2010Prop35
280
     0
102
RTVSPost2010PropOp35
 70
     1
102
RTVSPost2010Prop36
280
     0
102
RTVSPost2010PropOp36
 70
     1
102
RTVSPost2010Prop37
 90
       50
102
RTVSPost2010PropOp37
 70
     1
102
RTVSPost2010Prop38
140
0.0
102
RTVSPost2010PropOp38
 70
     1
102
RTVSPost2010Prop39
140
1.0
102
RTVSPost2010PropOp39
 70
     1
102
RTVSPost2010Prop40
 90
        0
102
RTVSPost2010PropOp40
 70
     1
102
RTVSPost2010Prop41ColorIndex
 90
       18
102
RTVSPost2010Prop41ColorRGB
 90
        0
102
RTVSPost2010PropOp41
 70
     1
102
RTVSPost2010Prop42
 90
       50
102
RTVSPost2010PropOp42
 70
     1
102
RTVSPost2010Prop43
 90
        3
102
RTVSPost2010PropOp43
 70
     1
102
RTVSPost2010Prop44ColorIndex
 90
        5
102
RTVSPost2010Prop44ColorRGB
 90
      255
102
RTVSPost2010PropOp44
 70
     1
102
RTVSPost2010Prop45
280
     0
102
RTVSPost2010PropOp45
 70
     1
102
RTVSPost2010Prop46
 90
       50
102
RTVSPost2010PropOp46
 70
     1
102
RTVSPost2010Prop47
 90
       50
102
RTVSPost2010PropOp47
 70
     1
102
RTVSPost2010Prop48
 90
       50
102
RTVSPost2010PropOp48
 70
     1
102
RTVSPost2010Prop49
280
     0
102
RTVSPost2010PropOp49
 70
     1
102
RTVSPost2010Prop50
 90
       50
102
RTVSPost2010PropOp50
 70
     1
102
RTVSPost2010Prop51ColorIndex
 90
      256
102
RTVSPost2010Prop51ColorRGB
 90
-16777216
102
RTVSPost2010PropOp51
 70
     0
102
RTVSPost2010Prop52
140
1.0
102
RTVSPost2010PropOp52
 70
     0
102
RTVSPost2010Prop53
 90
        2
102
RTVSPost2010PropOp53
 70
     1
102
RTVSPost2010Prop54
  1
strokes_ogs.tif
102
RTVSPost2010PropOp54
 70
     1
102
RTVSPost2010Prop55
280
     0
102
RTVSPost2010PropOp55
 70
     1
102
RTVSPost2010Prop56
140
1.0
102
RTVSPost2010PropOp56
 70
     1
102
RTVSPost2010Prop57
140
1.0
102
RTVSPost2010PropOp57
 70
     1
102
RTVSPropertyOp0
 70
     1
102
RTVSPropertyOp1
 70
     1
102
RTVSPropertyOp2
 70
     1
102
RTVSPropertyOp3
 70
     1
102
RTVSPropertyOp4
 70
     1
102
RTVSPropertyOp5
 70
     1
102
RTVSPropertyOp6
 70
     1
102
RTVSPropertyOp7
 70
     1
102
RTVSPropertyOp8
 70
     1
102
RTVSPropertyOp9
 70
     1
102
RTVSPropertyOp10
 70
     1
102
RTVSPropertyOp11
 70
     1
102
RTVSPropertyOp12
 70
     1
102
RTVSPropertyOp13
 70
     1
102
RTVSPropertyOp14
 70
     1
102
RTVSPropertyOp15
 70
     1
102
RTVSPropertyOp16
 70
     1
102
RTVSPropertyOp17
 70
     1
102
RTVSPropertyOp18
 70
     1
102
RTVSPropertyOp19
 70
     1
102
RTVSPropertyOp20
 70
     1
102
RTVSPropertyOp21
 70
     1
102
RTVSPropertyOp22
 70
     1
102
RTVSPropertyOp23
 70
     1
102
RTVSPropertyOp24
 70
     1
102
RTVSPropertyOp25
 70
     1
102
RTVSPropertyOp26
 70
     1
102
RTVSPropertyOp27
 70
     1
102
RTVSPropertyOp28
 70
     1
102
RTVSPropertyOp29
 70
     1
102
RTVSPropertyOp30
 70
     1
102
RTVSPropertyOp31
 70
     1
102
RTVSPropertyOp32
 70
     1
102
RTVSPropertyOp33
 70
     1
102
RTVSPropertyOp34
 70
     1
102
RTVSPropertyOp35
 70
     1
102
RTVSPropertyOp36
 70
     1
102
RTVSPropertyOp37
 70
     1
102
RTVSPropertyOp38
 70
     1
102
RTVSPropertyOp39
 70
     1
102
RTVSPropertyOp40
 70
     1
102
RTVSPropertyOp41
 70
     1
102
RTVSPropertyOp42
 70
     1
102
RTVSPropertyOp43
 70
     1
102
RTVSPropertyOp44
 70
     1
102
RTVSPropertyOp45
 70
     1
102
RTVSPropertyOp46
 70
     1
102
RTVSPropertyOp47
 70
     1
102
RTVSPropertyOp48
 70
     1
102
RTVSPropertyOp49
 70
     1
102
RTVSPropertyOp50
 70
     1
102
RTVSPropertyOp51
 70
     0
102
RTVSPropertyOp52
 70
     0
102
RTVSPropertyOp53
 70
     1
102
RTVSPropertyOp54
 70
     1
102
RTVSPropertyOp55
 70
     1
102
RTVSPropertyOp56
 70
     1
102
RTVSPropertyOp57
 70
     1
102
RTVSPropertyOp58
 70
     1
102
RTVSPropertyOp59
 70
     1
102
RTVSPropertyOp60
 70
     1
102
RTVSPropertyOp61
 70
     1
102
RTVSPropertyOp62
 70
     1
  0
XRECORD
  5
A0CE2
102
{ACAD_REACTORS
330
A0CE1
102
}
330
A0CE1
100
AcDbXrecord
280
     1
102
RTVSPost2010Prop28
280
     0
102
RTVSPost2010PropOp28
 70
     1
102
RTVSPost2010Prop29
280
     1
102
RTVSPost2010PropOp29
 70
     1
102
RTVSPost2010Prop30
280
     1
102
RTVSPost2010PropOp30
 70
     1
102
RTVSPost2010Prop31
280
     0
102
RTVSPost2010PropOp31
 70
     1
102
RTVSPost2010Prop32
280
     0
102
RTVSPost2010PropOp32
 70
     1
102
RTVSPost2010Prop33
280
     0
102
RTVSPost2010PropOp33
 70
     1
102
RTVSPost2010Prop34
280
     0
102
RTVSPost2010PropOp34
 70
     1
102
RTVSPost2010Prop35
280
     0
102
RTVSPost2010PropOp35
 70
     1
102
RTVSPost2010Prop36
280
     0
102
RTVSPost2010PropOp36
 70
     1
102
RTVSPost2010Prop37
 90
       50
102
RTVSPost2010PropOp37
 70
     1
102
RTVSPost2010Prop38
140
0.0
102
RTVSPost2010PropOp38
 70
     1
102
RTVSPost2010Prop39
140
1.0
102
RTVSPost2010PropOp39
 70
     1
102
RTVSPost2010Prop40
 90
        0
102
RTVSPost2010PropOp40
 70
     1
102
RTVSPost2010Prop41ColorIndex
 90
       18
102
RTVSPost2010Prop41ColorRGB
 90
        0
102
RTVSPost2010PropOp41
 70
     1
102
RTVSPost2010Prop42
 90
       50
102
RTVSPost2010PropOp42
 70
     1
102
RTVSPost2010Prop43
 90
        3
102
RTVSPost2010PropOp43
 70
     1
102
RTVSPost2010Prop44ColorIndex
 90
        5
102
RTVSPost2010Prop44ColorRGB
 90
      255
102
RTVSPost2010PropOp44
 70
     1
102
RTVSPost2010Prop45
280
     0
102
RTVSPost2010PropOp45
 70
     1
102
RTVSPost2010Prop46
 90
       50
102
RTVSPost2010PropOp46
 70
     1
102
RTVSPost2010Prop47
 90
       50
102
RTVSPost2010PropOp47
 70
     1
102
RTVSPost2010Prop48
 90
       50
102
RTVSPost2010PropOp48
 70
     1
102
RTVSPost2010Prop49
280
     0
102
RTVSPost2010PropOp49
 70
     1
102
RTVSPost2010Prop50
 90
       50
102
RTVSPost2010PropOp50
 70
     1
102
RTVSPost2010Prop51ColorIndex
 90
      256
102
RTVSPost2010Prop51ColorRGB
 90
-16777216
102
RTVSPost2010PropOp51
 70
     0
102
RTVSPost2010Prop52
140
1.0
102
RTVSPost2010PropOp52
 70
     0
102
RTVSPost2010Prop53
 90
        2
102
RTVSPost2010PropOp53
 70
     1
102
RTVSPost2010Prop54
  1
strokes_ogs.tif
102
RTVSPost2010PropOp54
 70
     1
102
RTVSPost2010Prop55
280
     0
102
RTVSPost2010PropOp55
 70
     1
102
RTVSPost2010Prop56
140
1.0
102
RTVSPost2010PropOp56
 70
     1
102
RTVSPost2010Prop57
140
1.0
102
RTVSPost2010PropOp57
 70
     1
102
RTVSPropertyOp0
 70
     1
102
RTVSPropertyOp1
 70
     1
102
RTVSPropertyOp2
 70
     1
102
RTVSPropertyOp3
 70
     1
102
RTVSPropertyOp4
 70
     1
102
RTVSPropertyOp5
 70
     1
102
RTVSPropertyOp6
 70
     1
102
RTVSPropertyOp7
 70
     1
102
RTVSPropertyOp8
 70
     1
102
RTVSPropertyOp9
 70
     1
102
RTVSPropertyOp10
 70
     1
102
RTVSPropertyOp11
 70
     1
102
RTVSPropertyOp12
 70
     1
102
RTVSPropertyOp13
 70
     1
102
RTVSPropertyOp14
 70
     1
102
RTVSPropertyOp15
 70
     1
102
RTVSPropertyOp16
 70
     1
102
RTVSPropertyOp17
 70
     1
102
RTVSPropertyOp18
 70
     1
102
RTVSPropertyOp19
 70
     1
102
RTVSPropertyOp20
 70
     1
102
RTVSPropertyOp21
 70
     1
102
RTVSPropertyOp22
 70
     1
102
RTVSPropertyOp23
 70
     1
102
RTVSPropertyOp24
 70
     1
102
RTVSPropertyOp25
 70
     1
102
RTVSPropertyOp26
 70
     1
102
RTVSPropertyOp27
 70
     1
102
RTVSPropertyOp28
 70
     1
102
RTVSPropertyOp29
 70
     1
102
RTVSPropertyOp30
 70
     1
102
RTVSPropertyOp31
 70
     1
102
RTVSPropertyOp32
 70
     1
102
RTVSPropertyOp33
 70
     1
102
RTVSPropertyOp34
 70
     1
102
RTVSPropertyOp35
 70
     1
102
RTVSPropertyOp36
 70
     1
102
RTVSPropertyOp37
 70
     1
102
RTVSPropertyOp38
 70
     1
102
RTVSPropertyOp39
 70
     1
102
RTVSPropertyOp40
 70
     1
102
RTVSPropertyOp41
 70
     1
102
RTVSPropertyOp42
 70
     1
102
RTVSPropertyOp43
 70
     1
102
RTVSPropertyOp44
 70
     1
102
RTVSPropertyOp45
 70
     1
102
RTVSPropertyOp46
 70
     1
102
RTVSPropertyOp47
 70
     1
102
RTVSPropertyOp48
 70
     1
102
RTVSPropertyOp49
 70
     1
102
RTVSPropertyOp50
 70
     1
102
RTVSPropertyOp51
 70
     0
102
RTVSPropertyOp52
 70
     0
102
RTVSPropertyOp53
 70
     1
102
RTVSPropertyOp54
 70
     1
102
RTVSPropertyOp55
 70
     1
102
RTVSPropertyOp56
 70
     1
102
RTVSPropertyOp57
 70
     1
102
RTVSPropertyOp58
 70
     1
102
RTVSPropertyOp59
 70
     1
102
RTVSPropertyOp60
 70
     1
102
RTVSPropertyOp61
 70
     1
102
RTVSPropertyOp62
 70
     1
  0
XRECORD
  5
A0CD8
102
{ACAD_REACTORS
330
A0CD7
102
}
330
A0CD7
100
AcDbXrecord
280
     1
102
RTVSPost2010Prop28
280
     0
102
RTVSPost2010PropOp28
 70
     1
102
RTVSPost2010Prop29
280
     1
102
RTVSPost2010PropOp29
 70
     1
102
RTVSPost2010Prop30
280
     1
102
RTVSPost2010PropOp30
 70
     1
102
RTVSPost2010Prop31
280
     0
102
RTVSPost2010PropOp31
 70
     1
102
RTVSPost2010Prop32
280
     0
102
RTVSPost2010PropOp32
 70
     1
102
RTVSPost2010Prop33
280
     0
102
RTVSPost2010PropOp33
 70
     1
102
RTVSPost2010Prop34
280
     0
102
RTVSPost2010PropOp34
 70
     1
102
RTVSPost2010Prop35
280
     0
102
RTVSPost2010PropOp35
 70
     1
102
RTVSPost2010Prop36
280
     0
102
RTVSPost2010PropOp36
 70
     1
102
RTVSPost2010Prop37
 90
       50
102
RTVSPost2010PropOp37
 70
     1
102
RTVSPost2010Prop38
140
0.0
102
RTVSPost2010PropOp38
 70
     1
102
RTVSPost2010Prop39
140
1.0
102
RTVSPost2010PropOp39
 70
     1
102
RTVSPost2010Prop40
 90
        0
102
RTVSPost2010PropOp40
 70
     1
102
RTVSPost2010Prop41ColorIndex
 90
       18
102
RTVSPost2010Prop41ColorRGB
 90
        0
102
RTVSPost2010PropOp41
 70
     1
102
RTVSPost2010Prop42
 90
       50
102
RTVSPost2010PropOp42
 70
     1
102
RTVSPost2010Prop43
 90
        3
102
RTVSPost2010PropOp43
 70
     1
102
RTVSPost2010Prop44ColorIndex
 90
        5
102
RTVSPost2010Prop44ColorRGB
 90
      255
102
RTVSPost2010PropOp44
 70
     1
102
RTVSPost2010Prop45
280
     0
102
RTVSPost2010PropOp45
 70
     1
102
RTVSPost2010Prop46
 90
       50
102
RTVSPost2010PropOp46
 70
     1
102
RTVSPost2010Prop47
 90
       50
102
RTVSPost2010PropOp47
 70
     1
102
RTVSPost2010Prop48
 90
       50
102
RTVSPost2010PropOp48
 70
     1
102
RTVSPost2010Prop49
280
     0
102
RTVSPost2010PropOp49
 70
     1
102
RTVSPost2010Prop50
 90
       50
102
RTVSPost2010PropOp50
 70
     1
102
RTVSPost2010Prop51ColorIndex
 90
      256
102
RTVSPost2010Prop51ColorRGB
 90
-16777216
102
RTVSPost2010PropOp51
 70
     0
102
RTVSPost2010Prop52
140
1.0
102
RTVSPost2010PropOp52
 70
     0
102
RTVSPost2010Prop53
 90
        2
102
RTVSPost2010PropOp53
 70
     1
102
RTVSPost2010Prop54
  1
strokes_ogs.tif
102
RTVSPost2010PropOp54
 70
     1
102
RTVSPost2010Prop55
280
     0
102
RTVSPost2010PropOp55
 70
     1
102
RTVSPost2010Prop56
140
1.0
102
RTVSPost2010PropOp56
 70
     1
102
RTVSPost2010Prop57
140
1.0
102
RTVSPost2010PropOp57
 70
     1
102
RTVSPropertyOp0
 70
     1
102
RTVSPropertyOp1
 70
     1
102
RTVSPropertyOp2
 70
     1
102
RTVSPropertyOp3
 70
     1
102
RTVSPropertyOp4
 70
     1
102
RTVSPropertyOp5
 70
     1
102
RTVSPropertyOp6
 70
     1
102
RTVSPropertyOp7
 70
     1
102
RTVSPropertyOp8
 70
     1
102
RTVSPropertyOp9
 70
     1
102
RTVSPropertyOp10
 70
     1
102
RTVSPropertyOp11
 70
     1
102
RTVSPropertyOp12
 70
     1
102
RTVSPropertyOp13
 70
     1
102
RTVSPropertyOp14
 70
     1
102
RTVSPropertyOp15
 70
     1
102
RTVSPropertyOp16
 70
     1
102
RTVSPropertyOp17
 70
     1
102
RTVSPropertyOp18
 70
     1
102
RTVSPropertyOp19
 70
     1
102
RTVSPropertyOp20
 70
     1
102
RTVSPropertyOp21
 70
     1
102
RTVSPropertyOp22
 70
     1
102
RTVSPropertyOp23
 70
     1
102
RTVSPropertyOp24
 70
     1
102
RTVSPropertyOp25
 70
     1
102
RTVSPropertyOp26
 70
     1
102
RTVSPropertyOp27
 70
     1
102
RTVSPropertyOp28
 70
     1
102
RTVSPropertyOp29
 70
     1
102
RTVSPropertyOp30
 70
     1
102
RTVSPropertyOp31
 70
     1
102
RTVSPropertyOp32
 70
     1
102
RTVSPropertyOp33
 70
     1
102
RTVSPropertyOp34
 70
     1
102
RTVSPropertyOp35
 70
     1
102
RTVSPropertyOp36
 70
     1
102
RTVSPropertyOp37
 70
     1
102
RTVSPropertyOp38
 70
     1
102
RTVSPropertyOp39
 70
     1
102
RTVSPropertyOp40
 70
     1
102
RTVSPropertyOp41
 70
     1
102
RTVSPropertyOp42
 70
     1
102
RTVSPropertyOp43
 70
     1
102
RTVSPropertyOp44
 70
     1
102
RTVSPropertyOp45
 70
     1
102
RTVSPropertyOp46
 70
     1
102
RTVSPropertyOp47
 70
     1
102
RTVSPropertyOp48
 70
     1
102
RTVSPropertyOp49
 70
     1
102
RTVSPropertyOp50
 70
     1
102
RTVSPropertyOp51
 70
     0
102
RTVSPropertyOp52
 70
     0
102
RTVSPropertyOp53
 70
     1
102
RTVSPropertyOp54
 70
     1
102
RTVSPropertyOp55
 70
     1
102
RTVSPropertyOp56
 70
     1
102
RTVSPropertyOp57
 70
     1
102
RTVSPropertyOp58
 70
     1
102
RTVSPropertyOp59
 70
     1
102
RTVSPropertyOp60
 70
     1
102
RTVSPropertyOp61
 70
     1
102
RTVSPropertyOp62
 70
     1
  0
XRECORD
  5
A0CCC
102
{ACAD_REACTORS
330
A0CCB
102
}
330
A0CCB
100
AcDbXrecord
280
     1
102
RTVSPost2010Prop28
280
     0
102
RTVSPost2010PropOp28
 70
     1
102
RTVSPost2010Prop29
280
     1
102
RTVSPost2010PropOp29
 70
     1
102
RTVSPost2010Prop30
280
     1
102
RTVSPost2010PropOp30
 70
     1
102
RTVSPost2010Prop31
280
     0
102
RTVSPost2010PropOp31
 70
     1
102
RTVSPost2010Prop32
280
     0
102
RTVSPost2010PropOp32
 70
     1
102
RTVSPost2010Prop33
280
     0
102
RTVSPost2010PropOp33
 70
     1
102
RTVSPost2010Prop34
280
     0
102
RTVSPost2010PropOp34
 70
     1
102
RTVSPost2010Prop35
280
     0
102
RTVSPost2010PropOp35
 70
     1
102
RTVSPost2010Prop36
280
     0
102
RTVSPost2010PropOp36
 70
     1
102
RTVSPost2010Prop37
 90
       50
102
RTVSPost2010PropOp37
 70
     1
102
RTVSPost2010Prop38
140
0.0
102
RTVSPost2010PropOp38
 70
     1
102
RTVSPost2010Prop39
140
1.0
102
RTVSPost2010PropOp39
 70
     1
102
RTVSPost2010Prop40
 90
        0
102
RTVSPost2010PropOp40
 70
     1
102
RTVSPost2010Prop41ColorIndex
 90
       18
102
RTVSPost2010Prop41ColorRGB
 90
        0
102
RTVSPost2010PropOp41
 70
     1
102
RTVSPost2010Prop42
 90
       50
102
RTVSPost2010PropOp42
 70
     1
102
RTVSPost2010Prop43
 90
        3
102
RTVSPost2010PropOp43
 70
     1
102
RTVSPost2010Prop44ColorIndex
 90
        5
102
RTVSPost2010Prop44ColorRGB
 90
      255
102
RTVSPost2010PropOp44
 70
     1
102
RTVSPost2010Prop45
280
     0
102
RTVSPost2010PropOp45
 70
     1
102
RTVSPost2010Prop46
 90
       50
102
RTVSPost2010PropOp46
 70
     1
102
RTVSPost2010Prop47
 90
       50
102
RTVSPost2010PropOp47
 70
     1
102
RTVSPost2010Prop48
 90
       50
102
RTVSPost2010PropOp48
 70
     1
102
RTVSPost2010Prop49
280
     0
102
RTVSPost2010PropOp49
 70
     1
102
RTVSPost2010Prop50
 90
       50
102
RTVSPost2010PropOp50
 70
     1
102
RTVSPost2010Prop51ColorIndex
 90
      256
102
RTVSPost2010Prop51ColorRGB
 90
-16777216
102
RTVSPost2010PropOp51
 70
     0
102
RTVSPost2010Prop52
140
1.0
102
RTVSPost2010PropOp52
 70
     0
102
RTVSPost2010Prop53
 90
        2
102
RTVSPost2010PropOp53
 70
     1
102
RTVSPost2010Prop54
  1
strokes_ogs.tif
102
RTVSPost2010PropOp54
 70
     1
102
RTVSPost2010Prop55
280
     0
102
RTVSPost2010PropOp55
 70
     1
102
RTVSPost2010Prop56
140
1.0
102
RTVSPost2010PropOp56
 70
     1
102
RTVSPost2010Prop57
140
1.0
102
RTVSPost2010PropOp57
 70
     1
102
RTVSPropertyOp0
 70
     1
102
RTVSPropertyOp1
 70
     1
102
RTVSPropertyOp2
 70
     1
102
RTVSPropertyOp3
 70
     1
102
RTVSPropertyOp4
 70
     1
102
RTVSPropertyOp5
 70
     1
102
RTVSPropertyOp6
 70
     1
102
RTVSPropertyOp7
 70
     1
102
RTVSPropertyOp8
 70
     1
102
RTVSPropertyOp9
 70
     1
102
RTVSPropertyOp10
 70
     1
102
RTVSPropertyOp11
 70
     1
102
RTVSPropertyOp12
 70
     1
102
RTVSPropertyOp13
 70
     1
102
RTVSPropertyOp14
 70
     1
102
RTVSPropertyOp15
 70
     1
102
RTVSPropertyOp16
 70
     1
102
RTVSPropertyOp17
 70
     1
102
RTVSPropertyOp18
 70
     1
102
RTVSPropertyOp19
 70
     1
102
RTVSPropertyOp20
 70
     1
102
RTVSPropertyOp21
 70
     1
102
RTVSPropertyOp22
 70
     1
102
RTVSPropertyOp23
 70
     1
102
RTVSPropertyOp24
 70
     1
102
RTVSPropertyOp25
 70
     1
102
RTVSPropertyOp26
 70
     1
102
RTVSPropertyOp27
 70
     1
102
RTVSPropertyOp28
 70
     1
102
RTVSPropertyOp29
 70
     1
102
RTVSPropertyOp30
 70
     1
102
RTVSPropertyOp31
 70
     1
102
RTVSPropertyOp32
 70
     1
102
RTVSPropertyOp33
 70
     1
102
RTVSPropertyOp34
 70
     1
102
RTVSPropertyOp35
 70
     1
102
RTVSPropertyOp36
 70
     1
102
RTVSPropertyOp37
 70
     1
102
RTVSPropertyOp38
 70
     1
102
RTVSPropertyOp39
 70
     1
102
RTVSPropertyOp40
 70
     1
102
RTVSPropertyOp41
 70
     1
102
RTVSPropertyOp42
 70
     1
102
RTVSPropertyOp43
 70
     1
102
RTVSPropertyOp44
 70
     1
102
RTVSPropertyOp45
 70
     1
102
RTVSPropertyOp46
 70
     1
102
RTVSPropertyOp47
 70
     1
102
RTVSPropertyOp48
 70
     1
102
RTVSPropertyOp49
 70
     1
102
RTVSPropertyOp50
 70
     1
102
RTVSPropertyOp51
 70
     0
102
RTVSPropertyOp52
 70
     0
102
RTVSPropertyOp53
 70
     1
102
RTVSPropertyOp54
 70
     1
102
RTVSPropertyOp55
 70
     1
102
RTVSPropertyOp56
 70
     1
102
RTVSPropertyOp57
 70
     1
102
RTVSPropertyOp58
 70
     1
102
RTVSPropertyOp59
 70
     1
102
RTVSPropertyOp60
 70
     1
102
RTVSPropertyOp61
 70
     1
102
RTVSPropertyOp62
 70
     1
  0
XRECORD
  5
A0CE4
102
{ACAD_REACTORS
330
A0CE3
102
}
330
A0CE3
100
AcDbXrecord
280
     1
102
RTVSPost2010Prop28
280
     0
102
RTVSPost2010PropOp28
 70
     1
102
RTVSPost2010Prop29
280
     1
102
RTVSPost2010PropOp29
 70
     1
102
RTVSPost2010Prop30
280
     1
102
RTVSPost2010PropOp30
 70
     1
102
RTVSPost2010Prop31
280
     0
102
RTVSPost2010PropOp31
 70
     1
102
RTVSPost2010Prop32
280
     0
102
RTVSPost2010PropOp32
 70
     1
102
RTVSPost2010Prop33
280
     0
102
RTVSPost2010PropOp33
 70
     1
102
RTVSPost2010Prop34
280
     0
102
RTVSPost2010PropOp34
 70
     1
102
RTVSPost2010Prop35
280
     0
102
RTVSPost2010PropOp35
 70
     1
102
RTVSPost2010Prop36
280
     0
102
RTVSPost2010PropOp36
 70
     1
102
RTVSPost2010Prop37
 90
       50
102
RTVSPost2010PropOp37
 70
     1
102
RTVSPost2010Prop38
140
0.0
102
RTVSPost2010PropOp38
 70
     1
102
RTVSPost2010Prop39
140
1.0
102
RTVSPost2010PropOp39
 70
     1
102
RTVSPost2010Prop40
 90
        0
102
RTVSPost2010PropOp40
 70
     1
102
RTVSPost2010Prop41ColorIndex
 90
       18
102
RTVSPost2010Prop41ColorRGB
 90
        0
102
RTVSPost2010PropOp41
 70
     1
102
RTVSPost2010Prop42
 90
       50
102
RTVSPost2010PropOp42
 70
     1
102
RTVSPost2010Prop43
 90
        3
102
RTVSPost2010PropOp43
 70
     1
102
RTVSPost2010Prop44ColorIndex
 90
        5
102
RTVSPost2010Prop44ColorRGB
 90
      255
102
RTVSPost2010PropOp44
 70
     1
102
RTVSPost2010Prop45
280
     0
102
RTVSPost2010PropOp45
 70
     1
102
RTVSPost2010Prop46
 90
       50
102
RTVSPost2010PropOp46
 70
     1
102
RTVSPost2010Prop47
 90
       50
102
RTVSPost2010PropOp47
 70
     1
102
RTVSPost2010Prop48
 90
       50
102
RTVSPost2010PropOp48
 70
     1
102
RTVSPost2010Prop49
280
     0
102
RTVSPost2010PropOp49
 70
     1
102
RTVSPost2010Prop50
 90
       50
102
RTVSPost2010PropOp50
 70
     1
102
RTVSPost2010Prop51ColorIndex
 90
      256
102
RTVSPost2010Prop51ColorRGB
 90
-16777216
102
RTVSPost2010PropOp51
 70
     0
102
RTVSPost2010Prop52
140
1.0
102
RTVSPost2010PropOp52
 70
     0
102
RTVSPost2010Prop53
 90
        2
102
RTVSPost2010PropOp53
 70
     1
102
RTVSPost2010Prop54
  1
strokes_ogs.tif
102
RTVSPost2010PropOp54
 70
     1
102
RTVSPost2010Prop55
280
     0
102
RTVSPost2010PropOp55
 70
     1
102
RTVSPost2010Prop56
140
1.0
102
RTVSPost2010PropOp56
 70
     1
102
RTVSPost2010Prop57
140
1.0
102
RTVSPost2010PropOp57
 70
     1
102
RTVSPropertyOp0
 70
     1
102
RTVSPropertyOp1
 70
     1
102
RTVSPropertyOp2
 70
     1
102
RTVSPropertyOp3
 70
     1
102
RTVSPropertyOp4
 70
     1
102
RTVSPropertyOp5
 70
     1
102
RTVSPropertyOp6
 70
     1
102
RTVSPropertyOp7
 70
     1
102
RTVSPropertyOp8
 70
     1
102
RTVSPropertyOp9
 70
     1
102
RTVSPropertyOp10
 70
     1
102
RTVSPropertyOp11
 70
     1
102
RTVSPropertyOp12
 70
     1
102
RTVSPropertyOp13
 70
     1
102
RTVSPropertyOp14
 70
     1
102
RTVSPropertyOp15
 70
     1
102
RTVSPropertyOp16
 70
     1
102
RTVSPropertyOp17
 70
     1
102
RTVSPropertyOp18
 70
     1
102
RTVSPropertyOp19
 70
     1
102
RTVSPropertyOp20
 70
     1
102
RTVSPropertyOp21
 70
     1
102
RTVSPropertyOp22
 70
     1
102
RTVSPropertyOp23
 70
     1
102
RTVSPropertyOp24
 70
     1
102
RTVSPropertyOp25
 70
     1
102
RTVSPropertyOp26
 70
     1
102
RTVSPropertyOp27
 70
     1
102
RTVSPropertyOp28
 70
     1
102
RTVSPropertyOp29
 70
     1
102
RTVSPropertyOp30
 70
     1
102
RTVSPropertyOp31
 70
     1
102
RTVSPropertyOp32
 70
     1
102
RTVSPropertyOp33
 70
     1
102
RTVSPropertyOp34
 70
     1
102
RTVSPropertyOp35
 70
     1
102
RTVSPropertyOp36
 70
     1
102
RTVSPropertyOp37
 70
     1
102
RTVSPropertyOp38
 70
     1
102
RTVSPropertyOp39
 70
     1
102
RTVSPropertyOp40
 70
     1
102
RTVSPropertyOp41
 70
     1
102
RTVSPropertyOp42
 70
     1
102
RTVSPropertyOp43
 70
     1
102
RTVSPropertyOp44
 70
     1
102
RTVSPropertyOp45
 70
     1
102
RTVSPropertyOp46
 70
     1
102
RTVSPropertyOp47
 70
     1
102
RTVSPropertyOp48
 70
     1
102
RTVSPropertyOp49
 70
     1
102
RTVSPropertyOp50
 70
     1
102
RTVSPropertyOp51
 70
     0
102
RTVSPropertyOp52
 70
     0
102
RTVSPropertyOp53
 70
     1
102
RTVSPropertyOp54
 70
     1
102
RTVSPropertyOp55
 70
     1
102
RTVSPropertyOp56
 70
     1
102
RTVSPropertyOp57
 70
     1
102
RTVSPropertyOp58
 70
     1
102
RTVSPropertyOp59
 70
     1
102
RTVSPropertyOp60
 70
     1
102
RTVSPropertyOp61
 70
     1
102
RTVSPropertyOp62
 70
     1
  0
ENDSEC
  0
EOF
