  0
SECTION
  2
HEADER
  9
$ACADVER
  1
AC1018
  9
$ACADMAINTVER
 70
   104
  9
$DWGCODEPAGE
  3
ANSI_932
  9
$LASTSAVEDBY
  1
DELL3-2
  9
$INSBASE
 10
0.0
 20
0.0
 30
0.0
  9
$EXTMIN
 10
-1336.525139627516
 20
-557.3558331212898
 30
-0.0000000000112498
  9
$EXTMAX
 10
842.4914203301014
 20
409.3371917385129
 30
0.0000000000002956
  9
$LIMMIN
 10
-1159.931885538561
 20
-677.6192539819668
  9
$LIMMAX
 10
960.8577833986363
 20
804.8411875504962
  9
$ORTHOMODE
 70
     0
  9
$REGENMODE
 70
     1
  9
$FILLMODE
 70
     1
  9
$QTEXTMODE
 70
     0
  9
$MIRRTEXT
 70
     0
  9
$LTSCALE
 40
20.0
  9
$ATTMODE
 70
     1
  9
$TEXTSIZE
 40
64.0
  9
$TRACEWID
 40
0.05
  9
$TEXTSTYLE
  7
STANDARD
  9
$CLAYER
  8
BASIS
  9
$CELTYPE
  6
CENTER
  9
$CECOLOR
 62
   256
  9
$CELTSCALE
 40
1.0
  9
$DISPSILH
 70
     0
  9
$DIMSCALE
 40
1.0
  9
$DIMASZ
 40
10.0
  9
$DIMEXO
 40
20.0
  9
$DIMDLI
 40
200.0
  9
$DIMRND
 40
0.0
  9
$DIMDLE
 40
0.0
  9
$DIMEXE
 40
20.0
  9
$DIMTP
 40
0.0
  9
$DIMTM
 40
0.0
  9
$DIMTXT
 40
50.0
  9
$DIMCEN
 40
0.082
  9
$DIMTSZ
 40
0.0
  9
$DIMTOL
 70
     0
  9
$DIMLIM
 70
     0
  9
$DIMTIH
 70
     0
  9
$DIMTOH
 70
     0
  9
$DIMSE1
 70
     0
  9
$DIMSE2
 70
     0
  9
$DIMTAD
 70
     1
  9
$DIMZIN
 70
     8
  9
$DIMBLK
  1
ORIGIN
  9
$DIMASO
 70
     1
  9
$DIMSHO
 70
     0
  9
$DIMPOST
  1

  9
$DIMAPOST
  1

  9
$DIMALT
 70
     0
  9
$DIMALTD
 70
     2
  9
$DIMALTF
 40
25.4
  9
$DIMLFAC
 40
1.0
  9
$DIMTOFL
 70
     1
  9
$DIMTVP
 40
0.0
  9
$DIMTIX
 70
     0
  9
$DIMSOXD
 70
     0
  9
$DIMSAH
 70
     0
  9
$DIMBLK1
  1

  9
$DIMBLK2
  1

  9
$DIMSTYLE
  2
STANDARD
  9
$DIMCLRD
 70
     0
  9
$DIMCLRE
 70
     0
  9
$DIMCLRT
 70
     0
  9
$DIMTFAC
 40
1.0
  9
$DIMGAP
 40
10.0
  9
$DIMJUST
 70
     0
  9
$DIMSD1
 70
     0
  9
$DIMSD2
 70
     0
  9
$DIMTOLJ
 70
     1
  9
$DIMTZIN
 70
     0
  9
$DIMALTZ
 70
     0
  9
$DIMALTTZ
 70
     0
  9
$DIMUPT
 70
     0
  9
$DIMDEC
 70
     3
  9
$DIMTDEC
 70
     3
  9
$DIMALTU
 70
     2
  9
$DIMALTTD
 70
     2
  9
$DIMTXSTY
  7
STANDARD
  9
$DIMAUNIT
 70
     0
  9
$DIMADEC
 70
     0
  9
$DIMALTRND
 40
0.0
  9
$DIMAZIN
 70
     0
  9
$DIMDSEP
 70
    46
  9
$DIMATFIT
 70
     3
  9
$DIMFRAC
 70
     0
  9
$DIMLDRBLK
  1
ORIGIN
  9
$DIMLUNIT
 70
     2
  9
$DIMLWD
 70
    -2
  9
$DIMLWE
 70
    -2
  9
$DIMTMOVE
 70
     0
  9
$LUNITS
 70
     2
  9
$LUPREC
 70
     4
  9
$SKETCHINC
 40
0.1
  9
$FILLETRAD
 40
10.0
  9
$AUNITS
 70
     1
  9
$AUPREC
 70
     3
  9
$MENU
  1
ACAD
  9
$ELEVATION
 40
0.0
  9
$PELEVATION
 40
0.0
  9
$THICKNESS
 40
0.0
  9
$LIMCHECK
 70
     0
  9
$CHAMFERA
 40
0.0
  9
$CHAMFERB
 40
0.0
  9
$CHAMFERC
 40
0.0
  9
$CHAMFERD
 40
0.0
  9
$SKPOLY
 70
     0
  9
$TDCREATE
 40
2450330.393205995
  9
$TDUCREATE
 40
2450330.018205995
  9
$TDUPDATE
 40
2458391.502002269
  9
$TDUUPDATE
 40
2458391.127002269
  9
$TDINDWG
 40
3.6932200579
  9
$TDUSRTIMER
 40
3.6932185185
  9
$USRTIMER
 70
     1
  9
$ANGBASE
 50
0.0
  9
$ANGDIR
 70
     0
  9
$PDMODE
 70
     3
  9
$PDSIZE
 40
-2.0
  9
$PLINEWID
 40
0.0
  9
$SPLFRAME
 70
     0
  9
$SPLINETYPE
 70
     6
  9
$SPLINESEGS
 70
     8
  9
$HANDSEED
  5
A0AF1
  9
$SURFTAB1
 70
     6
  9
$SURFTAB2
 70
     6
  9
$SURFTYPE
 70
     6
  9
$SURFU
 70
     6
  9
$SURFV
 70
     6
  9
$UCSBASE
  2

  9
$UCSNAME
  2

  9
$UCSORG
 10
0.0
 20
0.0
 30
0.0
  9
$UCSXDIR
 10
1.0
 20
0.0
 30
0.0
  9
$UCSYDIR
 10
0.0
 20
1.0
 30
0.0
  9
$UCSORTHOREF
  2

  9
$UCSORTHOVIEW
 70
     0
  9
$UCSORGTOP
 10
0.0
 20
0.0
 30
0.0
  9
$UCSORGBOTTOM
 10
0.0
 20
0.0
 30
0.0
  9
$UCSORGLEFT
 10
0.0
 20
0.0
 30
0.0
  9
$UCSORGRIGHT
 10
0.0
 20
0.0
 30
0.0
  9
$UCSORGFRONT
 10
0.0
 20
0.0
 30
0.0
  9
$UCSORGBACK
 10
0.0
 20
0.0
 30
0.0
  9
$PUCSBASE
  2

  9
$PUCSNAME
  2

  9
$PUCSORG
 10
0.0
 20
0.0
 30
0.0
  9
$PUCSXDIR
 10
1.0
 20
0.0
 30
0.0
  9
$PUCSYDIR
 10
0.0
 20
1.0
 30
0.0
  9
$PUCSORTHOREF
  2

  9
$PUCSORTHOVIEW
 70
     0
  9
$PUCSORGTOP
 10
0.0
 20
0.0
 30
0.0
  9
$PUCSORGBOTTOM
 10
0.0
 20
0.0
 30
0.0
  9
$PUCSORGLEFT
 10
0.0
 20
0.0
 30
0.0
  9
$PUCSORGRIGHT
 10
0.0
 20
0.0
 30
0.0
  9
$PUCSORGFRONT
 10
0.0
 20
0.0
 30
0.0
  9
$PUCSORGBACK
 10
0.0
 20
0.0
 30
0.0
  9
$USERI1
 70
     0
  9
$USERI2
 70
     0
  9
$USERI3
 70
     0
  9
$USERI4
 70
     0
  9
$USERI5
 70
     0
  9
$USERR1
 40
20.0
  9
$USERR2
 40
0.0
  9
$USERR3
 40
0.0
  9
$USERR4
 40
0.0
  9
$USERR5
 40
0.0
  9
$WORLDVIEW
 70
     1
  9
$SHADEDGE
 70
     3
  9
$SHADEDIF
 70
    70
  9
$TILEMODE
 70
     1
  9
$MAXACTVP
 70
    64
  9
$PINSBASE
 10
0.0
 20
0.0
 30
0.0
  9
$PLIMCHECK
 70
     0
  9
$PEXTMIN
 10
1.000000000000000E+20
 20
1.000000000000000E+20
 30
1.000000000000000E+20
  9
$PEXTMAX
 10
-1.000000000000000E+20
 20
-1.000000000000000E+20
 30
-1.000000000000000E+20
  9
$PLIMMIN
 10
0.0
 20
0.0
  9
$PLIMMAX
 10
12.0
 20
9.0
  9
$UNITMODE
 70
     0
  9
$VISRETAIN
 70
     1
  9
$PLINEGEN
 70
     0
  9
$PSLTSCALE
 70
     1
  9
$TREEDEPTH
 70
  3020
  9
$CMLSTYLE
  2
STANDARD
  9
$CMLJUST
 70
     0
  9
$CMLSCALE
 40
1.0
  9
$PROXYGRAPHICS
 70
     1
  9
$MEASUREMENT
 70
     0
  9
$CELWEIGHT
370
    -1
  9
$ENDCAPS
280
     0
  9
$JOINSTYLE
280
     0
  9
$LWDISPLAY
290
     0
  9
$INSUNITS
 70
     0
  9
$HYPERLINKBASE
  1

  9
$STYLESHEET
  1
monochrome.ctb
  9
$XEDIT
290
     1
  9
$CEPSNTYPE
380
     0
  9
$PSTYLEMODE
290
     1
  9
$FINGERPRINTGUID
  2
{97DA8DB6-C4F0-4C3D-ABEB-53C4FBBC7EFF}
  9
$VERSIONGUID
  2
{48ECDF4E-73F2-4FFC-A37D-4542B82F80F4}
  9
$EXTNAMES
290
     1
  9
$PSVPSCALE
 40
0.0
  9
$OLESTARTUP
290
     0
  9
$SORTENTS
280
    96
  9
$INDEXCTL
280
     0
  9
$HIDETEXT
280
     0
  9
$XCLIPFRAME
290
     0
  9
$HALOGAP
280
     0
  9
$OBSCOLOR
 70
   257
  9
$OBSLTYPE
280
     0
  9
$INTERSECTIONDISPLAY
280
     0
  9
$INTERSECTIONCOLOR
 70
   257
  9
$DIMASSOC
280
     1
  9
$PROJECTNAME
  1

  0
ENDSEC
  0
SECTION
  2
CLASSES
  0
CLASS
  1
ACDBDICTIONARYWDFLT
  2
AcDbDictionaryWithDefault
  3
ObjectDBX Classes
 90
        0
 91
        1
280
     0
281
     0
  0
CLASS
  1
DICTIONARYVAR
  2
AcDbDictionaryVar
  3
ObjectDBX Classes
 90
        0
 91
       12
280
     0
281
     0
  0
CLASS
  1
MATERIAL
  2
AcDbMaterial
  3
ObjectDBX Classes
 90
     1153
 91
        3
280
     0
281
     0
  0
CLASS
  1
VISUALSTYLE
  2
AcDbVisualStyle
  3
ObjectDBX Classes
 90
     4095
 91
       24
280
     0
281
     0
  0
CLASS
  1
TABLESTYLE
  2
AcDbTableStyle
  3
ObjectDBX Classes
 90
     4095
 91
        1
280
     0
281
     0
  0
CLASS
  1
SCALE
  2
AcDbScale
  3
ObjectDBX Classes
 90
     1153
 91
       17
280
     0
281
     0
  0
CLASS
  1
MLEADERSTYLE
  2
AcDbMLeaderStyle
  3
ACDB_MLEADERSTYLE_CLASS
 90
     4095
 91
        1
280
     0
281
     0
  0
CLASS
  1
ACDBSECTIONVIEWSTYLE
  2
AcDbSectionViewStyle
  3
ObjectDBX Classes
 90
     1025
 91
        2
280
     0
281
     0
  0
CLASS
  1
ACDBDETAILVIEWSTYLE
  2
AcDbDetailViewStyle
  3
ObjectDBX Classes
 90
     1025
 91
        2
280
     0
281
     0
  0
CLASS
  1
CELLSTYLEMAP
  2
AcDbCellStyleMap
  3
ObjectDBX Classes
 90
     1152
 91
        5
280
     0
281
     0
  0
CLASS
  1
DIMASSOC
  2
AcDbDimAssoc
  3
"AcDbDimAssoc|Product Desc:     AcDim ARX App For Dimension|Company:          Autodesk, Inc.|WEB Address:      www.autodesk.com"
 90
        0
 91
        0
280
     0
281
     0
  0
ENDSEC
  0
SECTION
  2
TABLES
  0
TABLE
  2
VPORT
  5
8
330
0
100
AcDbSymbolTable
 70
     1
  0
VPORT
  5
9F077
330
8
100
AcDbSymbolTableRecord
100
AcDbViewportTableRecord
  2
*ACTIVE
 70
     0
 10
0.0
 20
0.0
 11
1.0
 21
1.0
 12
-247.0168596487074
 22
-74.00932069138844
 13
0.0
 23
0.0
 14
50.0
 24
50.0
 15
100.0
 25
100.0
 16
0.0
 26
0.0
 36
1.0
 17
0.0
 27
0.0
 37
0.0
 40
1402.745259668088
 41
1.560794044665012
 42
50.0
 43
0.0
 44
0.0
 50
0.0
 51
0.0
 71
     0
 72
   500
 73
     1
 74
     0
 75
     0
 76
     1
 77
     0
 78
     0
281
     0
 65
     1
110
0.0
120
0.0
130
0.0
111
1.0
121
0.0
131
0.0
112
0.0
122
1.0
132
0.0
 79
     0
146
0.0
1001
ACAD_NAV_VCDISPLAY
1070
     3
  0
ENDTAB
  0
TABLE
  2
LTYPE
  5
5
330
0
100
AcDbSymbolTable
 70
    11
  0
LTYPE
  5
13
330
5
100
AcDbSymbolTableRecord
100
AcDbLinetypeTableRecord
  2
BYBLOCK
 70
     0
  3

 72
    65
 73
     0
 40
0.0
  0
LTYPE
  5
14
330
5
100
AcDbSymbolTableRecord
100
AcDbLinetypeTableRecord
  2
BYLAYER
 70
     0
  3

 72
    65
 73
     0
 40
0.0
  0
LTYPE
  5
15
330
5
100
AcDbSymbolTableRecord
100
AcDbLinetypeTableRecord
  2
CONTINUOUS
 70
     0
  3
実線
 72
    65
 73
     0
 40
0.0
  0
LTYPE
  5
23
330
5
100
AcDbSymbolTableRecord
100
AcDbLinetypeTableRecord
  2
DASHDOT
 70
     0
  3
____ _ ____ _ ____ _ ____ _ ____ _ ____ _ ____
 72
    65
 73
     4
 40
5.5
 49
4.0
 74
     0
 49
-0.6
 74
     0
 49
0.3
 74
     0
 49
-0.6
 74
     0
  0
LTYPE
  5
939BF
330
5
100
AcDbSymbolTableRecord
100
AcDbLinetypeTableRecord
  2
DASHED
 70
     0
  3
Dashed __ __ __ __ __ __ __ __ __ __ __ __ __ _
 72
    65
 73
     2
 40
0.75
 49
0.5
 74
     0
 49
-0.25
 74
     0
  0
LTYPE
  5
939C0
330
5
100
AcDbSymbolTableRecord
100
AcDbLinetypeTableRecord
  2
DOT_CENTER
 70
     0
  3
Dot_Center
 72
    65
 73
     4
 40
14.0
 49
12.0
 74
     0
 49
-1.0
 74
     0
 49
0.0
 74
     0
 49
-1.0
 74
     0
  0
LTYPE
  5
954FD
330
5
100
AcDbSymbolTableRecord
100
AcDbLinetypeTableRecord
  2
ACAD_ISO02W100
 70
     0
  3
ISO dash __ __ __ __ __ __ __ __ __ __ __ __ __
 72
    65
 73
     2
 40
15.0
 49
12.0
 74
     0
 49
-3.0
 74
     0
  0
LTYPE
  5
954FE
330
5
100
AcDbSymbolTableRecord
100
AcDbLinetypeTableRecord
  2
BORDERX2
 70
     0
  3
Border (2x) ____  ____  .  ____  ____  .  ___
 72
    65
 73
     6
 40
3.5
 49
1.0
 74
     0
 49
-0.5
 74
     0
 49
1.0
 74
     0
 49
-0.5
 74
     0
 49
0.0
 74
     0
 49
-0.5
 74
     0
  0
LTYPE
  5
98761
330
5
100
AcDbSymbolTableRecord
100
AcDbLinetypeTableRecord
  2
CENTER
 70
     0
  3
Center ____ _ ____ _ ____ _ ____ _ ____ _ ____
 72
    65
 73
     4
 40
1.0
 49
0.5
 74
     0
 49
-0.25
 74
     0
 49
0.0
 74
     0
 49
-0.25
 74
     0
  0
LTYPE
  5
98762
330
5
100
AcDbSymbolTableRecord
100
AcDbLinetypeTableRecord
  2
DIVIDE
 70
     0
  3
Divide ____ . . ____ . . ____ . . ____ . . ____
 72
    65
 73
     6
 40
1.25
 49
0.5
 74
     0
 49
-0.25
 74
     0
 49
0.0
 74
     0
 49
-0.25
 74
     0
 49
0.0
 74
     0
 49
-0.25
 74
     0
  0
LTYPE
  5
9A587
330
5
100
AcDbSymbolTableRecord
100
AcDbLinetypeTableRecord
  2
LONG_DASHED
 70
     0
  3
Long_Dashed
 72
    65
 73
     2
 40
15.0
 49
10.0
 74
     0
 49
-5.0
 74
     0
  0
LTYPE
  5
9A588
330
5
100
AcDbSymbolTableRecord
100
AcDbLinetypeTableRecord
  2
PHANTOM
 70
     0
  3
Phantom
 72
    65
 73
     6
 40
13.0
 49
10.0
 74
     0
 49
-1.0
 74
     0
 49
0.0
 74
     0
 49
-1.0
 74
     0
 49
0.0
 74
     0
 49
-1.0
 74
     0
  0
ENDTAB
  0
TABLE
  2
LAYER
  5
2
102
{ACAD_XDICTIONARY
360
9F1AA
102
}
330
0
100
AcDbSymbolTable
 70
    11
  0
LAYER
  5
10
102
{ACAD_XDICTIONARY
360
9F0F4
102
}
330
2
100
AcDbSymbolTableRecord
100
AcDbLayerTableRecord
  2
0
 70
     0
 62
     7
  6
CONTINUOUS
370
    -3
390
F
  0
LAYER
  5
22
102
{ACAD_XDICTIONARY
360
9F0F6
102
}
330
2
100
AcDbSymbolTableRecord
100
AcDbLayerTableRecord
  2
SIZE
 70
     0
 62
    32
  6
CONTINUOUS
370
    -3
390
F
  0
LAYER
  5
31
102
{ACAD_XDICTIONARY
360
9F0F8
102
}
330
2
100
AcDbSymbolTableRecord
100
AcDbLayerTableRecord
  2
DETAIL
 70
     0
 62
     5
  6
CONTINUOUS
370
    -3
390
F
  0
LAYER
  5
32
102
{ACAD_XDICTIONARY
360
9F0FA
102
}
330
2
100
AcDbSymbolTableRecord
100
AcDbLayerTableRecord
  2
OUTLINE
 70
     0
 62
     3
  6
CONTINUOUS
370
    -3
390
F
  0
LAYER
  5
33
102
{ACAD_XDICTIONARY
360
9F0FC
102
}
330
2
100
AcDbSymbolTableRecord
100
AcDbLayerTableRecord
  2
BASIS
 70
     0
 62
     6
  6
CONTINUOUS
370
    -3
390
F
  0
LAYER
  5
34
102
{ACAD_XDICTIONARY
360
9F0FE
102
}
330
2
100
AcDbSymbolTableRecord
100
AcDbLayerTableRecord
  2
NOTE
 70
     0
 62
     4
  6
CONTINUOUS
370
    -3
390
F
  0
LAYER
  5
35
102
{ACAD_XDICTIONARY
360
9F100
102
}
330
2
100
AcDbSymbolTableRecord
100
AcDbLayerTableRecord
  2
ARRANGE
 70
     0
 62
     1
  6
CONTINUOUS
370
    -3
390
F
  0
LAYER
  5
37
102
{ACAD_XDICTIONARY
360
9F102
102
}
330
2
100
AcDbSymbolTableRecord
100
AcDbLayerTableRecord
  2
ETC
 70
     0
 62
    83
  6
CONTINUOUS
370
    -3
390
F
  0
LAYER
  5
3A
330
2
100
AcDbSymbolTableRecord
100
AcDbLayerTableRecord
  2
DEFPOINTS
 70
     0
 62
     7
  6
CONTINUOUS
290
     0
370
    -3
390
F
  0
LAYER
  5
9F1A2
102
{ACAD_XDICTIONARY
360
9F1A3
102
}
330
2
100
AcDbSymbolTableRecord
100
AcDbLayerTableRecord
  2
FIX
 70
     0
 62
   241
  6
CONTINUOUS
370
    25
390
F
  0
LAYER
  5
9F1A4
102
{ACAD_XDICTIONARY
360
9F1A5
102
}
330
2
100
AcDbSymbolTableRecord
100
AcDbLayerTableRecord
  2
SERVICESPACE
 70
     0
 62
     2
  6
CONTINUOUS
370
    25
390
F
  0
ENDTAB
  0
TABLE
  2
STYLE
  5
3
330
0
100
AcDbSymbolTable
 70
    10
  0
STYLE
  5
11
330
3
100
AcDbSymbolTableRecord
100
AcDbTextStyleTableRecord
  2
STANDARD
 70
     0
 40
0.0
 41
0.9
 50
0.0
 71
     0
 42
64.0
  3
SIMPLEX
  4
BIGFONT
  0
STYLE
  5
939C1
330
3
100
AcDbSymbolTableRecord
100
AcDbTextStyleTableRecord
  2
CONVERTER_11
 70
     0
 40
0.0
 41
0.9
 50
0.0
 71
     0
 42
0.2
  3
txt.shx
  4

  0
STYLE
  5
939C2
330
3
100
AcDbSymbolTableRecord
100
AcDbTextStyleTableRecord
  2
CONVERTER_12
 70
     0
 40
0.0
 41
0.7650000000000004
 50
0.0
 71
     0
 42
0.2
  3
txt.shx
  4

  0
STYLE
  5
954FC
330
3
100
AcDbSymbolTableRecord
100
AcDbTextStyleTableRecord
  2

 70
     1
 40
0.0
 41
1.0
 50
0.0
 71
     0
 42
64.0
  3
ltypeshp.shx
  4

  0
STYLE
  5
98763
330
3
100
AcDbSymbolTableRecord
100
AcDbTextStyleTableRecord
  2
ZU_SHPTB00001
 70
     0
 40
0.0
 41
1.0
 50
0.0
 71
     0
 42
0.0
  3
monotxt
  4
bigfont
  0
STYLE
  5
9F1A6
330
3
100
AcDbSymbolTableRecord
100
AcDbTextStyleTableRecord
  2
MS PGothic
 70
     0
 40
0.0
 41
1.0
 50
0.0
 71
     0
 42
0.2
  3

  4

1001
ACAD
1000
ＭＳ Ｐゴシック
1071
    32818
  0
STYLE
  5
9F1A7
330
3
100
AcDbSymbolTableRecord
100
AcDbTextStyleTableRecord
  2
VERTICAL MS PGothic
 70
     0
 40
0.0
 41
1.0
 50
0.0
 71
     0
 42
0.2
  3

  4

1001
ACAD
1000
@ＭＳ Ｐゴシック
1071
    32818
  0
ENDTAB
  0
TABLE
  2
VIEW
  5
6
330
0
100
AcDbSymbolTable
 70
     4
  0
VIEW
  5
3C
330
6
100
AcDbSymbolTableRecord
100
AcDbViewTableRecord
  2
ALL
 70
     0
 40
4282.62
 10
0.0
 20
41.30990399999999
 41
5940.0
 11
0.0
 21
0.0
 31
1.0
 12
0.0
 22
0.0
 32
0.0
 42
50.0
 43
0.0
 44
0.0
 50
0.0
 71
     0
281
     0
 72
     0
  0
ENDTAB
  0
TABLE
  2
UCS
  5
7
330
0
100
AcDbSymbolTable
 70
     0
  0
ENDTAB
  0
TABLE
  2
APPID
  5
9
330
0
100
AcDbSymbolTable
 70
     8
  0
APPID
  5
12
330
9
100
AcDbSymbolTableRecord
100
AcDbRegAppTableRecord
  2
ACAD
 70
     0
  0
APPID
  5
9F0F2
330
9
100
AcDbSymbolTableRecord
100
AcDbRegAppTableRecord
  2
ACAD_EXEMPT_FROM_CAD_STANDARDS
 70
     0
  0
APPID
  5
9F10A
330
9
100
AcDbSymbolTableRecord
100
AcDbRegAppTableRecord
  2
ACAD_NAV_VCDISPLAY
 70
     0
  0
APPID
  5
9F142
330
9
100
AcDbSymbolTableRecord
100
AcDbRegAppTableRecord
  2
ACAD_MLEADERVER
 70
     0
  0
APPID
  5
9F14E
330
9
100
AcDbSymbolTableRecord
100
AcDbRegAppTableRecord
  2
ACAD_PSEXT
 70
     0
  0
APPID
  5
9F1A8
330
9
100
AcDbSymbolTableRecord
100
AcDbRegAppTableRecord
  2
ACAD_DSTYLE_DIMJAG
 70
     0
  0
APPID
  5
9F1A9
330
9
100
AcDbSymbolTableRecord
100
AcDbRegAppTableRecord
  2
ACAD_DSTYLE_DIMTALN
 70
     0
  0
APPID
  5
A0436
330
9
100
AcDbSymbolTableRecord
100
AcDbRegAppTableRecord
  2
AcadAnnoMonitorAlertIconDisabled
 70
     0
  0
ENDTAB
  0
TABLE
  2
DIMSTYLE
  5
A
330
0
100
AcDbSymbolTable
 70
     5
100
AcDbDimStyleTable
 71
     1
340
213
  0
DIMSTYLE
105
213
102
{ACAD_REACTORS
330
A0369
330
A0377
330
A0384
330
A039A
330
A03A9
330
A0408
330
A041F
330
A0479
330
A04C9
330
A04EB
330
A050B
330
A053B
330
A0574
330
A0581
102
}
330
A
100
AcDbSymbolTableRecord
100
AcDbDimStyleTableRecord
  2
STANDARD
 70
     0
340
11
  0
ENDTAB
  0
TABLE
  2
BLOCK_RECORD
  5
1
330
0
100
AcDbSymbolTable
 70
    41
  0
BLOCK_RECORD
  5
1E
102
{ACAD_XDICTIONARY
360
66E76
102
}
330
1
100
AcDbSymbolTableRecord
100
AcDbBlockTableRecord
  2
*MODEL_SPACE
340
9F0EC
  0
BLOCK_RECORD
  5
1A
102
{ACAD_XDICTIONARY
360
66E74
102
}
330
1
100
AcDbSymbolTableRecord
100
AcDbBlockTableRecord
  2
*PAPER_SPACE
340
9F0ED
  0
BLOCK_RECORD
  5
46
330
1
100
AcDbSymbolTableRecord
100
AcDbBlockTableRecord
  2
_ORIGIN
340
0
102
{BLKREFS
331
A00D0
331
A00D8
331
A00D9
331
A00E1
331
A00E2
331
A00EC
331
A00ED
331
A00F5
331
A00F6
331
A00FE
331
A00FF
331
A0078
331
A0079
331
A0081
331
A0082
331
A008A
331
A008B
331
A068A
331
A068B
331
A0694
331
A0695
331
A0137
331
A0138
331
A0094
331
A0095
331
A06FC
331
A06FD
331
A070F
331
A0710
331
A00BB
331
A00BC
331
A00C5
331
A00C6
331
A00CF
331
A069D
331
A069E
331
A06A6
331
A06A7
331
A06B1
331
A06B2
331
A06BA
331
A06BB
331
A06DF
331
A06E0
331
A06E8
331
A06E9
331
A06F3
331
A06F4
331
A0A4F
331
A0A50
331
A009D
331
A009E
331
A00A7
331
A00A8
331
A00B1
331
A00B2
331
A0851
331
A0852
331
A085A
331
A085B
331
A0863
331
A0864
331
A0108
331
A0109
331
A0111
331
A0112
331
A011A
331
A011B
331
A0123
331
A0124
331
A012D
331
A012E
102
}
  0
BLOCK_RECORD
  5
9FEA3
330
1
100
AcDbSymbolTableRecord
100
AcDbBlockTableRecord
  2
*D1
340
0
  0
BLOCK_RECORD
  5
9FEB0
330
1
100
AcDbSymbolTableRecord
100
AcDbBlockTableRecord
  2
*D2
340
0
  0
BLOCK_RECORD
  5
9FEBC
330
1
100
AcDbSymbolTableRecord
100
AcDbBlockTableRecord
  2
*D3
340
0
  0
BLOCK_RECORD
  5
9FEC8
330
1
100
AcDbSymbolTableRecord
100
AcDbBlockTableRecord
  2
*D4
340
0
  0
BLOCK_RECORD
  5
9FED5
330
1
100
AcDbSymbolTableRecord
100
AcDbBlockTableRecord
  2
*D5
340
0
  0
BLOCK_RECORD
  5
9FEE1
330
1
100
AcDbSymbolTableRecord
100
AcDbBlockTableRecord
  2
*D6
340
0
  0
BLOCK_RECORD
  5
9FEEE
330
1
100
AcDbSymbolTableRecord
100
AcDbBlockTableRecord
  2
*D7
340
0
  0
BLOCK_RECORD
  5
9FEFB
330
1
100
AcDbSymbolTableRecord
100
AcDbBlockTableRecord
  2
*D8
340
0
  0
BLOCK_RECORD
  5
9FF08
330
1
100
AcDbSymbolTableRecord
100
AcDbBlockTableRecord
  2
*D9
340
0
  0
BLOCK_RECORD
  5
9FF15
330
1
100
AcDbSymbolTableRecord
100
AcDbBlockTableRecord
  2
*D10
340
0
  0
BLOCK_RECORD
  5
9FF22
330
1
100
AcDbSymbolTableRecord
100
AcDbBlockTableRecord
  2
*D11
340
0
  0
BLOCK_RECORD
  5
9FF2E
330
1
100
AcDbSymbolTableRecord
100
AcDbBlockTableRecord
  2
*D12
340
0
  0
BLOCK_RECORD
  5
9FF3A
330
1
100
AcDbSymbolTableRecord
100
AcDbBlockTableRecord
  2
*D13
340
0
  0
BLOCK_RECORD
  5
9FF48
330
1
100
AcDbSymbolTableRecord
100
AcDbBlockTableRecord
  2
*D14
340
0
  0
BLOCK_RECORD
  5
9FF54
330
1
100
AcDbSymbolTableRecord
100
AcDbBlockTableRecord
  2
*D15
340
0
  0
BLOCK_RECORD
  5
9FF60
330
1
100
AcDbSymbolTableRecord
100
AcDbBlockTableRecord
  2
*D16
340
0
  0
BLOCK_RECORD
  5
9FF6D
330
1
100
AcDbSymbolTableRecord
100
AcDbBlockTableRecord
  2
*D17
340
0
  0
BLOCK_RECORD
  5
9FF79
330
1
100
AcDbSymbolTableRecord
100
AcDbBlockTableRecord
  2
*D18
340
0
  0
BLOCK_RECORD
  5
9FF85
330
1
100
AcDbSymbolTableRecord
100
AcDbBlockTableRecord
  2
*D19
340
0
  0
BLOCK_RECORD
  5
9FF91
330
1
100
AcDbSymbolTableRecord
100
AcDbBlockTableRecord
  2
*D20
340
0
  0
BLOCK_RECORD
  5
9FF9E
330
1
100
AcDbSymbolTableRecord
100
AcDbBlockTableRecord
  2
*D21
340
0
  0
BLOCK_RECORD
  5
A036A
330
1
100
AcDbSymbolTableRecord
100
AcDbBlockTableRecord
  2
*D22
340
0
  0
BLOCK_RECORD
  5
A0378
330
1
100
AcDbSymbolTableRecord
100
AcDbBlockTableRecord
  2
*D23
340
0
  0
BLOCK_RECORD
  5
A0385
330
1
100
AcDbSymbolTableRecord
100
AcDbBlockTableRecord
  2
*D24
340
0
  0
BLOCK_RECORD
  5
A039B
330
1
100
AcDbSymbolTableRecord
100
AcDbBlockTableRecord
  2
*D25
340
0
  0
BLOCK_RECORD
  5
A03AA
330
1
100
AcDbSymbolTableRecord
100
AcDbBlockTableRecord
  2
*D26
340
0
  0
BLOCK_RECORD
  5
A0409
330
1
100
AcDbSymbolTableRecord
100
AcDbBlockTableRecord
  2
*D27
340
0
  0
BLOCK_RECORD
  5
A0420
330
1
100
AcDbSymbolTableRecord
100
AcDbBlockTableRecord
  2
*D28
340
0
  0
BLOCK_RECORD
  5
A047A
330
1
100
AcDbSymbolTableRecord
100
AcDbBlockTableRecord
  2
*D29
340
0
  0
BLOCK_RECORD
  5
A04CA
330
1
100
AcDbSymbolTableRecord
100
AcDbBlockTableRecord
  2
*D30
340
0
  0
BLOCK_RECORD
  5
A04EC
330
1
100
AcDbSymbolTableRecord
100
AcDbBlockTableRecord
  2
*D31
340
0
  0
BLOCK_RECORD
  5
A050C
330
1
100
AcDbSymbolTableRecord
100
AcDbBlockTableRecord
  2
*D32
340
0
  0
BLOCK_RECORD
  5
A053C
330
1
100
AcDbSymbolTableRecord
100
AcDbBlockTableRecord
  2
*D33
340
0
  0
BLOCK_RECORD
  5
A0575
330
1
100
AcDbSymbolTableRecord
100
AcDbBlockTableRecord
  2
*D34
340
0
  0
BLOCK_RECORD
  5
A0582
330
1
100
AcDbSymbolTableRecord
100
AcDbBlockTableRecord
  2
*D35
340
0
  0
BLOCK_RECORD
  5
A0684
330
1
100
AcDbSymbolTableRecord
100
AcDbBlockTableRecord
  2
*D36
340
0
  0
ENDTAB
  0
ENDSEC
  0
SECTION
  2
BLOCKS
  0
BLOCK
  5
1F
330
1E
100
AcDbEntity
  8
0
100
AcDbBlockBegin
  2
*MODEL_SPACE
 70
     0
 10
0.0
 20
0.0
 30
0.0
  3
*MODEL_SPACE
  1

  0
ENDBLK
  5
20
330
1E
100
AcDbEntity
  8
0
100
AcDbBlockEnd
  0
BLOCK
  5
1B
330
1A
100
AcDbEntity
 67
     1
  8
0
100
AcDbBlockBegin
  2
*PAPER_SPACE
 70
     0
 10
0.0
 20
0.0
 30
0.0
  3
*PAPER_SPACE
  1

  0
ENDBLK
  5
1C
330
1A
100
AcDbEntity
 67
     1
  8
0
100
AcDbBlockEnd
  0
BLOCK
  5
47
330
46
100
AcDbEntity
  8
0
100
AcDbBlockBegin
  2
_ORIGIN
 70
     0
 10
0.0
 20
0.0
 30
0.0
  3
_ORIGIN
  1

  0
CIRCLE
  5
48
330
46
100
AcDbEntity
  8
0
  6
ByBlock
 62
     0
100
AcDbCircle
 10
0.0
 20
0.0
 30
0.0
 40
0.5
  0
LINE
  5
49
330
46
100
AcDbEntity
  8
0
  6
ByBlock
 62
     0
100
AcDbLine
 10
0.0
 20
0.0
 30
0.0
 11
-1.0
 21
0.0
 31
0.0
  0
ENDBLK
  5
4A
330
46
100
AcDbEntity
  8
0
100
AcDbBlockEnd
  0
BLOCK
  5
9FEA4
330
9FEA3
100
AcDbEntity
  8
0
100
AcDbBlockBegin
  2
*D1
 70
     1
 10
0.0
 20
0.0
 30
0.0
  3
*D1
  1

  0
LINE
  5
A0074
330
9FEA3
100
AcDbEntity
  8
SIZE
 62
     0
440
 16777216
370
    -2
100
AcDbLine
 10
-277.1691037733226
 20
445.0
 30
0.0
 11
-277.1691037733226
 21
544.1725044526759
 31
0.0
  0
LINE
  5
A0075
330
9FEA3
100
AcDbEntity
  8
SIZE
 62
     0
440
 16777216
370
    -2
100
AcDbLine
 10
-424.1691037733225
 20
298.0000000000002
 30
0.0
 11
-424.1691037733225
 21
544.1725044526759
 31
0.0
  0
LINE
  5
A0076
330
9FEA3
100
AcDbEntity
  8
SIZE
 62
     0
440
 16777216
370
    -2
100
AcDbLine
 10
-414.1691037733226
 20
524.1725044526758
 30
0.0
 11
-287.1691037733226
 21
524.1725044526758
 31
0.0
  0
LINE
  5
A0077
330
9FEA3
100
AcDbEntity
  8
SIZE
 62
     0
440
 16777216
370
    -2
100
AcDbLine
 10
-277.1691037733226
 20
524.1725044526758
 30
0.0
 11
-140.0262466304654
 21
524.1725044526758
 31
0.0
  0
INSERT
  5
A0078
330
9FEA3
100
AcDbEntity
  8
SIZE
 62
     0
440
 16777216
370
    -2
100
AcDbBlockReference
  2
_ORIGIN
 10
-424.1691037733225
 20
524.1725044526758
 30
0.0
 41
10.0
 42
10.0
 43
10.0
 50
180.0
  0
INSERT
  5
A0079
330
9FEA3
100
AcDbEntity
  8
SIZE
 62
     0
440
 16777216
370
    -2
100
AcDbBlockReference
  2
_ORIGIN
 10
-277.1691037733226
 20
524.1725044526758
 30
0.0
 41
10.0
 42
10.0
 43
10.0
  0
MTEXT
  5
A007A
330
9FEA3
100
AcDbEntity
  8
SIZE
 62
     0
440
 16777216
100
AcDbMText
 10
-203.5976752018939
 20
559.1725044526757
 30
0.0
 40
50.0
 41
0.0
 71
     5
 72
     1
  1
\A1;147
 73
     1
 44
1.0
  0
POINT
  5
A007B
330
9FEA3
100
AcDbEntity
  8
DEFPOINTS
 62
     0
440
 16777216
100
AcDbPoint
 10
-277.1691037733226
 20
425.0
 30
0.0
  0
POINT
  5
A007C
330
9FEA3
100
AcDbEntity
  8
DEFPOINTS
 62
     0
440
 16777216
100
AcDbPoint
 10
-424.1691037733225
 20
278.0000000000002
 30
0.0
  0
POINT
  5
A007D
330
9FEA3
100
AcDbEntity
  8
DEFPOINTS
 62
     0
440
 16777216
100
AcDbPoint
 10
-424.1691037733225
 20
524.1725044526758
 30
0.0
  0
ENDBLK
  5
9FEA5
330
9FEA3
100
AcDbEntity
  8
0
100
AcDbBlockEnd
  0
BLOCK
  5
9FEB1
330
9FEB0
100
AcDbEntity
  8
0
100
AcDbBlockBegin
  2
*D2
 70
     1
 10
0.0
 20
0.0
 30
0.0
  3
*D2
  1

  0
LINE
  5
A007E
330
9FEB0
100
AcDbEntity
  8
SIZE
 62
     0
440
 16777216
370
    -2
100
AcDbLine
 10
-297.1691037733227
 20
425.0
 30
0.0
 11
-717.9060081806137
 21
425.0
 31
0.0
  0
LINE
  5
A007F
330
9FEB0
100
AcDbEntity
  8
SIZE
 62
     0
440
 16777216
370
    -2
100
AcDbLine
 10
-444.1691037733225
 20
278.0000000000002
 30
0.0
 11
-717.9060081806137
 21
278.0000000000003
 31
0.0
  0
LINE
  5
A0080
330
9FEB0
100
AcDbEntity
  8
SIZE
 62
     0
440
 16777216
370
    -2
100
AcDbLine
 10
-697.9060081806137
 20
415.0000000000002
 30
0.0
 11
-697.9060081806137
 21
288.0000000000003
 31
0.0
  0
INSERT
  5
A0081
330
9FEB0
100
AcDbEntity
  8
SIZE
 62
     0
440
 16777216
370
    -2
100
AcDbBlockReference
  2
_ORIGIN
 10
-697.9060081806137
 20
425.0
 30
0.0
 41
10.0
 42
10.0
 43
10.0
 50
90.0
  0
INSERT
  5
A0082
330
9FEB0
100
AcDbEntity
  8
SIZE
 62
     0
440
 16777216
370
    -2
100
AcDbBlockReference
  2
_ORIGIN
 10
-697.9060081806137
 20
278.0000000000003
 30
0.0
 41
10.0
 42
10.0
 43
10.0
 50
270.0
  0
MTEXT
  5
A0083
330
9FEB0
100
AcDbEntity
  8
SIZE
 62
     0
440
 16777216
100
AcDbMText
 10
-732.9060081806137
 20
351.5000000000002
 30
0.0
 40
50.0
 41
0.0
 71
     5
 72
     1
  1
\A1;147
 11
0.0000000000000001
 21
1.0
 31
0.0
 73
     1
 44
1.0
  0
POINT
  5
A0084
330
9FEB0
100
AcDbEntity
  8
DEFPOINTS
 62
     0
440
 16777216
100
AcDbPoint
 10
-277.1691037733226
 20
425.0
 30
0.0
  0
POINT
  5
A0085
330
9FEB0
100
AcDbEntity
  8
DEFPOINTS
 62
     0
440
 16777216
100
AcDbPoint
 10
-424.1691037733225
 20
278.0000000000002
 30
0.0
  0
POINT
  5
A0086
330
9FEB0
100
AcDbEntity
  8
DEFPOINTS
 62
     0
440
 16777216
100
AcDbPoint
 10
-697.9060081806137
 20
278.0000000000003
 30
0.0
  0
ENDBLK
  5
9FEB2
330
9FEB0
100
AcDbEntity
  8
0
100
AcDbBlockEnd
  0
BLOCK
  5
9FEBD
330
9FEBC
100
AcDbEntity
  8
0
100
AcDbBlockBegin
  2
*D3
 70
     1
 10
0.0
 20
0.0
 30
0.0
  3
*D3
  1

  0
LINE
  5
A0087
330
9FEBC
100
AcDbEntity
  8
SIZE
 62
     0
440
 16777216
370
    -2
100
AcDbLine
 10
-297.1691037733227
 20
425.0
 30
0.0
 11
-964.6667211646388
 21
425.0000000000001
 31
0.0
  0
LINE
  5
A0088
330
9FEBC
100
AcDbEntity
  8
SIZE
 62
     0
440
 16777216
370
    -2
100
AcDbLine
 10
-164.1846551141252
 20
-424.9999999999992
 30
0.0
 11
-964.666721164639
 21
-424.9999999999991
 31
0.0
  0
LINE
  5
A0089
330
9FEBC
100
AcDbEntity
  8
SIZE
 62
     0
440
 16777216
370
    -2
100
AcDbLine
 10
-944.6667211646389
 20
415.0000000000002
 30
0.0
 11
-944.6667211646389
 21
-414.9999999999993
 31
0.0
  0
INSERT
  5
A008A
330
9FEBC
100
AcDbEntity
  8
SIZE
 62
     0
440
 16777216
370
    -2
100
AcDbBlockReference
  2
_ORIGIN
 10
-944.6667211646389
 20
425.0000000000001
 30
0.0
 41
10.0
 42
10.0
 43
10.0
 50
90.0
  0
INSERT
  5
A008B
330
9FEBC
100
AcDbEntity
  8
SIZE
 62
     0
440
 16777216
370
    -2
100
AcDbBlockReference
  2
_ORIGIN
 10
-944.6667211646389
 20
-424.9999999999991
 30
0.0
 41
10.0
 42
10.0
 43
10.0
 50
270.0
  0
MTEXT
  5
A008C
330
9FEBC
100
AcDbEntity
  8
SIZE
 62
     0
440
 16777216
100
AcDbMText
 10
-979.666721164639
 20
0.0000000000002895
 30
0.0
 40
50.0
 41
0.0
 71
     5
 72
     1
  1
\A1;850
 11
0.0000000000000001
 21
1.0
 31
0.0
 73
     1
 44
1.0
  0
POINT
  5
A008D
330
9FEBC
100
AcDbEntity
  8
DEFPOINTS
 62
     0
440
 16777216
100
AcDbPoint
 10
-277.1691037733226
 20
425.0
 30
0.0
  0
POINT
  5
A008E
330
9FEBC
100
AcDbEntity
  8
DEFPOINTS
 62
     0
440
 16777216
100
AcDbPoint
 10
-144.1846551141252
 20
-424.9999999999992
 30
0.0
  0
POINT
  5
A008F
330
9FEBC
100
AcDbEntity
  8
DEFPOINTS
 62
     0
440
 16777216
100
AcDbPoint
 10
-944.6667211646389
 20
-424.9999999999991
 30
0.0
  0
ENDBLK
  5
9FEBE
330
9FEBC
100
AcDbEntity
  8
0
100
AcDbBlockEnd
  0
BLOCK
  5
9FEC9
330
9FEC8
100
AcDbEntity
  8
0
100
AcDbBlockBegin
  2
*D4
 70
     1
 10
0.0
 20
0.0
 30
0.0
  3
*D4
  1

  0
LINE
  5
A0090
330
9FEC8
100
AcDbEntity
  8
SIZE
 62
     0
440
 16777216
370
    -2
100
AcDbLine
 10
-424.1691037733225
 20
-306.9999999999999
 30
0.0
 11
-424.1691037733225
 21
-832.0809627657835
 31
0.0
  0
LINE
  5
A0091
330
9FEC8
100
AcDbEntity
  8
SIZE
 62
     0
440
 16777216
370
    -2
100
AcDbLine
 10
-200.1691037733226
 20
-444.9999999999993
 30
0.0
 11
-200.1691037733226
 21
-832.0809627657835
 31
0.0
  0
LINE
  5
A0092
330
9FEC8
100
AcDbEntity
  8
SIZE
 62
     0
440
 16777216
370
    -2
100
AcDbLine
 10
-414.1691037733226
 20
-812.0809627657834
 30
0.0
 11
-210.1691037733226
 21
-812.0809627657834
 31
0.0
  0
LINE
  5
A0093
330
9FEC8
100
AcDbEntity
  8
SIZE
 62
     0
440
 16777216
370
    -2
100
AcDbLine
 10
-200.1691037733226
 20
-812.0809627657834
 30
0.0
 11
-33.87947816109059
 21
-812.0809627657834
 31
0.0
  0
INSERT
  5
A0094
330
9FEC8
100
AcDbEntity
  8
SIZE
 62
     0
440
 16777216
370
    -2
100
AcDbBlockReference
  2
_ORIGIN
 10
-424.1691037733225
 20
-812.0809627657834
 30
0.0
 41
10.0
 42
10.0
 43
10.0
 50
180.0
  0
INSERT
  5
A0095
330
9FEC8
100
AcDbEntity
  8
SIZE
 62
     0
440
 16777216
370
    -2
100
AcDbBlockReference
  2
_ORIGIN
 10
-200.1691037733226
 20
-812.0809627657834
 30
0.0
 41
10.0
 42
10.0
 43
10.0
  0
MTEXT
  5
A0096
330
9FEC8
100
AcDbEntity
  8
SIZE
 62
     0
440
 16777216
100
AcDbMText
 10
-102.808049589662
 20
-777.0809627657834
 30
0.0
 40
50.0
 41
0.0
 71
     5
 72
     1
  1
\A1;224
 73
     1
 44
1.0
  0
POINT
  5
A0097
330
9FEC8
100
AcDbEntity
  8
DEFPOINTS
 62
     0
440
 16777216
100
AcDbPoint
 10
-424.1691037733225
 20
-286.9999999999999
 30
0.0
  0
POINT
  5
A0098
330
9FEC8
100
AcDbEntity
  8
DEFPOINTS
 62
     0
440
 16777216
100
AcDbPoint
 10
-200.1691037733226
 20
-424.9999999999992
 30
0.0
  0
POINT
  5
A0099
330
9FEC8
100
AcDbEntity
  8
DEFPOINTS
 62
     0
440
 16777216
100
AcDbPoint
 10
-200.1691037733226
 20
-812.0809627657834
 30
0.0
  0
ENDBLK
  5
9FECA
330
9FEC8
100
AcDbEntity
  8
0
100
AcDbBlockEnd
  0
BLOCK
  5
9FED6
330
9FED5
100
AcDbEntity
  8
0
100
AcDbBlockBegin
  2
*D5
 70
     1
 10
0.0
 20
0.0
 30
0.0
  3
*D5
  1

  0
LINE
  5
A009A
330
9FED5
100
AcDbEntity
  8
SIZE
 62
     0
440
 16777216
370
    -2
100
AcDbLine
 10
298.8308962266773
 20
-425.0
 30
0.0
 11
656.8224899546281
 21
-425.0
 31
0.0
  0
LINE
  5
A009B
330
9FED5
100
AcDbEntity
  8
SIZE
 62
     0
440
 16777216
370
    -2
100
AcDbLine
 10
445.8308962266774
 20
-277.9999999999998
 30
0.0
 11
656.8224899546281
 21
-277.9999999999998
 31
0.0
  0
LINE
  5
A009C
330
9FED5
100
AcDbEntity
  8
SIZE
 62
     0
440
 16777216
370
    -2
100
AcDbLine
 10
636.8224899546281
 20
-415.0
 30
0.0
 11
636.8224899546281
 21
-287.9999999999999
 31
0.0
  0
INSERT
  5
A009D
330
9FED5
100
AcDbEntity
  8
SIZE
 62
     0
440
 16777216
370
    -2
100
AcDbBlockReference
  2
_ORIGIN
 10
636.8224899546281
 20
-425.0
 30
0.0
 41
10.0
 42
10.0
 43
10.0
 50
270.0
  0
INSERT
  5
A009E
330
9FED5
100
AcDbEntity
  8
SIZE
 62
     0
440
 16777216
370
    -2
100
AcDbBlockReference
  2
_ORIGIN
 10
636.8224899546281
 20
-277.9999999999998
 30
0.0
 41
10.0
 42
10.0
 43
10.0
 50
90.0
  0
MTEXT
  5
A009F
330
9FED5
100
AcDbEntity
  8
SIZE
 62
     0
440
 16777216
100
AcDbMText
 10
601.8224899546281
 20
-351.4999999999998
 30
0.0
 40
50.0
 41
0.0
 71
     5
 72
     1
  1
\A1;147
 11
0.0000000000000001
 21
1.0
 31
0.0
 73
     1
 44
1.0
  0
POINT
  5
A00A0
330
9FED5
100
AcDbEntity
  8
DEFPOINTS
 62
     0
440
 16777216
100
AcDbPoint
 10
278.8308962266774
 20
-425.0
 30
0.0
  0
POINT
  5
A00A1
330
9FED5
100
AcDbEntity
  8
DEFPOINTS
 62
     0
440
 16777216
100
AcDbPoint
 10
425.8308962266774
 20
-277.9999999999998
 30
0.0
  0
POINT
  5
A00A2
330
9FED5
100
AcDbEntity
  8
DEFPOINTS
 62
     0
440
 16777216
100
AcDbPoint
 10
636.8224899546281
 20
-277.9999999999998
 30
0.0
  0
ENDBLK
  5
9FED7
330
9FED5
100
AcDbEntity
  8
0
100
AcDbBlockEnd
  0
BLOCK
  5
9FEE2
330
9FEE1
100
AcDbEntity
  8
0
100
AcDbBlockBegin
  2
*D6
 70
     1
 10
0.0
 20
0.0
 30
0.0
  3
*D6
  1

  0
LINE
  5
A00A3
330
9FEE1
100
AcDbEntity
  8
SIZE
 62
     0
440
 16777216
370
    -2
100
AcDbLine
 10
278.8308962266774
 20
-445.0
 30
0.0
 11
278.8308962266774
 21
-836.4639560855609
 31
0.0
  0
LINE
  5
A00A4
330
9FEE1
100
AcDbEntity
  8
SIZE
 62
     0
440
 16777216
370
    -2
100
AcDbLine
 10
425.8308962266774
 20
-297.9999999999998
 30
0.0
 11
425.8308962266773
 21
-836.4639560855609
 31
0.0
  0
LINE
  5
A00A5
330
9FEE1
100
AcDbEntity
  8
SIZE
 62
     0
440
 16777216
370
    -2
100
AcDbLine
 10
415.8308962266773
 20
-816.4639560855611
 30
0.0
 11
288.8308962266773
 21
-816.4639560855611
 31
0.0
  0
LINE
  5
A00A6
330
9FEE1
100
AcDbEntity
  8
SIZE
 62
     0
440
 16777216
370
    -2
100
AcDbLine
 10
278.8308962266774
 20
-816.4639560855611
 30
0.0
 11
107.011543662158
 21
-816.4639560855611
 31
0.0
  0
INSERT
  5
A00A7
330
9FEE1
100
AcDbEntity
  8
SIZE
 62
     0
440
 16777216
370
    -2
100
AcDbBlockReference
  2
_ORIGIN
 10
425.8308962266773
 20
-816.4639560855611
 30
0.0
 41
10.0
 42
10.0
 43
10.0
  0
INSERT
  5
A00A8
330
9FEE1
100
AcDbEntity
  8
SIZE
 62
     0
440
 16777216
370
    -2
100
AcDbBlockReference
  2
_ORIGIN
 10
278.8308962266774
 20
-816.4639560855611
 30
0.0
 41
10.0
 42
10.0
 43
10.0
 50
180.0
  0
MTEXT
  5
A00A9
330
9FEE1
100
AcDbEntity
  8
SIZE
 62
     0
440
 16777216
100
AcDbMText
 10
170.5829722335866
 20
-781.4639560855611
 30
0.0
 40
50.0
 41
0.0
 71
     5
 72
     1
  1
\A1;147
 73
     1
 44
1.0
  0
POINT
  5
A00AA
330
9FEE1
100
AcDbEntity
  8
DEFPOINTS
 62
     0
440
 16777216
100
AcDbPoint
 10
278.8308962266774
 20
-425.0
 30
0.0
  0
POINT
  5
A00AB
330
9FEE1
100
AcDbEntity
  8
DEFPOINTS
 62
     0
440
 16777216
100
AcDbPoint
 10
425.8308962266774
 20
-277.9999999999998
 30
0.0
  0
POINT
  5
A00AC
330
9FEE1
100
AcDbEntity
  8
DEFPOINTS
 62
     0
440
 16777216
100
AcDbPoint
 10
425.8308962266773
 20
-816.4639560855611
 30
0.0
  0
ENDBLK
  5
9FEE3
330
9FEE1
100
AcDbEntity
  8
0
100
AcDbBlockEnd
  0
BLOCK
  5
9FEEF
330
9FEEE
100
AcDbEntity
  8
0
100
AcDbBlockBegin
  2
*D7
 70
     1
 10
0.0
 20
0.0
 30
0.0
  3
*D7
  1

  0
LINE
  5
A00AD
330
9FEEE
100
AcDbEntity
  8
SIZE
 62
     0
440
 16777216
370
    -2
100
AcDbLine
 10
-229.1691037733226
 20
-365.5
 30
0.0
 11
-229.1691037733226
 21
-743.3251800236647
 31
0.0
  0
LINE
  5
A00AE
330
9FEEE
100
AcDbEntity
  8
SIZE
 62
     0
440
 16777216
370
    -2
100
AcDbLine
 10
-424.1691037733225
 20
-306.9999999999999
 30
0.0
 11
-424.1691037733225
 21
-743.3251800236647
 31
0.0
  0
LINE
  5
A00AF
330
9FEEE
100
AcDbEntity
  8
SIZE
 62
     0
440
 16777216
370
    -2
100
AcDbLine
 10
-414.1691037733226
 20
-723.3251800236645
 30
0.0
 11
-239.1691037733226
 21
-723.3251800236645
 31
0.0
  0
LINE
  5
A00B0
330
9FEEE
100
AcDbEntity
  8
SIZE
 62
     0
440
 16777216
370
    -2
100
AcDbLine
 10
-229.1691037733226
 20
-723.3251800236645
 30
0.0
 11
-43.19840407365322
 21
-723.3251800236645
 31
0.0
  0
INSERT
  5
A00B1
330
9FEEE
100
AcDbEntity
  8
SIZE
 62
     0
440
 16777216
370
    -2
100
AcDbBlockReference
  2
_ORIGIN
 10
-424.1691037733225
 20
-723.3251800236645
 30
0.0
 41
10.0
 42
10.0
 43
10.0
 50
180.0
  0
INSERT
  5
A00B2
330
9FEEE
100
AcDbEntity
  8
SIZE
 62
     0
440
 16777216
370
    -2
100
AcDbBlockReference
  2
_ORIGIN
 10
-229.1691037733226
 20
-723.3251800236645
 30
0.0
 41
10.0
 42
10.0
 43
10.0
  0
MTEXT
  5
A00B3
330
9FEEE
100
AcDbEntity
  8
SIZE
 62
     0
440
 16777216
100
AcDbMText
 10
-106.7698326450818
 20
-688.3251800236645
 30
0.0
 40
50.0
 41
0.0
 71
     5
 72
     1
  1
\A1;195
 73
     1
 44
1.0
  0
POINT
  5
A00B4
330
9FEEE
100
AcDbEntity
  8
DEFPOINTS
 62
     0
440
 16777216
100
AcDbPoint
 10
-229.1691037733226
 20
-345.5
 30
0.0
  0
POINT
  5
A00B5
330
9FEEE
100
AcDbEntity
  8
DEFPOINTS
 62
     0
440
 16777216
100
AcDbPoint
 10
-424.1691037733225
 20
-286.9999999999999
 30
0.0
  0
POINT
  5
A00B6
330
9FEEE
100
AcDbEntity
  8
DEFPOINTS
 62
     0
440
 16777216
100
AcDbPoint
 10
-424.1691037733225
 20
-723.3251800236645
 30
0.0
  0
ENDBLK
  5
9FEF0
330
9FEEE
100
AcDbEntity
  8
0
100
AcDbBlockEnd
  0
BLOCK
  5
9FEFC
330
9FEFB
100
AcDbEntity
  8
0
100
AcDbBlockBegin
  2
*D8
 70
     1
 10
0.0
 20
0.0
 30
0.0
  3
*D8
  1

  0
LINE
  5
A00B7
330
9FEFB
100
AcDbEntity
  8
SIZE
 62
     0
440
 16777216
370
    -2
100
AcDbLine
 10
-220.1691037733226
 20
-424.9999999999992
 30
0.0
 11
-735.5077318179657
 21
-424.9999999999991
 31
0.0
  0
LINE
  5
A00B8
330
9FEFB
100
AcDbEntity
  8
SIZE
 62
     0
440
 16777216
370
    -2
100
AcDbLine
 10
-379.794315638338
 20
-345.5
 30
0.0
 11
-735.5077318179657
 21
-345.4999999999998
 31
0.0
  0
LINE
  5
A00B9
330
9FEFB
100
AcDbEntity
  8
SIZE
 62
     0
440
 16777216
370
    -2
100
AcDbLine
 10
-715.5077318179657
 20
-414.9999999999994
 30
0.0
 11
-715.5077318179657
 21
-355.4999999999998
 31
0.0
  0
LINE
  5
A00BA
330
9FEFB
100
AcDbEntity
  8
SIZE
 62
     0
440
 16777216
370
    -2
100
AcDbLine
 10
-715.5077318179657
 20
-345.4999999999998
 30
0.0
 11
-715.5077318179657
 21
-125.9941488589161
 31
0.0
  0
INSERT
  5
A00BB
330
9FEFB
100
AcDbEntity
  8
SIZE
 62
     0
440
 16777216
370
    -2
100
AcDbBlockReference
  2
_ORIGIN
 10
-715.5077318179657
 20
-424.9999999999991
 30
0.0
 41
10.0
 42
10.0
 43
10.0
 50
270.0
  0
INSERT
  5
A00BC
330
9FEFB
100
AcDbEntity
  8
SIZE
 62
     0
440
 16777216
370
    -2
100
AcDbBlockReference
  2
_ORIGIN
 10
-715.5077318179657
 20
-345.4999999999998
 30
0.0
 41
10.0
 42
10.0
 43
10.0
 50
90.0
  0
MTEXT
  5
A00BD
330
9FEFB
100
AcDbEntity
  8
SIZE
 62
     0
440
 16777216
100
AcDbMText
 10
-750.5077318179655
 20
-204.5655774303448
 30
0.0
 40
50.0
 41
0.0
 71
     5
 72
     1
  1
\A1;79.5
 11
0.0000000000000001
 21
1.0
 31
0.0
 73
     1
 44
1.0
  0
POINT
  5
A00BE
330
9FEFB
100
AcDbEntity
  8
DEFPOINTS
 62
     0
440
 16777216
100
AcDbPoint
 10
-200.1691037733226
 20
-424.9999999999992
 30
0.0
  0
POINT
  5
A00BF
330
9FEFB
100
AcDbEntity
  8
DEFPOINTS
 62
     0
440
 16777216
100
AcDbPoint
 10
-359.794315638338
 20
-345.5
 30
0.0
  0
POINT
  5
A00C0
330
9FEFB
100
AcDbEntity
  8
DEFPOINTS
 62
     0
440
 16777216
100
AcDbPoint
 10
-715.5077318179657
 20
-345.4999999999998
 30
0.0
  0
ENDBLK
  5
9FEFD
330
9FEFB
100
AcDbEntity
  8
0
100
AcDbBlockEnd
  0
BLOCK
  5
9FF09
330
9FF08
100
AcDbEntity
  8
0
100
AcDbBlockBegin
  2
*D9
 70
     1
 10
0.0
 20
0.0
 30
0.0
  3
*D9
  1

  0
LINE
  5
A00C1
330
9FF08
100
AcDbEntity
  8
SIZE
 62
     0
440
 16777216
370
    -2
100
AcDbLine
 10
-444.1691037733225
 20
-291.9999999999999
 30
0.0
 11
-828.7400138831259
 21
-291.9999999999998
 31
0.0
  0
LINE
  5
A00C2
330
9FF08
100
AcDbEntity
  8
SIZE
 62
     0
440
 16777216
370
    -2
100
AcDbLine
 10
-220.1691037733226
 20
-424.9999999999992
 30
0.0
 11
-828.7400138831259
 21
-424.9999999999991
 31
0.0
  0
LINE
  5
A00C3
330
9FF08
100
AcDbEntity
  8
SIZE
 62
     0
440
 16777216
370
    -2
100
AcDbLine
 10
-808.7400138831259
 20
-414.9999999999994
 30
0.0
 11
-808.7400138831259
 21
-301.9999999999998
 31
0.0
  0
LINE
  5
A00C4
330
9FF08
100
AcDbEntity
  8
SIZE
 62
     0
440
 16777216
370
    -2
100
AcDbLine
 10
-808.7400138831259
 20
-291.9999999999998
 30
0.0
 11
-808.7400138831258
 21
-154.8571428571425
 31
0.0
  0
INSERT
  5
A00C5
330
9FF08
100
AcDbEntity
  8
SIZE
 62
     0
440
 16777216
370
    -2
100
AcDbBlockReference
  2
_ORIGIN
 10
-808.7400138831259
 20
-424.9999999999991
 30
0.0
 41
10.0
 42
10.0
 43
10.0
 50
270.0
  0
INSERT
  5
A00C6
330
9FF08
100
AcDbEntity
  8
SIZE
 62
     0
440
 16777216
370
    -2
100
AcDbBlockReference
  2
_ORIGIN
 10
-808.7400138831259
 20
-291.9999999999998
 30
0.0
 41
10.0
 42
10.0
 43
10.0
 50
90.0
  0
MTEXT
  5
A00C7
330
9FF08
100
AcDbEntity
  8
SIZE
 62
     0
440
 16777216
100
AcDbMText
 10
-843.7400138831257
 20
-218.4285714285712
 30
0.0
 40
50.0
 41
0.0
 71
     5
 72
     1
  1
\A1;133
 11
0.0000000000000001
 21
1.0
 31
0.0
 73
     1
 44
1.0
  0
POINT
  5
A00C8
330
9FF08
100
AcDbEntity
  8
DEFPOINTS
 62
     0
440
 16777216
100
AcDbPoint
 10
-424.1691037733225
 20
-291.9999999999999
 30
0.0
  0
POINT
  5
A00C9
330
9FF08
100
AcDbEntity
  8
DEFPOINTS
 62
     0
440
 16777216
100
AcDbPoint
 10
-200.1691037733226
 20
-424.9999999999992
 30
0.0
  0
POINT
  5
A00CA
330
9FF08
100
AcDbEntity
  8
DEFPOINTS
 62
     0
440
 16777216
100
AcDbPoint
 10
-808.7400138831259
 20
-424.9999999999991
 30
0.0
  0
ENDBLK
  5
9FF0A
330
9FF08
100
AcDbEntity
  8
0
100
AcDbBlockEnd
  0
BLOCK
  5
9FF16
330
9FF15
100
AcDbEntity
  8
0
100
AcDbBlockBegin
  2
*D10
 70
     1
 10
0.0
 20
0.0
 30
0.0
  3
*D10
  1

  0
LINE
  5
A00CB
330
9FF15
100
AcDbEntity
  8
SIZE
 62
     0
440
 16777216
370
    -2
100
AcDbLine
 10
-283.1691037733227
 20
-459.9999999999996
 30
0.0
 11
-283.1691037733227
 21
-958.2733386352009
 31
0.0
  0
LINE
  5
A00CC
330
9FF15
100
AcDbEntity
  8
SIZE
 62
     0
440
 16777216
370
    -2
100
AcDbLine
 10
-343.1691037733227
 20
-459.9999999999996
 30
0.0
 11
-343.1691037733227
 21
-958.2733386352009
 31
0.0
  0
LINE
  5
A00CD
330
9FF15
100
AcDbEntity
  8
SIZE
 62
     0
440
 16777216
370
    -2
100
AcDbLine
 10
-293.1691037733227
 20
-938.2733386352008
 30
0.0
 11
-333.1691037733226
 21
-938.2733386352008
 31
0.0
  0
LINE
  5
A00CE
330
9FF15
100
AcDbEntity
  8
SIZE
 62
     0
440
 16777216
370
    -2
100
AcDbLine
 10
-343.1691037733227
 20
-938.2733386352008
 30
0.0
 11
-544.2030437033269
 21
-938.2733386352008
 31
0.0
  0
INSERT
  5
A00CF
330
9FF15
100
AcDbEntity
  8
SIZE
 62
     0
440
 16777216
370
    -2
100
AcDbBlockReference
  2
_ORIGIN
 10
-283.1691037733227
 20
-938.2733386352008
 30
0.0
 41
10.0
 42
10.0
 43
10.0
  0
INSERT
  5
A00D0
330
9FF15
100
AcDbEntity
  8
SIZE
 62
     0
440
 16777216
370
    -2
100
AcDbBlockReference
  2
_ORIGIN
 10
-343.1691037733227
 20
-938.2733386352008
 30
0.0
 41
10.0
 42
10.0
 43
10.0
 50
180.0
  0
MTEXT
  5
A00D1
330
9FF15
100
AcDbEntity
  8
SIZE
 62
     0
440
 16777216
100
AcDbMText
 10
-497.7744722747553
 20
-903.2733386352006
 30
0.0
 40
50.0
 41
0.0
 71
     5
 72
     1
  1
\A1;60
 73
     1
 44
1.0
  0
POINT
  5
A00D2
330
9FF15
100
AcDbEntity
  8
DEFPOINTS
 62
     0
440
 16777216
100
AcDbPoint
 10
-283.1691037733227
 20
-439.9999999999997
 30
0.0
  0
POINT
  5
A00D3
330
9FF15
100
AcDbEntity
  8
DEFPOINTS
 62
     0
440
 16777216
100
AcDbPoint
 10
-343.1691037733227
 20
-439.9999999999997
 30
0.0
  0
POINT
  5
A00D4
330
9FF15
100
AcDbEntity
  8
DEFPOINTS
 62
     0
440
 16777216
100
AcDbPoint
 10
-343.1691037733227
 20
-938.2733386352008
 30
0.0
  0
ENDBLK
  5
9FF17
330
9FF15
100
AcDbEntity
  8
0
100
AcDbBlockEnd
  0
BLOCK
  5
9FF23
330
9FF22
100
AcDbEntity
  8
0
100
AcDbBlockBegin
  2
*D11
 70
     1
 10
0.0
 20
0.0
 30
0.0
  3
*D11
  1

  0
LINE
  5
A00D5
330
9FF22
100
AcDbEntity
  8
SIZE
 62
     0
440
 16777216
370
    -2
100
AcDbLine
 10
-283.1691037733227
 20
-459.9999999999996
 30
0.0
 11
-283.1691037733227
 21
-958.2733386352009
 31
0.0
  0
LINE
  5
A00D6
330
9FF22
100
AcDbEntity
  8
SIZE
 62
     0
440
 16777216
370
    -2
100
AcDbLine
 10
344.8308962266774
 20
-459.9999999999996
 30
0.0
 11
344.8308962266773
 21
-958.2733386352009
 31
0.0
  0
LINE
  5
A00D7
330
9FF22
100
AcDbEntity
  8
SIZE
 62
     0
440
 16777216
370
    -2
100
AcDbLine
 10
-273.1691037733227
 20
-938.2733386352008
 30
0.0
 11
334.8308962266774
 21
-938.2733386352008
 31
0.0
  0
INSERT
  5
A00D8
330
9FF22
100
AcDbEntity
  8
SIZE
 62
     0
440
 16777216
370
    -2
100
AcDbBlockReference
  2
_ORIGIN
 10
-283.1691037733227
 20
-938.2733386352008
 30
0.0
 41
10.0
 42
10.0
 43
10.0
 50
180.0
  0
INSERT
  5
A00D9
330
9FF22
100
AcDbEntity
  8
SIZE
 62
     0
440
 16777216
370
    -2
100
AcDbBlockReference
  2
_ORIGIN
 10
344.8308962266773
 20
-938.2733386352008
 30
0.0
 41
10.0
 42
10.0
 43
10.0
  0
MTEXT
  5
A00DA
330
9FF22
100
AcDbEntity
  8
SIZE
 62
     0
440
 16777216
100
AcDbMText
 10
7.555845340745692
 20
-903.2733386352006
 30
0.0
 40
50.0
 41
0.0
 71
     5
 72
     1
  1
\A1;628
 73
     1
 44
1.0
  0
POINT
  5
A00DB
330
9FF22
100
AcDbEntity
  8
DEFPOINTS
 62
     0
440
 16777216
100
AcDbPoint
 10
-283.1691037733227
 20
-439.9999999999997
 30
0.0
  0
POINT
  5
A00DC
330
9FF22
100
AcDbEntity
  8
DEFPOINTS
 62
     0
440
 16777216
100
AcDbPoint
 10
344.8308962266774
 20
-439.9999999999997
 30
0.0
  0
POINT
  5
A00DD
330
9FF22
100
AcDbEntity
  8
DEFPOINTS
 62
     0
440
 16777216
100
AcDbPoint
 10
344.8308962266773
 20
-938.2733386352008
 30
0.0
  0
ENDBLK
  5
9FF24
330
9FF22
100
AcDbEntity
  8
0
100
AcDbBlockEnd
  0
BLOCK
  5
9FF2F
330
9FF2E
100
AcDbEntity
  8
0
100
AcDbBlockBegin
  2
*D12
 70
     1
 10
0.0
 20
0.0
 30
0.0
  3
*D12
  1

  0
LINE
  5
A00DE
330
9FF2E
100
AcDbEntity
  8
SIZE
 62
     0
440
 16777216
370
    -2
100
AcDbLine
 10
-424.1691037733225
 20
-311.9999999999999
 30
0.0
 11
-424.1691037733225
 21
-1045.91013074955
 31
0.0
  0
LINE
  5
A00DF
330
9FF2E
100
AcDbEntity
  8
SIZE
 62
     0
440
 16777216
370
    -2
100
AcDbLine
 10
425.8308962266774
 20
-297.9999999999998
 30
0.0
 11
425.8308962266773
 21
-1045.91013074955
 31
0.0
  0
LINE
  5
A00E0
330
9FF2E
100
AcDbEntity
  8
SIZE
 62
     0
440
 16777216
370
    -2
100
AcDbLine
 10
-414.1691037733226
 20
-1025.910130749551
 30
0.0
 11
415.8308962266773
 21
-1025.910130749551
 31
0.0
  0
INSERT
  5
A00E1
330
9FF2E
100
AcDbEntity
  8
SIZE
 62
     0
440
 16777216
370
    -2
100
AcDbBlockReference
  2
_ORIGIN
 10
-424.1691037733225
 20
-1025.910130749551
 30
0.0
 41
10.0
 42
10.0
 43
10.0
 50
180.0
  0
INSERT
  5
A00E2
330
9FF2E
100
AcDbEntity
  8
SIZE
 62
     0
440
 16777216
370
    -2
100
AcDbBlockReference
  2
_ORIGIN
 10
425.8308962266773
 20
-1025.910130749551
 30
0.0
 41
10.0
 42
10.0
 43
10.0
  0
MTEXT
  5
A00E3
330
9FF2E
100
AcDbEntity
  8
SIZE
 62
     0
440
 16777216
100
AcDbMText
 10
0.8308962266773981
 20
-990.9101307495507
 30
0.0
 40
50.0
 41
0.0
 71
     5
 72
     1
  1
\A1;850
 73
     1
 44
1.0
  0
POINT
  5
A00E4
330
9FF2E
100
AcDbEntity
  8
DEFPOINTS
 62
     0
440
 16777216
100
AcDbPoint
 10
-424.1691037733225
 20
-291.9999999999999
 30
0.0
  0
POINT
  5
A00E5
330
9FF2E
100
AcDbEntity
  8
DEFPOINTS
 62
     0
440
 16777216
100
AcDbPoint
 10
425.8308962266774
 20
-277.9999999999998
 30
0.0
  0
POINT
  5
A00E6
330
9FF2E
100
AcDbEntity
  8
DEFPOINTS
 62
     0
440
 16777216
100
AcDbPoint
 10
425.8308962266773
 20
-1025.910130749551
 30
0.0
  0
ENDBLK
  5
9FF30
330
9FF2E
100
AcDbEntity
  8
0
100
AcDbBlockEnd
  0
BLOCK
  5
9FF3B
330
9FF3A
100
AcDbEntity
  8
0
100
AcDbBlockBegin
  2
*D13
 70
     1
 10
0.0
 20
0.0
 30
0.0
  3
*D13
  1

  0
LINE
  5
A00E7
330
9FF3A
100
AcDbEntity
  8
SIZE
 62
     0
440
 16777216
370
    -2
100
AcDbLine
 10
298.8308962266773
 20
-425.0
 30
0.0
 11
989.268050640082
 21
-425.0000000000001
 31
0.0
  0
LINE
  5
A00E8
330
9FF3A
100
AcDbEntity
  8
SIZE
 62
     0
440
 16777216
370
    -2
100
AcDbLine
 10
380.8308962266774
 20
-414.0
 30
0.0
 11
989.268050640082
 21
-414.0000000000001
 31
0.0
  0
LINE
  5
A00E9
330
9FF3A
100
AcDbEntity
  8
SIZE
 62
     0
440
 16777216
370
    -2
100
AcDbLine
 10
969.2680506400819
 20
-435.0000000000001
 30
0.0
 11
969.2680506400819
 21
-445.0000000000001
 31
0.0
  0
LINE
  5
A00EA
330
9FF3A
100
AcDbEntity
  8
SIZE
 62
     0
440
 16777216
370
    -2
100
AcDbLine
 10
969.2680506400819
 20
-404.0000000000001
 30
0.0
 11
969.2680506400819
 21
-329.0000000000002
 31
0.0
  0
LINE
  5
A00EB
330
9FF3A
100
AcDbEntity
  8
SIZE
 62
     0
440
 16777216
370
    -2
100
AcDbLine
 10
969.2680506400819
 20
-425.0000000000001
 30
0.0
 11
969.2680506400819
 21
-414.0000000000001
 31
0.0
  0
INSERT
  5
A00EC
330
9FF3A
100
AcDbEntity
  8
SIZE
 62
     0
440
 16777216
370
    -2
100
AcDbBlockReference
  2
_ORIGIN
 10
969.2680506400819
 20
-425.0000000000001
 30
0.0
 41
10.0
 42
10.0
 43
10.0
 50
90.0
  0
INSERT
  5
A00ED
330
9FF3A
100
AcDbEntity
  8
SIZE
 62
     0
440
 16777216
370
    -2
100
AcDbBlockReference
  2
_ORIGIN
 10
969.2680506400819
 20
-414.0000000000001
 30
0.0
 41
10.0
 42
10.0
 43
10.0
 50
270.0
  0
MTEXT
  5
A00EE
330
9FF3A
100
AcDbEntity
  8
SIZE
 62
     0
440
 16777216
100
AcDbMText
 10
934.2680506400819
 20
-361.5000000000002
 30
0.0
 40
50.0
 41
0.0
 71
     5
 72
     1
  1
\A1;11
 11
0.0000000000000001
 21
1.0
 31
0.0
 73
     1
 44
1.0
  0
POINT
  5
A00EF
330
9FF3A
100
AcDbEntity
  8
DEFPOINTS
 62
     0
440
 16777216
100
AcDbPoint
 10
278.8308962266774
 20
-425.0
 30
0.0
  0
POINT
  5
A00F0
330
9FF3A
100
AcDbEntity
  8
DEFPOINTS
 62
     0
440
 16777216
100
AcDbPoint
 10
360.8308962266774
 20
-414.0
 30
0.0
  0
POINT
  5
A00F1
330
9FF3A
100
AcDbEntity
  8
DEFPOINTS
 62
     0
440
 16777216
100
AcDbPoint
 10
969.2680506400819
 20
-414.0000000000001
 30
0.0
  0
ENDBLK
  5
9FF3C
330
9FF3A
100
AcDbEntity
  8
0
100
AcDbBlockEnd
  0
BLOCK
  5
9FF49
330
9FF48
100
AcDbEntity
  8
0
100
AcDbBlockBegin
  2
*D14
 70
     1
 10
0.0
 20
0.0
 30
0.0
  3
*D14
  1

  0
LINE
  5
A00F2
330
9FF48
100
AcDbEntity
  8
SIZE
 62
     0
440
 16777216
370
    -2
100
AcDbLine
 10
-474.1691037733225
 20
475.0
 30
0.0
 11
-1069.092168195919
 21
475.0000000000001
 31
0.0
  0
LINE
  5
A00F3
330
9FF48
100
AcDbEntity
  8
SIZE
 62
     0
440
 16777216
370
    -2
100
AcDbLine
 10
-474.1691037733225
 20
-474.9999999999992
 30
0.0
 11
-1069.092168195919
 21
-474.9999999999992
 31
0.0
  0
LINE
  5
A00F4
330
9FF48
100
AcDbEntity
  8
SIZE
 62
     0
440
 16777216
370
    -2
100
AcDbLine
 10
-1049.092168195919
 20
465.0000000000002
 30
0.0
 11
-1049.092168195919
 21
-464.9999999999994
 31
0.0
  0
INSERT
  5
A00F5
330
9FF48
100
AcDbEntity
  8
SIZE
 62
     0
440
 16777216
370
    -2
100
AcDbBlockReference
  2
_ORIGIN
 10
-1049.092168195919
 20
475.0000000000001
 30
0.0
 41
10.0
 42
10.0
 43
10.0
 50
90.0
  0
INSERT
  5
A00F6
330
9FF48
100
AcDbEntity
  8
SIZE
 62
     0
440
 16777216
370
    -2
100
AcDbBlockReference
  2
_ORIGIN
 10
-1049.092168195919
 20
-474.9999999999992
 30
0.0
 41
10.0
 42
10.0
 43
10.0
 50
270.0
  0
MTEXT
  5
A00F7
330
9FF48
100
AcDbEntity
  8
SIZE
 62
     0
440
 16777216
100
AcDbMText
 10
-1084.092168195919
 20
0.0000000000002391
 30
0.0
 40
50.0
 41
0.0
 71
     5
 72
     1
  1
\A1;950
 11
0.0000000000000001
 21
1.0
 31
0.0
 73
     1
 44
1.0
  0
POINT
  5
A00F8
330
9FF48
100
AcDbEntity
  8
DEFPOINTS
 62
     0
440
 16777216
100
AcDbPoint
 10
-454.1691037733226
 20
475.0
 30
0.0
  0
POINT
  5
A00F9
330
9FF48
100
AcDbEntity
  8
DEFPOINTS
 62
     0
440
 16777216
100
AcDbPoint
 10
-454.1691037733226
 20
-474.9999999999992
 30
0.0
  0
POINT
  5
A00FA
330
9FF48
100
AcDbEntity
  8
DEFPOINTS
 62
     0
440
 16777216
100
AcDbPoint
 10
-1049.092168195919
 20
-474.9999999999992
 30
0.0
  0
ENDBLK
  5
9FF4A
330
9FF48
100
AcDbEntity
  8
0
100
AcDbBlockEnd
  0
BLOCK
  5
9FF55
330
9FF54
100
AcDbEntity
  8
0
100
AcDbBlockBegin
  2
*D15
 70
     1
 10
0.0
 20
0.0
 30
0.0
  3
*D15
  1

  0
LINE
  5
A00FB
330
9FF54
100
AcDbEntity
  8
SIZE
 62
     0
440
 16777216
370
    -2
100
AcDbLine
 10
-429.1691037733226
 20
450.0
 30
0.0
 11
-429.1691037733225
 21
1046.083149292455
 31
0.0
  0
LINE
  5
A00FC
330
9FF54
100
AcDbEntity
  8
SIZE
 62
     0
440
 16777216
370
    -2
100
AcDbLine
 10
430.8308962266774
 20
450.0
 30
0.0
 11
430.8308962266774
 21
1046.083149292455
 31
0.0
  0
LINE
  5
A00FD
330
9FF54
100
AcDbEntity
  8
SIZE
 62
     0
440
 16777216
370
    -2
100
AcDbLine
 10
-419.1691037733225
 20
1026.083149292455
 30
0.0
 11
420.8308962266774
 21
1026.083149292455
 31
0.0
  0
INSERT
  5
A00FE
330
9FF54
100
AcDbEntity
  8
SIZE
 62
     0
440
 16777216
370
    -2
100
AcDbBlockReference
  2
_ORIGIN
 10
-429.1691037733225
 20
1026.083149292455
 30
0.0
 41
10.0
 42
10.0
 43
10.0
 50
180.0
  0
INSERT
  5
A00FF
330
9FF54
100
AcDbEntity
  8
SIZE
 62
     0
440
 16777216
370
    -2
100
AcDbBlockReference
  2
_ORIGIN
 10
430.8308962266774
 20
1026.083149292455
 30
0.0
 41
10.0
 42
10.0
 43
10.0
  0
MTEXT
  5
A0100
330
9FF54
100
AcDbEntity
  8
SIZE
 62
     0
440
 16777216
100
AcDbMText
 10
2.269600661416009
 20
1061.083149292455
 30
0.0
 40
50.0
 41
0.0
 71
     5
 72
     1
  1
\A1;860～910
 73
     1
 44
1.0
  0
POINT
  5
A0101
330
9FF54
100
AcDbEntity
  8
DEFPOINTS
 62
     0
440
 16777216
100
AcDbPoint
 10
-429.1691037733226
 20
430.0
 30
0.0
  0
POINT
  5
A0102
330
9FF54
100
AcDbEntity
  8
DEFPOINTS
 62
     0
440
 16777216
100
AcDbPoint
 10
430.8308962266774
 20
430.0
 30
0.0
  0
POINT
  5
A0103
330
9FF54
100
AcDbEntity
  8
DEFPOINTS
 62
     0
440
 16777216
100
AcDbPoint
 10
430.8308962266774
 20
1026.083149292455
 30
0.0
  0
ENDBLK
  5
9FF56
330
9FF54
100
AcDbEntity
  8
0
100
AcDbBlockEnd
  0
BLOCK
  5
9FF61
330
9FF60
100
AcDbEntity
  8
0
100
AcDbBlockBegin
  2
*D16
 70
     1
 10
0.0
 20
0.0
 30
0.0
  3
*D16
  1

  0
LINE
  5
A0104
330
9FF60
100
AcDbEntity
  8
SIZE
 62
     0
440
 16777216
370
    -2
100
AcDbLine
 10
475.8308962266774
 20
475.0
 30
0.0
 11
475.8308962266774
 21
1046.083149292455
 31
0.0
  0
LINE
  5
A0105
330
9FF60
100
AcDbEntity
  8
SIZE
 62
     0
440
 16777216
370
    -2
100
AcDbLine
 10
430.8308962266774
 20
450.0
 30
0.0
 11
430.8308962266774
 21
1046.083149292455
 31
0.0
  0
LINE
  5
A0106
330
9FF60
100
AcDbEntity
  8
SIZE
 62
     0
440
 16777216
370
    -2
100
AcDbLine
 10
440.8308962266773
 20
1026.083149292455
 30
0.0
 11
465.8308962266773
 21
1026.083149292455
 31
0.0
  0
LINE
  5
A0107
330
9FF60
100
AcDbEntity
  8
SIZE
 62
     0
440
 16777216
370
    -2
100
AcDbLine
 10
475.8308962266774
 20
1026.083149292455
 30
0.0
 11
767.9984238289322
 21
1026.083149292455
 31
0.0
  0
INSERT
  5
A0108
330
9FF60
100
AcDbEntity
  8
SIZE
 62
     0
440
 16777216
370
    -2
100
AcDbBlockReference
  2
_ORIGIN
 10
430.8308962266774
 20
1026.083149292455
 30
0.0
 41
10.0
 42
10.0
 43
10.0
 50
180.0
  0
INSERT
  5
A0109
330
9FF60
100
AcDbEntity
  8
SIZE
 62
     0
440
 16777216
370
    -2
100
AcDbBlockReference
  2
_ORIGIN
 10
475.8308962266774
 20
1026.083149292455
 30
0.0
 41
10.0
 42
10.0
 43
10.0
  0
MTEXT
  5
A010A
330
9FF60
100
AcDbEntity
  8
SIZE
 62
     0
440
 16777216
100
AcDbMText
 10
651.7127095432178
 20
1061.083149292455
 30
0.0
 40
50.0
 41
0.0
 71
     5
 72
     1
  1
\A1;20～45
 73
     1
 44
1.0
  0
POINT
  5
A010B
330
9FF60
100
AcDbEntity
  8
DEFPOINTS
 62
     0
440
 16777216
100
AcDbPoint
 10
475.8308962266774
 20
455.0
 30
0.0
  0
POINT
  5
A010C
330
9FF60
100
AcDbEntity
  8
DEFPOINTS
 62
     0
440
 16777216
100
AcDbPoint
 10
430.8308962266774
 20
430.0
 30
0.0
  0
POINT
  5
A010D
330
9FF60
100
AcDbEntity
  8
DEFPOINTS
 62
     0
440
 16777216
100
AcDbPoint
 10
430.8308962266774
 20
1026.083149292455
 30
0.0
  0
ENDBLK
  5
9FF62
330
9FF60
100
AcDbEntity
  8
0
100
AcDbBlockEnd
  0
BLOCK
  5
9FF6E
330
9FF6D
100
AcDbEntity
  8
0
100
AcDbBlockBegin
  2
*D17
 70
     1
 10
0.0
 20
0.0
 30
0.0
  3
*D17
  1

  0
LINE
  5
A010E
330
9FF6D
100
AcDbEntity
  8
SIZE
 62
     0
440
 16777216
370
    -2
100
AcDbLine
 10
-396.6691037733226
 20
370.0
 30
0.0
 11
-396.6691037733225
 21
854.1820252004511
 31
0.0
  0
LINE
  5
A010F
330
9FF6D
100
AcDbEntity
  8
SIZE
 62
     0
440
 16777216
370
    -2
100
AcDbLine
 10
398.3308962266774
 20
370.0
 30
0.0
 11
398.3308962266775
 21
854.1820252004511
 31
0.0
  0
LINE
  5
A0110
330
9FF6D
100
AcDbEntity
  8
SIZE
 62
     0
440
 16777216
370
    -2
100
AcDbLine
 10
-386.6691037733226
 20
834.1820252004508
 30
0.0
 11
388.3308962266775
 21
834.1820252004508
 31
0.0
  0
INSERT
  5
A0111
330
9FF6D
100
AcDbEntity
  8
SIZE
 62
     0
440
 16777216
370
    -2
100
AcDbBlockReference
  2
_ORIGIN
 10
-396.6691037733225
 20
834.1820252004508
 30
0.0
 41
10.0
 42
10.0
 43
10.0
 50
180.0
  0
INSERT
  5
A0112
330
9FF6D
100
AcDbEntity
  8
SIZE
 62
     0
440
 16777216
370
    -2
100
AcDbBlockReference
  2
_ORIGIN
 10
398.3308962266775
 20
834.1820252004508
 30
0.0
 41
10.0
 42
10.0
 43
10.0
  0
MTEXT
  5
A0113
330
9FF6D
100
AcDbEntity
  8
SIZE
 62
     0
440
 16777216
100
AcDbMText
 10
0.8308962266773981
 20
869.1820252004509
 30
0.0
 40
50.0
 41
0.0
 71
     5
 72
     1
  1
\A1;795
 73
     1
 44
1.0
  0
POINT
  5
A0114
330
9FF6D
100
AcDbEntity
  8
DEFPOINTS
 62
     0
440
 16777216
100
AcDbPoint
 10
-396.6691037733226
 20
350.0
 30
0.0
  0
POINT
  5
A0115
330
9FF6D
100
AcDbEntity
  8
DEFPOINTS
 62
     0
440
 16777216
100
AcDbPoint
 10
398.3308962266774
 20
350.0
 30
0.0
  0
POINT
  5
A0116
330
9FF6D
100
AcDbEntity
  8
DEFPOINTS
 62
     0
440
 16777216
100
AcDbPoint
 10
398.3308962266775
 20
834.1820252004508
 30
0.0
  0
ENDBLK
  5
9FF6F
330
9FF6D
100
AcDbEntity
  8
0
100
AcDbBlockEnd
  0
BLOCK
  5
9FF7A
330
9FF79
100
AcDbEntity
  8
0
100
AcDbBlockBegin
  2
*D18
 70
     1
 10
0.0
 20
0.0
 30
0.0
  3
*D18
  1

  0
LINE
  5
A0117
330
9FF79
100
AcDbEntity
  8
SIZE
 62
     0
440
 16777216
370
    -2
100
AcDbLine
 10
438.3308962266771
 20
330.0000000000002
 30
0.0
 11
805.7629847731758
 21
330.0000000000002
 31
0.0
  0
LINE
  5
A0118
330
9FF79
100
AcDbEntity
  8
SIZE
 62
     0
440
 16777216
370
    -2
100
AcDbLine
 10
445.8308962266774
 20
-329.9999999999999
 30
0.0
 11
805.7629847731758
 21
-329.9999999999999
 31
0.0
  0
LINE
  5
A0119
330
9FF79
100
AcDbEntity
  8
SIZE
 62
     0
440
 16777216
370
    -2
100
AcDbLine
 10
785.7629847731758
 20
320.0000000000002
 30
0.0
 11
785.7629847731758
 21
-319.9999999999999
 31
0.0
  0
INSERT
  5
A011A
330
9FF79
100
AcDbEntity
  8
SIZE
 62
     0
440
 16777216
370
    -2
100
AcDbBlockReference
  2
_ORIGIN
 10
785.7629847731758
 20
330.0000000000002
 30
0.0
 41
10.0
 42
10.0
 43
10.0
 50
90.0
  0
INSERT
  5
A011B
330
9FF79
100
AcDbEntity
  8
SIZE
 62
     0
440
 16777216
370
    -2
100
AcDbBlockReference
  2
_ORIGIN
 10
785.7629847731758
 20
-329.9999999999999
 30
0.0
 41
10.0
 42
10.0
 43
10.0
 50
270.0
  0
MTEXT
  5
A011C
330
9FF79
100
AcDbEntity
  8
SIZE
 62
     0
440
 16777216
100
AcDbMText
 10
734.9296514398425
 20
0.0000000000002336
 30
0.0
 40
50.0
 41
0.0
 71
     5
 72
     1
  1
\A1;660{\H0.7x;\S+40^  0;}
 11
0.0000000000000001
 21
1.0
 31
0.0
 73
     1
 44
1.0
  0
POINT
  5
A011D
330
9FF79
100
AcDbEntity
  8
DEFPOINTS
 62
     0
440
 16777216
100
AcDbPoint
 10
418.3308962266771
 20
330.0000000000002
 30
0.0
  0
POINT
  5
A011E
330
9FF79
100
AcDbEntity
  8
DEFPOINTS
 62
     0
440
 16777216
100
AcDbPoint
 10
425.8308962266774
 20
-329.9999999999999
 30
0.0
  0
POINT
  5
A011F
330
9FF79
100
AcDbEntity
  8
DEFPOINTS
 62
     0
440
 16777216
100
AcDbPoint
 10
785.7629847731758
 20
-329.9999999999999
 30
0.0
  0
ENDBLK
  5
9FF7B
330
9FF79
100
AcDbEntity
  8
0
100
AcDbBlockEnd
  0
BLOCK
  5
9FF86
330
9FF85
100
AcDbEntity
  8
0
100
AcDbBlockBegin
  2
*D19
 70
     1
 10
0.0
 20
0.0
 30
0.0
  3
*D19
  1

  0
LINE
  5
A0120
330
9FF85
100
AcDbEntity
  8
SIZE
 62
     0
440
 16777216
370
    -2
100
AcDbLine
 10
450.8308962266774
 20
430.0
 30
0.0
 11
1082.666122228906
 21
429.9999999999998
 31
0.0
  0
LINE
  5
A0121
330
9FF85
100
AcDbEntity
  8
SIZE
 62
     0
440
 16777216
370
    -2
100
AcDbLine
 10
450.8308962266774
 20
-430.0
 30
0.0
 11
1082.666122228906
 21
-430.0000000000001
 31
0.0
  0
LINE
  5
A0122
330
9FF85
100
AcDbEntity
  8
SIZE
 62
     0
440
 16777216
370
    -2
100
AcDbLine
 10
1062.666122228907
 20
419.9999999999998
 30
0.0
 11
1062.666122228907
 21
-420.0000000000001
 31
0.0
  0
INSERT
  5
A0123
330
9FF85
100
AcDbEntity
  8
SIZE
 62
     0
440
 16777216
370
    -2
100
AcDbBlockReference
  2
_ORIGIN
 10
1062.666122228907
 20
429.9999999999998
 30
0.0
 41
10.0
 42
10.0
 43
10.0
 50
90.0
  0
INSERT
  5
A0124
330
9FF85
100
AcDbEntity
  8
SIZE
 62
     0
440
 16777216
370
    -2
100
AcDbBlockReference
  2
_ORIGIN
 10
1062.666122228907
 20
-430.0000000000001
 30
0.0
 41
10.0
 42
10.0
 43
10.0
 50
270.0
  0
MTEXT
  5
A0125
330
9FF85
100
AcDbEntity
  8
SIZE
 62
     0
440
 16777216
100
AcDbMText
 10
1027.666122228906
 20
-0.0000000000000039
 30
0.0
 40
50.0
 41
0.0
 71
     5
 72
     1
  1
\A1;860～910
 11
0.0000000000000001
 21
1.0
 31
0.0
 73
     1
 44
1.0
  0
POINT
  5
A0126
330
9FF85
100
AcDbEntity
  8
DEFPOINTS
 62
     0
440
 16777216
100
AcDbPoint
 10
430.8308962266774
 20
430.0
 30
0.0
  0
POINT
  5
A0127
330
9FF85
100
AcDbEntity
  8
DEFPOINTS
 62
     0
440
 16777216
100
AcDbPoint
 10
430.8308962266774
 20
-430.0
 30
0.0
  0
POINT
  5
A0128
330
9FF85
100
AcDbEntity
  8
DEFPOINTS
 62
     0
440
 16777216
100
AcDbPoint
 10
1062.666122228907
 20
-430.0000000000001
 30
0.0
  0
ENDBLK
  5
9FF87
330
9FF85
100
AcDbEntity
  8
0
100
AcDbBlockEnd
  0
BLOCK
  5
9FF92
330
9FF91
100
AcDbEntity
  8
0
100
AcDbBlockBegin
  2
*D20
 70
     1
 10
0.0
 20
0.0
 30
0.0
  3
*D20
  1

  0
LINE
  5
A0129
330
9FF91
100
AcDbEntity
  8
SIZE
 62
     0
440
 16777216
370
    -2
100
AcDbLine
 10
450.8308962266774
 20
430.0
 30
0.0
 11
1082.666122228906
 21
429.9999999999998
 31
0.0
  0
LINE
  5
A012A
330
9FF91
100
AcDbEntity
  8
SIZE
 62
     0
440
 16777216
370
    -2
100
AcDbLine
 10
475.8308962266774
 20
475.0
 30
0.0
 11
1082.666122228906
 21
474.9999999999998
 31
0.0
  0
LINE
  5
A012B
330
9FF91
100
AcDbEntity
  8
SIZE
 62
     0
440
 16777216
370
    -2
100
AcDbLine
 10
1062.666122228907
 20
439.9999999999998
 30
0.0
 11
1062.666122228907
 21
464.9999999999998
 31
0.0
  0
LINE
  5
A012C
330
9FF91
100
AcDbEntity
  8
SIZE
 62
     0
440
 16777216
370
    -2
100
AcDbLine
 10
1062.666122228907
 20
474.9999999999998
 30
0.0
 11
1062.666122228907
 21
717.5714285714282
 31
0.0
  0
INSERT
  5
A012D
330
9FF91
100
AcDbEntity
  8
SIZE
 62
     0
440
 16777216
370
    -2
100
AcDbBlockReference
  2
_ORIGIN
 10
1062.666122228907
 20
429.9999999999998
 30
0.0
 41
10.0
 42
10.0
 43
10.0
 50
270.0
  0
INSERT
  5
A012E
330
9FF91
100
AcDbEntity
  8
SIZE
 62
     0
440
 16777216
370
    -2
100
AcDbBlockReference
  2
_ORIGIN
 10
1062.666122228907
 20
474.9999999999998
 30
0.0
 41
10.0
 42
10.0
 43
10.0
 50
90.0
  0
MTEXT
  5
A012F
330
9FF91
100
AcDbEntity
  8
SIZE
 62
     0
440
 16777216
100
AcDbMText
 10
1027.666122228906
 20
601.2857142857142
 30
0.0
 40
50.0
 41
0.0
 71
     5
 72
     1
  1
\A1;20～45
 11
0.0000000000000001
 21
1.0
 31
0.0
 73
     1
 44
1.0
  0
POINT
  5
A0130
330
9FF91
100
AcDbEntity
  8
DEFPOINTS
 62
     0
440
 16777216
100
AcDbPoint
 10
430.8308962266774
 20
430.0
 30
0.0
  0
POINT
  5
A0131
330
9FF91
100
AcDbEntity
  8
DEFPOINTS
 62
     0
440
 16777216
100
AcDbPoint
 10
455.8308962266774
 20
475.0
 30
0.0
  0
POINT
  5
A0132
330
9FF91
100
AcDbEntity
  8
DEFPOINTS
 62
     0
440
 16777216
100
AcDbPoint
 10
1062.666122228907
 20
474.9999999999998
 30
0.0
  0
ENDBLK
  5
9FF93
330
9FF91
100
AcDbEntity
  8
0
100
AcDbBlockEnd
  0
BLOCK
  5
9FF9F
330
9FF9E
100
AcDbEntity
  8
0
100
AcDbBlockBegin
  2
*D21
 70
     1
 10
0.0
 20
0.0
 30
0.0
  3
*D21
  1

  0
LINE
  5
A0133
330
9FF9E
100
AcDbEntity
  8
SIZE
 62
     0
440
 16777216
370
    -2
100
AcDbLine
 10
-323.1691037733227
 20
-419.9999999999997
 30
0.0
 11
-604.3347932898515
 21
-419.9999999999997
 31
0.0
  0
LINE
  5
A0134
330
9FF9E
100
AcDbEntity
  8
SIZE
 62
     0
440
 16777216
370
    -2
100
AcDbLine
 10
-379.794315638338
 20
-345.5
 30
0.0
 11
-604.3347932898515
 21
-345.5
 31
0.0
  0
LINE
  5
A0135
330
9FF9E
100
AcDbEntity
  8
SIZE
 62
     0
440
 16777216
370
    -2
100
AcDbLine
 10
-584.3347932898515
 20
-355.5
 30
0.0
 11
-584.3347932898515
 21
-409.9999999999996
 31
0.0
  0
LINE
  5
A0136
330
9FF9E
100
AcDbEntity
  8
SIZE
 62
     0
440
 16777216
370
    -2
100
AcDbLine
 10
-584.3347932898515
 20
-419.9999999999997
 30
0.0
 11
-584.3347932898515
 21
-669.6839455366541
 31
0.0
  0
INSERT
  5
A0137
330
9FF9E
100
AcDbEntity
  8
SIZE
 62
     0
440
 16777216
370
    -2
100
AcDbBlockReference
  2
_ORIGIN
 10
-584.3347932898515
 20
-345.5
 30
0.0
 41
10.0
 42
10.0
 43
10.0
 50
90.0
  0
INSERT
  5
A0138
330
9FF9E
100
AcDbEntity
  8
SIZE
 62
     0
440
 16777216
370
    -2
100
AcDbBlockReference
  2
_ORIGIN
 10
-584.3347932898515
 20
-419.9999999999997
 30
0.0
 41
10.0
 42
10.0
 43
10.0
 50
270.0
  0
MTEXT
  5
A0139
330
9FF9E
100
AcDbEntity
  8
SIZE
 62
     0
440
 16777216
100
AcDbMText
 10
-619.3347932898514
 20
-591.1125169652257
 30
0.0
 40
50.0
 41
0.0
 71
     5
 72
     1
  1
\A1;74.5
 11
0.0000000000000001
 21
1.0
 31
0.0
 73
     1
 44
1.0
  0
POINT
  5
A013A
330
9FF9E
100
AcDbEntity
  8
DEFPOINTS
 62
     0
440
 16777216
100
AcDbPoint
 10
-303.1691037733227
 20
-419.9999999999997
 30
0.0
  0
POINT
  5
A013B
330
9FF9E
100
AcDbEntity
  8
DEFPOINTS
 62
     0
440
 16777216
100
AcDbPoint
 10
-359.794315638338
 20
-345.5
 30
0.0
  0
POINT
  5
A013C
330
9FF9E
100
AcDbEntity
  8
DEFPOINTS
 62
     0
440
 16777216
100
AcDbPoint
 10
-584.3347932898515
 20
-345.5
 30
0.0
  0
ENDBLK
  5
9FFA0
330
9FF9E
100
AcDbEntity
  8
0
100
AcDbBlockEnd
  0
BLOCK
  5
A036B
330
A036A
100
AcDbEntity
  8
0
100
AcDbBlockBegin
  2
*D22
 70
     1
 10
0.0
 20
0.0
 30
0.0
  3
*D22
  1

  0
LINE
  5
A0691
330
A036A
100
AcDbEntity
  8
SIZE
 62
     0
440
 16777216
370
    -2
100
AcDbLine
 10
-462.9999999999993
 20
-272.5000000000018
 30
0.0
 11
-462.9999999999993
 21
-417.1731123213866
 31
0.0
  0
LINE
  5
A0692
330
A036A
100
AcDbEntity
  8
SIZE
 62
     0
440
 16777216
370
    -2
100
AcDbLine
 10
-567.9999999999991
 20
-272.5000000000018
 30
0.0
 11
-567.9999999999991
 21
-417.1731123213866
 31
0.0
  0
LINE
  5
A0693
330
A036A
100
AcDbEntity
  8
SIZE
 62
     0
440
 16777216
370
    -2
100
AcDbLine
 10
-472.9999999999993
 20
-397.1731123213867
 30
0.0
 11
-557.9999999999992
 21
-397.1731123213867
 31
0.0
  0
INSERT
  5
A0694
330
A036A
100
AcDbEntity
  8
SIZE
 62
     0
440
 16777216
370
    -2
100
AcDbBlockReference
  2
_ORIGIN
 10
-462.9999999999993
 20
-397.1731123213867
 30
0.0
 41
10.0
 42
10.0
 43
10.0
  0
INSERT
  5
A0695
330
A036A
100
AcDbEntity
  8
SIZE
 62
     0
440
 16777216
370
    -2
100
AcDbBlockReference
  2
_ORIGIN
 10
-567.9999999999991
 20
-397.1731123213867
 30
0.0
 41
10.0
 42
10.0
 43
10.0
 50
180.0
  0
MTEXT
  5
A0696
330
A036A
100
AcDbEntity
  8
SIZE
 62
     0
440
 16777216
100
AcDbMText
 10
-515.4999999999993
 20
-362.1731123213867
 30
0.0
 40
50.0
 41
0.0
 71
     5
 72
     1
  1
\A1;105
 73
     1
 44
1.0
  0
POINT
  5
A0697
330
A036A
100
AcDbEntity
  8
DEFPOINTS
 62
     0
440
 16777216
100
AcDbPoint
 10
-462.9999999999993
 20
-252.5000000000018
 30
0.0
  0
POINT
  5
A0698
330
A036A
100
AcDbEntity
  8
DEFPOINTS
 62
     0
440
 16777216
100
AcDbPoint
 10
-567.9999999999991
 20
-252.5000000000018
 30
0.0
  0
POINT
  5
A0699
330
A036A
100
AcDbEntity
  8
DEFPOINTS
 62
     0
440
 16777216
100
AcDbPoint
 10
-567.9999999999991
 20
-397.1731123213867
 30
0.0
  0
ENDBLK
  5
A036C
330
A036A
100
AcDbEntity
  8
0
100
AcDbBlockEnd
  0
BLOCK
  5
A0379
330
A0378
100
AcDbEntity
  8
0
100
AcDbBlockBegin
  2
*D23
 70
     1
 10
0.0
 20
0.0
 30
0.0
  3
*D23
  1

  0
LINE
  5
A069A
330
A0378
100
AcDbEntity
  8
SIZE
 62
     0
440
 16777216
370
    -2
100
AcDbLine
 10
-567.9999999999991
 20
-272.5000000000018
 30
0.0
 11
-567.9999999999991
 21
-557.2834497934109
 31
0.0
  0
LINE
  5
A069B
330
A0378
100
AcDbEntity
  8
SIZE
 62
     0
440
 16777216
370
    -2
100
AcDbLine
 10
-391.9999999999999
 20
-267.9999999999982
 30
0.0
 11
-391.9999999999999
 21
-557.2834497934109
 31
0.0
  0
LINE
  5
A069C
330
A0378
100
AcDbEntity
  8
SIZE
 62
     0
440
 16777216
370
    -2
100
AcDbLine
 10
-557.9999999999992
 20
-537.2834497934109
 30
0.0
 11
-401.9999999999996
 21
-537.2834497934109
 31
0.0
  0
INSERT
  5
A069D
330
A0378
100
AcDbEntity
  8
SIZE
 62
     0
440
 16777216
370
    -2
100
AcDbBlockReference
  2
_ORIGIN
 10
-567.9999999999991
 20
-537.2834497934109
 30
0.0
 41
10.0
 42
10.0
 43
10.0
 50
180.0
  0
INSERT
  5
A069E
330
A0378
100
AcDbEntity
  8
SIZE
 62
     0
440
 16777216
370
    -2
100
AcDbBlockReference
  2
_ORIGIN
 10
-391.9999999999999
 20
-537.2834497934109
 30
0.0
 41
10.0
 42
10.0
 43
10.0
  0
MTEXT
  5
A069F
330
A0378
100
AcDbEntity
  8
SIZE
 62
     0
440
 16777216
100
AcDbMText
 10
-479.9999999999995
 20
-502.2834497934107
 30
0.0
 40
50.0
 41
0.0
 71
     5
 72
     1
  1
\A1;176
 73
     1
 44
1.0
  0
POINT
  5
A06A0
330
A0378
100
AcDbEntity
  8
DEFPOINTS
 62
     0
440
 16777216
100
AcDbPoint
 10
-567.9999999999991
 20
-252.5000000000018
 30
0.0
  0
POINT
  5
A06A1
330
A0378
100
AcDbEntity
  8
DEFPOINTS
 62
     0
440
 16777216
100
AcDbPoint
 10
-391.9999999999999
 20
-247.9999999999982
 30
0.0
  0
POINT
  5
A06A2
330
A0378
100
AcDbEntity
  8
DEFPOINTS
 62
     0
440
 16777216
100
AcDbPoint
 10
-391.9999999999999
 20
-537.2834497934109
 30
0.0
  0
ENDBLK
  5
A037A
330
A0378
100
AcDbEntity
  8
0
100
AcDbBlockEnd
  0
BLOCK
  5
A0386
330
A0385
100
AcDbEntity
  8
0
100
AcDbBlockBegin
  2
*D24
 70
     1
 10
0.0
 20
0.0
 30
0.0
  3
*D24
  1

  0
LINE
  5
A06A3
330
A0385
100
AcDbEntity
  8
SIZE
 62
     0
440
 16777216
370
    -2
100
AcDbLine
 10
-392.0000000000002
 20
-268.0000000000018
 30
0.0
 11
-392.0000000000002
 21
-557.2834497934109
 31
0.0
  0
LINE
  5
A06A4
330
A0385
100
AcDbEntity
  8
SIZE
 62
     0
440
 16777216
370
    -2
100
AcDbLine
 10
-25.60000000000241
 20
-286.1000000000004
 30
0.0
 11
-25.60000000000243
 21
-557.2834497934109
 31
0.0
  0
LINE
  5
A06A5
330
A0385
100
AcDbEntity
  8
SIZE
 62
     0
440
 16777216
370
    -2
100
AcDbLine
 10
-382.0000000000002
 20
-537.2834497934109
 30
0.0
 11
-35.60000000000242
 21
-537.2834497934109
 31
0.0
  0
INSERT
  5
A06A6
330
A0385
100
AcDbEntity
  8
SIZE
 62
     0
440
 16777216
370
    -2
100
AcDbBlockReference
  2
_ORIGIN
 10
-392.0000000000002
 20
-537.2834497934109
 30
0.0
 41
10.0
 42
10.0
 43
10.0
 50
180.0
  0
INSERT
  5
A06A7
330
A0385
100
AcDbEntity
  8
SIZE
 62
     0
440
 16777216
370
    -2
100
AcDbBlockReference
  2
_ORIGIN
 10
-25.60000000000243
 20
-537.2834497934109
 30
0.0
 41
10.0
 42
10.0
 43
10.0
  0
MTEXT
  5
A06A8
330
A0385
100
AcDbEntity
  8
SIZE
 62
     0
440
 16777216
100
AcDbMText
 10
-208.8000000000013
 20
-502.2834497934107
 30
0.0
 40
50.0
 41
0.0
 71
     5
 72
     1
  1
\A1;366
 73
     1
 44
1.0
  0
POINT
  5
A06A9
330
A0385
100
AcDbEntity
  8
DEFPOINTS
 62
     0
440
 16777216
100
AcDbPoint
 10
-392.0000000000002
 20
-248.0000000000018
 30
0.0
  0
POINT
  5
A06AA
330
A0385
100
AcDbEntity
  8
DEFPOINTS
 62
     0
440
 16777216
100
AcDbPoint
 10
-25.60000000000241
 20
-266.1000000000004
 30
0.0
  0
POINT
  5
A06AB
330
A0385
100
AcDbEntity
  8
DEFPOINTS
 62
     0
440
 16777216
100
AcDbPoint
 10
-25.60000000000243
 20
-537.2834497934109
 30
0.0
  0
ENDBLK
  5
A0387
330
A0385
100
AcDbEntity
  8
0
100
AcDbBlockEnd
  0
BLOCK
  5
A039C
330
A039B
100
AcDbEntity
  8
0
100
AcDbBlockBegin
  2
*D25
 70
     1
 10
0.0
 20
0.0
 30
0.0
  3
*D25
  1

  0
LINE
  5
A06AC
330
A039B
100
AcDbEntity
  8
SIZE
 62
     0
440
 16777216
370
    -2
100
AcDbLine
 10
-371.9999999999998
 20
-247.9999999999982
 30
0.0
 11
-207.1289512475114
 21
-247.9999999999982
 31
0.0
  0
LINE
  5
A06AD
330
A039B
100
AcDbEntity
  8
SIZE
 62
     0
440
 16777216
370
    -2
100
AcDbLine
 10
-371.9999999999998
 20
-210.0000000000018
 30
0.0
 11
-207.1289512475114
 21
-210.0000000000018
 31
0.0
  0
LINE
  5
A06AE
330
A039B
100
AcDbEntity
  8
SIZE
 62
     0
440
 16777216
370
    -2
100
AcDbLine
 10
-227.1289512475114
 20
-200.0000000000019
 30
0.0
 11
-227.1289512475114
 21
-190.0000000000018
 31
0.0
  0
LINE
  5
A06AF
330
A039B
100
AcDbEntity
  8
SIZE
 62
     0
440
 16777216
370
    -2
100
AcDbLine
 10
-227.1289512475114
 20
-257.9999999999982
 30
0.0
 11
-227.1289512475115
 21
-396.3952982549038
 31
0.0
  0
LINE
  5
A06B0
330
A039B
100
AcDbEntity
  8
SIZE
 62
     0
440
 16777216
370
    -2
100
AcDbLine
 10
-227.1289512475114
 20
-210.0000000000018
 30
0.0
 11
-227.1289512475114
 21
-247.9999999999982
 31
0.0
  0
INSERT
  5
A06B1
330
A039B
100
AcDbEntity
  8
SIZE
 62
     0
440
 16777216
370
    -2
100
AcDbBlockReference
  2
_ORIGIN
 10
-227.1289512475114
 20
-210.0000000000018
 30
0.0
 41
10.0
 42
10.0
 43
10.0
 50
270.0
  0
INSERT
  5
A06B2
330
A039B
100
AcDbEntity
  8
SIZE
 62
     0
440
 16777216
370
    -2
100
AcDbBlockReference
  2
_ORIGIN
 10
-227.1289512475114
 20
-247.9999999999982
 30
0.0
 41
10.0
 42
10.0
 43
10.0
 50
90.0
  0
MTEXT
  5
A06B3
330
A039B
100
AcDbEntity
  8
SIZE
 62
     0
440
 16777216
100
AcDbMText
 10
-262.1289512475114
 20
-349.9667268263324
 30
0.0
 40
50.0
 41
0.0
 71
     5
 72
     1
  1
\A1;38
 11
0.0000000000000001
 21
1.0
 31
0.0
 73
     1
 44
1.0
  0
POINT
  5
A06B4
330
A039B
100
AcDbEntity
  8
DEFPOINTS
 62
     0
440
 16777216
100
AcDbPoint
 10
-391.9999999999999
 20
-247.9999999999982
 30
0.0
  0
POINT
  5
A06B5
330
A039B
100
AcDbEntity
  8
DEFPOINTS
 62
     0
440
 16777216
100
AcDbPoint
 10
-391.9999999999999
 20
-210.0000000000018
 30
0.0
  0
POINT
  5
A06B6
330
A039B
100
AcDbEntity
  8
DEFPOINTS
 62
     0
440
 16777216
100
AcDbPoint
 10
-227.1289512475114
 20
-210.0000000000018
 30
0.0
  0
ENDBLK
  5
A039D
330
A039B
100
AcDbEntity
  8
0
100
AcDbBlockEnd
  0
BLOCK
  5
A03AB
330
A03AA
100
AcDbEntity
  8
0
100
AcDbBlockBegin
  2
*D26
 70
     1
 10
0.0
 20
0.0
 30
0.0
  3
*D26
  1

  0
LINE
  5
A06B7
330
A03AA
100
AcDbEntity
  8
SIZE
 62
     0
440
 16777216
370
    -2
100
AcDbLine
 10
-371.9999999999998
 20
-210.0000000000018
 30
0.0
 11
-207.1289512475117
 21
-210.0000000000018
 31
0.0
  0
LINE
  5
A06B8
330
A03AA
100
AcDbEntity
  8
SIZE
 62
     0
440
 16777216
370
    -2
100
AcDbLine
 10
-371.9999999999998
 20
-0.0000000000000057
 30
0.0
 11
-207.1289512475116
 21
-0.0000000000000524
 31
0.0
  0
LINE
  5
A06B9
330
A03AA
100
AcDbEntity
  8
SIZE
 62
     0
440
 16777216
370
    -2
100
AcDbLine
 10
-227.1289512475117
 20
-200.0000000000019
 30
0.0
 11
-227.1289512475116
 21
-10.00000000000005
 31
0.0
  0
INSERT
  5
A06BA
330
A03AA
100
AcDbEntity
  8
SIZE
 62
     0
440
 16777216
370
    -2
100
AcDbBlockReference
  2
_ORIGIN
 10
-227.1289512475117
 20
-210.0000000000018
 30
0.0
 41
10.0
 42
10.0
 43
10.0
 50
270.0
  0
INSERT
  5
A06BB
330
A03AA
100
AcDbEntity
  8
SIZE
 62
     0
440
 16777216
370
    -2
100
AcDbBlockReference
  2
_ORIGIN
 10
-227.1289512475116
 20
-0.0000000000000467
 30
0.0
 41
10.0
 42
10.0
 43
10.0
 50
90.0
  0
MTEXT
  5
A06BC
330
A03AA
100
AcDbEntity
  8
SIZE
 62
     0
440
 16777216
100
AcDbMText
 10
-262.1289512475116
 20
-105.000000000001
 30
0.0
 40
50.0
 41
0.0
 71
     5
 72
     1
  1
\A1;210
 11
0.0000000000000001
 21
1.0
 31
0.0
 73
     1
 44
1.0
  0
POINT
  5
A06BD
330
A03AA
100
AcDbEntity
  8
DEFPOINTS
 62
     0
440
 16777216
100
AcDbPoint
 10
-391.9999999999999
 20
-210.0000000000018
 30
0.0
  0
POINT
  5
A06BE
330
A03AA
100
AcDbEntity
  8
DEFPOINTS
 62
     0
440
 16777216
100
AcDbPoint
 10
-391.9999999999999
 20
0.0
 30
0.0
  0
POINT
  5
A06BF
330
A03AA
100
AcDbEntity
  8
DEFPOINTS
 62
     0
440
 16777216
100
AcDbPoint
 10
-227.1289512475116
 20
-0.0000000000000467
 30
0.0
  0
ENDBLK
  5
A03AC
330
A03AA
100
AcDbEntity
  8
0
100
AcDbBlockEnd
  0
BLOCK
  5
A040A
330
A0409
100
AcDbEntity
  8
0
100
AcDbBlockBegin
  2
*D27
 70
     1
 10
0.0
 20
0.0
 30
0.0
  3
*D27
  1

  0
LINE
  5
A0857
330
A0409
100
AcDbEntity
  8
SIZE
 62
     0
440
 16777216
370
    -2
100
AcDbLine
 10
-587.9999999999991
 20
0.0000000000000057
 30
0.0
 11
-813.586554800905
 21
0.0000000000000696
 31
0.0
  0
LINE
  5
A0858
330
A0409
100
AcDbEntity
  8
SIZE
 62
     0
440
 16777216
370
    -2
100
AcDbLine
 10
-550.0000000000007
 20
-120.0
 30
0.0
 11
-813.586554800905
 21
-119.9999999999999
 31
0.0
  0
LINE
  5
A0859
330
A0409
100
AcDbEntity
  8
SIZE
 62
     0
440
 16777216
370
    -2
100
AcDbLine
 10
-793.5865548009051
 20
-9.999999999999936
 30
0.0
 11
-793.5865548009051
 21
-109.9999999999999
 31
0.0
  0
INSERT
  5
A085A
330
A0409
100
AcDbEntity
  8
SIZE
 62
     0
440
 16777216
370
    -2
100
AcDbBlockReference
  2
_ORIGIN
 10
-793.5865548009051
 20
0.0000000000000639
 30
0.0
 41
10.0
 42
10.0
 43
10.0
 50
90.0
  0
INSERT
  5
A085B
330
A0409
100
AcDbEntity
  8
SIZE
 62
     0
440
 16777216
370
    -2
100
AcDbBlockReference
  2
_ORIGIN
 10
-793.5865548009051
 20
-119.9999999999999
 30
0.0
 41
10.0
 42
10.0
 43
10.0
 50
270.0
  0
MTEXT
  5
A085C
330
A0409
100
AcDbEntity
  8
SIZE
 62
     0
440
 16777216
100
AcDbMText
 10
-828.586554800905
 20
-60.00000000000007
 30
0.0
 40
50.0
 41
0.0
 71
     5
 72
     1
  1
\A1;120
 11
0.0000000000000001
 21
1.0
 31
0.0
 73
     1
 44
1.0
  0
POINT
  5
A085D
330
A0409
100
AcDbEntity
  8
DEFPOINTS
 62
     0
440
 16777216
100
AcDbPoint
 10
-567.9999999999991
 20
0.0
 30
0.0
  0
POINT
  5
A085E
330
A0409
100
AcDbEntity
  8
DEFPOINTS
 62
     0
440
 16777216
100
AcDbPoint
 10
-530.0000000000006
 20
-120.0
 30
0.0
  0
POINT
  5
A085F
330
A0409
100
AcDbEntity
  8
DEFPOINTS
 62
     0
440
 16777216
100
AcDbPoint
 10
-793.5865548009051
 20
-119.9999999999999
 30
0.0
  0
ENDBLK
  5
A040B
330
A0409
100
AcDbEntity
  8
0
100
AcDbBlockEnd
  0
BLOCK
  5
A0421
330
A0420
100
AcDbEntity
  8
0
100
AcDbBlockBegin
  2
*D28
 70
     1
 10
0.0
 20
0.0
 30
0.0
  3
*D28
  1

  0
LINE
  5
A084E
330
A0420
100
AcDbEntity
  8
SIZE
 62
     0
440
 16777216
370
    -2
100
AcDbLine
 10
-550.0000000000007
 20
-120.0
 30
0.0
 11
-813.586554800905
 21
-119.9999999999999
 31
0.0
  0
LINE
  5
A084F
330
A0420
100
AcDbEntity
  8
SIZE
 62
     0
440
 16777216
370
    -2
100
AcDbLine
 10
-550.0000000000007
 20
-210.0000000000018
 30
0.0
 11
-813.586554800905
 21
-210.0000000000017
 31
0.0
  0
LINE
  5
A0850
330
A0420
100
AcDbEntity
  8
SIZE
 62
     0
440
 16777216
370
    -2
100
AcDbLine
 10
-793.5865548009051
 20
-129.9999999999999
 30
0.0
 11
-793.5865548009051
 21
-200.0000000000017
 31
0.0
  0
INSERT
  5
A0851
330
A0420
100
AcDbEntity
  8
SIZE
 62
     0
440
 16777216
370
    -2
100
AcDbBlockReference
  2
_ORIGIN
 10
-793.5865548009051
 20
-119.9999999999999
 30
0.0
 41
10.0
 42
10.0
 43
10.0
 50
90.0
  0
INSERT
  5
A0852
330
A0420
100
AcDbEntity
  8
SIZE
 62
     0
440
 16777216
370
    -2
100
AcDbBlockReference
  2
_ORIGIN
 10
-793.5865548009051
 20
-210.0000000000017
 30
0.0
 41
10.0
 42
10.0
 43
10.0
 50
270.0
  0
MTEXT
  5
A0853
330
A0420
100
AcDbEntity
  8
SIZE
 62
     0
440
 16777216
100
AcDbMText
 10
-828.586554800905
 20
-165.0000000000009
 30
0.0
 40
50.0
 41
0.0
 71
     5
 72
     1
  1
\A1;90
 11
0.0000000000000001
 21
1.0
 31
0.0
 73
     1
 44
1.0
  0
POINT
  5
A0854
330
A0420
100
AcDbEntity
  8
DEFPOINTS
 62
     0
440
 16777216
100
AcDbPoint
 10
-530.0000000000006
 20
-120.0
 30
0.0
  0
POINT
  5
A0855
330
A0420
100
AcDbEntity
  8
DEFPOINTS
 62
     0
440
 16777216
100
AcDbPoint
 10
-530.0000000000006
 20
-210.0000000000018
 30
0.0
  0
POINT
  5
A0856
330
A0420
100
AcDbEntity
  8
DEFPOINTS
 62
     0
440
 16777216
100
AcDbPoint
 10
-793.5865548009051
 20
-210.0000000000017
 30
0.0
  0
ENDBLK
  5
A0422
330
A0420
100
AcDbEntity
  8
0
100
AcDbBlockEnd
  0
BLOCK
  5
A047B
330
A047A
100
AcDbEntity
  8
0
100
AcDbBlockBegin
  2
*D29
 70
     1
 10
0.0
 20
0.0
 30
0.0
  3
*D29
  1

  0
LINE
  5
A0860
330
A047A
100
AcDbEntity
  8
SIZE
 62
     0
440
 16777216
370
    -2
100
AcDbLine
 10
-542.9999999999993
 20
-165.0
 30
0.0
 11
-739.4142510461424
 21
-164.9999999999999
 31
0.0
  0
LINE
  5
A0861
330
A047A
100
AcDbEntity
  8
SIZE
 62
     0
440
 16777216
370
    -2
100
AcDbLine
 10
-542.9999999999993
 20
0.0000000000000057
 30
0.0
 11
-739.4142510461424
 21
0.0000000000000613
 31
0.0
  0
LINE
  5
A0862
330
A047A
100
AcDbEntity
  8
SIZE
 62
     0
440
 16777216
370
    -2
100
AcDbLine
 10
-719.4142510461424
 20
-154.9999999999999
 30
0.0
 11
-719.4142510461424
 21
-9.999999999999943
 31
0.0
  0
INSERT
  5
A0863
330
A047A
100
AcDbEntity
  8
SIZE
 62
     0
440
 16777216
370
    -2
100
AcDbBlockReference
  2
_ORIGIN
 10
-719.4142510461424
 20
-164.9999999999999
 30
0.0
 41
10.0
 42
10.0
 43
10.0
 50
270.0
  0
INSERT
  5
A0864
330
A047A
100
AcDbEntity
  8
SIZE
 62
     0
440
 16777216
370
    -2
100
AcDbBlockReference
  2
_ORIGIN
 10
-719.4142510461424
 20
0.0000000000000556
 30
0.0
 41
10.0
 42
10.0
 43
10.0
 50
90.0
  0
MTEXT
  5
A0865
330
A047A
100
AcDbEntity
  8
SIZE
 62
     0
440
 16777216
100
AcDbMText
 10
-754.4142510461425
 20
-82.49999999999976
 30
0.0
 40
50.0
 41
0.0
 71
     5
 72
     1
  1
\A1;165
 11
0.0000000000000001
 21
1.0
 31
0.0
 73
     1
 44
1.0
  0
POINT
  5
A0866
330
A047A
100
AcDbEntity
  8
DEFPOINTS
 62
     0
440
 16777216
100
AcDbPoint
 10
-522.9999999999993
 20
-165.0
 30
0.0
  0
POINT
  5
A0867
330
A047A
100
AcDbEntity
  8
DEFPOINTS
 62
     0
440
 16777216
100
AcDbPoint
 10
-522.9999999999993
 20
0.0
 30
0.0
  0
POINT
  5
A0868
330
A047A
100
AcDbEntity
  8
DEFPOINTS
 62
     0
440
 16777216
100
AcDbPoint
 10
-719.4142510461424
 20
0.0000000000000556
 30
0.0
  0
ENDBLK
  5
A047C
330
A047A
100
AcDbEntity
  8
0
100
AcDbBlockEnd
  0
BLOCK
  5
A04CB
330
A04CA
100
AcDbEntity
  8
0
100
AcDbBlockBegin
  2
*D30
 70
     1
 10
0.0
 20
0.0
 30
0.0
  3
*D30
  1

  0
LINE
  5
A06DB
330
A04CA
100
AcDbEntity
  8
SIZE
 62
     0
440
 16777216
370
    -2
100
AcDbLine
 10
-567.9999999999991
 20
17.99999999999818
 30
0.0
 11
-567.9999999999991
 21
61.88602118210929
 31
0.0
  0
LINE
  5
A06DC
330
A04CA
100
AcDbEntity
  8
SIZE
 62
     0
440
 16777216
370
    -2
100
AcDbLine
 10
-522.9999999999993
 20
-145.0651057624836
 30
0.0
 11
-522.9999999999993
 21
61.88602118210929
 31
0.0
  0
LINE
  5
A06DD
330
A04CA
100
AcDbEntity
  8
SIZE
 62
     0
440
 16777216
370
    -2
100
AcDbLine
 10
-532.9999999999992
 20
41.88602118210929
 30
0.0
 11
-557.9999999999992
 21
41.88602118210929
 31
0.0
  0
LINE
  5
A06DE
330
A04CA
100
AcDbEntity
  8
SIZE
 62
     0
440
 16777216
370
    -2
100
AcDbLine
 10
-567.9999999999991
 20
41.88602118210929
 30
0.0
 11
-670.8571428571421
 21
41.88602118210929
 31
0.0
  0
INSERT
  5
A06DF
330
A04CA
100
AcDbEntity
  8
SIZE
 62
     0
440
 16777216
370
    -2
100
AcDbBlockReference
  2
_ORIGIN
 10
-522.9999999999993
 20
41.88602118210929
 30
0.0
 41
10.0
 42
10.0
 43
10.0
  0
INSERT
  5
A06E0
330
A04CA
100
AcDbEntity
  8
SIZE
 62
     0
440
 16777216
370
    -2
100
AcDbBlockReference
  2
_ORIGIN
 10
-567.9999999999991
 20
41.88602118210929
 30
0.0
 41
10.0
 42
10.0
 43
10.0
 50
180.0
  0
MTEXT
  5
A06E1
330
A04CA
100
AcDbEntity
  8
SIZE
 62
     0
440
 16777216
100
AcDbMText
 10
-624.4285714285707
 20
76.8860211821093
 30
0.0
 40
50.0
 41
0.0
 71
     5
 72
     1
  1
\A1;45
 73
     1
 44
1.0
  0
POINT
  5
A06E2
330
A04CA
100
AcDbEntity
  8
DEFPOINTS
 62
     0
440
 16777216
100
AcDbPoint
 10
-567.9999999999991
 20
-2.000000000001818
 30
0.0
  0
POINT
  5
A06E3
330
A04CA
100
AcDbEntity
  8
DEFPOINTS
 62
     0
440
 16777216
100
AcDbPoint
 10
-522.9999999999993
 20
-165.0651057624836
 30
0.0
  0
POINT
  5
A06E4
330
A04CA
100
AcDbEntity
  8
DEFPOINTS
 62
     0
440
 16777216
100
AcDbPoint
 10
-522.9999999999993
 20
41.88602118210929
 30
0.0
  0
ENDBLK
  5
A04CC
330
A04CA
100
AcDbEntity
  8
0
100
AcDbBlockEnd
  0
BLOCK
  5
A04ED
330
A04EC
100
AcDbEntity
  8
0
100
AcDbBlockBegin
  2
*D31
 70
     1
 10
0.0
 20
0.0
 30
0.0
  3
*D31
  1

  0
LINE
  5
A06E5
330
A04EC
100
AcDbEntity
  8
SIZE
 62
     0
440
 16777216
370
    -2
100
AcDbLine
 10
-523.0000000000003
 20
-145.0000000000018
 30
0.0
 11
-523.0000000000003
 21
61.88602118210929
 31
0.0
  0
LINE
  5
A06E6
330
A04EC
100
AcDbEntity
  8
SIZE
 62
     0
440
 16777216
370
    -2
100
AcDbLine
 10
-437.9999999999993
 20
-145.0
 30
0.0
 11
-437.9999999999993
 21
61.88602118210929
 31
0.0
  0
LINE
  5
A06E7
330
A04EC
100
AcDbEntity
  8
SIZE
 62
     0
440
 16777216
370
    -2
100
AcDbLine
 10
-513.0000000000003
 20
41.88602118210929
 30
0.0
 11
-447.9999999999993
 21
41.88602118210929
 31
0.0
  0
INSERT
  5
A06E8
330
A04EC
100
AcDbEntity
  8
SIZE
 62
     0
440
 16777216
370
    -2
100
AcDbBlockReference
  2
_ORIGIN
 10
-523.0000000000003
 20
41.88602118210929
 30
0.0
 41
10.0
 42
10.0
 43
10.0
 50
180.0
  0
INSERT
  5
A06E9
330
A04EC
100
AcDbEntity
  8
SIZE
 62
     0
440
 16777216
370
    -2
100
AcDbBlockReference
  2
_ORIGIN
 10
-437.9999999999993
 20
41.88602118210929
 30
0.0
 41
10.0
 42
10.0
 43
10.0
  0
MTEXT
  5
A06EA
330
A04EC
100
AcDbEntity
  8
SIZE
 62
     0
440
 16777216
100
AcDbMText
 10
-480.4999999999998
 20
76.8860211821093
 30
0.0
 40
50.0
 41
0.0
 71
     5
 72
     1
  1
\A1;85
 73
     1
 44
1.0
  0
POINT
  5
A06EB
330
A04EC
100
AcDbEntity
  8
DEFPOINTS
 62
     0
440
 16777216
100
AcDbPoint
 10
-523.0000000000003
 20
-165.0000000000018
 30
0.0
  0
POINT
  5
A06EC
330
A04EC
100
AcDbEntity
  8
DEFPOINTS
 62
     0
440
 16777216
100
AcDbPoint
 10
-437.9999999999993
 20
-165.0
 30
0.0
  0
POINT
  5
A06ED
330
A04EC
100
AcDbEntity
  8
DEFPOINTS
 62
     0
440
 16777216
100
AcDbPoint
 10
-437.9999999999993
 20
41.88602118210929
 30
0.0
  0
ENDBLK
  5
A04EE
330
A04EC
100
AcDbEntity
  8
0
100
AcDbBlockEnd
  0
BLOCK
  5
A050D
330
A050C
100
AcDbEntity
  8
0
100
AcDbBlockBegin
  2
*D32
 70
     1
 10
0.0
 20
0.0
 30
0.0
  3
*D32
  1

  0
LINE
  5
A06EE
330
A050C
100
AcDbEntity
  8
SIZE
 62
     0
440
 16777216
370
    -2
100
AcDbLine
 10
-567.9999999999991
 20
17.99999999999818
 30
0.0
 11
-567.9999999999991
 21
146.0923434087335
 31
0.0
  0
LINE
  5
A06EF
330
A050C
100
AcDbEntity
  8
SIZE
 62
     0
440
 16777216
370
    -2
100
AcDbLine
 10
-550.0000000000007
 20
-120.0000000000018
 30
0.0
 11
-550.0000000000007
 21
146.0923434087335
 31
0.0
  0
LINE
  5
A06F0
330
A050C
100
AcDbEntity
  8
SIZE
 62
     0
440
 16777216
370
    -2
100
AcDbLine
 10
-540.0000000000005
 20
126.0923434087335
 30
0.0
 11
-530.0000000000006
 21
126.0923434087335
 31
0.0
  0
LINE
  5
A06F1
330
A050C
100
AcDbEntity
  8
SIZE
 62
     0
440
 16777216
370
    -2
100
AcDbLine
 10
-577.9999999999992
 20
126.0923434087335
 30
0.0
 11
-675.2857142857142
 21
126.0923434087335
 31
0.0
  0
LINE
  5
A06F2
330
A050C
100
AcDbEntity
  8
SIZE
 62
     0
440
 16777216
370
    -2
100
AcDbLine
 10
-550.0000000000007
 20
126.0923434087335
 30
0.0
 11
-567.9999999999991
 21
126.0923434087335
 31
0.0
  0
INSERT
  5
A06F3
330
A050C
100
AcDbEntity
  8
SIZE
 62
     0
440
 16777216
370
    -2
100
AcDbBlockReference
  2
_ORIGIN
 10
-550.0000000000007
 20
126.0923434087335
 30
0.0
 41
10.0
 42
10.0
 43
10.0
 50
180.0
  0
INSERT
  5
A06F4
330
A050C
100
AcDbEntity
  8
SIZE
 62
     0
440
 16777216
370
    -2
100
AcDbBlockReference
  2
_ORIGIN
 10
-567.9999999999991
 20
126.0923434087335
 30
0.0
 41
10.0
 42
10.0
 43
10.0
  0
MTEXT
  5
A06F5
330
A050C
100
AcDbEntity
  8
SIZE
 62
     0
440
 16777216
100
AcDbMText
 10
-633.1428571428573
 20
161.0923434087335
 30
0.0
 40
50.0
 41
0.0
 71
     5
 72
     1
  1
\A1;18
 73
     1
 44
1.0
  0
POINT
  5
A06F6
330
A050C
100
AcDbEntity
  8
DEFPOINTS
 62
     0
440
 16777216
100
AcDbPoint
 10
-567.9999999999991
 20
-2.000000000001818
 30
0.0
  0
POINT
  5
A06F7
330
A050C
100
AcDbEntity
  8
DEFPOINTS
 62
     0
440
 16777216
100
AcDbPoint
 10
-550.0000000000007
 20
-140.0000000000018
 30
0.0
  0
POINT
  5
A06F8
330
A050C
100
AcDbEntity
  8
DEFPOINTS
 62
     0
440
 16777216
100
AcDbPoint
 10
-550.0000000000007
 20
126.0923434087335
 30
0.0
  0
ENDBLK
  5
A050E
330
A050C
100
AcDbEntity
  8
0
100
AcDbBlockEnd
  0
BLOCK
  5
A053D
330
A053C
100
AcDbEntity
  8
0
100
AcDbBlockBegin
  2
*D33
 70
     1
 10
0.0
 20
0.0
 30
0.0
  3
*D33
  1

  0
LINE
  5
A06F9
330
A053C
100
AcDbEntity
  8
SIZE
 62
     0
440
 16777216
370
    -2
100
AcDbLine
 10
-550.0000000000007
 20
-120.0000000000018
 30
0.0
 11
-550.0000000000007
 21
146.0923434087335
 31
0.0
  0
LINE
  5
A06FA
330
A053C
100
AcDbEntity
  8
SIZE
 62
     0
440
 16777216
370
    -2
100
AcDbLine
 10
-410.0000000000006
 20
-120.0000000000018
 30
0.0
 11
-410.0000000000006
 21
146.0923434087335
 31
0.0
  0
LINE
  5
A06FB
330
A053C
100
AcDbEntity
  8
SIZE
 62
     0
440
 16777216
370
    -2
100
AcDbLine
 10
-540.0000000000005
 20
126.0923434087335
 30
0.0
 11
-420.0000000000007
 21
126.0923434087335
 31
0.0
  0
INSERT
  5
A06FC
330
A053C
100
AcDbEntity
  8
SIZE
 62
     0
440
 16777216
370
    -2
100
AcDbBlockReference
  2
_ORIGIN
 10
-550.0000000000007
 20
126.0923434087335
 30
0.0
 41
10.0
 42
10.0
 43
10.0
 50
180.0
  0
INSERT
  5
A06FD
330
A053C
100
AcDbEntity
  8
SIZE
 62
     0
440
 16777216
370
    -2
100
AcDbBlockReference
  2
_ORIGIN
 10
-410.0000000000006
 20
126.0923434087335
 30
0.0
 41
10.0
 42
10.0
 43
10.0
  0
MTEXT
  5
A06FE
330
A053C
100
AcDbEntity
  8
SIZE
 62
     0
440
 16777216
100
AcDbMText
 10
-480.0000000000006
 20
161.0923434087335
 30
0.0
 40
50.0
 41
0.0
 71
     5
 72
     1
  1
\A1;140
 73
     1
 44
1.0
  0
POINT
  5
A06FF
330
A053C
100
AcDbEntity
  8
DEFPOINTS
 62
     0
440
 16777216
100
AcDbPoint
 10
-550.0000000000007
 20
-140.0000000000018
 30
0.0
  0
POINT
  5
A0700
330
A053C
100
AcDbEntity
  8
DEFPOINTS
 62
     0
440
 16777216
100
AcDbPoint
 10
-410.0000000000006
 20
-140.0000000000018
 30
0.0
  0
POINT
  5
A0701
330
A053C
100
AcDbEntity
  8
DEFPOINTS
 62
     0
440
 16777216
100
AcDbPoint
 10
-410.0000000000006
 20
126.0923434087335
 30
0.0
  0
ENDBLK
  5
A053E
330
A053C
100
AcDbEntity
  8
0
100
AcDbBlockEnd
  0
BLOCK
  5
A0576
330
A0575
100
AcDbEntity
  8
0
100
AcDbBlockBegin
  2
*D34
 70
     1
 10
0.0
 20
0.0
 30
0.0
  3
*D34
  1

  0
LINE
  5
A0A4C
330
A0575
100
AcDbEntity
  8
SIZE
 62
     0
440
 16777216
370
    -2
100
AcDbLine
 10
587.9999999999991
 20
-0.0000000000000057
 30
0.0
 11
818.4268510094625
 21
-0.0000000000000709
 31
0.0
  0
LINE
  5
A0A4D
330
A0575
100
AcDbEntity
  8
SIZE
 62
     0
440
 16777216
370
    -2
100
AcDbLine
 10
587.9999999999991
 20
-295.000000000002
 30
0.0
 11
818.4268510094623
 21
-295.000000000002
 31
0.0
  0
LINE
  5
A0A4E
330
A0575
100
AcDbEntity
  8
SIZE
 62
     0
440
 16777216
370
    -2
100
AcDbLine
 10
798.4268510094625
 20
-10.00000000000006
 30
0.0
 11
798.4268510094624
 21
-285.000000000002
 31
0.0
  0
INSERT
  5
A0A4F
330
A0575
100
AcDbEntity
  8
SIZE
 62
     0
440
 16777216
370
    -2
100
AcDbBlockReference
  2
_ORIGIN
 10
798.4268510094625
 20
-0.0000000000000653
 30
0.0
 41
10.0
 42
10.0
 43
10.0
 50
90.0
  0
INSERT
  5
A0A50
330
A0575
100
AcDbEntity
  8
SIZE
 62
     0
440
 16777216
370
    -2
100
AcDbBlockReference
  2
_ORIGIN
 10
798.4268510094624
 20
-295.000000000002
 30
0.0
 41
10.0
 42
10.0
 43
10.0
 50
270.0
  0
MTEXT
  5
A0A51
330
A0575
100
AcDbEntity
  8
SIZE
 62
     0
440
 16777216
100
AcDbMText
 10
763.4268510094625
 20
-147.5000000000009
 30
0.0
 40
50.0
 41
0.0
 71
     5
 72
     1
  1
\A1;295
 11
0.0000000000000001
 21
1.0
 31
0.0
 73
     1
 44
1.0
  0
POINT
  5
A0A52
330
A0575
100
AcDbEntity
  8
DEFPOINTS
 62
     0
440
 16777216
100
AcDbPoint
 10
567.9999999999991
 20
0.0
 30
0.0
  0
POINT
  5
A0A53
330
A0575
100
AcDbEntity
  8
DEFPOINTS
 62
     0
440
 16777216
100
AcDbPoint
 10
567.9999999999991
 20
-295.000000000002
 30
0.0
  0
POINT
  5
A0A54
330
A0575
100
AcDbEntity
  8
DEFPOINTS
 62
     0
440
 16777216
100
AcDbPoint
 10
798.4268510094624
 20
-295.000000000002
 30
0.0
  0
ENDBLK
  5
A0577
330
A0575
100
AcDbEntity
  8
0
100
AcDbBlockEnd
  0
BLOCK
  5
A0583
330
A0582
100
AcDbEntity
  8
0
100
AcDbBlockBegin
  2
*D35
 70
     1
 10
0.0
 20
0.0
 30
0.0
  3
*D35
  1

  0
LINE
  5
A070B
330
A0582
100
AcDbEntity
  8
SIZE
 62
     0
440
 16777216
370
    -2
100
AcDbLine
 10
-25.60000000000241
 20
-286.1000000000004
 30
0.0
 11
-25.60000000000243
 21
-557.2834497934109
 31
0.0
  0
LINE
  5
A070C
330
A0582
100
AcDbEntity
  8
SIZE
 62
     0
440
 16777216
370
    -2
100
AcDbLine
 10
96.6000000000006
 20
-286.1000000000004
 30
0.0
 11
96.60000000000058
 21
-557.2834497934109
 31
0.0
  0
LINE
  5
A070D
330
A0582
100
AcDbEntity
  8
SIZE
 62
     0
440
 16777216
370
    -2
100
AcDbLine
 10
-15.60000000000243
 20
-537.2834497934109
 30
0.0
 11
86.60000000000058
 21
-537.2834497934109
 31
0.0
  0
LINE
  5
A070E
330
A0582
100
AcDbEntity
  8
SIZE
 62
     0
440
 16777216
370
    -2
100
AcDbLine
 10
96.60000000000058
 20
-537.2834497934109
 30
0.0
 11
291.6000000000006
 21
-537.2834497934109
 31
0.0
  0
INSERT
  5
A070F
330
A0582
100
AcDbEntity
  8
SIZE
 62
     0
440
 16777216
370
    -2
100
AcDbBlockReference
  2
_ORIGIN
 10
-25.60000000000243
 20
-537.2834497934109
 30
0.0
 41
10.0
 42
10.0
 43
10.0
 50
180.0
  0
INSERT
  5
A0710
330
A0582
100
AcDbEntity
  8
SIZE
 62
     0
440
 16777216
370
    -2
100
AcDbBlockReference
  2
_ORIGIN
 10
96.60000000000058
 20
-537.2834497934109
 30
0.0
 41
10.0
 42
10.0
 43
10.0
  0
MTEXT
  5
A0711
330
A0582
100
AcDbEntity
  8
SIZE
 62
     0
440
 16777216
100
AcDbMText
 10
199.1000000000006
 20
-489.1882116981728
 30
0.0
 40
50.0
 41
0.0
 71
     5
 72
     1
  1
\A1;(122)
 73
     1
 44
1.0
  0
POINT
  5
A0712
330
A0582
100
AcDbEntity
  8
DEFPOINTS
 62
     0
440
 16777216
100
AcDbPoint
 10
-25.60000000000241
 20
-266.1000000000004
 30
0.0
  0
POINT
  5
A0713
330
A0582
100
AcDbEntity
  8
DEFPOINTS
 62
     0
440
 16777216
100
AcDbPoint
 10
96.6000000000006
 20
-266.1000000000004
 30
0.0
  0
POINT
  5
A0714
330
A0582
100
AcDbEntity
  8
DEFPOINTS
 62
     0
440
 16777216
100
AcDbPoint
 10
96.60000000000058
 20
-537.2834497934109
 30
0.0
  0
ENDBLK
  5
A0584
330
A0582
100
AcDbEntity
  8
0
100
AcDbBlockEnd
  0
BLOCK
  5
A0685
330
A0684
100
AcDbEntity
  8
0
100
AcDbBlockBegin
  2
*D36
 70
     1
 10
0.0
 20
0.0
 30
0.0
  3
*D36
  1

  0
LINE
  5
A0687
330
A0684
100
AcDbEntity
  8
SIZE
 62
     0
440
 16777216
370
    -2
100
AcDbLine
 10
1661.714748609707
 20
-1545.168720230519
 30
0.0
 11
1661.714748609707
 21
-532.3046527935376
 31
0.0
  0
LINE
  5
A0688
330
A0684
100
AcDbEntity
  8
SIZE
 62
     0
440
 16777216
370
    -2
100
AcDbLine
 10
437.7147486097059
 20
-1545.168720230519
 30
0.0
 11
437.7147486097061
 21
-532.3046527935376
 31
0.0
  0
LINE
  5
A0689
330
A0684
100
AcDbEntity
  8
SIZE
 62
     0
440
 16777216
370
    -2
100
AcDbLine
 10
1651.714748609707
 20
-552.3046527935376
 30
0.0
 11
447.7147486097059
 21
-552.3046527935376
 31
0.0
  0
INSERT
  5
A068A
330
A0684
100
AcDbEntity
  8
SIZE
 62
     0
440
 16777216
370
    -2
100
AcDbBlockReference
  2
_ORIGIN
 10
1661.714748609707
 20
-552.3046527935376
 30
0.0
 41
10.0
 42
10.0
 43
10.0
  0
INSERT
  5
A068B
330
A0684
100
AcDbEntity
  8
SIZE
 62
     0
440
 16777216
370
    -2
100
AcDbBlockReference
  2
_ORIGIN
 10
437.7147486097061
 20
-552.3046527935376
 30
0.0
 41
10.0
 42
10.0
 43
10.0
 50
180.0
  0
MTEXT
  5
A068C
330
A0684
100
AcDbEntity
  8
SIZE
 62
     0
440
 16777216
100
AcDbMText
 10
1049.714748609706
 20
-517.3046527935375
 30
0.0
 40
50.0
 41
0.0
 71
     5
 72
     1
  1
\A1;1224
 73
     1
 44
1.0
  0
POINT
  5
A068D
330
A0684
100
AcDbEntity
  8
DEFPOINTS
 62
     0
440
 16777216
100
AcDbPoint
 10
1661.714748609707
 20
-1565.168720230519
 30
0.0
  0
POINT
  5
A068E
330
A0684
100
AcDbEntity
  8
DEFPOINTS
 62
     0
440
 16777216
100
AcDbPoint
 10
437.7147486097059
 20
-1565.168720230519
 30
0.0
  0
POINT
  5
A068F
330
A0684
100
AcDbEntity
  8
DEFPOINTS
 62
     0
440
 16777216
100
AcDbPoint
 10
437.7147486097061
 20
-552.3046527935376
 30
0.0
  0
ENDBLK
  5
A0686
330
A0684
100
AcDbEntity
  8
0
100
AcDbBlockEnd
  0
ENDSEC
  0
SECTION
  2
ENTITIES
  0
MTEXT
  5
38341
330
1E
100
AcDbEntity
  8
0
  6
Continuous
100
AcDbMText
 10
383.9605305094082
 20
4023.282340837186
 30
0.0
 40
64.0
 41
187.9848
 71
     1
 72
     5
  1

 73
     1
 44
1.0
  0
TEXT
  5
9FE91
330
1E
100
AcDbEntity
  8
ETC
  6
Continuous
100
AcDbText
 10
413.6915200311786
 20
340.0174523673431
 30
0.0
 40
64.0
  1
SPAC7173
 41
0.9
100
AcDbText
  0
TEXT
  5
9FE92
330
1E
100
AcDbEntity
  8
ETC
  6
Continuous
100
AcDbText
 10
413.6915200311786
 20
240.0174523673431
 30
0.0
 40
64.0
  1
PAC
 41
0.9
100
AcDbText
  0
POINT
  5
9FE9F
330
1E
100
AcDbEntity
  8
ARRANGE
  6
Continuous
100
AcDbPoint
 10
0.0
 20
0.0
 30
0.0
  0
CIRCLE
  5
9FEA0
330
1E
100
AcDbEntity
  8
ARRANGE
  6
Continuous
100
AcDbCircle
 10
0.0
 20
0.0
 30
0.0
 40
40.0
  0
LINE
  5
A0299
330
1E
100
AcDbEntity
  8
DETAIL
  6
DASHED
370
    18
100
AcDbLine
 10
92.4000000000003
 20
-192.2133351267966
 30
0.0
 11
92.4000000000003
 21
-230.2133351267967
 31
0.0
  0
LINE
  5
A029A
330
1E
100
AcDbEntity
  8
DETAIL
  6
DASHED
370
    18
100
AcDbLine
 10
92.4000000000003
 20
-192.2133351267966
 30
0.0
 11
56.39999999999941
 21
-192.2133351267966
 31
0.0
  0
LINE
  5
A029B
330
1E
100
AcDbEntity
  8
DETAIL
  6
DASHED
370
    18
100
AcDbLine
 10
56.39999999999941
 20
-192.2133351267966
 30
0.0
 11
56.39999999999941
 21
-230.2133351267967
 31
0.0
  0
LINE
  5
A029C
330
1E
100
AcDbEntity
  8
DETAIL
  6
DASHED
370
    18
100
AcDbLine
 10
92.4000000000003
 20
-230.2133351267967
 30
0.0
 11
56.39999999999941
 21
-230.2133351267967
 31
0.0
  0
CIRCLE
  5
A029D
330
1E
100
AcDbEntity
  8
DETAIL
  6
DASHED
370
    18
100
AcDbCircle
 10
86.99999999999931
 20
-258.5000000000018
 30
0.0
 40
5.0
  0
LINE
  5
A029E
330
1E
100
AcDbEntity
  8
DETAIL
  6
DASHED
370
    18
100
AcDbLine
 10
11.14999999999941
 20
-192.7133351268185
 30
0.0
 11
11.14999999999941
 21
-228.7133351268149
 31
0.0
  0
LINE
  5
A029F
330
1E
100
AcDbEntity
  8
DETAIL
  6
DASHED
370
    18
100
AcDbLine
 10
55.14999999999941
 20
-228.7133351268149
 30
0.0
 11
11.14999999999941
 21
-228.7133351268149
 31
0.0
  0
LINE
  5
A02A0
330
1E
100
AcDbEntity
  8
DETAIL
  6
DASHED
370
    18
100
AcDbLine
 10
55.14999999999941
 20
-192.7133351268185
 30
0.0
 11
55.14999999999941
 21
-228.7133351268149
 31
0.0
  0
LINE
  5
A02A1
330
1E
100
AcDbEntity
  8
DETAIL
  6
DASHED
370
    18
100
AcDbLine
 10
-21.35000000000059
 20
-194.7133351268148
 30
0.0
 11
-21.35000000000059
 21
-228.7133351268149
 31
0.0
  0
LINE
  5
A02A2
330
1E
100
AcDbEntity
  8
DETAIL
  6
DASHED
370
    18
100
AcDbLine
 10
10.14999999999941
 20
-228.7133351268149
 30
0.0
 11
-21.35000000000059
 21
-228.7133351268149
 31
0.0
  0
LINE
  5
A02A3
330
1E
100
AcDbEntity
  8
DETAIL
  6
DASHED
370
    18
100
AcDbLine
 10
10.14999999999941
 20
-194.7133351268148
 30
0.0
 11
10.14999999999941
 21
-228.7133351268149
 31
0.0
  0
LINE
  5
A02A4
330
1E
100
AcDbEntity
  8
DETAIL
  6
DASHED
370
    18
100
AcDbLine
 10
10.14999999999941
 20
-194.7133351268148
 30
0.0
 11
-21.35000000000059
 21
-194.7133351268148
 31
0.0
  0
LINE
  5
A02A5
330
1E
100
AcDbEntity
  8
DETAIL
  6
DASHED
370
    18
100
AcDbLine
 10
55.14999999999941
 20
-192.7133351268185
 30
0.0
 11
11.14999999999941
 21
-192.7133351268185
 31
0.0
  0
LINE
  5
A02A6
330
1E
100
AcDbEntity
  8
DETAIL
  6
DASHED
370
    18
100
AcDbLine
 10
96.6000000000006
 20
-111.1000000000003
 30
0.0
 11
-25.60000000000241
 21
-111.1000000000003
 31
0.0
  0
LINE
  5
A02A7
330
1E
100
AcDbEntity
  8
DETAIL
  6
Continuous
370
    18
100
AcDbLine
 10
552.9999999999993
 20
-290.0000000000018
 30
0.0
 11
552.9999999999993
 21
-5.0
 31
0.0
  0
LINE
  5
A02A8
330
1E
100
AcDbEntity
  8
DETAIL
  6
Continuous
370
    18
100
AcDbLine
 10
567.9999999999991
 20
-295.0000000000018
 30
0.0
 11
552.9999999999993
 21
-295.0000000000018
 31
0.0
  0
LINE
  5
A02A9
330
1E
100
AcDbEntity
  8
DETAIL
  6
Continuous
370
    18
100
AcDbLine
 10
567.9999999999991
 20
-295.0000000000018
 30
0.0
 11
567.9999999999991
 21
0.0
 31
0.0
  0
LINE
  5
A02AA
330
1E
100
AcDbEntity
  8
DETAIL
  6
DASHED
370
    18
100
AcDbLine
 10
563.9999999999992
 20
-280.9999999999982
 30
0.0
 11
552.0000000000003
 21
-280.9999999999982
 31
0.0
  0
LINE
  5
A02AB
330
1E
100
AcDbEntity
  8
DETAIL
  6
DASHED
370
    18
100
AcDbLine
 10
563.9999999999992
 20
-293.9999999999982
 30
0.0
 11
563.9999999999992
 21
-280.9999999999982
 31
0.0
  0
LINE
  5
A02AC
330
1E
100
AcDbEntity
  8
DETAIL
  6
DASHED
370
    18
100
AcDbLine
 10
563.9999999999992
 20
-293.9999999999982
 30
0.0
 11
552.0000000000003
 21
-293.9999999999982
 31
0.0
  0
LINE
  5
A02AD
330
1E
100
AcDbEntity
  8
DETAIL
  6
Continuous
370
    18
100
AcDbLine
 10
552.0000000000003
 20
-280.9999999999982
 30
0.0
 11
216.0000000000007
 21
-280.9999999999982
 31
0.0
  0
LINE
  5
A02AE
330
1E
100
AcDbEntity
  8
DETAIL
  6
Continuous
370
    18
100
AcDbLine
 10
552.0000000000003
 20
-293.9999999999982
 30
0.0
 11
216.0000000000007
 21
-293.9999999999982
 31
0.0
  0
ARC
  5
A02AF
330
1E
100
AcDbEntity
  8
DETAIL
  6
Continuous
370
    18
100
AcDbCircle
 10
556.0000000000005
 20
-290.0000000000018
 30
0.0
 40
3.000000000000113
100
AcDbArc
 50
180.0
 51
270.0
  0
ARC
  5
A02B0
330
1E
100
AcDbEntity
  8
DETAIL
  6
Continuous
370
    18
100
AcDbCircle
 10
556.0000000000005
 20
-5.0
 30
0.0
 40
2.999999999999971
100
AcDbArc
 50
90.0
 51
180.0
  0
LINE
  5
A02B1
330
1E
100
AcDbEntity
  8
DETAIL
  6
Continuous
370
    18
100
AcDbLine
 10
567.9999999999991
 20
-2.000000000001818
 30
0.0
 11
556.0000000000005
 21
-2.000000000001818
 31
0.0
  0
LINE
  5
A02B2
330
1E
100
AcDbEntity
  8
DETAIL
  6
Continuous
370
    18
100
AcDbLine
 10
567.9999999999991
 20
-292.9999999999982
 30
0.0
 11
556.0000000000005
 21
-292.9999999999982
 31
0.0
  0
LINE
  5
A02B3
330
1E
100
AcDbEntity
  8
DETAIL
  6
Continuous
370
    18
100
AcDbLine
 10
584.0000000000006
 20
-43.0
 30
0.0
 11
596.0000000000007
 21
-43.0
 31
0.0
  0
LINE
  5
A02B4
330
1E
100
AcDbEntity
  8
DETAIL
  6
Continuous
370
    18
100
AcDbLine
 10
571.0000000000007
 20
-14.00000000000182
 30
0.0
 11
571.0000000000007
 21
-39.00000000000182
 31
0.0
  0
LINE
  5
A02B5
330
1E
100
AcDbEntity
  8
DETAIL
  6
Continuous
370
    18
100
AcDbLine
 10
567.9999999999991
 20
-14.00000000000182
 30
0.0
 11
571.0000000000007
 21
-14.00000000000182
 31
0.0
  0
LINE
  5
A02B6
330
1E
100
AcDbEntity
  8
DETAIL
  6
Continuous
370
    18
100
AcDbLine
 10
567.9999999999991
 20
-14.00000000000182
 30
0.0
 11
567.9999999999991
 21
-39.00000000000182
 31
0.0
  0
ARC
  5
A02B7
330
1E
100
AcDbEntity
  8
DETAIL
  6
Continuous
370
    18
100
AcDbCircle
 10
609.0000000000011
 20
-47.00000000000182
 30
0.0
 40
3.000000000000043
100
AcDbArc
 50
270.0
 51
0.0
  0
ARC
  5
A02B8
330
1E
100
AcDbEntity
  8
DETAIL
  6
Continuous
370
    18
100
AcDbCircle
 10
599.0000000000008
 20
-47.00000000000182
 30
0.0
 40
3.000000000000113
100
AcDbArc
 50
180.0
 51
270.0
  0
ARC
  5
A02B9
330
1E
100
AcDbEntity
  8
DETAIL
  6
Continuous
370
    18
100
AcDbCircle
 10
581.0000000000005
 20
-47.00000000000182
 30
0.0
 40
3.000000000000043
100
AcDbArc
 50
270.0
 51
0.0
  0
LINE
  5
A02BA
330
1E
100
AcDbEntity
  8
DETAIL
  6
Continuous
370
    18
100
AcDbLine
 10
599.0000000000008
 20
-50.0
 30
0.0
 11
609.0000000000011
 21
-50.0
 31
0.0
  0
ARC
  5
A02BB
330
1E
100
AcDbEntity
  8
DETAIL
  6
Continuous
370
    18
100
AcDbCircle
 10
576.0000000000006
 20
-47.00000000000182
 30
0.0
 40
3.000000000000113
100
AcDbArc
 50
180.0
 51
270.0
  0
ARC
  5
A02BC
330
1E
100
AcDbEntity
  8
DETAIL
  6
Continuous
370
    18
100
AcDbCircle
 10
572.0000000000005
 20
-39.00000000000182
 30
0.0
 40
0.9999999999999428
100
AcDbArc
 50
180.0
 51
270.0
  0
ARC
  5
A02BD
330
1E
100
AcDbEntity
  8
DETAIL
  6
Continuous
370
    18
100
AcDbCircle
 10
572.0000000000005
 20
-39.00000000000182
 30
0.0
 40
4.000000000000055
100
AcDbArc
 50
180.0
 51
270.0
  0
LINE
  5
A02BE
330
1E
100
AcDbEntity
  8
DETAIL
  6
Continuous
370
    18
100
AcDbLine
 10
572.0000000000005
 20
-43.0
 30
0.0
 11
572.9999999999992
 21
-43.0
 31
0.0
  0
LINE
  5
A02BF
330
1E
100
AcDbEntity
  8
DETAIL
  6
Continuous
370
    18
100
AcDbLine
 10
576.0000000000006
 20
-50.0
 30
0.0
 11
581.0000000000005
 21
-50.0
 31
0.0
  0
LINE
  5
A02C0
330
1E
100
AcDbEntity
  8
DETAIL
  6
Continuous
370
    18
100
AcDbLine
 10
572.0000000000005
 20
-40.0
 30
0.0
 11
612.0000000000002
 21
-40.0
 31
0.0
  0
LINE
  5
A02C1
330
1E
100
AcDbEntity
  8
DETAIL
  6
Continuous
370
    18
100
AcDbLine
 10
612.0000000000002
 20
-47.00000000000182
 30
0.0
 11
612.0000000000002
 21
-40.0
 31
0.0
  0
LINE
  5
A02C2
330
1E
100
AcDbEntity
  8
DETAIL
  6
Continuous
370
    18
100
AcDbLine
 10
596.0000000000007
 20
-47.00000000000182
 30
0.0
 11
596.0000000000007
 21
-40.0
 31
0.0
  0
LINE
  5
A02C3
330
1E
100
AcDbEntity
  8
DETAIL
  6
Continuous
370
    18
100
AcDbLine
 10
584.0000000000006
 20
-47.00000000000182
 30
0.0
 11
584.0000000000006
 21
-40.0
 31
0.0
  0
LINE
  5
A02C4
330
1E
100
AcDbEntity
  8
DETAIL
  6
Continuous
370
    18
100
AcDbLine
 10
572.9999999999992
 20
-47.00000000000182
 30
0.0
 11
572.9999999999992
 21
-40.0
 31
0.0
  0
LINE
  5
A02C5
330
1E
100
AcDbEntity
  8
NOTE
  6
CENTER
370
    18
100
AcDbLine
 10
590.0000000000002
 20
-90.0
 30
0.0
 11
590.0000000000002
 21
0.0
 31
0.0
  0
LINE
  5
A02C6
330
1E
100
AcDbEntity
  8
DETAIL
  6
DASHED
370
    18
100
AcDbLine
 10
-180.0000000000007
 20
-294.0000000000018
 30
0.0
 11
-167.9999999999993
 21
-294.0000000000018
 31
0.0
  0
LINE
  5
A02C7
330
1E
100
AcDbEntity
  8
DETAIL
  6
Continuous
370
    18
100
AcDbLine
 10
-167.9999999999993
 20
-295.0000000000018
 30
0.0
 11
-167.9999999999993
 21
-281.0000000000018
 31
0.0
  0
LINE
  5
A02C8
330
1E
100
AcDbEntity
  8
DETAIL
  6
DASHED
370
    18
100
AcDbLine
 10
-216.0000000000007
 20
-294.0000000000018
 30
0.0
 11
-204.0000000000007
 21
-294.0000000000018
 31
0.0
  0
LINE
  5
A02C9
330
1E
100
AcDbEntity
  8
DETAIL
  6
DASHED
370
    18
100
AcDbLine
 10
-204.0000000000007
 20
-294.0000000000018
 30
0.0
 11
-204.0000000000007
 21
-281.0000000000018
 31
0.0
  0
LINE
  5
A02CA
330
1E
100
AcDbEntity
  8
DETAIL
  6
Continuous
370
    18
100
AcDbLine
 10
-567.9999999999991
 20
-280.0000000000018
 30
0.0
 11
552.9999999999993
 21
-280.0000000000018
 31
0.0
  0
LINE
  5
A02CB
330
1E
100
AcDbEntity
  8
DETAIL
  6
DASHED
370
    18
100
AcDbLine
 10
167.9999999999993
 20
-294.0000000000018
 30
0.0
 11
179.9999999999993
 21
-293.9999999999982
 31
0.0
  0
LINE
  5
A02CC
330
1E
100
AcDbEntity
  8
DETAIL
  6
DASHED
370
    18
100
AcDbLine
 10
216.0000000000007
 20
-294.0000000000018
 30
0.0
 11
203.9999999999993
 21
-293.9999999999982
 31
0.0
  0
LINE
  5
A02CD
330
1E
100
AcDbEntity
  8
DETAIL
  6
DASHED
370
    18
100
AcDbLine
 10
203.9999999999993
 20
-293.9999999999982
 30
0.0
 11
203.9999999999993
 21
-281.0000000000018
 31
0.0
  0
LINE
  5
A02CE
330
1E
100
AcDbEntity
  8
DETAIL
  6
DASHED
370
    18
100
AcDbLine
 10
179.9999999999993
 20
-293.9999999999982
 30
0.0
 11
179.9999999999993
 21
-281.0000000000018
 31
0.0
  0
LINE
  5
A02CF
330
1E
100
AcDbEntity
  8
DETAIL
  6
Continuous
370
    18
100
AcDbLine
 10
182.0000000000004
 20
-295.0000000000018
 30
0.0
 11
182.0000000000004
 21
-280.0000000000018
 31
0.0
  0
LINE
  5
A02D0
330
1E
100
AcDbEntity
  8
DETAIL
  6
Continuous
370
    18
100
AcDbLine
 10
167.9999999999993
 20
-295.0000000000018
 30
0.0
 11
182.0000000000004
 21
-295.0000000000018
 31
0.0
  0
LINE
  5
A02D1
330
1E
100
AcDbEntity
  8
DETAIL
  6
Continuous
370
    18
100
AcDbLine
 10
216.0000000000007
 20
-295.0000000000018
 30
0.0
 11
202.0000000000004
 21
-295.0000000000018
 31
0.0
  0
LINE
  5
A02D2
330
1E
100
AcDbEntity
  8
DETAIL
  6
DASHED
370
    18
100
AcDbLine
 10
203.9999999999993
 20
-281.0000000000018
 30
0.0
 11
216.0000000000007
 21
-281.0000000000018
 31
0.0
  0
LINE
  5
A02D3
330
1E
100
AcDbEntity
  8
DETAIL
  6
DASHED
370
    18
100
AcDbLine
 10
179.9999999999993
 20
-281.0000000000018
 30
0.0
 11
167.9999999999993
 21
-281.0000000000018
 31
0.0
  0
LINE
  5
A02D4
330
1E
100
AcDbEntity
  8
DETAIL
  6
Continuous
370
    18
100
AcDbLine
 10
167.9999999999993
 20
-295.0000000000018
 30
0.0
 11
167.9999999999993
 21
-281.0000000000018
 31
0.0
  0
LINE
  5
A02D5
330
1E
100
AcDbEntity
  8
DETAIL
  6
Continuous
370
    18
100
AcDbLine
 10
167.9999999999993
 20
-294.0000000000018
 30
0.0
 11
-167.9999999999993
 21
-294.0000000000018
 31
0.0
  0
LINE
  5
A02D6
330
1E
100
AcDbEntity
  8
DETAIL
  6
Continuous
370
    18
100
AcDbLine
 10
216.0000000000007
 20
-295.0000000000018
 30
0.0
 11
216.0000000000007
 21
-281.0000000000018
 31
0.0
  0
LINE
  5
A02D7
330
1E
100
AcDbEntity
  8
DETAIL
  6
Continuous
370
    18
100
AcDbLine
 10
167.9999999999993
 20
-281.0000000000018
 30
0.0
 11
-167.9999999999993
 21
-281.0000000000018
 31
0.0
  0
ARC
  5
A02D8
330
1E
100
AcDbEntity
  8
DETAIL
  6
Continuous
370
    18
100
AcDbCircle
 10
170.9999999999993
 20
-281.0000000000018
 30
0.0
 40
3.00000000000081
100
AcDbArc
 50
160.5287793655287
 51
180.0
  0
ARC
  5
A02D9
330
1E
100
AcDbEntity
  8
DETAIL
  6
Continuous
370
    18
100
AcDbCircle
 10
212.9999999999993
 20
-281.0000000000018
 30
0.0
 40
3.000000000000113
100
AcDbArc
 50
0.0
 51
19.47122063450018
  0
LINE
  5
A02DA
330
1E
100
AcDbEntity
  8
DETAIL
  6
Continuous
370
    18
100
AcDbLine
 10
202.0000000000004
 20
-295.0000000000018
 30
0.0
 11
202.0000000000004
 21
-280.0000000000018
 31
0.0
  0
LINE
  5
A02DB
330
1E
100
AcDbEntity
  8
DETAIL
  6
Continuous
370
    18
100
AcDbLine
 10
-182.0000000000007
 20
-295.0000000000018
 30
0.0
 11
-182.0000000000007
 21
-280.0000000000018
 31
0.0
  0
LINE
  5
A02DC
330
1E
100
AcDbEntity
  8
DETAIL
  6
Continuous
370
    18
100
AcDbLine
 10
-202.0000000000007
 20
-295.0000000000018
 30
0.0
 11
-202.0000000000007
 21
-280.0000000000018
 31
0.0
  0
ARC
  5
A02DD
330
1E
100
AcDbEntity
  8
DETAIL
  6
Continuous
370
    18
100
AcDbCircle
 10
-171.0000000000007
 20
-281.0000000000018
 30
0.0
 40
3.000000000000113
100
AcDbArc
 50
0.0
 51
19.47122063450018
  0
ARC
  5
A02DE
330
1E
100
AcDbEntity
  8
DETAIL
  6
Continuous
370
    18
100
AcDbCircle
 10
-212.9999999999993
 20
-281.0000000000018
 30
0.0
 40
3.000000000000544
100
AcDbArc
 50
160.5287793654998
 51
180.0
  0
LINE
  5
A02DF
330
1E
100
AcDbEntity
  8
DETAIL
  6
Continuous
370
    18
100
AcDbLine
 10
-216.0000000000007
 20
-295.0000000000018
 30
0.0
 11
-216.0000000000007
 21
-281.0000000000018
 31
0.0
  0
LINE
  5
A02E0
330
1E
100
AcDbEntity
  8
DETAIL
  6
DASHED
370
    18
100
AcDbLine
 10
-564.0000000000005
 20
-281.0000000000018
 30
0.0
 11
-552.9999999999993
 21
-281.0000000000018
 31
0.0
  0
LINE
  5
A02E1
330
1E
100
AcDbEntity
  8
DETAIL
  6
DASHED
370
    18
100
AcDbLine
 10
-564.0000000000005
 20
-294.0000000000018
 30
0.0
 11
-564.0000000000005
 21
-281.0000000000018
 31
0.0
  0
LINE
  5
A02E2
330
1E
100
AcDbEntity
  8
DETAIL
  6
Continuous
370
    18
100
AcDbLine
 10
-552.9999999999993
 20
-290.0000000000018
 30
0.0
 11
-552.9999999999993
 21
-5.0
 31
0.0
  0
LINE
  5
A02E3
330
1E
100
AcDbEntity
  8
DETAIL
  6
Continuous
370
    18
100
AcDbLine
 10
-552.9999999999993
 20
-281.0000000000018
 30
0.0
 11
-216.0000000000007
 21
-281.0000000000018
 31
0.0
  0
LINE
  5
A02E4
330
1E
100
AcDbEntity
  8
DETAIL
  6
Continuous
370
    18
100
AcDbLine
 10
-567.9999999999991
 20
-295.0000000000018
 30
0.0
 11
-552.9999999999993
 21
-295.0000000000018
 31
0.0
  0
LINE
  5
A02E5
330
1E
100
AcDbEntity
  8
DETAIL
  6
Continuous
370
    18
100
AcDbLine
 10
-567.9999999999991
 20
-295.0000000000018
 30
0.0
 11
-567.9999999999991
 21
0.0
 31
0.0
  0
LINE
  5
A02E6
330
1E
100
AcDbEntity
  8
DETAIL
  6
DASHED
370
    18
100
AcDbLine
 10
-204.0000000000007
 20
-281.0000000000018
 30
0.0
 11
-216.0000000000007
 21
-281.0000000000018
 31
0.0
  0
LINE
  5
A02E7
330
1E
100
AcDbEntity
  8
DETAIL
  6
DASHED
370
    18
100
AcDbLine
 10
-180.0000000000007
 20
-294.0000000000018
 30
0.0
 11
-180.0000000000007
 21
-281.0000000000018
 31
0.0
  0
LINE
  5
A02E8
330
1E
100
AcDbEntity
  8
DETAIL
  6
DASHED
370
    18
100
AcDbLine
 10
-180.0000000000007
 20
-281.0000000000018
 30
0.0
 11
-167.9999999999993
 21
-281.0000000000018
 31
0.0
  0
LINE
  5
A02E9
330
1E
100
AcDbEntity
  8
DETAIL
  6
Continuous
370
    18
100
AcDbLine
 10
-567.9999999999991
 20
0.0
 30
0.0
 11
567.9999999999991
 21
0.0
 31
0.0
  0
LINE
  5
A02EA
330
1E
100
AcDbEntity
  8
DETAIL
  6
Continuous
370
    18
100
AcDbLine
 10
567.9999999999991
 20
0.0
 30
0.0
 11
-567.9999999999991
 21
0.0
 31
0.0
  0
LINE
  5
A02EB
330
1E
100
AcDbEntity
  8
NOTE
  6
CENTER
370
    18
100
AcDbLine
 10
-410.4999999999993
 20
-247.9999999999982
 30
0.0
 11
-373.5000000000002
 21
-247.9999999999982
 31
0.0
  0
ARC
  5
A02EC
330
1E
100
AcDbEntity
  8
DETAIL
  6
Continuous
370
    18
100
AcDbCircle
 10
-392.0000000000002
 20
-247.9999999999982
 30
0.0
 40
13.50000000000005
100
AcDbArc
 50
154.2480226667354
 51
325.75197733327
  0
ARC
  5
A02ED
330
1E
100
AcDbEntity
  8
DETAIL
  6
Continuous
370
    18
100
AcDbCircle
 10
-392.0000000000002
 20
-247.9999999999982
 30
0.0
 40
13.50000000000005
100
AcDbArc
 50
334.2480226667354
 51
145.75197733327
  0
LINE
  5
A02EE
330
1E
100
AcDbEntity
  8
NOTE
  6
CENTER
370
    18
100
AcDbLine
 10
-392.0000000000002
 20
-266.5000000000018
 30
0.0
 11
-392.0000000000002
 21
-229.5000000000018
 31
0.0
  0
LINE
  5
A02EF
330
1E
100
AcDbEntity
  8
NOTE
  6
CENTER
370
    18
100
AcDbLine
 10
-410.4999999999993
 20
-210.0000000000018
 30
0.0
 11
-373.5000000000002
 21
-210.0000000000018
 31
0.0
  0
ARC
  5
A02F0
330
1E
100
AcDbEntity
  8
DETAIL
  6
Continuous
370
    18
100
AcDbCircle
 10
-392.0000000000002
 20
-210.0000000000018
 30
0.0
 40
13.50000000000005
100
AcDbArc
 50
154.2480226667354
 51
325.75197733327
  0
ARC
  5
A02F1
330
1E
100
AcDbEntity
  8
DETAIL
  6
Continuous
370
    18
100
AcDbCircle
 10
-392.0000000000002
 20
-210.0000000000018
 30
0.0
 40
13.50000000000005
100
AcDbArc
 50
334.2480226667354
 51
145.75197733327
  0
LINE
  5
A02F2
330
1E
100
AcDbEntity
  8
NOTE
  6
CENTER
370
    18
100
AcDbLine
 10
-392.0000000000002
 20
-228.5000000000018
 30
0.0
 11
-392.0000000000002
 21
-191.5000000000018
 31
0.0
  0
LINE
  5
A02F3
330
1E
100
AcDbEntity
  8
DETAIL
  6
Continuous
370
    18
100
AcDbLine
 10
-442.0000000000001
 20
-253.5000000000018
 30
0.0
 11
-442.0000000000001
 21
-258.5000000000018
 31
0.0
  0
LINE
  5
A02F4
330
1E
100
AcDbEntity
  8
DETAIL
  6
Continuous
370
    18
100
AcDbLine
 10
-484.0000000000006
 20
-253.5000000000018
 30
0.0
 11
-484.0000000000006
 21
-258.5000000000018
 31
0.0
  0
ARC
  5
A02F5
330
1E
100
AcDbEntity
  8
DETAIL
  6
Continuous
370
    18
100
AcDbCircle
 10
-462.9999999999993
 20
-253.5000000000018
 30
0.0
 40
20.99999999999996
100
AcDbArc
 50
90.0
 51
180.0
  0
ARC
  5
A02F6
330
1E
100
AcDbEntity
  8
DETAIL
  6
Continuous
370
    18
100
AcDbCircle
 10
-462.9999999999993
 20
-253.5000000000018
 30
0.0
 40
20.99999999999993
100
AcDbArc
 50
0.0
 51
90.0
  0
ARC
  5
A02F7
330
1E
100
AcDbEntity
  8
DETAIL
  6
Continuous
370
    18
100
AcDbCircle
 10
-530.0000000000006
 20
-190.0000000000018
 30
0.0
 40
20.0
100
AcDbArc
 50
180.0
 51
270.0
  0
LINE
  5
A02F8
330
1E
100
AcDbEntity
  8
DETAIL
  6
Continuous
370
    18
100
AcDbLine
 10
-530.0000000000006
 20
-210.0000000000018
 30
0.0
 11
-430.0000000000006
 21
-210.0000000000018
 31
0.0
  0
ARC
  5
A02F9
330
1E
100
AcDbEntity
  8
DETAIL
  6
Continuous
370
    18
100
AcDbCircle
 10
-430.0000000000006
 20
-190.0000000000018
 30
0.0
 40
20.0
100
AcDbArc
 50
270.0
 51
0.0
  0
ARC
  5
A02FA
330
1E
100
AcDbEntity
  8
DETAIL
  6
Continuous
370
    18
100
AcDbCircle
 10
-430.0000000000006
 20
-140.0000000000018
 30
0.0
 40
20.0
100
AcDbArc
 50
0.0
 51
90.0
  0
ARC
  5
A02FB
330
1E
100
AcDbEntity
  8
DETAIL
  6
Continuous
370
    18
100
AcDbCircle
 10
-530.0000000000006
 20
-140.0000000000018
 30
0.0
 40
20.0
100
AcDbArc
 50
90.0
 51
180.0
  0
LINE
  5
A02FC
330
1E
100
AcDbEntity
  8
DETAIL
  6
Continuous
370
    18
100
AcDbLine
 10
-550.0000000000007
 20
-190.0000000000018
 30
0.0
 11
-550.0000000000007
 21
-140.0000000000018
 31
0.0
  0
LINE
  5
A02FD
330
1E
100
AcDbEntity
  8
DETAIL
  6
Continuous
370
    18
100
AcDbLine
 10
-410.0000000000006
 20
-140.0000000000018
 30
0.0
 11
-410.0000000000006
 21
-190.0000000000018
 31
0.0
  0
LINE
  5
A02FE
330
1E
100
AcDbEntity
  8
DETAIL
  6
Continuous
370
    18
100
AcDbLine
 10
-530.0000000000006
 20
-120.0
 30
0.0
 11
-430.0000000000006
 21
-120.0
 31
0.0
  0
LINE
  5
A02FF
330
1E
100
AcDbEntity
  8
DETAIL
  6
Continuous
370
    18
100
AcDbLine
 10
-216.0000000000007
 20
-295.0000000000018
 30
0.0
 11
-202.0000000000007
 21
-295.0000000000018
 31
0.0
  0
LINE
  5
A0300
330
1E
100
AcDbEntity
  8
DETAIL
  6
Continuous
370
    18
100
AcDbLine
 10
-167.9999999999993
 20
-295.0000000000018
 30
0.0
 11
-182.0000000000007
 21
-295.0000000000018
 31
0.0
  0
ARC
  5
A0301
330
1E
100
AcDbEntity
  8
DETAIL
  6
Continuous
370
    18
100
AcDbCircle
 10
-556.0000000000001
 20
-290.0000000000018
 30
0.0
 40
3.000000000000006
100
AcDbArc
 50
270.0
 51
0.0
  0
ARC
  5
A0302
330
1E
100
AcDbEntity
  8
DETAIL
  6
Continuous
370
    18
100
AcDbCircle
 10
-556.0000000000001
 20
-5.0
 30
0.0
 40
3.000000000000113
100
AcDbArc
 50
0.0
 51
90.0
  0
LINE
  5
A0303
330
1E
100
AcDbEntity
  8
DETAIL
  6
Continuous
370
    18
100
AcDbLine
 10
-567.9999999999991
 20
-2.000000000001818
 30
0.0
 11
-556.0000000000001
 21
-2.000000000001818
 31
0.0
  0
LINE
  5
A0304
330
1E
100
AcDbEntity
  8
DETAIL
  6
Continuous
370
    18
100
AcDbLine
 10
-567.9999999999991
 20
-292.9999999999982
 30
0.0
 11
-556.0000000000001
 21
-292.9999999999982
 31
0.0
  0
LINE
  5
A0305
330
1E
100
AcDbEntity
  8
DETAIL
  6
Continuous
370
    18
100
AcDbLine
 10
-584.0000000000006
 20
-43.0
 30
0.0
 11
-596.0000000000007
 21
-43.0
 31
0.0
  0
LINE
  5
A0306
330
1E
100
AcDbEntity
  8
DETAIL
  6
Continuous
370
    18
100
AcDbLine
 10
-571.0000000000002
 20
-14.00000000000182
 30
0.0
 11
-571.0000000000002
 21
-39.00000000000182
 31
0.0
  0
LINE
  5
A0307
330
1E
100
AcDbEntity
  8
DETAIL
  6
Continuous
370
    18
100
AcDbLine
 10
-567.9999999999991
 20
-14.00000000000182
 30
0.0
 11
-571.0000000000002
 21
-14.00000000000182
 31
0.0
  0
LINE
  5
A0308
330
1E
100
AcDbEntity
  8
DETAIL
  6
Continuous
370
    18
100
AcDbLine
 10
-567.9999999999991
 20
-14.00000000000182
 30
0.0
 11
-567.9999999999991
 21
-39.00000000000182
 31
0.0
  0
ARC
  5
A0309
330
1E
100
AcDbEntity
  8
DETAIL
  6
Continuous
370
    18
100
AcDbCircle
 10
-609.0000000000006
 20
-47.00000000000182
 30
0.0
 40
2.999999999999828
100
AcDbArc
 50
180.0
 51
270.0
  0
ARC
  5
A030A
330
1E
100
AcDbEntity
  8
DETAIL
  6
Continuous
370
    18
100
AcDbCircle
 10
-599.0000000000008
 20
-47.00000000000182
 30
0.0
 40
3.000000000000043
100
AcDbArc
 50
270.0
 51
0.0
  0
ARC
  5
A030B
330
1E
100
AcDbEntity
  8
DETAIL
  6
Continuous
370
    18
100
AcDbCircle
 10
-581.0000000000005
 20
-47.00000000000182
 30
0.0
 40
3.000000000000113
100
AcDbArc
 50
180.0
 51
270.0
  0
LINE
  5
A030C
330
1E
100
AcDbEntity
  8
DETAIL
  6
Continuous
370
    18
100
AcDbLine
 10
-599.0000000000008
 20
-50.0
 30
0.0
 11
-609.0000000000006
 21
-50.0
 31
0.0
  0
ARC
  5
A030D
330
1E
100
AcDbEntity
  8
DETAIL
  6
Continuous
370
    18
100
AcDbCircle
 10
-576.0000000000002
 20
-47.00000000000182
 30
0.0
 40
3.000000000000043
100
AcDbArc
 50
270.0
 51
0.0
  0
ARC
  5
A030E
330
1E
100
AcDbEntity
  8
DETAIL
  6
Continuous
370
    18
100
AcDbCircle
 10
-572.0000000000002
 20
-39.00000000000182
 30
0.0
 40
1.000000000000011
100
AcDbArc
 50
270.0
 51
0.0
  0
ARC
  5
A030F
330
1E
100
AcDbEntity
  8
DETAIL
  6
Continuous
370
    18
100
AcDbCircle
 10
-572.0000000000002
 20
-39.00000000000182
 30
0.0
 40
4.000000000000055
100
AcDbArc
 50
270.0
 51
0.0
  0
LINE
  5
A0310
330
1E
100
AcDbEntity
  8
DETAIL
  6
Continuous
370
    18
100
AcDbLine
 10
-572.0000000000002
 20
-43.0
 30
0.0
 11
-572.9999999999992
 21
-43.0
 31
0.0
  0
LINE
  5
A0311
330
1E
100
AcDbEntity
  8
DETAIL
  6
Continuous
370
    18
100
AcDbLine
 10
-576.0000000000002
 20
-50.0
 30
0.0
 11
-581.0000000000005
 21
-50.0
 31
0.0
  0
LINE
  5
A0312
330
1E
100
AcDbEntity
  8
DETAIL
  6
Continuous
370
    18
100
AcDbLine
 10
-572.0000000000002
 20
-40.0
 30
0.0
 11
-612.0000000000008
 21
-40.0
 31
0.0
  0
LINE
  5
A0313
330
1E
100
AcDbEntity
  8
DETAIL
  6
Continuous
370
    18
100
AcDbLine
 10
-612.0000000000008
 20
-47.00000000000182
 30
0.0
 11
-612.0000000000008
 21
-40.0
 31
0.0
  0
LINE
  5
A0314
330
1E
100
AcDbEntity
  8
DETAIL
  6
Continuous
370
    18
100
AcDbLine
 10
-596.0000000000007
 20
-47.00000000000182
 30
0.0
 11
-596.0000000000007
 21
-40.0
 31
0.0
  0
LINE
  5
A0315
330
1E
100
AcDbEntity
  8
DETAIL
  6
Continuous
370
    18
100
AcDbLine
 10
-584.0000000000006
 20
-47.00000000000182
 30
0.0
 11
-584.0000000000006
 21
-40.0
 31
0.0
  0
LINE
  5
A0316
330
1E
100
AcDbEntity
  8
DETAIL
  6
Continuous
370
    18
100
AcDbLine
 10
-572.9999999999992
 20
-47.00000000000182
 30
0.0
 11
-572.9999999999992
 21
-40.0
 31
0.0
  0
LINE
  5
A0317
330
1E
100
AcDbEntity
  8
NOTE
  6
CENTER
370
    18
100
AcDbLine
 10
-590.0000000000005
 20
-90.0
 30
0.0
 11
-590.0000000000005
 21
0.0
 31
0.0
  0
LINE
  5
A0318
330
1E
100
AcDbEntity
  8
NOTE
  6
CENTER
370
    18
100
AcDbLine
 10
-522.9999999999993
 20
-197.0000000000018
 30
0.0
 11
-522.9999999999993
 21
-132.9999999999982
 31
0.0
  0
LINE
  5
A0319
330
1E
100
AcDbEntity
  8
NOTE
  6
CENTER
370
    18
100
AcDbLine
 10
-555.0000000000006
 20
-165.0000000000018
 30
0.0
 11
-491.0000000000001
 21
-165.0000000000018
 31
0.0
  0
CIRCLE
  5
A031A
330
1E
100
AcDbEntity
  8
DETAIL
  6
Continuous
370
    18
100
AcDbCircle
 10
-522.9999999999993
 20
-165.0651057624836
 30
0.0
 40
9.599999999999797
  0
LINE
  5
A031B
330
1E
100
AcDbEntity
  8
NOTE
  6
CENTER
370
    18
100
AcDbLine
 10
-437.9999999999993
 20
-135.9999999999982
 30
0.0
 11
-437.9999999999993
 21
-194.0000000000018
 31
0.0
  0
LINE
  5
A031C
330
1E
100
AcDbEntity
  8
NOTE
  6
CENTER
370
    18
100
AcDbLine
 10
-467.0000000000001
 20
-165.0000000000018
 30
0.0
 11
-409.0000000000006
 21
-165.0000000000018
 31
0.0
  0
CIRCLE
  5
A031D
330
1E
100
AcDbEntity
  8
DETAIL
  6
Continuous
370
    18
100
AcDbCircle
 10
-437.9999999999993
 20
-165.0000000000018
 30
0.0
 40
7.173999999999977
  0
CIRCLE
  5
A031E
330
1E
100
AcDbEntity
  8
DETAIL
  6
Continuous
370
    18
100
AcDbCircle
 10
-462.9999999999993
 20
-253.5000000000018
 30
0.0
 40
12.5
  0
CIRCLE
  5
A031F
330
1E
100
AcDbEntity
  8
DETAIL
  6
Continuous
370
    18
100
AcDbCircle
 10
-462.9999999999993
 20
-253.5000000000018
 30
0.0
 40
17.99999999999981
  0
LINE
  5
A0320
330
1E
100
AcDbEntity
  8
NOTE
  6
CENTER
370
    18
100
AcDbLine
 10
-462.9999999999993
 20
-219.5000000000018
 30
0.0
 11
-462.9999999999993
 21
-279.5000000000018
 31
0.0
  0
LINE
  5
A0321
330
1E
100
AcDbEntity
  8
NOTE
  6
CENTER
370
    18
100
AcDbLine
 10
-435.0000000000006
 20
-253.5000000000018
 30
0.0
 11
-491.0000000000001
 21
-253.5000000000018
 31
0.0
  0
LINE
  5
A0322
330
1E
100
AcDbEntity
  8
DETAIL
  6
Continuous
370
    18
100
AcDbLine
 10
-422.0000000000001
 20
-277.5000000000018
 30
0.0
 11
-462.9999999999993
 21
-277.5000000000018
 31
0.0
  0
LINE
  5
A0323
330
1E
100
AcDbEntity
  8
DETAIL
  6
Continuous
370
    18
100
AcDbLine
 10
-443.9212159716596
 20
-258.5000000000018
 30
0.0
 11
-427.0000000000002
 21
-258.5000000000018
 31
0.0
  0
LINE
  5
A0324
330
1E
100
AcDbEntity
  8
DETAIL
  6
Continuous
370
    18
100
AcDbLine
 10
-422.0000000000001
 20
-263.5000000000018
 30
0.0
 11
-422.0000000000001
 21
-277.5000000000018
 31
0.0
  0
ARC
  5
A0325
330
1E
100
AcDbEntity
  8
DETAIL
  6
Continuous
370
    18
100
AcDbCircle
 10
-427.0000000000002
 20
-263.5000000000018
 30
0.0
 40
5.0
100
AcDbArc
 50
0.0
 51
90.0
  0
ARC
  5
A0326
330
1E
100
AcDbEntity
  8
DETAIL
  6
Continuous
370
    18
100
AcDbCircle
 10
-499.0000000000007
 20
-263.5000000000018
 30
0.0
 40
5.0
100
AcDbArc
 50
90.0
 51
180.0
  0
LINE
  5
A0327
330
1E
100
AcDbEntity
  8
DETAIL
  6
Continuous
370
    18
100
AcDbLine
 10
-482.0787840283385
 20
-258.5000000000018
 30
0.0
 11
-499.0000000000007
 21
-258.5000000000018
 31
0.0
  0
ARC
  5
A0328
330
1E
100
AcDbEntity
  8
DETAIL
  6
Continuous
370
    18
100
AcDbCircle
 10
-462.9999999999993
 20
-252.5000000000018
 30
0.0
 40
19.9999999999986
100
AcDbArc
 50
197.4576031237325
 51
342.5423968762673
  0
LINE
  5
A0329
330
1E
100
AcDbEntity
  8
DETAIL
  6
Continuous
370
    18
100
AcDbLine
 10
-504.0000000000007
 20
-277.5000000000018
 30
0.0
 11
-462.9999999999993
 21
-277.5000000000018
 31
0.0
  0
LINE
  5
A032A
330
1E
100
AcDbEntity
  8
DETAIL
  6
Continuous
370
    18
100
AcDbLine
 10
-504.0000000000007
 20
-263.5000000000018
 30
0.0
 11
-504.0000000000007
 21
-277.5000000000018
 31
0.0
  0
LINE
  5
A032B
330
1E
100
AcDbEntity
  8
DETAIL
  6
Continuous
370
    18
100
AcDbLine
 10
-564.0000000000005
 20
-294.0000000000018
 30
0.0
 11
-216.0000000000007
 21
-294.0000000000018
 31
0.0
  0
LINE
  5
A032C
330
1E
100
AcDbEntity
  8
DETAIL
  6
DASHED
370
    18
100
AcDbLine
 10
96.6000000000006
 20
-266.1000000000004
 30
0.0
 11
-25.60000000000241
 21
-266.1000000000004
 31
0.0
  0
LINE
  5
A032D
330
1E
100
AcDbEntity
  8
DETAIL
  6
DASHED
370
    18
100
AcDbLine
 10
-25.60000000000241
 20
-111.1000000000003
 30
0.0
 11
-25.60000000000241
 21
-266.1000000000004
 31
0.0
  0
LINE
  5
A032E
330
1E
100
AcDbEntity
  8
DETAIL
  6
DASHED
370
    18
100
AcDbLine
 10
96.6000000000006
 20
-111.1000000000003
 30
0.0
 11
96.6000000000006
 21
-266.1000000000004
 31
0.0
  0
LINE
  5
A032F
330
1E
100
AcDbEntity
  8
OUTLINE
  6
Continuous
370
    18
100
AcDbLine
 10
552.9999999999993
 20
-290.0000000000018
 30
0.0
 11
552.9999999999993
 21
-5.0
 31
0.0
  0
LINE
  5
A0330
330
1E
100
AcDbEntity
  8
OUTLINE
  6
Continuous
370
    18
100
AcDbLine
 10
567.9999999999991
 20
-295.0000000000018
 30
0.0
 11
552.9999999999993
 21
-295.0000000000018
 31
0.0
  0
LINE
  5
A0331
330
1E
100
AcDbEntity
  8
OUTLINE
  6
Continuous
370
    18
100
AcDbLine
 10
567.9999999999991
 20
-295.0000000000018
 30
0.0
 11
567.9999999999991
 21
0.0
 31
0.0
  0
LINE
  5
A0332
330
1E
100
AcDbEntity
  8
OUTLINE
  6
DASHED
370
    18
100
AcDbLine
 10
563.9999999999992
 20
-280.9999999999982
 30
0.0
 11
552.0000000000001
 21
-280.9999999999982
 31
0.0
  0
LINE
  5
A0333
330
1E
100
AcDbEntity
  8
OUTLINE
  6
DASHED
370
    18
100
AcDbLine
 10
563.9999999999992
 20
-293.9999999999982
 30
0.0
 11
563.9999999999992
 21
-280.9999999999982
 31
0.0
  0
LINE
  5
A0334
330
1E
100
AcDbEntity
  8
OUTLINE
  6
DASHED
370
    18
100
AcDbLine
 10
563.9999999999992
 20
-293.9999999999982
 30
0.0
 11
552.0000000000001
 21
-293.9999999999982
 31
0.0
  0
LINE
  5
A0335
330
1E
100
AcDbEntity
  8
OUTLINE
  6
Continuous
370
    18
100
AcDbLine
 10
552.0000000000001
 20
-280.9999999999982
 30
0.0
 11
216.0000000000007
 21
-280.9999999999982
 31
0.0
  0
LINE
  5
A0336
330
1E
100
AcDbEntity
  8
OUTLINE
  6
Continuous
370
    18
100
AcDbLine
 10
552.0000000000001
 20
-293.9999999999982
 30
0.0
 11
216.0000000000007
 21
-293.9999999999982
 31
0.0
  0
ARC
  5
A0337
330
1E
100
AcDbEntity
  8
OUTLINE
  6
Continuous
370
    18
100
AcDbCircle
 10
556.0000000000005
 20
-290.0000000000018
 30
0.0
 40
3.000000000000113
100
AcDbArc
 50
180.0
 51
270.0
  0
ARC
  5
A0338
330
1E
100
AcDbEntity
  8
OUTLINE
  6
Continuous
370
    18
100
AcDbCircle
 10
556.0000000000005
 20
-5.0
 30
0.0
 40
2.999999999999971
100
AcDbArc
 50
90.0
 51
180.0
  0
LINE
  5
A0339
330
1E
100
AcDbEntity
  8
OUTLINE
  6
Continuous
370
    18
100
AcDbLine
 10
567.9999999999991
 20
-2.000000000001818
 30
0.0
 11
556.0000000000005
 21
-2.000000000001818
 31
0.0
  0
LINE
  5
A033A
330
1E
100
AcDbEntity
  8
OUTLINE
  6
Continuous
370
    18
100
AcDbLine
 10
567.9999999999991
 20
-292.9999999999982
 30
0.0
 11
556.0000000000005
 21
-292.9999999999982
 31
0.0
  0
LINE
  5
A033B
330
1E
100
AcDbEntity
  8
OUTLINE
  6
Continuous
370
    18
100
AcDbLine
 10
567.9999999999991
 20
-14.00000000000182
 30
0.0
 11
567.9999999999991
 21
-39.00000000000182
 31
0.0
  0
LINE
  5
A033C
330
1E
100
AcDbEntity
  8
OUTLINE
  6
DASHED
370
    18
100
AcDbLine
 10
-180.0000000000007
 20
-294.0000000000018
 30
0.0
 11
-167.9999999999993
 21
-294.0000000000018
 31
0.0
  0
LINE
  5
A033D
330
1E
100
AcDbEntity
  8
OUTLINE
  6
Continuous
370
    18
100
AcDbLine
 10
-167.9999999999993
 20
-295.0000000000018
 30
0.0
 11
-167.9999999999993
 21
-281.0000000000018
 31
0.0
  0
LINE
  5
A033E
330
1E
100
AcDbEntity
  8
OUTLINE
  6
DASHED
370
    18
100
AcDbLine
 10
-216.0000000000007
 20
-294.0000000000018
 30
0.0
 11
-204.0000000000007
 21
-294.0000000000018
 31
0.0
  0
LINE
  5
A033F
330
1E
100
AcDbEntity
  8
OUTLINE
  6
DASHED
370
    18
100
AcDbLine
 10
-204.0000000000007
 20
-294.0000000000018
 30
0.0
 11
-204.0000000000007
 21
-281.0000000000018
 31
0.0
  0
LINE
  5
A0340
330
1E
100
AcDbEntity
  8
OUTLINE
  6
Continuous
370
    18
100
AcDbLine
 10
-567.9999999999991
 20
-280.0000000000018
 30
0.0
 11
552.9999999999993
 21
-280.0000000000018
 31
0.0
  0
LINE
  5
A0341
330
1E
100
AcDbEntity
  8
OUTLINE
  6
DASHED
370
    18
100
AcDbLine
 10
167.9999999999993
 20
-294.0000000000018
 30
0.0
 11
179.9999999999993
 21
-293.9999999999982
 31
0.0
  0
LINE
  5
A0342
330
1E
100
AcDbEntity
  8
OUTLINE
  6
DASHED
370
    18
100
AcDbLine
 10
216.0000000000007
 20
-294.0000000000018
 30
0.0
 11
203.9999999999993
 21
-293.9999999999982
 31
0.0
  0
LINE
  5
A0343
330
1E
100
AcDbEntity
  8
OUTLINE
  6
DASHED
370
    18
100
AcDbLine
 10
203.9999999999993
 20
-293.9999999999982
 30
0.0
 11
203.9999999999993
 21
-281.0000000000018
 31
0.0
  0
LINE
  5
A0344
330
1E
100
AcDbEntity
  8
OUTLINE
  6
DASHED
370
    18
100
AcDbLine
 10
179.9999999999993
 20
-293.9999999999982
 30
0.0
 11
179.9999999999993
 21
-281.0000000000018
 31
0.0
  0
LINE
  5
A0345
330
1E
100
AcDbEntity
  8
OUTLINE
  6
Continuous
370
    18
100
AcDbLine
 10
182.0000000000004
 20
-295.0000000000018
 30
0.0
 11
182.0000000000004
 21
-280.0000000000018
 31
0.0
  0
LINE
  5
A0346
330
1E
100
AcDbEntity
  8
OUTLINE
  6
Continuous
370
    18
100
AcDbLine
 10
167.9999999999993
 20
-295.0000000000018
 30
0.0
 11
182.0000000000004
 21
-295.0000000000018
 31
0.0
  0
LINE
  5
A0347
330
1E
100
AcDbEntity
  8
OUTLINE
  6
Continuous
370
    18
100
AcDbLine
 10
216.0000000000007
 20
-295.0000000000018
 30
0.0
 11
202.0000000000004
 21
-295.0000000000018
 31
0.0
  0
LINE
  5
A0348
330
1E
100
AcDbEntity
  8
OUTLINE
  6
DASHED
370
    18
100
AcDbLine
 10
203.9999999999993
 20
-281.0000000000018
 30
0.0
 11
216.0000000000007
 21
-281.0000000000018
 31
0.0
  0
LINE
  5
A0349
330
1E
100
AcDbEntity
  8
OUTLINE
  6
DASHED
370
    18
100
AcDbLine
 10
179.9999999999993
 20
-281.0000000000018
 30
0.0
 11
167.9999999999993
 21
-281.0000000000018
 31
0.0
  0
LINE
  5
A034A
330
1E
100
AcDbEntity
  8
OUTLINE
  6
Continuous
370
    18
100
AcDbLine
 10
167.9999999999993
 20
-295.0000000000018
 30
0.0
 11
167.9999999999993
 21
-281.0000000000018
 31
0.0
  0
LINE
  5
A034B
330
1E
100
AcDbEntity
  8
OUTLINE
  6
Continuous
370
    18
100
AcDbLine
 10
167.9999999999993
 20
-294.0000000000018
 30
0.0
 11
-167.9999999999993
 21
-294.0000000000018
 31
0.0
  0
LINE
  5
A034C
330
1E
100
AcDbEntity
  8
OUTLINE
  6
Continuous
370
    18
100
AcDbLine
 10
216.0000000000007
 20
-295.0000000000018
 30
0.0
 11
216.0000000000007
 21
-281.0000000000018
 31
0.0
  0
LINE
  5
A034D
330
1E
100
AcDbEntity
  8
OUTLINE
  6
Continuous
370
    18
100
AcDbLine
 10
167.9999999999993
 20
-281.0000000000018
 30
0.0
 11
-167.9999999999993
 21
-281.0000000000018
 31
0.0
  0
ARC
  5
A034E
330
1E
100
AcDbEntity
  8
OUTLINE
  6
Continuous
370
    18
100
AcDbCircle
 10
170.9999999999993
 20
-281.0000000000018
 30
0.0
 40
3.00000000000081
100
AcDbArc
 50
160.5287793654998
 51
180.0
  0
ARC
  5
A034F
330
1E
100
AcDbEntity
  8
OUTLINE
  6
Continuous
370
    18
100
AcDbCircle
 10
212.9999999999993
 20
-281.0000000000018
 30
0.0
 40
3.000000000000113
100
AcDbArc
 50
0.0
 51
19.47122063450018
  0
LINE
  5
A0350
330
1E
100
AcDbEntity
  8
OUTLINE
  6
Continuous
370
    18
100
AcDbLine
 10
202.0000000000004
 20
-295.0000000000018
 30
0.0
 11
202.0000000000004
 21
-280.0000000000018
 31
0.0
  0
LINE
  5
A0351
330
1E
100
AcDbEntity
  8
OUTLINE
  6
Continuous
370
    18
100
AcDbLine
 10
-182.0000000000007
 20
-295.0000000000018
 30
0.0
 11
-182.0000000000007
 21
-280.0000000000018
 31
0.0
  0
LINE
  5
A0352
330
1E
100
AcDbEntity
  8
OUTLINE
  6
Continuous
370
    18
100
AcDbLine
 10
-202.0000000000007
 20
-295.0000000000018
 30
0.0
 11
-202.0000000000007
 21
-280.0000000000018
 31
0.0
  0
ARC
  5
A0353
330
1E
100
AcDbEntity
  8
OUTLINE
  6
Continuous
370
    18
100
AcDbCircle
 10
-171.0000000000007
 20
-281.0000000000018
 30
0.0
 40
3.000000000000113
100
AcDbArc
 50
0.0
 51
19.47122063450018
  0
ARC
  5
A0354
330
1E
100
AcDbEntity
  8
OUTLINE
  6
Continuous
370
    18
100
AcDbCircle
 10
-212.9999999999993
 20
-281.0000000000018
 30
0.0
 40
3.000000000000544
100
AcDbArc
 50
160.5287793654998
 51
180.0
  0
LINE
  5
A0355
330
1E
100
AcDbEntity
  8
OUTLINE
  6
Continuous
370
    18
100
AcDbLine
 10
-216.0000000000007
 20
-295.0000000000018
 30
0.0
 11
-216.0000000000007
 21
-281.0000000000018
 31
0.0
  0
LINE
  5
A0356
330
1E
100
AcDbEntity
  8
OUTLINE
  6
DASHED
370
    18
100
AcDbLine
 10
-564.0000000000005
 20
-281.0000000000018
 30
0.0
 11
-552.9999999999993
 21
-281.0000000000018
 31
0.0
  0
LINE
  5
A0357
330
1E
100
AcDbEntity
  8
OUTLINE
  6
DASHED
370
    18
100
AcDbLine
 10
-564.0000000000005
 20
-294.0000000000018
 30
0.0
 11
-564.0000000000005
 21
-281.0000000000018
 31
0.0
  0
LINE
  5
A0358
330
1E
100
AcDbEntity
  8
OUTLINE
  6
Continuous
370
    18
100
AcDbLine
 10
-552.9999999999993
 20
-290.0000000000018
 30
0.0
 11
-552.9999999999993
 21
-5.0
 31
0.0
  0
LINE
  5
A0359
330
1E
100
AcDbEntity
  8
OUTLINE
  6
Continuous
370
    18
100
AcDbLine
 10
-552.9999999999993
 20
-281.0000000000018
 30
0.0
 11
-216.0000000000007
 21
-281.0000000000018
 31
0.0
  0
LINE
  5
A035A
330
1E
100
AcDbEntity
  8
OUTLINE
  6
Continuous
370
    18
100
AcDbLine
 10
-567.9999999999991
 20
-295.0000000000018
 30
0.0
 11
-552.9999999999993
 21
-295.0000000000018
 31
0.0
  0
LINE
  5
A035B
330
1E
100
AcDbEntity
  8
OUTLINE
  6
Continuous
370
    18
100
AcDbLine
 10
-567.9999999999991
 20
-295.0000000000018
 30
0.0
 11
-567.9999999999991
 21
0.0
 31
0.0
  0
LINE
  5
A035C
330
1E
100
AcDbEntity
  8
OUTLINE
  6
DASHED
370
    18
100
AcDbLine
 10
-204.0000000000007
 20
-281.0000000000018
 30
0.0
 11
-216.0000000000007
 21
-281.0000000000018
 31
0.0
  0
LINE
  5
A035D
330
1E
100
AcDbEntity
  8
OUTLINE
  6
DASHED
370
    18
100
AcDbLine
 10
-180.0000000000007
 20
-294.0000000000018
 30
0.0
 11
-180.0000000000007
 21
-281.0000000000018
 31
0.0
  0
LINE
  5
A035E
330
1E
100
AcDbEntity
  8
OUTLINE
  6
DASHED
370
    18
100
AcDbLine
 10
-180.0000000000007
 20
-281.0000000000018
 30
0.0
 11
-167.9999999999993
 21
-281.0000000000018
 31
0.0
  0
LINE
  5
A035F
330
1E
100
AcDbEntity
  8
OUTLINE
  6
Continuous
370
    18
100
AcDbLine
 10
-567.9999999999991
 20
0.0
 30
0.0
 11
567.9999999999991
 21
0.0
 31
0.0
  0
LINE
  5
A0360
330
1E
100
AcDbEntity
  8
OUTLINE
  6
Continuous
370
    18
100
AcDbLine
 10
567.9999999999991
 20
0.0
 30
0.0
 11
-567.9999999999991
 21
0.0
 31
0.0
  0
LINE
  5
A0361
330
1E
100
AcDbEntity
  8
OUTLINE
  6
Continuous
370
    18
100
AcDbLine
 10
-216.0000000000007
 20
-295.0000000000018
 30
0.0
 11
-202.0000000000007
 21
-295.0000000000018
 31
0.0
  0
LINE
  5
A0362
330
1E
100
AcDbEntity
  8
OUTLINE
  6
Continuous
370
    18
100
AcDbLine
 10
-167.9999999999993
 20
-295.0000000000018
 30
0.0
 11
-182.0000000000007
 21
-295.0000000000018
 31
0.0
  0
ARC
  5
A0363
330
1E
100
AcDbEntity
  8
OUTLINE
  6
Continuous
370
    18
100
AcDbCircle
 10
-556.0000000000001
 20
-290.0000000000018
 30
0.0
 40
3.000000000000006
100
AcDbArc
 50
270.0
 51
0.0
  0
ARC
  5
A0364
330
1E
100
AcDbEntity
  8
OUTLINE
  6
Continuous
370
    18
100
AcDbCircle
 10
-556.0000000000001
 20
-5.0
 30
0.0
 40
3.000000000000113
100
AcDbArc
 50
0.0
 51
90.0
  0
LINE
  5
A0365
330
1E
100
AcDbEntity
  8
OUTLINE
  6
Continuous
370
    18
100
AcDbLine
 10
-567.9999999999991
 20
-2.000000000001818
 30
0.0
 11
-556.0000000000001
 21
-2.000000000001818
 31
0.0
  0
LINE
  5
A0366
330
1E
100
AcDbEntity
  8
OUTLINE
  6
Continuous
370
    18
100
AcDbLine
 10
-567.9999999999991
 20
-292.9999999999982
 30
0.0
 11
-556.0000000000001
 21
-292.9999999999982
 31
0.0
  0
LINE
  5
A0367
330
1E
100
AcDbEntity
  8
OUTLINE
  6
Continuous
370
    18
100
AcDbLine
 10
-567.9999999999991
 20
-14.00000000000182
 30
0.0
 11
-567.9999999999991
 21
-39.00000000000182
 31
0.0
  0
LINE
  5
A0368
330
1E
100
AcDbEntity
  8
OUTLINE
  6
Continuous
370
    18
100
AcDbLine
 10
-564.0000000000005
 20
-294.0000000000018
 30
0.0
 11
-216.0000000000007
 21
-294.0000000000018
 31
0.0
  0
DIMENSION
  5
A0369
330
1E
100
AcDbEntity
  8
SIZE
100
AcDbDimension
  2
*D22
 10
-567.9999999999991
 20
-397.1731123213867
 30
0.0
 11
-515.4999999999993
 21
-397.1731123213867
 31
0.0
 70
   160
 71
     5
 42
105.0
  3
STANDARD
100
AcDbAlignedDimension
 13
-462.9999999999993
 23
-252.5000000000018
 33
0.0
 14
-567.9999999999991
 24
-252.5000000000018
 34
0.0
100
AcDbRotatedDimension
1001
ACAD
1000
DSTYLE
1002
{
1070
    41
1040
10.0
1070
    42
1040
20.0
1070
    43
1040
200.0
1070
    44
1040
20.0
1070
    73
1070
     0
1070
    74
1070
     0
1070
    77
1070
     1
1070
    78
1070
     8
1070
   140
1040
50.0
1070
   141
1040
0.082
1070
   147
1040
10.0
1070
   172
1070
     1
1070
   271
1070
     3
1070
   272
1070
     3
1070
   341
1005
46
1070
   342
1005
46
1002
}
  0
DIMENSION
  5
A0377
330
1E
100
AcDbEntity
  8
SIZE
100
AcDbDimension
  2
*D23
 10
-391.9999999999999
 20
-537.2834497934109
 30
0.0
 11
-479.9999999999995
 21
-502.2834497934107
 31
0.0
 70
    32
 71
     5
 42
175.9999999999995
  3
STANDARD
100
AcDbAlignedDimension
 13
-567.9999999999991
 23
-252.5000000000018
 33
0.0
 14
-391.9999999999999
 24
-247.9999999999982
 34
0.0
100
AcDbRotatedDimension
1001
ACAD
1000
DSTYLE
1002
{
1070
    41
1040
10.0
1070
    42
1040
20.0
1070
    43
1040
200.0
1070
    44
1040
20.0
1070
    73
1070
     0
1070
    74
1070
     0
1070
    77
1070
     1
1070
    78
1070
     8
1070
   140
1040
50.0
1070
   141
1040
0.082
1070
   147
1040
10.0
1070
   172
1070
     1
1070
   271
1070
     3
1070
   272
1070
     3
1070
   341
1005
46
1070
   342
1005
46
1002
}
  0
DIMENSION
  5
A0384
330
1E
100
AcDbEntity
  8
SIZE
100
AcDbDimension
  2
*D24
 10
-25.60000000000243
 20
-537.2834497934109
 30
0.0
 11
-208.8000000000013
 21
-502.2834497934107
 31
0.0
 70
    32
 71
     5
 42
366.3999999999977
  3
STANDARD
100
AcDbAlignedDimension
 13
-392.0000000000002
 23
-248.0000000000018
 33
0.0
 14
-25.60000000000241
 24
-266.1000000000004
 34
0.0
100
AcDbRotatedDimension
1001
ACAD
1000
DSTYLE
1002
{
1070
    41
1040
10.0
1070
    42
1040
20.0
1070
    43
1040
200.0
1070
    44
1040
20.0
1070
    73
1070
     0
1070
    74
1070
     0
1070
    77
1070
     1
1070
    78
1070
     8
1070
   140
1040
50.0
1070
   141
1040
0.082
1070
   147
1040
10.0
1070
   172
1070
     1
1070
   271
1070
     0
1070
   272
1070
     3
1070
   341
1005
46
1070
   342
1005
46
1002
}
  0
DIMENSION
  5
A039A
330
1E
100
AcDbEntity
  8
SIZE
100
AcDbDimension
  2
*D25
 10
-227.1289512475114
 20
-210.0000000000018
 30
0.0
 11
-227.1289512475114
 21
-349.9667268263324
 31
0.0
 70
   160
 71
     5
 42
37.99999999999637
  3
STANDARD
100
AcDbAlignedDimension
 13
-391.9999999999999
 23
-247.9999999999982
 33
0.0
 14
-391.9999999999999
 24
-210.0000000000018
 34
0.0
 50
90.0
100
AcDbRotatedDimension
1001
ACAD
1000
DSTYLE
1002
{
1070
    41
1040
10.0
1070
    42
1040
20.0
1070
    43
1040
200.0
1070
    44
1040
20.0
1070
    73
1070
     0
1070
    74
1070
     0
1070
    77
1070
     1
1070
    78
1070
     8
1070
   140
1040
50.0
1070
   141
1040
0.082
1070
   147
1040
10.0
1070
   172
1070
     1
1070
   271
1070
     3
1070
   272
1070
     3
1070
   341
1005
46
1070
   342
1005
46
1002
}
  0
DIMENSION
  5
A03A9
330
1E
100
AcDbEntity
  8
SIZE
100
AcDbDimension
  2
*D26
 10
-227.1289512475116
 20
-0.0000000000000467
 30
0.0
 11
-262.1289512475116
 21
-105.000000000001
 31
0.0
 70
    32
 71
     5
 42
210.0000000000018
  3
STANDARD
100
AcDbAlignedDimension
 13
-391.9999999999999
 23
-210.0000000000018
 33
0.0
 14
-391.9999999999999
 24
0.0
 34
0.0
 50
90.0
100
AcDbRotatedDimension
1001
ACAD
1000
DSTYLE
1002
{
1070
    41
1040
10.0
1070
    42
1040
20.0
1070
    43
1040
200.0
1070
    44
1040
20.0
1070
    73
1070
     0
1070
    74
1070
     0
1070
    77
1070
     1
1070
    78
1070
     8
1070
   140
1040
50.0
1070
   141
1040
0.082
1070
   147
1040
10.0
1070
   172
1070
     1
1070
   271
1070
     3
1070
   272
1070
     3
1070
   341
1005
46
1070
   342
1005
46
1002
}
  0
DIMENSION
  5
A0408
330
1E
100
AcDbEntity
  8
SIZE
100
AcDbDimension
  2
*D27
 10
-793.5865548009051
 20
-119.9999999999999
 30
0.0
 11
-793.5865548009051
 21
-60.00000000000007
 31
0.0
 70
   160
 71
     5
 42
120.0
  3
STANDARD
100
AcDbAlignedDimension
 13
-567.9999999999991
 23
0.0
 33
0.0
 14
-530.0000000000006
 24
-120.0
 34
0.0
 50
90.0
100
AcDbRotatedDimension
1001
ACAD
1000
DSTYLE
1002
{
1070
    41
1040
10.0
1070
    42
1040
20.0
1070
    43
1040
200.0
1070
    44
1040
20.0
1070
    73
1070
     0
1070
    74
1070
     0
1070
    77
1070
     1
1070
    78
1070
     8
1070
   140
1040
50.0
1070
   141
1040
0.082
1070
   147
1040
10.0
1070
   172
1070
     1
1070
   271
1070
     3
1070
   272
1070
     3
1070
   341
1005
46
1070
   342
1005
46
1002
}
  0
DIMENSION
  5
A041F
330
1E
100
AcDbEntity
  8
SIZE
100
AcDbDimension
  2
*D28
 10
-793.5865548009051
 20
-210.0000000000017
 30
0.0
 11
-793.5865548009051
 21
-165.0000000000009
 31
0.0
 70
   160
 71
     5
 42
90.00000000000182
  3
STANDARD
100
AcDbAlignedDimension
 13
-530.0000000000006
 23
-120.0
 33
0.0
 14
-530.0000000000006
 24
-210.0000000000018
 34
0.0
 50
90.0
100
AcDbRotatedDimension
1001
ACAD
1000
DSTYLE
1002
{
1070
    41
1040
10.0
1070
    42
1040
20.0
1070
    43
1040
200.0
1070
    44
1040
20.0
1070
    73
1070
     0
1070
    74
1070
     0
1070
    77
1070
     1
1070
    78
1070
     8
1070
   140
1040
50.0
1070
   141
1040
0.082
1070
   147
1040
10.0
1070
   172
1070
     1
1070
   271
1070
     3
1070
   272
1070
     3
1070
   341
1005
46
1070
   342
1005
46
1002
}
  0
DIMENSION
  5
A0479
330
1E
100
AcDbEntity
  8
SIZE
100
AcDbDimension
  2
*D29
 10
-719.4142510461424
 20
0.0000000000000556
 30
0.0
 11
-719.4142510461424
 21
-82.49999999999976
 31
0.0
 70
   160
 71
     5
 42
165.0
  3
STANDARD
100
AcDbAlignedDimension
 13
-522.9999999999993
 23
-165.0
 33
0.0
 14
-522.9999999999993
 24
0.0
 34
0.0
 50
90.0
100
AcDbRotatedDimension
1001
ACAD
1000
DSTYLE
1002
{
1070
    41
1040
10.0
1070
    42
1040
20.0
1070
    43
1040
200.0
1070
    44
1040
20.0
1070
    73
1070
     0
1070
    74
1070
     0
1070
    77
1070
     1
1070
    78
1070
     8
1070
   140
1040
50.0
1070
   141
1040
0.082
1070
   147
1040
10.0
1070
   172
1070
     1
1070
   271
1070
     3
1070
   272
1070
     3
1070
   341
1005
46
1070
   342
1005
46
1002
}
  0
DIMENSION
  5
A04C9
330
1E
100
AcDbEntity
  8
SIZE
100
AcDbDimension
  2
*D30
 10
-522.9999999999993
 20
41.88602118210929
 30
0.0
 11
-624.4285714285707
 21
41.88602118210929
 31
0.0
 70
   160
 71
     5
 42
45.0
  3
STANDARD
100
AcDbAlignedDimension
 13
-567.9999999999991
 23
-2.000000000001818
 33
0.0
 14
-522.9999999999993
 24
-165.0651057624836
 34
0.0
100
AcDbRotatedDimension
1001
ACAD
1000
DSTYLE
1002
{
1070
    41
1040
10.0
1070
    42
1040
20.0
1070
    43
1040
200.0
1070
    44
1040
20.0
1070
    73
1070
     0
1070
    74
1070
     0
1070
    77
1070
     1
1070
    78
1070
     8
1070
   140
1040
50.0
1070
   141
1040
0.082
1070
   147
1040
10.0
1070
   172
1070
     1
1070
   271
1070
     3
1070
   272
1070
     3
1070
   341
1005
46
1070
   342
1005
46
1002
}
  0
DIMENSION
  5
A04EB
330
1E
100
AcDbEntity
  8
SIZE
100
AcDbDimension
  2
*D31
 10
-437.9999999999993
 20
41.88602118210929
 30
0.0
 11
-480.4999999999998
 21
41.88602118210929
 31
0.0
 70
   160
 71
     5
 42
85.00000000000111
  3
STANDARD
100
AcDbAlignedDimension
 13
-523.0000000000003
 23
-165.0000000000018
 33
0.0
 14
-437.9999999999993
 24
-165.0
 34
0.0
100
AcDbRotatedDimension
1001
ACAD
1000
DSTYLE
1002
{
1070
    41
1040
10.0
1070
    42
1040
20.0
1070
    43
1040
200.0
1070
    44
1040
20.0
1070
    73
1070
     0
1070
    74
1070
     0
1070
    77
1070
     1
1070
    78
1070
     8
1070
   140
1040
50.0
1070
   141
1040
0.082
1070
   147
1040
10.0
1070
   172
1070
     1
1070
   271
1070
     3
1070
   272
1070
     3
1070
   341
1005
46
1070
   342
1005
46
1002
}
  0
DIMENSION
  5
A050B
330
1E
100
AcDbEntity
  8
SIZE
100
AcDbDimension
  2
*D32
 10
-550.0000000000007
 20
126.0923434087335
 30
0.0
 11
-633.1428571428573
 21
126.0923434087335
 31
0.0
 70
   160
 71
     5
 42
17.99999999999863
  3
STANDARD
100
AcDbAlignedDimension
 13
-567.9999999999991
 23
-2.000000000001818
 33
0.0
 14
-550.0000000000007
 24
-140.0000000000018
 34
0.0
100
AcDbRotatedDimension
1001
ACAD
1000
DSTYLE
1002
{
1070
    41
1040
10.0
1070
    42
1040
20.0
1070
    43
1040
200.0
1070
    44
1040
20.0
1070
    73
1070
     0
1070
    74
1070
     0
1070
    77
1070
     1
1070
    78
1070
     8
1070
   140
1040
50.0
1070
   141
1040
0.082
1070
   147
1040
10.0
1070
   172
1070
     1
1070
   271
1070
     3
1070
   272
1070
     3
1070
   341
1005
46
1070
   342
1005
46
1002
}
  0
DIMENSION
  5
A053B
330
1E
100
AcDbEntity
  8
SIZE
100
AcDbDimension
  2
*D33
 10
-410.0000000000006
 20
126.0923434087335
 30
0.0
 11
-480.0000000000006
 21
161.0923434087335
 31
0.0
 70
    32
 71
     5
 42
140.0
  3
STANDARD
100
AcDbAlignedDimension
 13
-550.0000000000007
 23
-140.0000000000018
 33
0.0
 14
-410.0000000000006
 24
-140.0000000000018
 34
0.0
100
AcDbRotatedDimension
1001
ACAD
1000
DSTYLE
1002
{
1070
    41
1040
10.0
1070
    42
1040
20.0
1070
    43
1040
200.0
1070
    44
1040
20.0
1070
    73
1070
     0
1070
    74
1070
     0
1070
    77
1070
     1
1070
    78
1070
     8
1070
   140
1040
50.0
1070
   141
1040
0.082
1070
   147
1040
10.0
1070
   172
1070
     1
1070
   271
1070
     3
1070
   272
1070
     3
1070
   341
1005
46
1070
   342
1005
46
1002
}
  0
CIRCLE
  5
A056C
330
1E
100
AcDbEntity
  8
FIX
  6
Continuous
100
AcDbCircle
 10
-590.0000000000005
 20
-43.0
 30
0.0
 40
5.0
  0
CIRCLE
  5
A0573
330
1E
100
AcDbEntity
  8
FIX
  6
Continuous
100
AcDbCircle
 10
590.0000000000005
 20
-43.0
 30
0.0
 40
5.0
  0
DIMENSION
  5
A0574
330
1E
100
AcDbEntity
  8
SIZE
100
AcDbDimension
  2
*D34
 10
798.4268510094624
 20
-295.000000000002
 30
0.0
 11
798.4268510094625
 21
-147.5000000000009
 31
0.0
 70
   160
 71
     5
 42
295.000000000002
  3
STANDARD
100
AcDbAlignedDimension
 13
567.9999999999991
 23
0.0
 33
0.0
 14
567.9999999999991
 24
-295.000000000002
 34
0.0
 50
90.0
100
AcDbRotatedDimension
1001
ACAD
1000
DSTYLE
1002
{
1070
    41
1040
10.0
1070
    42
1040
20.0
1070
    43
1040
200.0
1070
    44
1040
20.0
1070
    73
1070
     0
1070
    74
1070
     0
1070
    77
1070
     1
1070
    78
1070
     8
1070
   140
1040
50.0
1070
   141
1040
0.082
1070
   147
1040
10.0
1070
   172
1070
     1
1070
   271
1070
     3
1070
   272
1070
     3
1070
   341
1005
46
1070
   342
1005
46
1002
}
  0
DIMENSION
  5
A0581
330
1E
100
AcDbEntity
  8
SIZE
100
AcDbDimension
  2
*D35
 10
96.60000000000058
 20
-537.2834497934109
 30
0.0
 11
199.1000000000006
 21
-537.2834497934109
 31
0.0
 70
   160
  1
(<>)
 71
     5
 42
122.200000000003
  3
STANDARD
100
AcDbAlignedDimension
 13
-25.60000000000241
 23
-266.1000000000004
 33
0.0
 14
96.6000000000006
 24
-266.1000000000004
 34
0.0
100
AcDbRotatedDimension
1001
ACAD
1000
DSTYLE
1002
{
1070
    41
1040
10.0
1070
    42
1040
20.0
1070
    43
1040
200.0
1070
    44
1040
20.0
1070
    73
1070
     0
1070
    74
1070
     0
1070
    77
1070
     1
1070
    78
1070
     8
1070
   140
1040
50.0
1070
   141
1040
0.082
1070
   147
1040
10.0
1070
   172
1070
     1
1070
   271
1070
     0
1070
   272
1070
     3
1070
   341
1005
46
1070
   342
1005
46
1002
}
  0
LINE
  5
A05F0
330
1E
100
AcDbEntity
  8
NOTE
  6
Continuous
100
AcDbLine
 10
-438.0000000000014
 20
-165.0
 30
0.0
 11
-197.0764361222483
 21
330.2754627645097
 31
0.0
  0
LINE
  5
A05F1
330
1E
100
AcDbEntity
  8
NOTE
  6
Continuous
100
AcDbLine
 10
281.5371358777517
 20
330.2754627645097
 30
0.0
 11
-197.0764361222483
 21
330.2754627645097
 31
0.0
  0
LINE
  5
A05F2
330
1E
100
AcDbEntity
  8
NOTE
  6
Continuous
100
AcDbLine
 10
-523.0000000000003
 20
-165.0000000000018
 30
0.0
 11
-792.4470830000005
 21
74.87040599999819
 31
0.0
  0
LINE
  5
A05F3
330
1E
100
AcDbEntity
  8
NOTE
  6
Continuous
100
AcDbLine
 10
-792.4470830000005
 20
74.87040599999819
 30
0.0
 11
-1184.039162645592
 21
74.87040599999819
 31
0.0
  0
LINE
  5
A05F4
330
1E
100
AcDbEntity
  8
NOTE
  6
Continuous
100
AcDbLine
 10
-590.0000000000002
 20
-43.00000000000181
 30
0.0
 11
-809.0028850000003
 21
208.8044479999981
 31
0.0
  0
LINE
  5
A05F5
330
1E
100
AcDbEntity
  8
NOTE
  6
Continuous
100
AcDbLine
 10
-809.0028850000003
 20
208.8044479999981
 30
0.0
 11
-945.5968850000003
 21
208.8044479999981
 31
0.0
  0
TEXT
  5
A05F6
330
1E
100
AcDbEntity
  8
NOTE
  6
Continuous
100
AcDbText
 10
-153.3224361222482
 20
345.3262037645097
 30
0.0
 40
64.0
  1
RL \U+03C66.35
 41
0.9
100
AcDbText
  0
TEXT
  5
A05F7
330
1E
100
AcDbEntity
  8
NOTE
  6
Continuous
100
AcDbText
 10
-1176.265737127603
 20
93.09854699999823
 30
0.0
 40
64.0
  1
RG \U+03C612.7
 41
0.9
100
AcDbText
  0
TEXT
  5
A05F8
330
1E
100
AcDbEntity
  8
NOTE
  6
Continuous
100
AcDbText
 10
-920.4565190000003
 20
229.2658149999982
 30
0.0
 40
64.0
  1
AH
 41
0.9
100
AcDbText
  0
LWPOLYLINE
  5
A05F9
330
1E
100
AcDbEntity
  8
NOTE
  6
Continuous
100
AcDbPolyline
 90
        3
 70
     0
 43
0.0
 10
-622.4516420000002
 20
-19.61430100000189
 10
-590.0000000000002
 20
-43.00000000000181
 10
-606.4110970000001
 20
-6.521569000001817
  0
LWPOLYLINE
  5
A05FA
330
1E
100
AcDbEntity
  8
NOTE
  6
Continuous
100
AcDbPolyline
 90
        3
 70
     0
 43
0.0
 10
-558.8118600000001
 20
-147.1811700000019
 10
-523.0000000000003
 20
-165.0000000000018
 10
-545.1045660000004
 20
-131.6625110000018
  0
LWPOLYLINE
  5
A05FB
330
1E
100
AcDbEntity
  8
NOTE
  6
Continuous
100
AcDbPolyline
 90
        3
 70
     0
 43
0.0
 10
-429.7783426954243
 20
-125.8540635158957
 10
-438.0000000000014
 20
-165.0
 10
-411.3068672247118
 20
-135.2094534212944
  0
LINE
  5
A062B
330
1E
100
AcDbEntity
  8
NOTE
  6
Continuous
100
AcDbLine
 10
-463.0000000000004
 20
-253.5000000000018
 30
0.0
 11
-702.947437420722
 21
-398.8946460308583
 31
0.0
  0
LINE
  5
A062C
330
1E
100
AcDbEntity
  8
NOTE
  6
Continuous
100
AcDbLine
 10
-702.947437420722
 20
-398.8946460308583
 30
0.0
 11
-1336.40650116347
 21
-398.8946460308583
 31
0.0
  0
LINE
  5
A062D
330
1E
100
AcDbEntity
  8
NOTE
  6
Continuous
100
AcDbLine
 10
-391.9999999999985
 20
-209.999999999997
 30
0.0
 11
-245.3452859156646
 21
59.23472226450235
 31
0.0
  0
LINE
  5
A062E
330
1E
100
AcDbEntity
  8
NOTE
  6
Continuous
100
AcDbLine
 10
-245.3452859156646
 20
59.23472226450235
 30
0.0
 11
-391.9999999999968
 21
-247.9999999999964
 31
0.0
  0
LINE
  5
A062F
330
1E
100
AcDbEntity
  8
NOTE
  6
Continuous
100
AcDbLine
 10
-245.3452859156646
 20
59.23472226450235
 30
0.0
 11
208.3006790843351
 21
59.23472226450235
 31
0.0
  0
TEXT
  5
A0630
330
1E
100
AcDbEntity
  8
NOTE
  6
Continuous
100
AcDbText
 10
-1325.911266903686
 20
-376.5218240308584
 30
0.0
 40
64.0
  1
D \U+03C632(VP-25)
 41
0.9
100
AcDbText
  0
TEXT
  5
A0631
330
1E
100
AcDbEntity
  8
NOTE
  6
Continuous
100
AcDbText
 10
-233.7794329156645
 20
84.12647326450246
 30
0.0
 40
64.0
  1
EL 2-\U+03C627
 41
0.9
100
AcDbText
  0
LWPOLYLINE
  5
A0632
330
1E
100
AcDbEntity
  8
NOTE
  6
Continuous
100
AcDbPolyline
 90
        3
 70
     0
 43
0.0
 10
-384.8294887332354
 20
-208.6479509137944
 10
-391.9999999999968
 20
-247.9999999999964
 10
-366.1141314059542
 20
-217.5053810919116
  0
LWPOLYLINE
  5
A0633
330
1E
100
AcDbEntity
  8
NOTE
  6
Continuous
100
AcDbPolyline
 90
        3
 70
     0
 43
0.0
 10
-382.8453594741837
 20
-171.0616827791445
 10
-391.9999999999985
 20
-209.999999999997
 10
-364.6026897390961
 20
-180.8557484191205
  0
LWPOLYLINE
  5
A0634
330
1E
100
AcDbEntity
  8
NOTE
  6
Continuous
100
AcDbPolyline
 90
        3
 70
     0
 43
0.0
 10
-489.8298000000004
 20
-283.167522000002
 10
-463.0000000000004
 20
-253.5000000000018
 10
-501.0690490000001
 20
-265.7779280000018
  0
LINE
  5
A067F
330
1E
100
AcDbEntity
  8
NOTE
  6
Continuous
100
AcDbLine
 10
590.0000000000006
 20
-43.0
 30
0.0
 11
842.4499005683008
 21
-487.9068479999999
 31
0.0
  0
LINE
  5
A0680
330
1E
100
AcDbEntity
  8
NOTE
  6
Continuous
100
AcDbLine
 10
335.5848011435692
 20
-487.9068479999999
 30
0.0
 11
842.4499005683008
 21
-487.9068479999999
 31
0.0
  0
TEXT
  5
A0681
330
1E
100
AcDbEntity
  8
NOTE
  6
Continuous
100
AcDbText
 10
353.4694477819539
 20
-471.929083
 30
0.0
 40
64.0
  1
AH 4-\U+03C610
 41
0.9
100
AcDbText
  0
LWPOLYLINE
  5
A0682
330
1E
100
AcDbEntity
  8
NOTE
  6
Continuous
100
AcDbPolyline
 90
        3
 70
     0
 43
0.0
 10
616.9428408628089
 20
-72.56490036899823
 10
590.0000000000002
 20
-43.0
 10
598.5507337081886
 20
-82.07537476883613
  0
LINE
  5
A0690
330
1E
100
AcDbEntity
  8
BASIS
  6
CENTER
100
AcDbLine
 10
-0.0000000000002274
 20
24.85671991203322
 30
0.0
 11
-0.0000000000002274
 21
-381.6142495936438
 31
0.0
  0
ENDSEC
  0
SECTION
  2
OBJECTS
  0
DICTIONARY
  5
C
330
0
100
AcDbDictionary
281
     1
  3
ACAD_CIP_PREVIOUS_PRODUCT_INFO
350
9F0F1
  3
ACAD_COLOR
350
9F0D1
  3
ACAD_DETAILVIEWSTYLE
350
9F0EA
  3
ACAD_GROUP
350
D
  3
ACAD_LAYOUT
350
19
  3
ACAD_MATERIAL
350
9F09F
  3
ACAD_MLEADERSTYLE
350
9F0E6
  3
ACAD_MLINESTYLE
350
16
  3
ACAD_PLOTSETTINGS
350
18
  3
ACAD_PLOTSTYLENAME
350
E
  3
ACAD_SCALELIST
350
9F0D4
  3
ACAD_SECTIONVIEWSTYLE
350
9F0E8
  3
ACAD_TABLESTYLE
350
9F0D2
  3
ACAD_VISUALSTYLE
350
9F0B8
  3
ACDB_RECOMPOSE_DATA
350
A0AAF
  3
ACDBVARIABLEDICTIONARY
350
96EEA
  3
AcDsDecomposeData
350
A0AB5
  0
DICTIONARY
  5
9F1AA
330
2
100
AcDbDictionary
280
     1
281
     1
  3
ACAD_LAYERSTATES
360
9F1AB
  0
DICTIONARY
  5
9F0F4
330
10
100
AcDbDictionary
280
     1
281
     1
  3
ADSK_XREC_LAYER_RECONCILED
360
9F0F5
  0
DICTIONARY
  5
9F0F6
330
22
100
AcDbDictionary
280
     1
281
     1
  3
ADSK_XREC_LAYER_RECONCILED
360
9F0F7
  0
DICTIONARY
  5
9F0F8
330
31
100
AcDbDictionary
280
     1
281
     1
  3
ADSK_XREC_LAYER_RECONCILED
360
9F0F9
  0
DICTIONARY
  5
9F0FA
330
32
100
AcDbDictionary
280
     1
281
     1
  3
ADSK_XREC_LAYER_RECONCILED
360
9F0FB
  0
DICTIONARY
  5
9F0FC
330
33
100
AcDbDictionary
280
     1
281
     1
  3
ADSK_XREC_LAYER_RECONCILED
360
9F0FD
  0
DICTIONARY
  5
9F0FE
330
34
100
AcDbDictionary
280
     1
281
     1
  3
ADSK_XREC_LAYER_RECONCILED
360
9F0FF
  0
DICTIONARY
  5
9F100
330
35
100
AcDbDictionary
280
     1
281
     1
  3
ADSK_XREC_LAYER_RECONCILED
360
9F101
  0
DICTIONARY
  5
9F102
330
37
100
AcDbDictionary
280
     1
281
     1
  3
ADSK_XREC_LAYER_RECONCILED
360
9F103
  0
DICTIONARY
  5
9F1A3
330
9F1A2
100
AcDbDictionary
280
     1
281
     1
  0
DICTIONARY
  5
9F1A5
330
9F1A4
100
AcDbDictionary
280
     1
281
     1
  0
DICTIONARY
  5
66E76
330
1E
100
AcDbDictionary
280
     1
281
     1
  3
ACAD_LAYOUTSELFREF
360
9F09A
  0
DICTIONARY
  5
66E74
330
1A
100
AcDbDictionary
280
     1
281
     1
  3
ACAD_LAYOUTSELFREF
360
9F099
  0
XRECORD
  5
9F0F1
102
{ACAD_REACTORS
330
C
102
}
330
C
100
AcDbXrecord
280
     1
300
ACDLT
300
2014
300
ACDLT_F_S
  0
DICTIONARY
  5
9F0D1
102
{ACAD_REACTORS
330
C
102
}
330
C
100
AcDbDictionary
281
     1
  0
DICTIONARY
  5
9F0EA
102
{ACAD_REACTORS
330
C
102
}
330
C
100
AcDbDictionary
281
     1
  3
Imperial24
350
9F0EB
  3
Metric50
350
9F1AD
  0
DICTIONARY
  5
D
102
{ACAD_REACTORS
330
C
102
}
330
C
100
AcDbDictionary
281
     1
  0
DICTIONARY
  5
19
102
{ACAD_REACTORS
330
C
102
}
330
C
100
AcDbDictionary
281
     1
  3
Model
350
9F0EC
  3
レイアウト1
350
9F0ED
  0
DICTIONARY
  5
9F09F
102
{ACAD_REACTORS
330
C
102
}
330
C
100
AcDbDictionary
281
     1
  3
ByBlock
350
9F0A8
  3
ByLayer
350
9F0A0
  3
Global
350
9F0B0
  0
DICTIONARY
  5
9F0E6
102
{ACAD_REACTORS
330
C
102
}
330
C
100
AcDbDictionary
281
     1
  3
Standard
350
9F0E7
  0
DICTIONARY
  5
16
102
{ACAD_REACTORS
330
C
102
}
330
C
100
AcDbDictionary
281
     1
  3
STANDARD
350
17
  0
DICTIONARY
  5
18
102
{ACAD_REACTORS
330
C
102
}
330
C
100
AcDbDictionary
281
     1
  0
ACDBDICTIONARYWDFLT
  5
E
102
{ACAD_REACTORS
330
C
102
}
330
C
100
AcDbDictionary
281
     1
  3
Normal
350
F
100
AcDbDictionaryWithDefault
340
F
  0
DICTIONARY
  5
9F0D4
102
{ACAD_REACTORS
330
C
102
}
330
C
100
AcDbDictionary
281
     1
  3
A0
350
9F0D5
  3
A1
350
9F0D6
  3
A2
350
9F0D7
  3
A3
350
9F0D8
  3
A4
350
9F0D9
  3
A5
350
9F0DA
  3
A6
350
9F0DB
  3
A7
350
9F0DC
  3
A8
350
9F0DD
  3
A9
350
9F0DE
  3
B0
350
9F0DF
  3
B1
350
9F0E0
  3
B2
350
9F0E1
  3
B3
350
9F0E2
  3
B4
350
9F0E3
  3
B5
350
9F0E4
  3
B6
350
9F0E5
  0
DICTIONARY
  5
9F0E8
102
{ACAD_REACTORS
330
C
102
}
330
C
100
AcDbDictionary
281
     1
  3
Imperial24
350
9F0E9
  3
Metric50
350
9F1AC
  0
DICTIONARY
  5
9F0D2
102
{ACAD_REACTORS
330
C
102
}
330
C
100
AcDbDictionary
281
     1
  3
Standard
350
9F0D3
  0
DICTIONARY
  5
9F0B8
102
{ACAD_REACTORS
330
C
102
}
330
C
100
AcDbDictionary
281
     1
  3
2dWireframe
350
9F0BE
  3
Basic
350
9F0BD
  3
Brighten
350
9F0C4
  3
ColorChange
350
9F0C8
  3
Conceptual
350
9F0C1
  3
Dim
350
9F0C3
  3
EdgeColorOff
350
9F0D0
  3
Facepattern
350
9F0C7
  3
Flat
350
9F0B9
  3
FlatWithEdges
350
9F0BA
  3
Gouraud
350
9F0BB
  3
GouraudWithEdges
350
9F0BC
  3
Hidden
350
9F0C0
  3
JitterOff
350
9F0CE
  3
Linepattern
350
9F0C6
  3
OverhangOff
350
9F0CF
  3
Realistic
350
9F0C2
  3
Shaded
350
9F0CD
  3
Shaded with edges
350
9F0CC
  3
Shades of Gray
350
9F0C9
  3
Sketchy
350
9F0CA
  3
Thicken
350
9F0C5
  3
Wireframe
350
9F0BF
  3
X-Ray
350
9F0CB
  0
XRECORD
  5
A0AAF
102
{ACAD_REACTORS
330
C
102
}
330
C
100
AcDbXrecord
280
     1
 90
        1
330
9F0D3
  0
DICTIONARY
  5
96EEA
102
{ACAD_REACTORS
330
C
102
}
330
C
100
AcDbDictionary
281
     1
  3
CANNOSCALE
350
9F108
  3
CMLEADERSTYLE
350
9F105
  3
CTABLESTYLE
350
9F104
  3
CVIEWDETAILSTYLE
350
9F106
  3
CVIEWSECTIONSTYLE
350
9F107
  3
LAYEREVAL
350
9FC45
  3
LAYERNOTIFY
350
9FC46
  3
LIGHTINGUNITS
350
9FC44
  3
MSLTSCALE
350
9FC43
  3
SORTENTS
350
96EEB
  3
XCLIPFRAME
350
A09AF
  0
DICTIONARY
  5
A0AB5
102
{ACAD_REACTORS
330
C
102
}
330
C
100
AcDbDictionary
281
     1
  3
AcDsRecords
350
A0AB7
  3
AcDsSchemas
350
A0AB6
1001
ACAD
1070
     2
  0
DICTIONARY
  5
9F1AB
102
{ACAD_REACTORS
330
9F1AA
102
}
330
9F1AA
100
AcDbDictionary
281
     1
  0
XRECORD
  5
9F0F5
102
{ACAD_REACTORS
330
9F0F4
102
}
330
9F0F4
100
AcDbXrecord
280
     1
290
     1
  0
XRECORD
  5
9F0F7
102
{ACAD_REACTORS
330
9F0F6
102
}
330
9F0F6
100
AcDbXrecord
280
     1
290
     1
  0
XRECORD
  5
9F0F9
102
{ACAD_REACTORS
330
9F0F8
102
}
330
9F0F8
100
AcDbXrecord
280
     1
290
     1
  0
XRECORD
  5
9F0FB
102
{ACAD_REACTORS
330
9F0FA
102
}
330
9F0FA
100
AcDbXrecord
280
     1
290
     1
  0
XRECORD
  5
9F0FD
102
{ACAD_REACTORS
330
9F0FC
102
}
330
9F0FC
100
AcDbXrecord
280
     1
290
     1
  0
XRECORD
  5
9F0FF
102
{ACAD_REACTORS
330
9F0FE
102
}
330
9F0FE
100
AcDbXrecord
280
     1
290
     1
  0
XRECORD
  5
9F101
102
{ACAD_REACTORS
330
9F100
102
}
330
9F100
100
AcDbXrecord
280
     1
290
     1
  0
XRECORD
  5
9F103
102
{ACAD_REACTORS
330
9F102
102
}
330
9F102
100
AcDbXrecord
280
     1
290
     1
  0
XRECORD
  5
9F09A
102
{ACAD_REACTORS
330
66E76
102
}
330
66E76
100
AcDbXrecord
280
     1
340
1E
  0
XRECORD
  5
9F099
102
{ACAD_REACTORS
330
66E74
102
}
330
66E74
100
AcDbXrecord
280
     1
340
1A
  0
ACDBDETAILVIEWSTYLE
  5
9F0EB
102
{ACAD_XDICTIONARY
360
A0AEB
102
}
102
{ACAD_REACTORS
330
9F0EA
102
}
330
9F0EA
100
AcDbModelDocViewStyle
 70
     0
  3
Imperial24
290
     0
100
AcDbDetailViewStyle
 70
     0
 71
     0
 90
        3
 71
     1
340
11
 62
   256
 40
0.24
340
0
 62
   256
 40
0.24
300

 40
0.36
280
     3
 71
     2
340
15
 90
       25
 62
   256
 71
     3
340
11
 62
   256
 40
0.24
 90
        1
 40
0.75
 90
        1
300
%<\AcVar ViewType \f "%tc1">% %<\AcVar ViewDetailId>%\PSCALE %<\AcVar ViewScale \f "%sn">%
 71
     4
340
15
 90
       25
 62
   256
340
15
 90
       25
 62
   256
280
     0
  0
ACDBDETAILVIEWSTYLE
  5
9F1AD
102
{ACAD_XDICTIONARY
360
A0AEF
102
}
102
{ACAD_REACTORS
330
9F0EA
102
}
330
9F0EA
100
AcDbModelDocViewStyle
 70
     0
  3
Metric50
290
     0
100
AcDbDetailViewStyle
 70
     0
 71
     0
 90
        3
 71
     1
340
11
 62
   256
 40
5.0
340
0
 62
   256
 40
5.0
300

 40
0.0
280
     1
 71
     2
340
15
 90
       25
 62
   256
 71
     3
340
11
 62
   256
 40
5.0
 90
        0
 40
15.0
 90
        1
300
%<\AcVar ViewDetailId>% (%<\AcVar ViewScale \f "%sn">%)
 71
     4
340
15
 90
       25
 62
   256
340
15
 90
       25
 62
   256
280
     0
  0
LAYOUT
  5
9F0EC
102
{ACAD_REACTORS
330
19
102
}
330
19
100
AcDbPlotSettings
  1

  2
none_device
  4
Letter_(8.50_x_11.00_Inches)
  6

 40
6.349999904632567
 41
6.349999904632567
 42
6.350006103515625
 43
6.350006103515625
 44
215.8999938964844
 45
279.3999938964844
 46
0.0
 47
0.0
 48
0.0
 49
0.0
140
0.0
141
0.0
142
1.0
143
168.6852425728759
 70
 11952
 72
     0
 73
     1
 74
     0
  7

 75
     0
147
0.0059282008594675
 76
     0
 77
     2
 78
   300
148
26027.26477195405
149
10165.15916413343
100
AcDbLayout
  1
Model
 70
     1
 71
     0
 10
0.0
 20
0.0
 11
12.0
 21
9.0
 12
0.0
 22
0.0
 32
0.0
 14
0.0
 24
0.0
 34
0.0
 15
0.0
 25
0.0
 35
0.0
146
0.0
 13
0.0
 23
0.0
 33
0.0
 16
1.0
 26
0.0
 36
0.0
 17
0.0
 27
1.0
 37
0.0
 76
     0
330
1E
331
9F077
1001
ACAD_PSEXT
1000
なし
1000
なし
1000
適切ではありません
1000
新しいプロッタ環境設定名を選択しない限り、レイアウトは印刷されません。
1070
     0
  0
LAYOUT
  5
9F0ED
102
{ACAD_REACTORS
330
19
102
}
330
19
100
AcDbPlotSettings
  1

  2
なし
  4

  6

 40
0.0
 41
0.0
 42
0.0
 43
0.0
 44
0.0
 45
0.0
 46
0.0
 47
0.0
 48
0.0
 49
0.0
140
0.0
141
0.0
142
1.0
143
1.0
 70
   688
 72
     0
 73
     0
 74
     5
  7

 75
    16
147
1.0
 76
     0
 77
     2
 78
   300
148
0.0
149
0.0
100
AcDbLayout
  1
レイアウト1
 70
     1
 71
     1
 10
0.0
 20
0.0
 11
12.0
 21
9.0
 12
0.0
 22
0.0
 32
0.0
 14
1.000000000000000E+20
 24
1.000000000000000E+20
 34
1.000000000000000E+20
 15
-1.000000000000000E+20
 25
-1.000000000000000E+20
 35
-1.000000000000000E+20
146
0.0
 13
0.0
 23
0.0
 33
0.0
 16
1.0
 26
0.0
 36
0.0
 17
0.0
 27
1.0
 37
0.0
 76
     0
330
1A
  0
MATERIAL
  5
9F0A8
102
{ACAD_XDICTIONARY
360
9F0A9
102
}
102
{ACAD_REACTORS
330
9F09F
102
}
330
9F09F
100
AcDbMaterial
  1
ByBlock
 72
     0
 43
0.0208333333333333
 43
0.0
 43
0.0
 43
0.0
 43
0.0
 43
0.0208333333333333
 43
0.0
 43
0.0
 43
0.0
 43
0.0
 43
1.0
 43
0.0
 43
0.0
 43
0.0
 43
0.0
 43
1.0
 77
     0
 47
0.0208333333333333
 47
0.0
 47
0.0
 47
0.0
 47
0.0
 47
0.0208333333333333
 47
0.0
 47
0.0
 47
0.0
 47
0.0
 47
1.0
 47
0.0
 47
0.0
 47
0.0
 47
0.0
 47
1.0
171
     0
 49
0.0208333333333333
 49
0.0
 49
0.0
 49
0.0
 49
0.0
 49
0.0208333333333333
 49
0.0
 49
0.0
 49
0.0
 49
0.0
 49
1.0
 49
0.0
 49
0.0
 49
0.0
 49
0.0
 49
1.0
175
     0
142
0.0208333333333333
142
0.0
142
0.0
142
0.0
142
0.0
142
0.0208333333333333
142
0.0
142
0.0
142
0.0
142
0.0
142
1.0
142
0.0
142
0.0
142
0.0
142
0.0
142
1.0
179
     0
144
0.0208333333333333
144
0.0
144
0.0
144
0.0
144
0.0
144
0.0208333333333333
144
0.0
144
0.0
144
0.0
144
0.0
144
1.0
144
0.0
144
0.0
144
0.0
144
0.0
144
1.0
147
0.0208333333333333
147
0.0
147
0.0
147
0.0
147
0.0
147
0.0208333333333333
147
0.0
147
0.0
147
0.0
147
0.0
147
1.0
147
0.0
147
0.0
147
0.0
147
0.0
147
1.0
  0
MATERIAL
  5
9F0A0
102
{ACAD_XDICTIONARY
360
9F0A1
102
}
102
{ACAD_REACTORS
330
9F09F
102
}
330
9F09F
100
AcDbMaterial
  1
ByLayer
 72
     0
 43
0.0208333333333333
 43
0.0
 43
0.0
 43
0.0
 43
0.0
 43
0.0208333333333333
 43
0.0
 43
0.0
 43
0.0
 43
0.0
 43
1.0
 43
0.0
 43
0.0
 43
0.0
 43
0.0
 43
1.0
 77
     0
 47
0.0208333333333333
 47
0.0
 47
0.0
 47
0.0
 47
0.0
 47
0.0208333333333333
 47
0.0
 47
0.0
 47
0.0
 47
0.0
 47
1.0
 47
0.0
 47
0.0
 47
0.0
 47
0.0
 47
1.0
171
     0
 49
0.0208333333333333
 49
0.0
 49
0.0
 49
0.0
 49
0.0
 49
0.0208333333333333
 49
0.0
 49
0.0
 49
0.0
 49
0.0
 49
1.0
 49
0.0
 49
0.0
 49
0.0
 49
0.0
 49
1.0
175
     0
142
0.0208333333333333
142
0.0
142
0.0
142
0.0
142
0.0
142
0.0208333333333333
142
0.0
142
0.0
142
0.0
142
0.0
142
1.0
142
0.0
142
0.0
142
0.0
142
0.0
142
1.0
179
     0
144
0.0208333333333333
144
0.0
144
0.0
144
0.0
144
0.0
144
0.0208333333333333
144
0.0
144
0.0
144
0.0
144
0.0
144
1.0
144
0.0
144
0.0
144
0.0
144
0.0
144
1.0
147
0.0208333333333333
147
0.0
147
0.0
147
0.0
147
0.0
147
0.0208333333333333
147
0.0
147
0.0
147
0.0
147
0.0
147
1.0
147
0.0
147
0.0
147
0.0
147
0.0
147
1.0
  0
MATERIAL
  5
9F0B0
102
{ACAD_XDICTIONARY
360
9F0B1
102
}
102
{ACAD_REACTORS
330
9F09F
102
}
330
9F09F
100
AcDbMaterial
  1
Global
 72
     0
 43
0.0208333333333333
 43
0.0
 43
0.0
 43
0.0
 43
0.0
 43
0.0208333333333333
 43
0.0
 43
0.0
 43
0.0
 43
0.0
 43
1.0
 43
0.0
 43
0.0
 43
0.0
 43
0.0
 43
1.0
 77
     0
 47
0.0208333333333333
 47
0.0
 47
0.0
 47
0.0
 47
0.0
 47
0.0208333333333333
 47
0.0
 47
0.0
 47
0.0
 47
0.0
 47
1.0
 47
0.0
 47
0.0
 47
0.0
 47
0.0
 47
1.0
171
     0
 49
0.0208333333333333
 49
0.0
 49
0.0
 49
0.0
 49
0.0
 49
0.0208333333333333
 49
0.0
 49
0.0
 49
0.0
 49
0.0
 49
1.0
 49
0.0
 49
0.0
 49
0.0
 49
0.0
 49
1.0
175
     0
142
0.0208333333333333
142
0.0
142
0.0
142
0.0
142
0.0
142
0.0208333333333333
142
0.0
142
0.0
142
0.0
142
0.0
142
1.0
142
0.0
142
0.0
142
0.0
142
0.0
142
1.0
179
     0
144
0.0208333333333333
144
0.0
144
0.0
144
0.0
144
0.0
144
0.0208333333333333
144
0.0
144
0.0
144
0.0
144
0.0
144
1.0
144
0.0
144
0.0
144
0.0
144
0.0
144
1.0
147
0.0208333333333333
147
0.0
147
0.0
147
0.0
147
0.0
147
0.0208333333333333
147
0.0
147
0.0
147
0.0
147
0.0
147
1.0
147
0.0
147
0.0
147
0.0
147
0.0
147
1.0
  0
MLEADERSTYLE
  5
9F0E7
102
{ACAD_REACTORS
330
9F0E6
102
}
330
9F0E6
100
AcDbMLeaderStyle
170
     2
171
     1
172
     0
 90
        2
 40
0.0
 41
0.0
173
     1
 91
-1056964608
340
13
 92
       -2
290
     1
 42
0.09
291
     1
 43
0.36
  3
Standard
 44
0.18
300

342
11
174
     1
178
     6
175
     1
176
     0
 93
-1056964608
 45
0.18
292
     0
297
     0
 46
0.18
 94
-1056964608
 47
1.0
 49
1.0
140
1.0
293
     1
141
0.0
294
     1
177
     0
142
1.0
295
     0
296
     0
143
0.125
1001
ACAD_MLEADERVER
1070
     2
  0
MLINESTYLE
  5
17
102
{ACAD_REACTORS
330
16
102
}
330
16
100
AcDbMlineStyle
  2
STANDARD
 70
     0
  3

 62
   256
 51
90.0
 52
90.0
 71
     2
 49
0.5
 62
   256
  6
BYLAYER
 49
-0.5
 62
   256
  6
BYLAYER
  0
ACDBPLACEHOLDER
  5
F
102
{ACAD_REACTORS
330
E
102
}
330
E
  0
SCALE
  5
9F0D5
102
{ACAD_REACTORS
330
9F0D4
102
}
330
9F0D4
100
AcDbScale
 70
     0
300
1:1
140
1.0
141
1.0
290
     1
  0
SCALE
  5
9F0D6
102
{ACAD_REACTORS
330
9F0D4
102
}
330
9F0D4
100
AcDbScale
 70
     0
300
1/128" = 1'-0"
140
0.0078125
141
12.0
290
     0
  0
SCALE
  5
9F0D7
102
{ACAD_REACTORS
330
9F0D4
102
}
330
9F0D4
100
AcDbScale
 70
     0
300
1/64" = 1'-0"
140
0.015625
141
12.0
290
     0
  0
SCALE
  5
9F0D8
102
{ACAD_REACTORS
330
9F0D4
102
}
330
9F0D4
100
AcDbScale
 70
     0
300
1/32" = 1'-0"
140
0.03125
141
12.0
290
     0
  0
SCALE
  5
9F0D9
102
{ACAD_REACTORS
330
9F0D4
102
}
330
9F0D4
100
AcDbScale
 70
     0
300
1/16" = 1'-0"
140
0.0625
141
12.0
290
     0
  0
SCALE
  5
9F0DA
102
{ACAD_REACTORS
330
9F0D4
102
}
330
9F0D4
100
AcDbScale
 70
     0
300
3/32" = 1'-0"
140
0.09375
141
12.0
290
     0
  0
SCALE
  5
9F0DB
102
{ACAD_REACTORS
330
9F0D4
102
}
330
9F0D4
100
AcDbScale
 70
     0
300
1/8" = 1'-0"
140
0.125
141
12.0
290
     0
  0
SCALE
  5
9F0DC
102
{ACAD_REACTORS
330
9F0D4
102
}
330
9F0D4
100
AcDbScale
 70
     0
300
3/16" = 1'-0"
140
0.1875
141
12.0
290
     0
  0
SCALE
  5
9F0DD
102
{ACAD_REACTORS
330
9F0D4
102
}
330
9F0D4
100
AcDbScale
 70
     0
300
1/4" = 1'-0"
140
0.25
141
12.0
290
     0
  0
SCALE
  5
9F0DE
102
{ACAD_REACTORS
330
9F0D4
102
}
330
9F0D4
100
AcDbScale
 70
     0
300
3/8" = 1'-0"
140
0.375
141
12.0
290
     0
  0
SCALE
  5
9F0DF
102
{ACAD_REACTORS
330
9F0D4
102
}
330
9F0D4
100
AcDbScale
 70
     0
300
1/2" = 1'-0"
140
0.5
141
12.0
290
     0
  0
SCALE
  5
9F0E0
102
{ACAD_REACTORS
330
9F0D4
102
}
330
9F0D4
100
AcDbScale
 70
     0
300
3/4" = 1'-0"
140
0.75
141
12.0
290
     0
  0
SCALE
  5
9F0E1
102
{ACAD_REACTORS
330
9F0D4
102
}
330
9F0D4
100
AcDbScale
 70
     0
300
1" = 1'-0"
140
1.0
141
12.0
290
     0
  0
SCALE
  5
9F0E2
102
{ACAD_REACTORS
330
9F0D4
102
}
330
9F0D4
100
AcDbScale
 70
     0
300
1-1/2" = 1'-0"
140
1.5
141
12.0
290
     0
  0
SCALE
  5
9F0E3
102
{ACAD_REACTORS
330
9F0D4
102
}
330
9F0D4
100
AcDbScale
 70
     0
300
3" = 1'-0"
140
3.0
141
12.0
290
     0
  0
SCALE
  5
9F0E4
102
{ACAD_REACTORS
330
9F0D4
102
}
330
9F0D4
100
AcDbScale
 70
     0
300
6" = 1'-0"
140
6.0
141
12.0
290
     0
  0
SCALE
  5
9F0E5
102
{ACAD_REACTORS
330
9F0D4
102
}
330
9F0D4
100
AcDbScale
 70
     0
300
1'-0" = 1'-0"
140
12.0
141
12.0
290
     0
  0
ACDBSECTIONVIEWSTYLE
  5
9F0E9
102
{ACAD_XDICTIONARY
360
A0AE9
102
}
102
{ACAD_REACTORS
330
9F0E8
102
}
330
9F0E8
100
AcDbModelDocViewStyle
 70
     0
  3
Imperial24
290
     0
100
AcDbSectionViewStyle
 70
     0
 71
     0
 90
       78
 71
     1
340
11
 62
   256
 40
0.24
340
0
340
0
 62
   256
 40
0.24
300
I, O, Q, S, X, Z
 40
0.48
 90
        3
 40
0.18
 90
        1
 71
     2
340
15
 90
       25
 62
   256
340
15
 90
       50
 62
   256
 40
0.24
 40
0.0
 40
0.24
 71
     3
340
11
 62
   256
 40
0.24
 90
        1
 40
0.75
 90
        1
300
%<\AcVar ViewType \f "%tc1">% %<\AcVar ViewSectionStartId>%-%<\AcVar ViewSectionEndId>%\PSCALE %<\AcVar ViewScale \f "%sn">%
 71
     4
 62
   256
 62
   257
300
ANSI31
 40
1.0
 90
        0
290
     0
290
     0
 90
        6
 40
0.0
 40
1.570796326794896
 40
0.2617993877991494
 40
1.308996938995747
 40
-0.2617993877991494
 40
1.832595714594044
  0
ACDBSECTIONVIEWSTYLE
  5
9F1AC
102
{ACAD_XDICTIONARY
360
A0AED
102
}
102
{ACAD_REACTORS
330
9F0E8
102
}
330
9F0E8
100
AcDbModelDocViewStyle
 70
     0
  3
Metric50
290
     0
100
AcDbSectionViewStyle
 70
     0
 71
     0
 90
      102
 71
     1
340
11
 62
   256
 40
5.0
340
0
340
0
 62
   256
 40
5.0
300
I, O, Q, S, X, Z
 40
10.0
 90
        0
 40
2.5
 90
        0
 71
     2
340
15
 90
       25
 62
   256
340
15
 90
       50
 62
   256
 40
5.0
 40
2.5
 40
5.0
 71
     3
340
11
 62
   256
 40
5.0
 90
        0
 40
15.0
 90
        1
300
%<\AcVar ViewSectionStartId>%-%<\AcVar ViewSectionEndId>% (%<\AcVar ViewScale \f "%sn">%)
 71
     4
 62
   256
 62
   257
300
ANSI31
 40
1.0
 90
        0
290
     0
290
     0
 90
        6
 40
0.0
 40
1.570796326794896
 40
0.2617993877991494
 40
1.308996938995747
 40
-0.2617993877991494
 40
1.832595714594044
  0
TABLESTYLE
  5
9F0D3
102
{ACAD_XDICTIONARY
360
9F10B
102
}
102
{ACAD_REACTORS
330
9F0D2
102
}
330
9F0D2
100
AcDbTableStyle
  3
Standard
 70
     0
 71
     0
 40
0.06
 41
0.06
280
     0
281
     0
  7
STANDARD
140
0.18
170
     2
 62
     0
 63
     7
283
     0
274
    -2
284
     1
 64
     0
275
    -2
285
     1
 65
     0
276
    -2
286
     1
 66
     0
277
    -2
287
     1
 67
     0
278
    -2
288
     1
 68
     0
279
    -2
289
     1
 69
     0
  7
STANDARD
140
0.25
170
     5
 62
     0
 63
     7
283
     0
274
    -2
284
     1
 64
     0
275
    -2
285
     1
 65
     0
276
    -2
286
     1
 66
     0
277
    -2
287
     1
 67
     0
278
    -2
288
     1
 68
     0
279
    -2
289
     1
 69
     0
  7
STANDARD
140
0.18
170
     5
 62
     0
 63
     7
283
     0
274
    -2
284
     1
 64
     0
275
    -2
285
     1
 65
     0
276
    -2
286
     1
 66
     0
277
    -2
287
     1
 67
     0
278
    -2
288
     1
 68
     0
279
    -2
289
     1
 69
     0
  0
VISUALSTYLE
  5
9F0BE
102
{ACAD_XDICTIONARY
360
A0AC2
102
}
102
{ACAD_REACTORS
330
9F0B8
102
}
330
9F0B8
100
AcDbVisualStyle
  2

 70
     4
 71
     0
 72
     2
 73
     0
 90
        0
 40
-0.6
 41
-30.0
 62
     5
 63
     7
421
 16777215
 74
     1
 91
        4
 64
     7
 65
   257
 75
     1
175
     1
 42
1.0
 92
        0
 66
   257
 43
1.0
 76
     1
 77
     6
 78
     2
 67
     7
 79
     5
170
     0
171
     0
290
     0
174
     0
 93
        1
 44
0.0
173
     0
291
     0
 45
0.0
1001
ACAD
1000
AcDbSavedByObjectVersion
1070
     0
  0
VISUALSTYLE
  5
9F0BD
102
{ACAD_XDICTIONARY
360
A0AC0
102
}
102
{ACAD_REACTORS
330
9F0B8
102
}
330
9F0B8
100
AcDbVisualStyle
  2

 70
     7
 71
     1
 72
     0
 73
     1
 90
        0
 40
-0.6
 41
-30.0
 62
     5
 63
     7
421
 16777215
 74
     0
 91
        4
 64
     7
 65
   257
 75
     1
175
     1
 42
1.0
 92
        8
 66
     7
 43
1.0
 76
     1
 77
     6
 78
     2
 67
     7
 79
     5
170
     0
171
     0
290
     0
174
     0
 93
        1
 44
0.0
173
     0
291
     1
 45
0.0
1001
ACAD
1000
AcDbSavedByObjectVersion
1070
     0
  0
VISUALSTYLE
  5
9F0C4
102
{ACAD_XDICTIONARY
360
A0ACE
102
}
102
{ACAD_REACTORS
330
9F0B8
102
}
330
9F0B8
100
AcDbVisualStyle
  2

 70
    12
 71
     2
 72
     2
 73
     0
 90
        0
 40
-0.6
 41
-30.0
 62
     5
 63
     7
421
 16777215
 74
     1
 91
        4
 64
     7
 65
   257
 75
     1
175
     1
 42
1.0
 92
        8
 66
     7
 43
1.0
 76
     1
 77
     6
 78
     2
 67
     7
 79
     5
170
     0
171
     0
290
     0
174
     0
 93
        1
 44
50.0
173
     0
291
     1
 45
0.0
1001
ACAD
1000
AcDbSavedByObjectVersion
1070
     0
  0
VISUALSTYLE
  5
9F0C8
102
{ACAD_XDICTIONARY
360
A0AD6
102
}
102
{ACAD_REACTORS
330
9F0B8
102
}
330
9F0B8
100
AcDbVisualStyle
  2

 70
    16
 71
     2
 72
     2
 73
     3
 90
        0
 40
-0.6
 41
-30.0
 62
     5
 63
     8
421
  8421504
 74
     1
 91
        4
 64
     7
 65
   257
 75
     1
175
     1
 42
1.0
 92
        8
 66
     8
424
  8421504
 43
1.0
 76
     1
 77
     6
 78
     2
 67
     7
 79
     5
170
     0
171
     0
290
     0
174
     0
 93
        1
 44
0.0
173
     0
291
     1
 45
0.0
1001
ACAD
1000
AcDbSavedByObjectVersion
1070
     0
  0
VISUALSTYLE
  5
9F0C1
102
{ACAD_XDICTIONARY
360
A0AC8
102
}
102
{ACAD_REACTORS
330
9F0B8
102
}
330
9F0B8
100
AcDbVisualStyle
  2

 70
     9
 71
     3
 72
     2
 73
     0
 90
        0
 40
-0.6
 41
-30.0
 62
     5
 63
     7
421
 16777215
 74
     2
 91
        2
 64
     7
 65
   257
 75
     1
175
     1
 42
179.0
 92
        8
 66
     7
 43
1.0
 76
     1
 77
     6
 78
     2
 67
     7
 79
     3
170
     0
171
     0
290
     0
174
     0
 93
        1
 44
0.0
173
     0
291
     0
 45
0.0
1001
ACAD
1000
AcDbSavedByObjectVersion
1070
     0
  0
VISUALSTYLE
  5
9F0C3
102
{ACAD_XDICTIONARY
360
A0ACC
102
}
102
{ACAD_REACTORS
330
9F0B8
102
}
330
9F0B8
100
AcDbVisualStyle
  2

 70
    11
 71
     2
 72
     2
 73
     0
 90
        0
 40
-0.6
 41
-30.0
 62
     5
 63
     7
421
 16777215
 74
     1
 91
        4
 64
     7
 65
   257
 75
     1
175
     1
 42
1.0
 92
        8
 66
     7
 43
1.0
 76
     1
 77
     6
 78
     2
 67
     7
 79
     5
170
     0
171
     0
290
     0
174
     0
 93
        1
 44
-50.0
173
     0
291
     1
 45
0.0
1001
ACAD
1000
AcDbSavedByObjectVersion
1070
     0
  0
VISUALSTYLE
  5
9F0D0
102
{ACAD_XDICTIONARY
360
A0AE6
102
}
102
{ACAD_REACTORS
330
9F0B8
102
}
330
9F0B8
100
AcDbVisualStyle
  2

 70
    22
 71
     2
 72
     2
 73
     0
 90
        0
 40
-0.6
 41
-30.0
 62
     5
 63
     7
421
 16777215
 74
     1
 91
        4
 64
     7
 65
   257
 75
     1
175
     1
 42
1.0
 92
        8
 66
     7
 43
1.0
 76
     1
 77
     6
 78
     2
 67
     7
 79
     5
170
     0
171
     0
290
     0
174
     0
 93
        1
 44
0.0
173
     0
291
     1
 45
0.0
1001
ACAD
1000
AcDbSavedByObjectVersion
1070
     0
  0
VISUALSTYLE
  5
9F0C7
102
{ACAD_XDICTIONARY
360
A0AD4
102
}
102
{ACAD_REACTORS
330
9F0B8
102
}
330
9F0B8
100
AcDbVisualStyle
  2

 70
    15
 71
     2
 72
     2
 73
     0
 90
        0
 40
-0.6
 41
-30.0
 62
     5
 63
     7
421
 16777215
 74
     1
 91
        4
 64
     7
 65
   257
 75
     1
175
     1
 42
1.0
 92
        8
 66
     7
 43
1.0
 76
     1
 77
     6
 78
     2
 67
     7
 79
     5
170
     0
171
     0
290
     0
174
     0
 93
        1
 44
0.0
173
     0
291
     1
 45
0.0
1001
ACAD
1000
AcDbSavedByObjectVersion
1070
     0
  0
VISUALSTYLE
  5
9F0B9
102
{ACAD_XDICTIONARY
360
A0AB8
102
}
102
{ACAD_REACTORS
330
9F0B8
102
}
330
9F0B8
100
AcDbVisualStyle
  2

 70
     0
 71
     2
 72
     1
 73
     1
 90
        2
 40
-0.6
 41
30.0
 62
     5
 63
     7
421
 16777215
 74
     0
 91
        0
 64
     7
 65
   257
 75
     1
175
     1
 42
1.0
 92
        8
 66
     7
 43
1.0
 76
     1
 77
     6
 78
     2
 67
     7
 79
     5
170
     0
171
     0
290
     0
174
     0
 93
       13
 44
0.0
173
     0
291
     1
 45
0.0
1001
ACAD
1000
AcDbSavedByObjectVersion
1070
     0
  0
VISUALSTYLE
  5
9F0BA
102
{ACAD_XDICTIONARY
360
A0ABA
102
}
102
{ACAD_REACTORS
330
9F0B8
102
}
330
9F0B8
100
AcDbVisualStyle
  2

 70
     1
 71
     2
 72
     1
 73
     1
 90
        2
 40
-0.6
 41
30.0
 62
     5
 63
     7
421
 16777215
 74
     1
 91
        0
 64
     7
 65
   257
 75
     1
175
     1
 42
1.0
 92
        0
 66
   257
 43
1.0
 76
     1
 77
     6
 78
     2
 67
     7
 79
     5
170
     0
171
     0
290
     0
174
     0
 93
       13
 44
0.0
173
     0
291
     1
 45
0.0
1001
ACAD
1000
AcDbSavedByObjectVersion
1070
     0
  0
VISUALSTYLE
  5
9F0BB
102
{ACAD_XDICTIONARY
360
A0ABC
102
}
102
{ACAD_REACTORS
330
9F0B8
102
}
330
9F0B8
100
AcDbVisualStyle
  2

 70
     2
 71
     2
 72
     2
 73
     1
 90
        2
 40
-0.6
 41
30.0
 62
     5
 63
     7
421
 16777215
 74
     0
 91
        0
 64
     7
 65
   257
 75
     1
175
     1
 42
1.0
 92
        0
 66
     7
 43
1.0
 76
     1
 77
     6
 78
     2
 67
     7
 79
     5
170
     0
171
     0
290
     0
174
     0
 93
       13
 44
0.0
173
     0
291
     1
 45
0.0
1001
ACAD
1000
AcDbSavedByObjectVersion
1070
     0
  0
VISUALSTYLE
  5
9F0BC
102
{ACAD_XDICTIONARY
360
A0ABE
102
}
102
{ACAD_REACTORS
330
9F0B8
102
}
330
9F0B8
100
AcDbVisualStyle
  2

 70
     3
 71
     2
 72
     2
 73
     1
 90
        2
 40
-0.6
 41
30.0
 62
     5
 63
     7
421
 16777215
 74
     1
 91
        0
 64
     7
 65
   257
 75
     1
175
     1
 42
1.0
 92
        0
 66
   257
 43
1.0
 76
     1
 77
     6
 78
     2
 67
     7
 79
     5
170
     0
171
     0
290
     0
174
     0
 93
       13
 44
0.0
173
     0
291
     1
 45
0.0
1001
ACAD
1000
AcDbSavedByObjectVersion
1070
     0
  0
VISUALSTYLE
  5
9F0C0
102
{ACAD_XDICTIONARY
360
A0AC6
102
}
102
{ACAD_REACTORS
330
9F0B8
102
}
330
9F0B8
100
AcDbVisualStyle
  2

 70
     6
 71
     1
 72
     2
 73
     2
 90
        0
 40
-0.6
 41
-30.0
 62
     5
 63
     7
421
 16777215
 74
     2
 91
        2
 64
     7
 65
   257
 75
     2
175
     1
 42
40.0
 92
        0
 66
   257
 43
1.0
 76
     1
 77
     6
 78
     2
 67
     7
 79
     3
170
     0
171
     0
290
     0
174
     0
 93
        1
 44
0.0
173
     0
291
     0
 45
0.0
1001
ACAD
1000
AcDbSavedByObjectVersion
1070
     0
  0
VISUALSTYLE
  5
9F0CE
102
{ACAD_XDICTIONARY
360
A0AE2
102
}
102
{ACAD_REACTORS
330
9F0B8
102
}
330
9F0B8
100
AcDbVisualStyle
  2

 70
    20
 71
     2
 72
     2
 73
     0
 90
        0
 40
-0.6
 41
-30.0
 62
     5
 63
     7
421
 16777215
 74
     1
 91
        4
 64
     7
 65
   257
 75
     1
175
     1
 42
1.0
 92
       10
 66
     7
 43
1.0
 76
     1
 77
     6
 78
     2
 67
     7
 79
     5
170
     0
171
     0
290
     0
174
     0
 93
        1
 44
0.0
173
     0
291
     1
 45
0.0
1001
ACAD
1000
AcDbSavedByObjectVersion
1070
     0
  0
VISUALSTYLE
  5
9F0C6
102
{ACAD_XDICTIONARY
360
A0AD2
102
}
102
{ACAD_REACTORS
330
9F0B8
102
}
330
9F0B8
100
AcDbVisualStyle
  2

 70
    14
 71
     2
 72
     2
 73
     0
 90
        0
 40
-0.6
 41
-30.0
 62
     5
 63
     7
421
 16777215
 74
     1
 91
        4
 64
     7
 65
   257
 75
     7
175
     7
 42
1.0
 92
        8
 66
     7
 43
1.0
 76
     1
 77
     6
 78
     2
 67
     7
 79
     5
170
     0
171
     0
290
     0
174
     0
 93
        1
 44
0.0
173
     0
291
     1
 45
0.0
1001
ACAD
1000
AcDbSavedByObjectVersion
1070
     0
  0
VISUALSTYLE
  5
9F0CF
102
{ACAD_XDICTIONARY
360
A0AE4
102
}
102
{ACAD_REACTORS
330
9F0B8
102
}
330
9F0B8
100
AcDbVisualStyle
  2

 70
    21
 71
     2
 72
     2
 73
     0
 90
        0
 40
-0.6
 41
-30.0
 62
     5
 63
     7
421
 16777215
 74
     1
 91
        4
 64
     7
 65
   257
 75
     1
175
     1
 42
1.0
 92
        9
 66
     7
 43
1.0
 76
     1
 77
     6
 78
     2
 67
     7
 79
     5
170
     0
171
     0
290
     0
174
     0
 93
        1
 44
0.0
173
     0
291
     1
 45
0.0
1001
ACAD
1000
AcDbSavedByObjectVersion
1070
     0
  0
VISUALSTYLE
  5
9F0C2
102
{ACAD_XDICTIONARY
360
A0ACA
102
}
102
{ACAD_REACTORS
330
9F0B8
102
}
330
9F0B8
100
AcDbVisualStyle
  2

 70
     8
 71
     2
 72
     3
 73
     0
 90
        2
 40
-0.6
 41
30.0
 62
     5
 63
     7
421
 16777215
 74
     0
 91
        0
 64
     7
 65
   257
 75
     1
175
     1
 42
1.0
 92
        8
 66
   257
 43
1.0
 76
     1
 77
     6
 78
     2
 67
     7
 79
     3
170
     0
171
     0
290
     0
174
     0
 93
       13
 44
0.0
173
     0
291
     0
 45
0.0
1001
ACAD
1000
AcDbSavedByObjectVersion
1070
     0
  0
VISUALSTYLE
  5
9F0CD
102
{ACAD_XDICTIONARY
360
A0AE0
102
}
102
{ACAD_REACTORS
330
9F0B8
102
}
330
9F0B8
100
AcDbVisualStyle
  2

 70
    27
 71
     2
 72
     2
 73
     1
 90
        2
 40
-0.6
 41
30.0
 62
     5
 63
     7
421
 16777215
 74
     0
 91
        4
 64
     7
 65
   257
 75
     1
175
     1
 42
1.0
 92
        8
 66
   257
 43
1.0
 76
     1
 77
     6
 78
     2
 67
     8
425
  7895160
 79
     3
170
     0
171
     0
290
     0
174
     0
 93
        5
 44
0.0
173
     0
291
     0
 45
0.0
1001
ACAD
1000
AcDbSavedByObjectVersion
1070
     0
  0
VISUALSTYLE
  5
9F0CC
102
{ACAD_XDICTIONARY
360
A0ADE
102
}
102
{ACAD_REACTORS
330
9F0B8
102
}
330
9F0B8
100
AcDbVisualStyle
  2

 70
    26
 71
     2
 72
     2
 73
     1
 90
        2
 40
-0.6
 41
30.0
 62
     5
 63
     7
421
 16777215
 74
     1
 91
       10
 64
     7
 65
   257
 75
     2
175
     1
 42
1.0
 92
        8
 66
   257
 43
1.0
 76
     1
 77
     6
 78
     2
 67
     7
 79
     3
170
     0
171
     0
290
     0
174
     0
 93
        5
 44
0.0
173
     0
291
     0
 45
0.0
1001
ACAD
1000
AcDbSavedByObjectVersion
1070
     0
  0
VISUALSTYLE
  5
9F0C9
102
{ACAD_XDICTIONARY
360
A0AD8
102
}
102
{ACAD_REACTORS
330
9F0B8
102
}
330
9F0B8
100
AcDbVisualStyle
  2

 70
    23
 71
     2
 72
     2
 73
     3
 90
        0
 40
-0.6
 41
-30.0
 62
     5
 63
     7
421
 16777215
 74
     2
 91
        2
 64
     7
 65
     7
 75
     1
175
     1
 42
40.0
 92
        8
 66
     7
 43
1.0
 76
     1
 77
     6
 78
     2
 67
     7
 79
     3
170
     0
171
     0
290
     0
174
     0
 93
        1
 44
0.0
173
     0
291
     0
 45
0.0
1001
ACAD
1000
AcDbSavedByObjectVersion
1070
     0
  0
VISUALSTYLE
  5
9F0CA
102
{ACAD_XDICTIONARY
360
A0ADA
102
}
102
{ACAD_REACTORS
330
9F0B8
102
}
330
9F0B8
100
AcDbVisualStyle
  2

 70
    24
 71
     1
 72
     2
 73
     2
 90
        0
 40
-0.6
 41
-30.0
 62
     5
 63
     7
421
 16777215
 74
     2
 91
        2
 64
     7
 65
     7
 75
     1
175
     1
 42
40.0
 92
       11
 66
     7
 43
1.0
 76
     1
 77
     6
 78
     2
 67
     7
 79
     6
170
     0
171
     0
290
     0
174
     0
 93
        1
 44
0.0
173
     0
291
     0
 45
0.0
1001
ACAD
1000
AcDbSavedByObjectVersion
1070
     0
  0
VISUALSTYLE
  5
9F0C5
102
{ACAD_XDICTIONARY
360
A0AD0
102
}
102
{ACAD_REACTORS
330
9F0B8
102
}
330
9F0B8
100
AcDbVisualStyle
  2

 70
    13
 71
     2
 72
     2
 73
     0
 90
        0
 40
-0.6
 41
-30.0
 62
     5
 63
     7
421
 16777215
 74
     1
 91
        4
 64
     7
 65
   257
 75
     1
175
     1
 42
1.0
 92
       12
 66
     7
 43
1.0
 76
     1
 77
     6
 78
     2
 67
     7
 79
     5
170
     0
171
     0
290
     0
174
     0
 93
        1
 44
0.0
173
     0
291
     1
 45
0.0
1001
ACAD
1000
AcDbSavedByObjectVersion
1070
     0
  0
VISUALSTYLE
  5
9F0BF
102
{ACAD_XDICTIONARY
360
A0AC4
102
}
102
{ACAD_REACTORS
330
9F0B8
102
}
330
9F0B8
100
AcDbVisualStyle
  2

 70
     5
 71
     0
 72
     2
 73
     0
 90
        0
 40
-0.6
 41
-30.0
 62
     5
 63
     7
421
 16777215
 74
     1
 91
        4
 64
     7
 65
   257
 75
     1
175
     1
 42
1.0
 92
        0
 66
   257
 43
1.0
 76
     1
 77
     6
 78
     2
 67
     7
 79
     3
170
     0
171
     0
290
     0
174
     0
 93
        1
 44
0.0
173
     0
291
     0
 45
0.0
1001
ACAD
1000
AcDbSavedByObjectVersion
1070
     0
  0
VISUALSTYLE
  5
9F0CB
102
{ACAD_XDICTIONARY
360
A0ADC
102
}
102
{ACAD_REACTORS
330
9F0B8
102
}
330
9F0B8
100
AcDbVisualStyle
  2

 70
    25
 71
     2
 72
     2
 73
     1
 90
        1
 40
0.5
 41
-30.0
 62
     5
 63
     7
421
 16777215
 74
     1
 91
        0
 64
     7
 65
   257
 75
     1
175
     1
 42
1.0
 92
        8
 66
     7
 43
1.0
 76
     1
 77
     6
 78
     2
 67
     7
 79
     3
170
     0
171
     0
290
     0
174
     0
 93
       13
 44
0.0
173
     0
291
     0
 45
0.0
1001
ACAD
1000
AcDbSavedByObjectVersion
1070
     0
  0
DICTIONARYVAR
  5
9F108
102
{ACAD_REACTORS
330
96EEA
102
}
330
96EEA
100
DictionaryVariables
280
     0
  1
1:1
  0
DICTIONARYVAR
  5
9F105
102
{ACAD_REACTORS
330
96EEA
102
}
330
96EEA
100
DictionaryVariables
280
     0
  1
STANDARD
  0
DICTIONARYVAR
  5
9F104
102
{ACAD_REACTORS
330
96EEA
102
}
330
96EEA
100
DictionaryVariables
280
     0
  1
STANDARD
  0
DICTIONARYVAR
  5
9F106
102
{ACAD_REACTORS
330
96EEA
102
}
330
96EEA
100
DictionaryVariables
280
     0
  1
Imperial24
  0
DICTIONARYVAR
  5
9F107
102
{ACAD_REACTORS
330
96EEA
102
}
330
96EEA
100
DictionaryVariables
280
     0
  1
Imperial24
  0
DICTIONARYVAR
  5
9FC45
102
{ACAD_REACTORS
330
96EEA
102
}
330
96EEA
100
DictionaryVariables
280
     0
  1
1
  0
DICTIONARYVAR
  5
9FC46
102
{ACAD_REACTORS
330
96EEA
102
}
330
96EEA
100
DictionaryVariables
280
     0
  1
15
  0
DICTIONARYVAR
  5
9FC44
102
{ACAD_REACTORS
330
96EEA
102
}
330
96EEA
100
DictionaryVariables
280
     0
  1
0
  0
DICTIONARYVAR
  5
9FC43
102
{ACAD_REACTORS
330
96EEA
102
}
330
96EEA
100
DictionaryVariables
280
     0
  1
0
  0
DICTIONARYVAR
  5
96EEB
102
{ACAD_REACTORS
330
96EEA
102
}
330
96EEA
100
DictionaryVariables
280
     0
  1
96
  0
DICTIONARYVAR
  5
A09AF
102
{ACAD_REACTORS
330
96EEA
102
}
330
96EEA
100
DictionaryVariables
280
     0
  1
2
  0
DICTIONARY
  5
A0AB7
102
{ACAD_REACTORS
330
A0AB5
102
}
330
A0AB5
100
AcDbDictionary
281
     1
  0
DICTIONARY
  5
A0AB6
102
{ACAD_REACTORS
330
A0AB5
102
}
330
A0AB5
100
AcDbDictionary
281
     1
  3
2130085696
350
A0AB0
  3
2130085704
350
A0AB1
  3
2130085712
350
A0AB2
  3
2130085720
350
A0AB3
  3
2130085728
350
A0AB4
  0
DICTIONARY
  5
A0AEB
330
9F0EB
100
AcDbDictionary
280
     1
281
     1
  3
ACAD_XREC_ROUNDTRIP
360
A0AEC
  0
DICTIONARY
  5
A0AEF
330
9F1AD
100
AcDbDictionary
280
     1
281
     1
  3
ACAD_XREC_ROUNDTRIP
360
A0AF0
  0
DICTIONARY
  5
9F0A9
330
9F0A8
100
AcDbDictionary
280
     1
281
     1
  3
ACAD_XREC_ROUNDTRIP
360
9F10F
  3
BUMPTILE
360
9F0AB
  3
DIFFUSETILE
360
9F0AA
  3
OPACITYTILE
360
9F0AE
  3
REFLECTIONTILE
360
9F0AD
  3
REFRACTIONTILE
360
9F0AF
  3
SPECULARTILE
360
9F0AC
  0
DICTIONARY
  5
9F0A1
330
9F0A0
100
AcDbDictionary
280
     1
281
     1
  3
ACAD_XREC_ROUNDTRIP
360
9F10E
  3
BUMPTILE
360
9F0A3
  3
DIFFUSETILE
360
9F0A2
  3
OPACITYTILE
360
9F0A6
  3
REFLECTIONTILE
360
9F0A5
  3
REFRACTIONTILE
360
9F0A7
  3
SPECULARTILE
360
9F0A4
  0
DICTIONARY
  5
9F0B1
330
9F0B0
100
AcDbDictionary
280
     1
281
     1
  3
ACAD_XREC_ROUNDTRIP
360
9F110
  3
BUMPTILE
360
9F0B3
  3
DIFFUSETILE
360
9F0B2
  3
OPACITYTILE
360
9F0B6
  3
REFLECTIONTILE
360
9F0B5
  3
REFRACTIONTILE
360
9F0B7
  3
SPECULARTILE
360
9F0B4
  0
DICTIONARY
  5
A0AE9
330
9F0E9
100
AcDbDictionary
280
     1
281
     1
  3
ACAD_XREC_ROUNDTRIP
360
A0AEA
  0
DICTIONARY
  5
A0AED
330
9F1AC
100
AcDbDictionary
280
     1
281
     1
  3
ACAD_XREC_ROUNDTRIP
360
A0AEE
  0
DICTIONARY
  5
9F10B
330
9F0D3
100
AcDbDictionary
280
     1
281
     1
  3
ACAD_ROUNDTRIP_2008_TABLESTYLE_CELLSTYLEMAP
360
A0AAE
  3
ACAD_XREC_ROUNDTRIP
360
A0AE8
  0
DICTIONARY
  5
A0AC2
330
9F0BE
100
AcDbDictionary
280
     1
281
     1
  3
ACAD_XREC_ROUNDTRIP
360
A0AC3
  0
DICTIONARY
  5
A0AC0
330
9F0BD
100
AcDbDictionary
280
     1
281
     1
  3
ACAD_XREC_ROUNDTRIP
360
A0AC1
  0
DICTIONARY
  5
A0ACE
330
9F0C4
100
AcDbDictionary
280
     1
281
     1
  3
ACAD_XREC_ROUNDTRIP
360
A0ACF
  0
DICTIONARY
  5
A0AD6
330
9F0C8
100
AcDbDictionary
280
     1
281
     1
  3
ACAD_XREC_ROUNDTRIP
360
A0AD7
  0
DICTIONARY
  5
A0AC8
330
9F0C1
100
AcDbDictionary
280
     1
281
     1
  3
ACAD_XREC_ROUNDTRIP
360
A0AC9
  0
DICTIONARY
  5
A0ACC
330
9F0C3
100
AcDbDictionary
280
     1
281
     1
  3
ACAD_XREC_ROUNDTRIP
360
A0ACD
  0
DICTIONARY
  5
A0AE6
330
9F0D0
100
AcDbDictionary
280
     1
281
     1
  3
ACAD_XREC_ROUNDTRIP
360
A0AE7
  0
DICTIONARY
  5
A0AD4
330
9F0C7
100
AcDbDictionary
280
     1
281
     1
  3
ACAD_XREC_ROUNDTRIP
360
A0AD5
  0
DICTIONARY
  5
A0AB8
330
9F0B9
100
AcDbDictionary
280
     1
281
     1
  3
ACAD_XREC_ROUNDTRIP
360
A0AB9
  0
DICTIONARY
  5
A0ABA
330
9F0BA
100
AcDbDictionary
280
     1
281
     1
  3
ACAD_XREC_ROUNDTRIP
360
A0ABB
  0
DICTIONARY
  5
A0ABC
330
9F0BB
100
AcDbDictionary
280
     1
281
     1
  3
ACAD_XREC_ROUNDTRIP
360
A0ABD
  0
DICTIONARY
  5
A0ABE
330
9F0BC
100
AcDbDictionary
280
     1
281
     1
  3
ACAD_XREC_ROUNDTRIP
360
A0ABF
  0
DICTIONARY
  5
A0AC6
330
9F0C0
100
AcDbDictionary
280
     1
281
     1
  3
ACAD_XREC_ROUNDTRIP
360
A0AC7
  0
DICTIONARY
  5
A0AE2
330
9F0CE
100
AcDbDictionary
280
     1
281
     1
  3
ACAD_XREC_ROUNDTRIP
360
A0AE3
  0
DICTIONARY
  5
A0AD2
330
9F0C6
100
AcDbDictionary
280
     1
281
     1
  3
ACAD_XREC_ROUNDTRIP
360
A0AD3
  0
DICTIONARY
  5
A0AE4
330
9F0CF
100
AcDbDictionary
280
     1
281
     1
  3
ACAD_XREC_ROUNDTRIP
360
A0AE5
  0
DICTIONARY
  5
A0ACA
330
9F0C2
100
AcDbDictionary
280
     1
281
     1
  3
ACAD_XREC_ROUNDTRIP
360
A0ACB
  0
DICTIONARY
  5
A0AE0
330
9F0CD
100
AcDbDictionary
280
     1
281
     1
  3
ACAD_XREC_ROUNDTRIP
360
A0AE1
  0
DICTIONARY
  5
A0ADE
330
9F0CC
100
AcDbDictionary
280
     1
281
     1
  3
ACAD_XREC_ROUNDTRIP
360
A0ADF
  0
DICTIONARY
  5
A0AD8
330
9F0C9
100
AcDbDictionary
280
     1
281
     1
  3
ACAD_XREC_ROUNDTRIP
360
A0AD9
  0
DICTIONARY
  5
A0ADA
330
9F0CA
100
AcDbDictionary
280
     1
281
     1
  3
ACAD_XREC_ROUNDTRIP
360
A0ADB
  0
DICTIONARY
  5
A0AD0
330
9F0C5
100
AcDbDictionary
280
     1
281
     1
  3
ACAD_XREC_ROUNDTRIP
360
A0AD1
  0
DICTIONARY
  5
A0AC4
330
9F0BF
100
AcDbDictionary
280
     1
281
     1
  3
ACAD_XREC_ROUNDTRIP
360
A0AC5
  0
DICTIONARY
  5
A0ADC
330
9F0CB
100
AcDbDictionary
280
     1
281
     1
  3
ACAD_XREC_ROUNDTRIP
360
A0ADD
  0
XRECORD
  5
A0AB0
102
{ACAD_REACTORS
330
A0AB6
102
}
330
A0AB6
100
AcDbXrecord
280
     1
  1
AcDb_Thumbnail_Schema
102
{ATTRRECORD
341
A0AB1
  2
AcDbDs::TreatedAsObjectData
280
     1
291
     1
102
ATTRRECORD}
102
{ATTRRECORD
341
A0AB2
  2
AcDbDs::Legacy
280
     1
291
     1
102
ATTRRECORD}
  2
AcDbDs::ID
280
    10
 91
        8
102
{ATTRRECORD
341
A0AB3
  2
AcDs:Indexable
280
     1
291
     1
102
ATTRRECORD}
102
{ATTRRECORD
341
A0AB4
  2
AcDbDs::HandleAttribute
280
     7
282
     1
102
ATTRRECORD}
  2
Thumbnail_Data
280
    15
 91
        0
  0
XRECORD
  5
A0AB1
102
{ACAD_REACTORS
330
A0AB6
102
}
330
A0AB6
100
AcDbXrecord
280
     1
  1
AcDbDs::TreatedAsObjectDataSchema
  2
AcDbDs::TreatedAsObjectData
280
     1
 91
        0
  0
XRECORD
  5
A0AB2
102
{ACAD_REACTORS
330
A0AB6
102
}
330
A0AB6
100
AcDbXrecord
280
     1
  1
AcDbDs::LegacySchema
  2
AcDbDs::Legacy
280
     1
 91
        0
  0
XRECORD
  5
A0AB3
102
{ACAD_REACTORS
330
A0AB6
102
}
330
A0AB6
100
AcDbXrecord
280
     1
  1
AcDbDs::IndexedPropertySchema
  2
AcDs:Indexable
280
     1
 91
        0
  0
XRECORD
  5
A0AB4
102
{ACAD_REACTORS
330
A0AB6
102
}
330
A0AB6
100
AcDbXrecord
280
     1
  1
AcDbDs::HandleAttributeSchema
  2
AcDbDs::HandleAttribute
280
     7
 91
        1
284
     1
  0
XRECORD
  5
A0AEC
102
{ACAD_REACTORS
330
A0AEB
102
}
330
A0AEB
100
AcDbXrecord
280
     1
102
DISPLAYNAME
  1
Imperial24
102
FLAGS
 90
        0
  0
XRECORD
  5
A0AF0
102
{ACAD_REACTORS
330
A0AEF
102
}
330
A0AEF
100
AcDbXrecord
280
     1
102
DISPLAYNAME
  1
Metric50
102
FLAGS
 90
        0
  0
XRECORD
  5
9F10F
102
{ACAD_REACTORS
330
9F0A9
102
}
330
9F0A9
100
AcDbXrecord
280
     1
102
MATERIAL
148
0.0
149
0.0
149
0.0
 93
        0
 94
      127
282
     0
 72
     0
 77
     0
171
     0
175
     0
179
     0
273
     0
  0
XRECORD
  5
9F0AB
102
{ACAD_REACTORS
330
9F0A9
102
}
330
9F0A9
100
AcDbXrecord
280
     1
270
     1
271
     1
  0
XRECORD
  5
9F0AA
102
{ACAD_REACTORS
330
9F0A9
102
}
330
9F0A9
100
AcDbXrecord
280
     1
270
     1
271
     1
  0
XRECORD
  5
9F0AE
102
{ACAD_REACTORS
330
9F0A9
102
}
330
9F0A9
100
AcDbXrecord
280
     1
270
     1
271
     1
  0
XRECORD
  5
9F0AD
102
{ACAD_REACTORS
330
9F0A9
102
}
330
9F0A9
100
AcDbXrecord
280
     1
270
     1
271
     1
  0
XRECORD
  5
9F0AF
102
{ACAD_REACTORS
330
9F0A9
102
}
330
9F0A9
100
AcDbXrecord
280
     1
270
     1
271
     1
  0
XRECORD
  5
9F0AC
102
{ACAD_REACTORS
330
9F0A9
102
}
330
9F0A9
100
AcDbXrecord
280
     1
270
     1
271
     1
  0
XRECORD
  5
9F10E
102
{ACAD_REACTORS
330
9F0A1
102
}
330
9F0A1
100
AcDbXrecord
280
     1
102
MATERIAL
148
0.0
149
0.0
149
0.0
 93
        0
 94
      127
282
     0
 72
     0
 77
     0
171
     0
175
     0
179
     0
273
     0
  0
XRECORD
  5
9F0A3
102
{ACAD_REACTORS
330
9F0A1
102
}
330
9F0A1
100
AcDbXrecord
280
     1
270
     1
271
     1
  0
XRECORD
  5
9F0A2
102
{ACAD_REACTORS
330
9F0A1
102
}
330
9F0A1
100
AcDbXrecord
280
     1
270
     1
271
     1
  0
XRECORD
  5
9F0A6
102
{ACAD_REACTORS
330
9F0A1
102
}
330
9F0A1
100
AcDbXrecord
280
     1
270
     1
271
     1
  0
XRECORD
  5
9F0A5
102
{ACAD_REACTORS
330
9F0A1
102
}
330
9F0A1
100
AcDbXrecord
280
     1
270
     1
271
     1
  0
XRECORD
  5
9F0A7
102
{ACAD_REACTORS
330
9F0A1
102
}
330
9F0A1
100
AcDbXrecord
280
     1
270
     1
271
     1
  0
XRECORD
  5
9F0A4
102
{ACAD_REACTORS
330
9F0A1
102
}
330
9F0A1
100
AcDbXrecord
280
     1
270
     1
271
     1
  0
XRECORD
  5
9F110
102
{ACAD_REACTORS
330
9F0B1
102
}
330
9F0B1
100
AcDbXrecord
280
     1
102
MATERIAL
148
0.0
149
0.0
149
0.0
 93
        0
 94
      127
282
     0
 72
     0
 77
     0
171
     0
175
     0
179
     0
273
     0
  0
XRECORD
  5
9F0B3
102
{ACAD_REACTORS
330
9F0B1
102
}
330
9F0B1
100
AcDbXrecord
280
     1
270
     1
271
     1
  0
XRECORD
  5
9F0B2
102
{ACAD_REACTORS
330
9F0B1
102
}
330
9F0B1
100
AcDbXrecord
280
     1
270
     1
271
     1
  0
XRECORD
  5
9F0B6
102
{ACAD_REACTORS
330
9F0B1
102
}
330
9F0B1
100
AcDbXrecord
280
     1
270
     1
271
     1
  0
XRECORD
  5
9F0B5
102
{ACAD_REACTORS
330
9F0B1
102
}
330
9F0B1
100
AcDbXrecord
280
     1
270
     1
271
     1
  0
XRECORD
  5
9F0B7
102
{ACAD_REACTORS
330
9F0B1
102
}
330
9F0B1
100
AcDbXrecord
280
     1
270
     1
271
     1
  0
XRECORD
  5
9F0B4
102
{ACAD_REACTORS
330
9F0B1
102
}
330
9F0B1
100
AcDbXrecord
280
     1
270
     1
271
     1
  0
XRECORD
  5
A0AEA
102
{ACAD_REACTORS
330
A0AE9
102
}
330
A0AE9
100
AcDbXrecord
280
     1
102
DISPLAYNAME
  1
Imperial24
102
FLAGS
 90
        0
  0
XRECORD
  5
A0AEE
102
{ACAD_REACTORS
330
A0AED
102
}
330
A0AED
100
AcDbXrecord
280
     1
102
DISPLAYNAME
  1
Metric50
102
FLAGS
 90
        0
  0
CELLSTYLEMAP
  5
A0AAE
102
{ACAD_REACTORS
330
9F10B
102
}
330
9F10B
100
AcDbCellStyleMap
 90
        3
300
CELLSTYLE
  1
TABLEFORMAT_BEGIN
 90
        5
170
     1
 91
        0
 92
    32768
 62
   257
 93
        1
300
CONTENTFORMAT
  1
CONTENTFORMAT_BEGIN
 90
        0
 91
        0
 92
      512
 93
        0
300

 40
0.0
140
1.0
 94
        5
 62
     0
340
11
144
0.25
309
CONTENTFORMAT_END
171
     1
301
MARGIN
  1
CELLMARGIN_BEGIN
 40
0.06
 40
0.06
 40
0.06
 40
0.06
 40
0.18
 40
0.18
309
CELLMARGIN_END
 94
        6
 95
        1
302
GRIDFORMAT
  1
GRIDFORMAT_BEGIN
 90
        0
 91
        1
 62
     0
 92
       -2
340
0
 93
        0
 40
0.045
309
GRIDFORMAT_END
 95
        2
302
GRIDFORMAT
  1
GRIDFORMAT_BEGIN
 90
        0
 91
        1
 62
     0
 92
       -2
340
0
 93
        0
 40
0.045
309
GRIDFORMAT_END
 95
        4
302
GRIDFORMAT
  1
GRIDFORMAT_BEGIN
 90
        0
 91
        1
 62
     0
 92
       -2
340
0
 93
        0
 40
0.045
309
GRIDFORMAT_END
 95
        8
302
GRIDFORMAT
  1
GRIDFORMAT_BEGIN
 90
        0
 91
        1
 62
     0
 92
       -2
340
0
 93
        0
 40
0.045
309
GRIDFORMAT_END
 95
       16
302
GRIDFORMAT
  1
GRIDFORMAT_BEGIN
 90
        0
 91
        1
 62
     0
 92
       -2
340
0
 93
        0
 40
0.045
309
GRIDFORMAT_END
 95
       32
302
GRIDFORMAT
  1
GRIDFORMAT_BEGIN
 90
        0
 91
        1
 62
     0
 92
       -2
340
0
 93
        0
 40
0.045
309
GRIDFORMAT_END
309
TABLEFORMAT_END
  1
CELLSTYLE_BEGIN
 90
        1
 91
        1
300
_TITLE
309
CELLSTYLE_END
300
CELLSTYLE
  1
TABLEFORMAT_BEGIN
 90
        5
170
     1
 91
        0
 92
        0
 62
   257
 93
        1
300
CONTENTFORMAT
  1
CONTENTFORMAT_BEGIN
 90
        0
 91
        0
 92
      512
 93
        0
300

 40
0.0
140
1.0
 94
        5
 62
     0
340
11
144
0.18
309
CONTENTFORMAT_END
171
     1
301
MARGIN
  1
CELLMARGIN_BEGIN
 40
0.06
 40
0.06
 40
0.06
 40
0.06
 40
0.18
 40
0.18
309
CELLMARGIN_END
 94
        6
 95
        1
302
GRIDFORMAT
  1
GRIDFORMAT_BEGIN
 90
        0
 91
        1
 62
     0
 92
       -2
340
0
 93
        0
 40
0.045
309
GRIDFORMAT_END
 95
        2
302
GRIDFORMAT
  1
GRIDFORMAT_BEGIN
 90
        0
 91
        1
 62
     0
 92
       -2
340
0
 93
        0
 40
0.045
309
GRIDFORMAT_END
 95
        4
302
GRIDFORMAT
  1
GRIDFORMAT_BEGIN
 90
        0
 91
        1
 62
     0
 92
       -2
340
0
 93
        0
 40
0.045
309
GRIDFORMAT_END
 95
        8
302
GRIDFORMAT
  1
GRIDFORMAT_BEGIN
 90
        0
 91
        1
 62
     0
 92
       -2
340
0
 93
        0
 40
0.045
309
GRIDFORMAT_END
 95
       16
302
GRIDFORMAT
  1
GRIDFORMAT_BEGIN
 90
        0
 91
        1
 62
     0
 92
       -2
340
0
 93
        0
 40
0.045
309
GRIDFORMAT_END
 95
       32
302
GRIDFORMAT
  1
GRIDFORMAT_BEGIN
 90
        0
 91
        1
 62
     0
 92
       -2
340
0
 93
        0
 40
0.045
309
GRIDFORMAT_END
309
TABLEFORMAT_END
  1
CELLSTYLE_BEGIN
 90
        2
 91
        1
300
_HEADER
309
CELLSTYLE_END
300
CELLSTYLE
  1
TABLEFORMAT_BEGIN
 90
        5
170
     1
 91
        0
 92
        0
 62
   257
 93
        1
300
CONTENTFORMAT
  1
CONTENTFORMAT_BEGIN
 90
        0
 91
        0
 92
      512
 93
        0
300

 40
0.0
140
1.0
 94
        2
 62
     0
340
11
144
0.18
309
CONTENTFORMAT_END
171
     1
301
MARGIN
  1
CELLMARGIN_BEGIN
 40
0.06
 40
0.06
 40
0.06
 40
0.06
 40
0.18
 40
0.18
309
CELLMARGIN_END
 94
        6
 95
        1
302
GRIDFORMAT
  1
GRIDFORMAT_BEGIN
 90
        0
 91
        1
 62
     0
 92
       -2
340
0
 93
        0
 40
0.045
309
GRIDFORMAT_END
 95
        2
302
GRIDFORMAT
  1
GRIDFORMAT_BEGIN
 90
        0
 91
        1
 62
     0
 92
       -2
340
0
 93
        0
 40
0.045
309
GRIDFORMAT_END
 95
        4
302
GRIDFORMAT
  1
GRIDFORMAT_BEGIN
 90
        0
 91
        1
 62
     0
 92
       -2
340
0
 93
        0
 40
0.045
309
GRIDFORMAT_END
 95
        8
302
GRIDFORMAT
  1
GRIDFORMAT_BEGIN
 90
        0
 91
        1
 62
     0
 92
       -2
340
0
 93
        0
 40
0.045
309
GRIDFORMAT_END
 95
       16
302
GRIDFORMAT
  1
GRIDFORMAT_BEGIN
 90
        0
 91
        1
 62
     0
 92
       -2
340
0
 93
        0
 40
0.045
309
GRIDFORMAT_END
 95
       32
302
GRIDFORMAT
  1
GRIDFORMAT_BEGIN
 90
        0
 91
        1
 62
     0
 92
       -2
340
0
 93
        0
 40
0.045
309
GRIDFORMAT_END
309
TABLEFORMAT_END
  1
CELLSTYLE_BEGIN
 90
        3
 91
        2
300
_DATA
309
CELLSTYLE_END
  0
XRECORD
  5
A0AE8
102
{ACAD_REACTORS
330
9F10B
102
}
330
9F10B
100
AcDbXrecord
280
     1
102
ACAD_ROUNDTRIP_PRE2007_TABLESTYLE
 90
      512
 91
        0
  1

 92
      512
 93
        0
  2

 94
      512
 95
        0
  3

  0
XRECORD
  5
A0AC3
102
{ACAD_REACTORS
330
A0AC2
102
}
330
A0AC2
100
AcDbXrecord
280
     1
102
RTVSPost2010Prop28
280
     1
102
RTVSPost2010PropOp28
 70
     1
102
RTVSPost2010Prop29
280
     1
102
RTVSPost2010PropOp29
 70
     1
102
RTVSPost2010Prop30
280
     0
102
RTVSPost2010PropOp30
 70
     1
102
RTVSPost2010Prop31
280
     0
102
RTVSPost2010PropOp31
 70
     1
102
RTVSPost2010Prop32
280
     0
102
RTVSPost2010PropOp32
 70
     1
102
RTVSPost2010Prop33
280
     0
102
RTVSPost2010PropOp33
 70
     1
102
RTVSPost2010Prop34
280
     0
102
RTVSPost2010PropOp34
 70
     1
102
RTVSPost2010Prop35
280
     0
102
RTVSPost2010PropOp35
 70
     1
102
RTVSPost2010Prop36
280
     0
102
RTVSPost2010PropOp36
 70
     1
102
RTVSPost2010Prop37
 90
       50
102
RTVSPost2010PropOp37
 70
     1
102
RTVSPost2010Prop38
140
0.0
102
RTVSPost2010PropOp38
 70
     1
102
RTVSPost2010Prop39
140
1.0
102
RTVSPost2010PropOp39
 70
     1
102
RTVSPost2010Prop40
 90
        0
102
RTVSPost2010PropOp40
 70
     1
102
RTVSPost2010Prop41ColorIndex
 90
       18
102
RTVSPost2010Prop41ColorRGB
 90
        0
102
RTVSPost2010PropOp41
 70
     1
102
RTVSPost2010Prop42
 90
       50
102
RTVSPost2010PropOp42
 70
     1
102
RTVSPost2010Prop43
 90
        3
102
RTVSPost2010PropOp43
 70
     1
102
RTVSPost2010Prop44ColorIndex
 90
        5
102
RTVSPost2010Prop44ColorRGB
 90
      255
102
RTVSPost2010PropOp44
 70
     1
102
RTVSPost2010Prop45
280
     0
102
RTVSPost2010PropOp45
 70
     1
102
RTVSPost2010Prop46
 90
       50
102
RTVSPost2010PropOp46
 70
     1
102
RTVSPost2010Prop47
 90
       50
102
RTVSPost2010PropOp47
 70
     1
102
RTVSPost2010Prop48
 90
       50
102
RTVSPost2010PropOp48
 70
     1
102
RTVSPost2010Prop49
280
     0
102
RTVSPost2010PropOp49
 70
     1
102
RTVSPost2010Prop50
 90
       50
102
RTVSPost2010PropOp50
 70
     1
102
RTVSPost2010Prop51ColorIndex
 90
      256
102
RTVSPost2010Prop51ColorRGB
 90
-16777216
102
RTVSPost2010PropOp51
 70
     0
102
RTVSPost2010Prop52
140
1.0
102
RTVSPost2010PropOp52
 70
     0
102
RTVSPost2010Prop53
 90
        2
102
RTVSPost2010PropOp53
 70
     1
102
RTVSPost2010Prop54
  1
strokes_ogs.tif
102
RTVSPost2010PropOp54
 70
     1
102
RTVSPost2010Prop55
280
     0
102
RTVSPost2010PropOp55
 70
     1
102
RTVSPost2010Prop56
140
1.0
102
RTVSPost2010PropOp56
 70
     1
102
RTVSPost2010Prop57
140
1.0
102
RTVSPost2010PropOp57
 70
     1
102
RTVSPropertyOp0
 70
     1
102
RTVSPropertyOp1
 70
     1
102
RTVSPropertyOp2
 70
     1
102
RTVSPropertyOp3
 70
     1
102
RTVSPropertyOp4
 70
     1
102
RTVSPropertyOp5
 70
     1
102
RTVSPropertyOp6
 70
     1
102
RTVSPropertyOp7
 70
     1
102
RTVSPropertyOp8
 70
     1
102
RTVSPropertyOp9
 70
     1
102
RTVSPropertyOp10
 70
     1
102
RTVSPropertyOp11
 70
     1
102
RTVSPropertyOp12
 70
     1
102
RTVSPropertyOp13
 70
     1
102
RTVSPropertyOp14
 70
     1
102
RTVSPropertyOp15
 70
     1
102
RTVSPropertyOp16
 70
     1
102
RTVSPropertyOp17
 70
     1
102
RTVSPropertyOp18
 70
     1
102
RTVSPropertyOp19
 70
     1
102
RTVSPropertyOp20
 70
     1
102
RTVSPropertyOp21
 70
     1
102
RTVSPropertyOp22
 70
     1
102
RTVSPropertyOp23
 70
     1
102
RTVSPropertyOp24
 70
     1
102
RTVSPropertyOp25
 70
     1
102
RTVSPropertyOp26
 70
     1
102
RTVSPropertyOp27
 70
     1
102
RTVSPropertyOp28
 70
     1
102
RTVSPropertyOp29
 70
     1
102
RTVSPropertyOp30
 70
     1
102
RTVSPropertyOp31
 70
     1
102
RTVSPropertyOp32
 70
     1
102
RTVSPropertyOp33
 70
     1
102
RTVSPropertyOp34
 70
     1
102
RTVSPropertyOp35
 70
     1
102
RTVSPropertyOp36
 70
     1
102
RTVSPropertyOp37
 70
     1
102
RTVSPropertyOp38
 70
     1
102
RTVSPropertyOp39
 70
     1
102
RTVSPropertyOp40
 70
     1
102
RTVSPropertyOp41
 70
     1
102
RTVSPropertyOp42
 70
     1
102
RTVSPropertyOp43
 70
     1
102
RTVSPropertyOp44
 70
     1
102
RTVSPropertyOp45
 70
     1
102
RTVSPropertyOp46
 70
     1
102
RTVSPropertyOp47
 70
     1
102
RTVSPropertyOp48
 70
     1
102
RTVSPropertyOp49
 70
     1
102
RTVSPropertyOp50
 70
     1
102
RTVSPropertyOp51
 70
     0
102
RTVSPropertyOp52
 70
     0
102
RTVSPropertyOp53
 70
     1
102
RTVSPropertyOp54
 70
     1
102
RTVSPropertyOp55
 70
     1
102
RTVSPropertyOp56
 70
     1
102
RTVSPropertyOp57
 70
     1
102
RTVSPropertyOp58
 70
     1
102
RTVSPropertyOp59
 70
     1
102
RTVSPropertyOp60
 70
     1
102
RTVSPropertyOp61
 70
     1
102
RTVSPropertyOp62
 70
     1
  0
XRECORD
  5
A0AC1
102
{ACAD_REACTORS
330
A0AC0
102
}
330
A0AC0
100
AcDbXrecord
280
     1
102
RTVSPost2010Prop28
280
     0
102
RTVSPost2010PropOp28
 70
     1
102
RTVSPost2010Prop29
280
     1
102
RTVSPost2010PropOp29
 70
     1
102
RTVSPost2010Prop30
280
     1
102
RTVSPost2010PropOp30
 70
     1
102
RTVSPost2010Prop31
280
     0
102
RTVSPost2010PropOp31
 70
     1
102
RTVSPost2010Prop32
280
     0
102
RTVSPost2010PropOp32
 70
     1
102
RTVSPost2010Prop33
280
     0
102
RTVSPost2010PropOp33
 70
     1
102
RTVSPost2010Prop34
280
     0
102
RTVSPost2010PropOp34
 70
     1
102
RTVSPost2010Prop35
280
     0
102
RTVSPost2010PropOp35
 70
     1
102
RTVSPost2010Prop36
280
     0
102
RTVSPost2010PropOp36
 70
     1
102
RTVSPost2010Prop37
 90
       50
102
RTVSPost2010PropOp37
 70
     1
102
RTVSPost2010Prop38
140
0.0
102
RTVSPost2010PropOp38
 70
     1
102
RTVSPost2010Prop39
140
1.0
102
RTVSPost2010PropOp39
 70
     1
102
RTVSPost2010Prop40
 90
        0
102
RTVSPost2010PropOp40
 70
     1
102
RTVSPost2010Prop41ColorIndex
 90
       18
102
RTVSPost2010Prop41ColorRGB
 90
        0
102
RTVSPost2010PropOp41
 70
     1
102
RTVSPost2010Prop42
 90
       50
102
RTVSPost2010PropOp42
 70
     1
102
RTVSPost2010Prop43
 90
        3
102
RTVSPost2010PropOp43
 70
     1
102
RTVSPost2010Prop44ColorIndex
 90
        5
102
RTVSPost2010Prop44ColorRGB
 90
      255
102
RTVSPost2010PropOp44
 70
     1
102
RTVSPost2010Prop45
280
     0
102
RTVSPost2010PropOp45
 70
     1
102
RTVSPost2010Prop46
 90
       50
102
RTVSPost2010PropOp46
 70
     1
102
RTVSPost2010Prop47
 90
       50
102
RTVSPost2010PropOp47
 70
     1
102
RTVSPost2010Prop48
 90
       50
102
RTVSPost2010PropOp48
 70
     1
102
RTVSPost2010Prop49
280
     0
102
RTVSPost2010PropOp49
 70
     1
102
RTVSPost2010Prop50
 90
       50
102
RTVSPost2010PropOp50
 70
     1
102
RTVSPost2010Prop51ColorIndex
 90
      256
102
RTVSPost2010Prop51ColorRGB
 90
-16777216
102
RTVSPost2010PropOp51
 70
     0
102
RTVSPost2010Prop52
140
1.0
102
RTVSPost2010PropOp52
 70
     0
102
RTVSPost2010Prop53
 90
        2
102
RTVSPost2010PropOp53
 70
     1
102
RTVSPost2010Prop54
  1
strokes_ogs.tif
102
RTVSPost2010PropOp54
 70
     1
102
RTVSPost2010Prop55
280
     0
102
RTVSPost2010PropOp55
 70
     1
102
RTVSPost2010Prop56
140
1.0
102
RTVSPost2010PropOp56
 70
     1
102
RTVSPost2010Prop57
140
1.0
102
RTVSPost2010PropOp57
 70
     1
102
RTVSPropertyOp0
 70
     1
102
RTVSPropertyOp1
 70
     1
102
RTVSPropertyOp2
 70
     1
102
RTVSPropertyOp3
 70
     1
102
RTVSPropertyOp4
 70
     1
102
RTVSPropertyOp5
 70
     1
102
RTVSPropertyOp6
 70
     1
102
RTVSPropertyOp7
 70
     1
102
RTVSPropertyOp8
 70
     1
102
RTVSPropertyOp9
 70
     1
102
RTVSPropertyOp10
 70
     1
102
RTVSPropertyOp11
 70
     1
102
RTVSPropertyOp12
 70
     1
102
RTVSPropertyOp13
 70
     1
102
RTVSPropertyOp14
 70
     1
102
RTVSPropertyOp15
 70
     1
102
RTVSPropertyOp16
 70
     1
102
RTVSPropertyOp17
 70
     1
102
RTVSPropertyOp18
 70
     1
102
RTVSPropertyOp19
 70
     1
102
RTVSPropertyOp20
 70
     1
102
RTVSPropertyOp21
 70
     1
102
RTVSPropertyOp22
 70
     1
102
RTVSPropertyOp23
 70
     1
102
RTVSPropertyOp24
 70
     1
102
RTVSPropertyOp25
 70
     1
102
RTVSPropertyOp26
 70
     1
102
RTVSPropertyOp27
 70
     1
102
RTVSPropertyOp28
 70
     1
102
RTVSPropertyOp29
 70
     1
102
RTVSPropertyOp30
 70
     1
102
RTVSPropertyOp31
 70
     1
102
RTVSPropertyOp32
 70
     1
102
RTVSPropertyOp33
 70
     1
102
RTVSPropertyOp34
 70
     1
102
RTVSPropertyOp35
 70
     1
102
RTVSPropertyOp36
 70
     1
102
RTVSPropertyOp37
 70
     1
102
RTVSPropertyOp38
 70
     1
102
RTVSPropertyOp39
 70
     1
102
RTVSPropertyOp40
 70
     1
102
RTVSPropertyOp41
 70
     1
102
RTVSPropertyOp42
 70
     1
102
RTVSPropertyOp43
 70
     1
102
RTVSPropertyOp44
 70
     1
102
RTVSPropertyOp45
 70
     1
102
RTVSPropertyOp46
 70
     1
102
RTVSPropertyOp47
 70
     1
102
RTVSPropertyOp48
 70
     1
102
RTVSPropertyOp49
 70
     1
102
RTVSPropertyOp50
 70
     1
102
RTVSPropertyOp51
 70
     0
102
RTVSPropertyOp52
 70
     0
102
RTVSPropertyOp53
 70
     1
102
RTVSPropertyOp54
 70
     1
102
RTVSPropertyOp55
 70
     1
102
RTVSPropertyOp56
 70
     1
102
RTVSPropertyOp57
 70
     1
102
RTVSPropertyOp58
 70
     1
102
RTVSPropertyOp59
 70
     1
102
RTVSPropertyOp60
 70
     1
102
RTVSPropertyOp61
 70
     1
102
RTVSPropertyOp62
 70
     1
  0
XRECORD
  5
A0ACF
102
{ACAD_REACTORS
330
A0ACE
102
}
330
A0ACE
100
AcDbXrecord
280
     1
102
RTVSPost2010Prop28
280
     0
102
RTVSPost2010PropOp28
 70
     1
102
RTVSPost2010Prop29
280
     1
102
RTVSPost2010PropOp29
 70
     1
102
RTVSPost2010Prop30
280
     1
102
RTVSPost2010PropOp30
 70
     1
102
RTVSPost2010Prop31
280
     0
102
RTVSPost2010PropOp31
 70
     1
102
RTVSPost2010Prop32
280
     0
102
RTVSPost2010PropOp32
 70
     1
102
RTVSPost2010Prop33
280
     0
102
RTVSPost2010PropOp33
 70
     1
102
RTVSPost2010Prop34
280
     0
102
RTVSPost2010PropOp34
 70
     1
102
RTVSPost2010Prop35
280
     0
102
RTVSPost2010PropOp35
 70
     1
102
RTVSPost2010Prop36
280
     0
102
RTVSPost2010PropOp36
 70
     1
102
RTVSPost2010Prop37
 90
       50
102
RTVSPost2010PropOp37
 70
     1
102
RTVSPost2010Prop38
140
0.0
102
RTVSPost2010PropOp38
 70
     1
102
RTVSPost2010Prop39
140
1.0
102
RTVSPost2010PropOp39
 70
     1
102
RTVSPost2010Prop40
 90
        0
102
RTVSPost2010PropOp40
 70
     1
102
RTVSPost2010Prop41ColorIndex
 90
       18
102
RTVSPost2010Prop41ColorRGB
 90
        0
102
RTVSPost2010PropOp41
 70
     1
102
RTVSPost2010Prop42
 90
       50
102
RTVSPost2010PropOp42
 70
     1
102
RTVSPost2010Prop43
 90
        3
102
RTVSPost2010PropOp43
 70
     1
102
RTVSPost2010Prop44ColorIndex
 90
        5
102
RTVSPost2010Prop44ColorRGB
 90
      255
102
RTVSPost2010PropOp44
 70
     1
102
RTVSPost2010Prop45
280
     0
102
RTVSPost2010PropOp45
 70
     1
102
RTVSPost2010Prop46
 90
       50
102
RTVSPost2010PropOp46
 70
     1
102
RTVSPost2010Prop47
 90
       50
102
RTVSPost2010PropOp47
 70
     1
102
RTVSPost2010Prop48
 90
       50
102
RTVSPost2010PropOp48
 70
     1
102
RTVSPost2010Prop49
280
     0
102
RTVSPost2010PropOp49
 70
     1
102
RTVSPost2010Prop50
 90
       50
102
RTVSPost2010PropOp50
 70
     1
102
RTVSPost2010Prop51ColorIndex
 90
      256
102
RTVSPost2010Prop51ColorRGB
 90
-16777216
102
RTVSPost2010PropOp51
 70
     0
102
RTVSPost2010Prop52
140
1.0
102
RTVSPost2010PropOp52
 70
     0
102
RTVSPost2010Prop53
 90
        2
102
RTVSPost2010PropOp53
 70
     1
102
RTVSPost2010Prop54
  1
strokes_ogs.tif
102
RTVSPost2010PropOp54
 70
     1
102
RTVSPost2010Prop55
280
     0
102
RTVSPost2010PropOp55
 70
     1
102
RTVSPost2010Prop56
140
1.0
102
RTVSPost2010PropOp56
 70
     1
102
RTVSPost2010Prop57
140
1.0
102
RTVSPost2010PropOp57
 70
     1
102
RTVSPropertyOp0
 70
     1
102
RTVSPropertyOp1
 70
     1
102
RTVSPropertyOp2
 70
     1
102
RTVSPropertyOp3
 70
     1
102
RTVSPropertyOp4
 70
     1
102
RTVSPropertyOp5
 70
     1
102
RTVSPropertyOp6
 70
     1
102
RTVSPropertyOp7
 70
     1
102
RTVSPropertyOp8
 70
     1
102
RTVSPropertyOp9
 70
     1
102
RTVSPropertyOp10
 70
     1
102
RTVSPropertyOp11
 70
     1
102
RTVSPropertyOp12
 70
     1
102
RTVSPropertyOp13
 70
     1
102
RTVSPropertyOp14
 70
     1
102
RTVSPropertyOp15
 70
     1
102
RTVSPropertyOp16
 70
     1
102
RTVSPropertyOp17
 70
     1
102
RTVSPropertyOp18
 70
     1
102
RTVSPropertyOp19
 70
     1
102
RTVSPropertyOp20
 70
     1
102
RTVSPropertyOp21
 70
     1
102
RTVSPropertyOp22
 70
     1
102
RTVSPropertyOp23
 70
     1
102
RTVSPropertyOp24
 70
     1
102
RTVSPropertyOp25
 70
     1
102
RTVSPropertyOp26
 70
     1
102
RTVSPropertyOp27
 70
     1
102
RTVSPropertyOp28
 70
     1
102
RTVSPropertyOp29
 70
     1
102
RTVSPropertyOp30
 70
     1
102
RTVSPropertyOp31
 70
     1
102
RTVSPropertyOp32
 70
     1
102
RTVSPropertyOp33
 70
     1
102
RTVSPropertyOp34
 70
     1
102
RTVSPropertyOp35
 70
     1
102
RTVSPropertyOp36
 70
     1
102
RTVSPropertyOp37
 70
     1
102
RTVSPropertyOp38
 70
     1
102
RTVSPropertyOp39
 70
     1
102
RTVSPropertyOp40
 70
     1
102
RTVSPropertyOp41
 70
     1
102
RTVSPropertyOp42
 70
     1
102
RTVSPropertyOp43
 70
     1
102
RTVSPropertyOp44
 70
     1
102
RTVSPropertyOp45
 70
     1
102
RTVSPropertyOp46
 70
     1
102
RTVSPropertyOp47
 70
     1
102
RTVSPropertyOp48
 70
     1
102
RTVSPropertyOp49
 70
     1
102
RTVSPropertyOp50
 70
     1
102
RTVSPropertyOp51
 70
     0
102
RTVSPropertyOp52
 70
     0
102
RTVSPropertyOp53
 70
     1
102
RTVSPropertyOp54
 70
     1
102
RTVSPropertyOp55
 70
     1
102
RTVSPropertyOp56
 70
     1
102
RTVSPropertyOp57
 70
     1
102
RTVSPropertyOp58
 70
     1
102
RTVSPropertyOp59
 70
     1
102
RTVSPropertyOp60
 70
     1
102
RTVSPropertyOp61
 70
     1
102
RTVSPropertyOp62
 70
     1
  0
XRECORD
  5
A0AD7
102
{ACAD_REACTORS
330
A0AD6
102
}
330
A0AD6
100
AcDbXrecord
280
     1
102
RTVSPost2010Prop28
280
     0
102
RTVSPost2010PropOp28
 70
     1
102
RTVSPost2010Prop29
280
     1
102
RTVSPost2010PropOp29
 70
     1
102
RTVSPost2010Prop30
280
     1
102
RTVSPost2010PropOp30
 70
     1
102
RTVSPost2010Prop31
280
     0
102
RTVSPost2010PropOp31
 70
     1
102
RTVSPost2010Prop32
280
     0
102
RTVSPost2010PropOp32
 70
     1
102
RTVSPost2010Prop33
280
     0
102
RTVSPost2010PropOp33
 70
     1
102
RTVSPost2010Prop34
280
     0
102
RTVSPost2010PropOp34
 70
     1
102
RTVSPost2010Prop35
280
     0
102
RTVSPost2010PropOp35
 70
     1
102
RTVSPost2010Prop36
280
     0
102
RTVSPost2010PropOp36
 70
     1
102
RTVSPost2010Prop37
 90
       50
102
RTVSPost2010PropOp37
 70
     1
102
RTVSPost2010Prop38
140
0.0
102
RTVSPost2010PropOp38
 70
     1
102
RTVSPost2010Prop39
140
1.0
102
RTVSPost2010PropOp39
 70
     1
102
RTVSPost2010Prop40
 90
        0
102
RTVSPost2010PropOp40
 70
     1
102
RTVSPost2010Prop41ColorIndex
 90
       18
102
RTVSPost2010Prop41ColorRGB
 90
        0
102
RTVSPost2010PropOp41
 70
     1
102
RTVSPost2010Prop42
 90
       50
102
RTVSPost2010PropOp42
 70
     1
102
RTVSPost2010Prop43
 90
        3
102
RTVSPost2010PropOp43
 70
     1
102
RTVSPost2010Prop44ColorIndex
 90
        5
102
RTVSPost2010Prop44ColorRGB
 90
      255
102
RTVSPost2010PropOp44
 70
     1
102
RTVSPost2010Prop45
280
     0
102
RTVSPost2010PropOp45
 70
     1
102
RTVSPost2010Prop46
 90
       50
102
RTVSPost2010PropOp46
 70
     1
102
RTVSPost2010Prop47
 90
       50
102
RTVSPost2010PropOp47
 70
     1
102
RTVSPost2010Prop48
 90
       50
102
RTVSPost2010PropOp48
 70
     1
102
RTVSPost2010Prop49
280
     0
102
RTVSPost2010PropOp49
 70
     1
102
RTVSPost2010Prop50
 90
       50
102
RTVSPost2010PropOp50
 70
     1
102
RTVSPost2010Prop51ColorIndex
 90
      256
102
RTVSPost2010Prop51ColorRGB
 90
-16777216
102
RTVSPost2010PropOp51
 70
     0
102
RTVSPost2010Prop52
140
1.0
102
RTVSPost2010PropOp52
 70
     0
102
RTVSPost2010Prop53
 90
        2
102
RTVSPost2010PropOp53
 70
     1
102
RTVSPost2010Prop54
  1
strokes_ogs.tif
102
RTVSPost2010PropOp54
 70
     1
102
RTVSPost2010Prop55
280
     0
102
RTVSPost2010PropOp55
 70
     1
102
RTVSPost2010Prop56
140
1.0
102
RTVSPost2010PropOp56
 70
     1
102
RTVSPost2010Prop57
140
1.0
102
RTVSPost2010PropOp57
 70
     1
102
RTVSPropertyOp0
 70
     1
102
RTVSPropertyOp1
 70
     1
102
RTVSPropertyOp2
 70
     1
102
RTVSPropertyOp3
 70
     1
102
RTVSPropertyOp4
 70
     1
102
RTVSPropertyOp5
 70
     1
102
RTVSPropertyOp6
 70
     1
102
RTVSPropertyOp7
 70
     1
102
RTVSPropertyOp8
 70
     1
102
RTVSPropertyOp9
 70
     1
102
RTVSPropertyOp10
 70
     1
102
RTVSPropertyOp11
 70
     1
102
RTVSPropertyOp12
 70
     1
102
RTVSPropertyOp13
 70
     1
102
RTVSPropertyOp14
 70
     1
102
RTVSPropertyOp15
 70
     1
102
RTVSPropertyOp16
 70
     1
102
RTVSPropertyOp17
 70
     1
102
RTVSPropertyOp18
 70
     1
102
RTVSPropertyOp19
 70
     1
102
RTVSPropertyOp20
 70
     1
102
RTVSPropertyOp21
 70
     1
102
RTVSPropertyOp22
 70
     1
102
RTVSPropertyOp23
 70
     1
102
RTVSPropertyOp24
 70
     1
102
RTVSPropertyOp25
 70
     1
102
RTVSPropertyOp26
 70
     1
102
RTVSPropertyOp27
 70
     1
102
RTVSPropertyOp28
 70
     1
102
RTVSPropertyOp29
 70
     1
102
RTVSPropertyOp30
 70
     1
102
RTVSPropertyOp31
 70
     1
102
RTVSPropertyOp32
 70
     1
102
RTVSPropertyOp33
 70
     1
102
RTVSPropertyOp34
 70
     1
102
RTVSPropertyOp35
 70
     1
102
RTVSPropertyOp36
 70
     1
102
RTVSPropertyOp37
 70
     1
102
RTVSPropertyOp38
 70
     1
102
RTVSPropertyOp39
 70
     1
102
RTVSPropertyOp40
 70
     1
102
RTVSPropertyOp41
 70
     1
102
RTVSPropertyOp42
 70
     1
102
RTVSPropertyOp43
 70
     1
102
RTVSPropertyOp44
 70
     1
102
RTVSPropertyOp45
 70
     1
102
RTVSPropertyOp46
 70
     1
102
RTVSPropertyOp47
 70
     1
102
RTVSPropertyOp48
 70
     1
102
RTVSPropertyOp49
 70
     1
102
RTVSPropertyOp50
 70
     1
102
RTVSPropertyOp51
 70
     0
102
RTVSPropertyOp52
 70
     0
102
RTVSPropertyOp53
 70
     1
102
RTVSPropertyOp54
 70
     1
102
RTVSPropertyOp55
 70
     1
102
RTVSPropertyOp56
 70
     1
102
RTVSPropertyOp57
 70
     1
102
RTVSPropertyOp58
 70
     1
102
RTVSPropertyOp59
 70
     1
102
RTVSPropertyOp60
 70
     1
102
RTVSPropertyOp61
 70
     1
102
RTVSPropertyOp62
 70
     1
  0
XRECORD
  5
A0AC9
102
{ACAD_REACTORS
330
A0AC8
102
}
330
A0AC8
100
AcDbXrecord
280
     1
102
RTVSPost2010Prop28
280
     0
102
RTVSPost2010PropOp28
 70
     1
102
RTVSPost2010Prop29
280
     1
102
RTVSPost2010PropOp29
 70
     1
102
RTVSPost2010Prop30
280
     1
102
RTVSPost2010PropOp30
 70
     1
102
RTVSPost2010Prop31
280
     0
102
RTVSPost2010PropOp31
 70
     1
102
RTVSPost2010Prop32
280
     0
102
RTVSPost2010PropOp32
 70
     1
102
RTVSPost2010Prop33
280
     0
102
RTVSPost2010PropOp33
 70
     1
102
RTVSPost2010Prop34
280
     0
102
RTVSPost2010PropOp34
 70
     1
102
RTVSPost2010Prop35
280
     0
102
RTVSPost2010PropOp35
 70
     1
102
RTVSPost2010Prop36
280
     0
102
RTVSPost2010PropOp36
 70
     1
102
RTVSPost2010Prop37
 90
       50
102
RTVSPost2010PropOp37
 70
     1
102
RTVSPost2010Prop38
140
0.0
102
RTVSPost2010PropOp38
 70
     1
102
RTVSPost2010Prop39
140
1.0
102
RTVSPost2010PropOp39
 70
     1
102
RTVSPost2010Prop40
 90
        0
102
RTVSPost2010PropOp40
 70
     1
102
RTVSPost2010Prop41ColorIndex
 90
       18
102
RTVSPost2010Prop41ColorRGB
 90
        0
102
RTVSPost2010PropOp41
 70
     1
102
RTVSPost2010Prop42
 90
       50
102
RTVSPost2010PropOp42
 70
     1
102
RTVSPost2010Prop43
 90
        3
102
RTVSPost2010PropOp43
 70
     1
102
RTVSPost2010Prop44ColorIndex
 90
        5
102
RTVSPost2010Prop44ColorRGB
 90
      255
102
RTVSPost2010PropOp44
 70
     1
102
RTVSPost2010Prop45
280
     0
102
RTVSPost2010PropOp45
 70
     1
102
RTVSPost2010Prop46
 90
       50
102
RTVSPost2010PropOp46
 70
     1
102
RTVSPost2010Prop47
 90
       50
102
RTVSPost2010PropOp47
 70
     1
102
RTVSPost2010Prop48
 90
       50
102
RTVSPost2010PropOp48
 70
     1
102
RTVSPost2010Prop49
280
     0
102
RTVSPost2010PropOp49
 70
     1
102
RTVSPost2010Prop50
 90
       50
102
RTVSPost2010PropOp50
 70
     1
102
RTVSPost2010Prop51ColorIndex
 90
      256
102
RTVSPost2010Prop51ColorRGB
 90
-16777216
102
RTVSPost2010PropOp51
 70
     0
102
RTVSPost2010Prop52
140
1.0
102
RTVSPost2010PropOp52
 70
     0
102
RTVSPost2010Prop53
 90
        2
102
RTVSPost2010PropOp53
 70
     1
102
RTVSPost2010Prop54
  1
strokes_ogs.tif
102
RTVSPost2010PropOp54
 70
     1
102
RTVSPost2010Prop55
280
     0
102
RTVSPost2010PropOp55
 70
     1
102
RTVSPost2010Prop56
140
1.0
102
RTVSPost2010PropOp56
 70
     1
102
RTVSPost2010Prop57
140
1.0
102
RTVSPost2010PropOp57
 70
     1
102
RTVSPropertyOp0
 70
     1
102
RTVSPropertyOp1
 70
     1
102
RTVSPropertyOp2
 70
     1
102
RTVSPropertyOp3
 70
     1
102
RTVSPropertyOp4
 70
     1
102
RTVSPropertyOp5
 70
     1
102
RTVSPropertyOp6
 70
     1
102
RTVSPropertyOp7
 70
     1
102
RTVSPropertyOp8
 70
     1
102
RTVSPropertyOp9
 70
     1
102
RTVSPropertyOp10
 70
     1
102
RTVSPropertyOp11
 70
     1
102
RTVSPropertyOp12
 70
     1
102
RTVSPropertyOp13
 70
     1
102
RTVSPropertyOp14
 70
     1
102
RTVSPropertyOp15
 70
     1
102
RTVSPropertyOp16
 70
     1
102
RTVSPropertyOp17
 70
     1
102
RTVSPropertyOp18
 70
     1
102
RTVSPropertyOp19
 70
     1
102
RTVSPropertyOp20
 70
     1
102
RTVSPropertyOp21
 70
     1
102
RTVSPropertyOp22
 70
     1
102
RTVSPropertyOp23
 70
     1
102
RTVSPropertyOp24
 70
     1
102
RTVSPropertyOp25
 70
     1
102
RTVSPropertyOp26
 70
     1
102
RTVSPropertyOp27
 70
     1
102
RTVSPropertyOp28
 70
     1
102
RTVSPropertyOp29
 70
     1
102
RTVSPropertyOp30
 70
     1
102
RTVSPropertyOp31
 70
     1
102
RTVSPropertyOp32
 70
     1
102
RTVSPropertyOp33
 70
     1
102
RTVSPropertyOp34
 70
     1
102
RTVSPropertyOp35
 70
     1
102
RTVSPropertyOp36
 70
     1
102
RTVSPropertyOp37
 70
     1
102
RTVSPropertyOp38
 70
     1
102
RTVSPropertyOp39
 70
     1
102
RTVSPropertyOp40
 70
     1
102
RTVSPropertyOp41
 70
     1
102
RTVSPropertyOp42
 70
     1
102
RTVSPropertyOp43
 70
     1
102
RTVSPropertyOp44
 70
     1
102
RTVSPropertyOp45
 70
     1
102
RTVSPropertyOp46
 70
     1
102
RTVSPropertyOp47
 70
     1
102
RTVSPropertyOp48
 70
     1
102
RTVSPropertyOp49
 70
     1
102
RTVSPropertyOp50
 70
     1
102
RTVSPropertyOp51
 70
     0
102
RTVSPropertyOp52
 70
     0
102
RTVSPropertyOp53
 70
     1
102
RTVSPropertyOp54
 70
     1
102
RTVSPropertyOp55
 70
     1
102
RTVSPropertyOp56
 70
     1
102
RTVSPropertyOp57
 70
     1
102
RTVSPropertyOp58
 70
     1
102
RTVSPropertyOp59
 70
     1
102
RTVSPropertyOp60
 70
     1
102
RTVSPropertyOp61
 70
     1
102
RTVSPropertyOp62
 70
     1
  0
XRECORD
  5
A0ACD
102
{ACAD_REACTORS
330
A0ACC
102
}
330
A0ACC
100
AcDbXrecord
280
     1
102
RTVSPost2010Prop28
280
     0
102
RTVSPost2010PropOp28
 70
     1
102
RTVSPost2010Prop29
280
     1
102
RTVSPost2010PropOp29
 70
     1
102
RTVSPost2010Prop30
280
     1
102
RTVSPost2010PropOp30
 70
     1
102
RTVSPost2010Prop31
280
     0
102
RTVSPost2010PropOp31
 70
     1
102
RTVSPost2010Prop32
280
     0
102
RTVSPost2010PropOp32
 70
     1
102
RTVSPost2010Prop33
280
     0
102
RTVSPost2010PropOp33
 70
     1
102
RTVSPost2010Prop34
280
     0
102
RTVSPost2010PropOp34
 70
     1
102
RTVSPost2010Prop35
280
     0
102
RTVSPost2010PropOp35
 70
     1
102
RTVSPost2010Prop36
280
     0
102
RTVSPost2010PropOp36
 70
     1
102
RTVSPost2010Prop37
 90
       50
102
RTVSPost2010PropOp37
 70
     1
102
RTVSPost2010Prop38
140
0.0
102
RTVSPost2010PropOp38
 70
     1
102
RTVSPost2010Prop39
140
1.0
102
RTVSPost2010PropOp39
 70
     1
102
RTVSPost2010Prop40
 90
        0
102
RTVSPost2010PropOp40
 70
     1
102
RTVSPost2010Prop41ColorIndex
 90
       18
102
RTVSPost2010Prop41ColorRGB
 90
        0
102
RTVSPost2010PropOp41
 70
     1
102
RTVSPost2010Prop42
 90
       50
102
RTVSPost2010PropOp42
 70
     1
102
RTVSPost2010Prop43
 90
        3
102
RTVSPost2010PropOp43
 70
     1
102
RTVSPost2010Prop44ColorIndex
 90
        5
102
RTVSPost2010Prop44ColorRGB
 90
      255
102
RTVSPost2010PropOp44
 70
     1
102
RTVSPost2010Prop45
280
     0
102
RTVSPost2010PropOp45
 70
     1
102
RTVSPost2010Prop46
 90
       50
102
RTVSPost2010PropOp46
 70
     1
102
RTVSPost2010Prop47
 90
       50
102
RTVSPost2010PropOp47
 70
     1
102
RTVSPost2010Prop48
 90
       50
102
RTVSPost2010PropOp48
 70
     1
102
RTVSPost2010Prop49
280
     0
102
RTVSPost2010PropOp49
 70
     1
102
RTVSPost2010Prop50
 90
       50
102
RTVSPost2010PropOp50
 70
     1
102
RTVSPost2010Prop51ColorIndex
 90
      256
102
RTVSPost2010Prop51ColorRGB
 90
-16777216
102
RTVSPost2010PropOp51
 70
     0
102
RTVSPost2010Prop52
140
1.0
102
RTVSPost2010PropOp52
 70
     0
102
RTVSPost2010Prop53
 90
        2
102
RTVSPost2010PropOp53
 70
     1
102
RTVSPost2010Prop54
  1
strokes_ogs.tif
102
RTVSPost2010PropOp54
 70
     1
102
RTVSPost2010Prop55
280
     0
102
RTVSPost2010PropOp55
 70
     1
102
RTVSPost2010Prop56
140
1.0
102
RTVSPost2010PropOp56
 70
     1
102
RTVSPost2010Prop57
140
1.0
102
RTVSPost2010PropOp57
 70
     1
102
RTVSPropertyOp0
 70
     1
102
RTVSPropertyOp1
 70
     1
102
RTVSPropertyOp2
 70
     1
102
RTVSPropertyOp3
 70
     1
102
RTVSPropertyOp4
 70
     1
102
RTVSPropertyOp5
 70
     1
102
RTVSPropertyOp6
 70
     1
102
RTVSPropertyOp7
 70
     1
102
RTVSPropertyOp8
 70
     1
102
RTVSPropertyOp9
 70
     1
102
RTVSPropertyOp10
 70
     1
102
RTVSPropertyOp11
 70
     1
102
RTVSPropertyOp12
 70
     1
102
RTVSPropertyOp13
 70
     1
102
RTVSPropertyOp14
 70
     1
102
RTVSPropertyOp15
 70
     1
102
RTVSPropertyOp16
 70
     1
102
RTVSPropertyOp17
 70
     1
102
RTVSPropertyOp18
 70
     1
102
RTVSPropertyOp19
 70
     1
102
RTVSPropertyOp20
 70
     1
102
RTVSPropertyOp21
 70
     1
102
RTVSPropertyOp22
 70
     1
102
RTVSPropertyOp23
 70
     1
102
RTVSPropertyOp24
 70
     1
102
RTVSPropertyOp25
 70
     1
102
RTVSPropertyOp26
 70
     1
102
RTVSPropertyOp27
 70
     1
102
RTVSPropertyOp28
 70
     1
102
RTVSPropertyOp29
 70
     1
102
RTVSPropertyOp30
 70
     1
102
RTVSPropertyOp31
 70
     1
102
RTVSPropertyOp32
 70
     1
102
RTVSPropertyOp33
 70
     1
102
RTVSPropertyOp34
 70
     1
102
RTVSPropertyOp35
 70
     1
102
RTVSPropertyOp36
 70
     1
102
RTVSPropertyOp37
 70
     1
102
RTVSPropertyOp38
 70
     1
102
RTVSPropertyOp39
 70
     1
102
RTVSPropertyOp40
 70
     1
102
RTVSPropertyOp41
 70
     1
102
RTVSPropertyOp42
 70
     1
102
RTVSPropertyOp43
 70
     1
102
RTVSPropertyOp44
 70
     1
102
RTVSPropertyOp45
 70
     1
102
RTVSPropertyOp46
 70
     1
102
RTVSPropertyOp47
 70
     1
102
RTVSPropertyOp48
 70
     1
102
RTVSPropertyOp49
 70
     1
102
RTVSPropertyOp50
 70
     1
102
RTVSPropertyOp51
 70
     0
102
RTVSPropertyOp52
 70
     0
102
RTVSPropertyOp53
 70
     1
102
RTVSPropertyOp54
 70
     1
102
RTVSPropertyOp55
 70
     1
102
RTVSPropertyOp56
 70
     1
102
RTVSPropertyOp57
 70
     1
102
RTVSPropertyOp58
 70
     1
102
RTVSPropertyOp59
 70
     1
102
RTVSPropertyOp60
 70
     1
102
RTVSPropertyOp61
 70
     1
102
RTVSPropertyOp62
 70
     1
  0
XRECORD
  5
A0AE7
102
{ACAD_REACTORS
330
A0AE6
102
}
330
A0AE6
100
AcDbXrecord
280
     1
102
RTVSPost2010Prop28
280
     0
102
RTVSPost2010PropOp28
 70
     1
102
RTVSPost2010Prop29
280
     1
102
RTVSPost2010PropOp29
 70
     1
102
RTVSPost2010Prop30
280
     1
102
RTVSPost2010PropOp30
 70
     1
102
RTVSPost2010Prop31
280
     0
102
RTVSPost2010PropOp31
 70
     1
102
RTVSPost2010Prop32
280
     0
102
RTVSPost2010PropOp32
 70
     1
102
RTVSPost2010Prop33
280
     0
102
RTVSPost2010PropOp33
 70
     1
102
RTVSPost2010Prop34
280
     0
102
RTVSPost2010PropOp34
 70
     1
102
RTVSPost2010Prop35
280
     0
102
RTVSPost2010PropOp35
 70
     1
102
RTVSPost2010Prop36
280
     0
102
RTVSPost2010PropOp36
 70
     1
102
RTVSPost2010Prop37
 90
       50
102
RTVSPost2010PropOp37
 70
     0
102
RTVSPost2010Prop38
140
0.0
102
RTVSPost2010PropOp38
 70
     0
102
RTVSPost2010Prop39
140
1.0
102
RTVSPost2010PropOp39
 70
     0
102
RTVSPost2010Prop40
 90
        0
102
RTVSPost2010PropOp40
 70
     0
102
RTVSPost2010Prop41ColorIndex
 90
       18
102
RTVSPost2010Prop41ColorRGB
 90
        0
102
RTVSPost2010PropOp41
 70
     0
102
RTVSPost2010Prop42
 90
       50
102
RTVSPost2010PropOp42
 70
     0
102
RTVSPost2010Prop43
 90
        3
102
RTVSPost2010PropOp43
 70
     0
102
RTVSPost2010Prop44ColorIndex
 90
        5
102
RTVSPost2010Prop44ColorRGB
 90
      255
102
RTVSPost2010PropOp44
 70
     0
102
RTVSPost2010Prop45
280
     0
102
RTVSPost2010PropOp45
 70
     1
102
RTVSPost2010Prop46
 90
       50
102
RTVSPost2010PropOp46
 70
     0
102
RTVSPost2010Prop47
 90
       50
102
RTVSPost2010PropOp47
 70
     0
102
RTVSPost2010Prop48
 90
       50
102
RTVSPost2010PropOp48
 70
     0
102
RTVSPost2010Prop49
280
     0
102
RTVSPost2010PropOp49
 70
     1
102
RTVSPost2010Prop50
 90
       50
102
RTVSPost2010PropOp50
 70
     0
102
RTVSPost2010Prop51ColorIndex
 90
      256
102
RTVSPost2010Prop51ColorRGB
 90
-16777216
102
RTVSPost2010PropOp51
 70
     0
102
RTVSPost2010Prop52
140
1.0
102
RTVSPost2010PropOp52
 70
     0
102
RTVSPost2010Prop53
 90
        2
102
RTVSPost2010PropOp53
 70
     0
102
RTVSPost2010Prop54
  1
strokes_ogs.tif
102
RTVSPost2010PropOp54
 70
     0
102
RTVSPost2010Prop55
280
     0
102
RTVSPost2010PropOp55
 70
     1
102
RTVSPost2010Prop56
140
1.0
102
RTVSPost2010PropOp56
 70
     0
102
RTVSPost2010Prop57
140
1.0
102
RTVSPost2010PropOp57
 70
     0
102
RTVSPropertyOp0
 70
     0
102
RTVSPropertyOp1
 70
     0
102
RTVSPropertyOp2
 70
     0
102
RTVSPropertyOp3
 70
     0
102
RTVSPropertyOp4
 70
     0
102
RTVSPropertyOp5
 70
     0
102
RTVSPropertyOp6
 70
     0
102
RTVSPropertyOp7
 70
     0
102
RTVSPropertyOp8
 70
     0
102
RTVSPropertyOp9
 70
     0
102
RTVSPropertyOp10
 70
     0
102
RTVSPropertyOp11
 70
     0
102
RTVSPropertyOp12
 70
     0
102
RTVSPropertyOp13
 70
     0
102
RTVSPropertyOp14
 70
     2
102
RTVSPropertyOp15
 70
     0
102
RTVSPropertyOp16
 70
     0
102
RTVSPropertyOp17
 70
     0
102
RTVSPropertyOp18
 70
     0
102
RTVSPropertyOp19
 70
     0
102
RTVSPropertyOp20
 70
     0
102
RTVSPropertyOp21
 70
     0
102
RTVSPropertyOp22
 70
     0
102
RTVSPropertyOp23
 70
     0
102
RTVSPropertyOp24
 70
     0
102
RTVSPropertyOp25
 70
     0
102
RTVSPropertyOp26
 70
     0
102
RTVSPropertyOp27
 70
     0
102
RTVSPropertyOp28
 70
     1
102
RTVSPropertyOp29
 70
     1
102
RTVSPropertyOp30
 70
     1
102
RTVSPropertyOp31
 70
     1
102
RTVSPropertyOp32
 70
     1
102
RTVSPropertyOp33
 70
     1
102
RTVSPropertyOp34
 70
     1
102
RTVSPropertyOp35
 70
     1
102
RTVSPropertyOp36
 70
     1
102
RTVSPropertyOp37
 70
     0
102
RTVSPropertyOp38
 70
     0
102
RTVSPropertyOp39
 70
     0
102
RTVSPropertyOp40
 70
     0
102
RTVSPropertyOp41
 70
     0
102
RTVSPropertyOp42
 70
     0
102
RTVSPropertyOp43
 70
     0
102
RTVSPropertyOp44
 70
     0
102
RTVSPropertyOp45
 70
     1
102
RTVSPropertyOp46
 70
     0
102
RTVSPropertyOp47
 70
     0
102
RTVSPropertyOp48
 70
     0
102
RTVSPropertyOp49
 70
     1
102
RTVSPropertyOp50
 70
     0
102
RTVSPropertyOp51
 70
     0
102
RTVSPropertyOp52
 70
     0
102
RTVSPropertyOp53
 70
     0
102
RTVSPropertyOp54
 70
     0
102
RTVSPropertyOp55
 70
     1
102
RTVSPropertyOp56
 70
     0
102
RTVSPropertyOp57
 70
     0
102
RTVSPropertyOp58
 70
     1
102
RTVSPropertyOp59
 70
     1
102
RTVSPropertyOp60
 70
     1
102
RTVSPropertyOp61
 70
     1
102
RTVSPropertyOp62
 70
     1
  0
XRECORD
  5
A0AD5
102
{ACAD_REACTORS
330
A0AD4
102
}
330
A0AD4
100
AcDbXrecord
280
     1
102
RTVSPost2010Prop28
280
     0
102
RTVSPost2010PropOp28
 70
     1
102
RTVSPost2010Prop29
280
     1
102
RTVSPost2010PropOp29
 70
     1
102
RTVSPost2010Prop30
280
     1
102
RTVSPost2010PropOp30
 70
     1
102
RTVSPost2010Prop31
280
     0
102
RTVSPost2010PropOp31
 70
     1
102
RTVSPost2010Prop32
280
     0
102
RTVSPost2010PropOp32
 70
     1
102
RTVSPost2010Prop33
280
     0
102
RTVSPost2010PropOp33
 70
     1
102
RTVSPost2010Prop34
280
     0
102
RTVSPost2010PropOp34
 70
     1
102
RTVSPost2010Prop35
280
     0
102
RTVSPost2010PropOp35
 70
     1
102
RTVSPost2010Prop36
280
     0
102
RTVSPost2010PropOp36
 70
     1
102
RTVSPost2010Prop37
 90
       50
102
RTVSPost2010PropOp37
 70
     1
102
RTVSPost2010Prop38
140
0.0
102
RTVSPost2010PropOp38
 70
     1
102
RTVSPost2010Prop39
140
1.0
102
RTVSPost2010PropOp39
 70
     1
102
RTVSPost2010Prop40
 90
        0
102
RTVSPost2010PropOp40
 70
     1
102
RTVSPost2010Prop41ColorIndex
 90
       18
102
RTVSPost2010Prop41ColorRGB
 90
        0
102
RTVSPost2010PropOp41
 70
     1
102
RTVSPost2010Prop42
 90
       50
102
RTVSPost2010PropOp42
 70
     1
102
RTVSPost2010Prop43
 90
        3
102
RTVSPost2010PropOp43
 70
     1
102
RTVSPost2010Prop44ColorIndex
 90
        5
102
RTVSPost2010Prop44ColorRGB
 90
      255
102
RTVSPost2010PropOp44
 70
     1
102
RTVSPost2010Prop45
280
     0
102
RTVSPost2010PropOp45
 70
     1
102
RTVSPost2010Prop46
 90
       50
102
RTVSPost2010PropOp46
 70
     1
102
RTVSPost2010Prop47
 90
       50
102
RTVSPost2010PropOp47
 70
     1
102
RTVSPost2010Prop48
 90
       50
102
RTVSPost2010PropOp48
 70
     1
102
RTVSPost2010Prop49
280
     0
102
RTVSPost2010PropOp49
 70
     1
102
RTVSPost2010Prop50
 90
       50
102
RTVSPost2010PropOp50
 70
     1
102
RTVSPost2010Prop51ColorIndex
 90
      256
102
RTVSPost2010Prop51ColorRGB
 90
-16777216
102
RTVSPost2010PropOp51
 70
     0
102
RTVSPost2010Prop52
140
1.0
102
RTVSPost2010PropOp52
 70
     0
102
RTVSPost2010Prop53
 90
        2
102
RTVSPost2010PropOp53
 70
     1
102
RTVSPost2010Prop54
  1
strokes_ogs.tif
102
RTVSPost2010PropOp54
 70
     1
102
RTVSPost2010Prop55
280
     0
102
RTVSPost2010PropOp55
 70
     1
102
RTVSPost2010Prop56
140
1.0
102
RTVSPost2010PropOp56
 70
     1
102
RTVSPost2010Prop57
140
1.0
102
RTVSPost2010PropOp57
 70
     1
102
RTVSPropertyOp0
 70
     1
102
RTVSPropertyOp1
 70
     1
102
RTVSPropertyOp2
 70
     1
102
RTVSPropertyOp3
 70
     1
102
RTVSPropertyOp4
 70
     1
102
RTVSPropertyOp5
 70
     1
102
RTVSPropertyOp6
 70
     1
102
RTVSPropertyOp7
 70
     1
102
RTVSPropertyOp8
 70
     1
102
RTVSPropertyOp9
 70
     1
102
RTVSPropertyOp10
 70
     1
102
RTVSPropertyOp11
 70
     1
102
RTVSPropertyOp12
 70
     1
102
RTVSPropertyOp13
 70
     1
102
RTVSPropertyOp14
 70
     1
102
RTVSPropertyOp15
 70
     1
102
RTVSPropertyOp16
 70
     1
102
RTVSPropertyOp17
 70
     1
102
RTVSPropertyOp18
 70
     1
102
RTVSPropertyOp19
 70
     1
102
RTVSPropertyOp20
 70
     1
102
RTVSPropertyOp21
 70
     1
102
RTVSPropertyOp22
 70
     1
102
RTVSPropertyOp23
 70
     1
102
RTVSPropertyOp24
 70
     1
102
RTVSPropertyOp25
 70
     1
102
RTVSPropertyOp26
 70
     1
102
RTVSPropertyOp27
 70
     1
102
RTVSPropertyOp28
 70
     1
102
RTVSPropertyOp29
 70
     1
102
RTVSPropertyOp30
 70
     1
102
RTVSPropertyOp31
 70
     1
102
RTVSPropertyOp32
 70
     1
102
RTVSPropertyOp33
 70
     1
102
RTVSPropertyOp34
 70
     1
102
RTVSPropertyOp35
 70
     1
102
RTVSPropertyOp36
 70
     1
102
RTVSPropertyOp37
 70
     1
102
RTVSPropertyOp38
 70
     1
102
RTVSPropertyOp39
 70
     1
102
RTVSPropertyOp40
 70
     1
102
RTVSPropertyOp41
 70
     1
102
RTVSPropertyOp42
 70
     1
102
RTVSPropertyOp43
 70
     1
102
RTVSPropertyOp44
 70
     1
102
RTVSPropertyOp45
 70
     1
102
RTVSPropertyOp46
 70
     1
102
RTVSPropertyOp47
 70
     1
102
RTVSPropertyOp48
 70
     1
102
RTVSPropertyOp49
 70
     1
102
RTVSPropertyOp50
 70
     1
102
RTVSPropertyOp51
 70
     0
102
RTVSPropertyOp52
 70
     0
102
RTVSPropertyOp53
 70
     1
102
RTVSPropertyOp54
 70
     1
102
RTVSPropertyOp55
 70
     1
102
RTVSPropertyOp56
 70
     1
102
RTVSPropertyOp57
 70
     1
102
RTVSPropertyOp58
 70
     1
102
RTVSPropertyOp59
 70
     1
102
RTVSPropertyOp60
 70
     1
102
RTVSPropertyOp61
 70
     1
102
RTVSPropertyOp62
 70
     1
  0
XRECORD
  5
A0AB9
102
{ACAD_REACTORS
330
A0AB8
102
}
330
A0AB8
100
AcDbXrecord
280
     1
102
RTVSPost2010Prop28
280
     0
102
RTVSPost2010PropOp28
 70
     1
102
RTVSPost2010Prop29
280
     1
102
RTVSPost2010PropOp29
 70
     1
102
RTVSPost2010Prop30
280
     1
102
RTVSPost2010PropOp30
 70
     1
102
RTVSPost2010Prop31
280
     0
102
RTVSPost2010PropOp31
 70
     1
102
RTVSPost2010Prop32
280
     0
102
RTVSPost2010PropOp32
 70
     1
102
RTVSPost2010Prop33
280
     0
102
RTVSPost2010PropOp33
 70
     1
102
RTVSPost2010Prop34
280
     0
102
RTVSPost2010PropOp34
 70
     1
102
RTVSPost2010Prop35
280
     0
102
RTVSPost2010PropOp35
 70
     1
102
RTVSPost2010Prop36
280
     0
102
RTVSPost2010PropOp36
 70
     1
102
RTVSPost2010Prop37
 90
       50
102
RTVSPost2010PropOp37
 70
     1
102
RTVSPost2010Prop38
140
0.0
102
RTVSPost2010PropOp38
 70
     1
102
RTVSPost2010Prop39
140
1.0
102
RTVSPost2010PropOp39
 70
     1
102
RTVSPost2010Prop40
 90
        0
102
RTVSPost2010PropOp40
 70
     1
102
RTVSPost2010Prop41ColorIndex
 90
       18
102
RTVSPost2010Prop41ColorRGB
 90
        0
102
RTVSPost2010PropOp41
 70
     1
102
RTVSPost2010Prop42
 90
       50
102
RTVSPost2010PropOp42
 70
     1
102
RTVSPost2010Prop43
 90
        3
102
RTVSPost2010PropOp43
 70
     1
102
RTVSPost2010Prop44ColorIndex
 90
        5
102
RTVSPost2010Prop44ColorRGB
 90
      255
102
RTVSPost2010PropOp44
 70
     1
102
RTVSPost2010Prop45
280
     0
102
RTVSPost2010PropOp45
 70
     1
102
RTVSPost2010Prop46
 90
       50
102
RTVSPost2010PropOp46
 70
     1
102
RTVSPost2010Prop47
 90
       50
102
RTVSPost2010PropOp47
 70
     1
102
RTVSPost2010Prop48
 90
       50
102
RTVSPost2010PropOp48
 70
     1
102
RTVSPost2010Prop49
280
     0
102
RTVSPost2010PropOp49
 70
     1
102
RTVSPost2010Prop50
 90
       50
102
RTVSPost2010PropOp50
 70
     1
102
RTVSPost2010Prop51ColorIndex
 90
      256
102
RTVSPost2010Prop51ColorRGB
 90
-16777216
102
RTVSPost2010PropOp51
 70
     0
102
RTVSPost2010Prop52
140
1.0
102
RTVSPost2010PropOp52
 70
     0
102
RTVSPost2010Prop53
 90
        2
102
RTVSPost2010PropOp53
 70
     1
102
RTVSPost2010Prop54
  1
strokes_ogs.tif
102
RTVSPost2010PropOp54
 70
     1
102
RTVSPost2010Prop55
280
     0
102
RTVSPost2010PropOp55
 70
     1
102
RTVSPost2010Prop56
140
1.0
102
RTVSPost2010PropOp56
 70
     1
102
RTVSPost2010Prop57
140
1.0
102
RTVSPost2010PropOp57
 70
     1
102
RTVSPropertyOp0
 70
     1
102
RTVSPropertyOp1
 70
     1
102
RTVSPropertyOp2
 70
     1
102
RTVSPropertyOp3
 70
     1
102
RTVSPropertyOp4
 70
     1
102
RTVSPropertyOp5
 70
     1
102
RTVSPropertyOp6
 70
     1
102
RTVSPropertyOp7
 70
     1
102
RTVSPropertyOp8
 70
     1
102
RTVSPropertyOp9
 70
     1
102
RTVSPropertyOp10
 70
     1
102
RTVSPropertyOp11
 70
     1
102
RTVSPropertyOp12
 70
     1
102
RTVSPropertyOp13
 70
     1
102
RTVSPropertyOp14
 70
     1
102
RTVSPropertyOp15
 70
     1
102
RTVSPropertyOp16
 70
     1
102
RTVSPropertyOp17
 70
     1
102
RTVSPropertyOp18
 70
     1
102
RTVSPropertyOp19
 70
     1
102
RTVSPropertyOp20
 70
     1
102
RTVSPropertyOp21
 70
     1
102
RTVSPropertyOp22
 70
     1
102
RTVSPropertyOp23
 70
     1
102
RTVSPropertyOp24
 70
     1
102
RTVSPropertyOp25
 70
     1
102
RTVSPropertyOp26
 70
     1
102
RTVSPropertyOp27
 70
     1
102
RTVSPropertyOp28
 70
     1
102
RTVSPropertyOp29
 70
     1
102
RTVSPropertyOp30
 70
     1
102
RTVSPropertyOp31
 70
     1
102
RTVSPropertyOp32
 70
     1
102
RTVSPropertyOp33
 70
     1
102
RTVSPropertyOp34
 70
     1
102
RTVSPropertyOp35
 70
     1
102
RTVSPropertyOp36
 70
     1
102
RTVSPropertyOp37
 70
     1
102
RTVSPropertyOp38
 70
     1
102
RTVSPropertyOp39
 70
     1
102
RTVSPropertyOp40
 70
     1
102
RTVSPropertyOp41
 70
     1
102
RTVSPropertyOp42
 70
     1
102
RTVSPropertyOp43
 70
     1
102
RTVSPropertyOp44
 70
     1
102
RTVSPropertyOp45
 70
     1
102
RTVSPropertyOp46
 70
     1
102
RTVSPropertyOp47
 70
     1
102
RTVSPropertyOp48
 70
     1
102
RTVSPropertyOp49
 70
     1
102
RTVSPropertyOp50
 70
     1
102
RTVSPropertyOp51
 70
     0
102
RTVSPropertyOp52
 70
     0
102
RTVSPropertyOp53
 70
     1
102
RTVSPropertyOp54
 70
     1
102
RTVSPropertyOp55
 70
     1
102
RTVSPropertyOp56
 70
     1
102
RTVSPropertyOp57
 70
     1
102
RTVSPropertyOp58
 70
     1
102
RTVSPropertyOp59
 70
     1
102
RTVSPropertyOp60
 70
     1
102
RTVSPropertyOp61
 70
     1
102
RTVSPropertyOp62
 70
     1
  0
XRECORD
  5
A0ABB
102
{ACAD_REACTORS
330
A0ABA
102
}
330
A0ABA
100
AcDbXrecord
280
     1
102
RTVSPost2010Prop28
280
     0
102
RTVSPost2010PropOp28
 70
     1
102
RTVSPost2010Prop29
280
     1
102
RTVSPost2010PropOp29
 70
     1
102
RTVSPost2010Prop30
280
     1
102
RTVSPost2010PropOp30
 70
     1
102
RTVSPost2010Prop31
280
     0
102
RTVSPost2010PropOp31
 70
     1
102
RTVSPost2010Prop32
280
     0
102
RTVSPost2010PropOp32
 70
     1
102
RTVSPost2010Prop33
280
     0
102
RTVSPost2010PropOp33
 70
     1
102
RTVSPost2010Prop34
280
     0
102
RTVSPost2010PropOp34
 70
     1
102
RTVSPost2010Prop35
280
     0
102
RTVSPost2010PropOp35
 70
     1
102
RTVSPost2010Prop36
280
     0
102
RTVSPost2010PropOp36
 70
     1
102
RTVSPost2010Prop37
 90
       50
102
RTVSPost2010PropOp37
 70
     1
102
RTVSPost2010Prop38
140
0.0
102
RTVSPost2010PropOp38
 70
     1
102
RTVSPost2010Prop39
140
1.0
102
RTVSPost2010PropOp39
 70
     1
102
RTVSPost2010Prop40
 90
        0
102
RTVSPost2010PropOp40
 70
     1
102
RTVSPost2010Prop41ColorIndex
 90
       18
102
RTVSPost2010Prop41ColorRGB
 90
        0
102
RTVSPost2010PropOp41
 70
     1
102
RTVSPost2010Prop42
 90
       50
102
RTVSPost2010PropOp42
 70
     1
102
RTVSPost2010Prop43
 90
        3
102
RTVSPost2010PropOp43
 70
     1
102
RTVSPost2010Prop44ColorIndex
 90
        5
102
RTVSPost2010Prop44ColorRGB
 90
      255
102
RTVSPost2010PropOp44
 70
     1
102
RTVSPost2010Prop45
280
     0
102
RTVSPost2010PropOp45
 70
     1
102
RTVSPost2010Prop46
 90
       50
102
RTVSPost2010PropOp46
 70
     1
102
RTVSPost2010Prop47
 90
       50
102
RTVSPost2010PropOp47
 70
     1
102
RTVSPost2010Prop48
 90
       50
102
RTVSPost2010PropOp48
 70
     1
102
RTVSPost2010Prop49
280
     0
102
RTVSPost2010PropOp49
 70
     1
102
RTVSPost2010Prop50
 90
       50
102
RTVSPost2010PropOp50
 70
     1
102
RTVSPost2010Prop51ColorIndex
 90
      256
102
RTVSPost2010Prop51ColorRGB
 90
-16777216
102
RTVSPost2010PropOp51
 70
     0
102
RTVSPost2010Prop52
140
1.0
102
RTVSPost2010PropOp52
 70
     0
102
RTVSPost2010Prop53
 90
        2
102
RTVSPost2010PropOp53
 70
     1
102
RTVSPost2010Prop54
  1
strokes_ogs.tif
102
RTVSPost2010PropOp54
 70
     1
102
RTVSPost2010Prop55
280
     0
102
RTVSPost2010PropOp55
 70
     1
102
RTVSPost2010Prop56
140
1.0
102
RTVSPost2010PropOp56
 70
     1
102
RTVSPost2010Prop57
140
1.0
102
RTVSPost2010PropOp57
 70
     1
102
RTVSPropertyOp0
 70
     1
102
RTVSPropertyOp1
 70
     1
102
RTVSPropertyOp2
 70
     1
102
RTVSPropertyOp3
 70
     1
102
RTVSPropertyOp4
 70
     1
102
RTVSPropertyOp5
 70
     1
102
RTVSPropertyOp6
 70
     1
102
RTVSPropertyOp7
 70
     1
102
RTVSPropertyOp8
 70
     1
102
RTVSPropertyOp9
 70
     1
102
RTVSPropertyOp10
 70
     1
102
RTVSPropertyOp11
 70
     1
102
RTVSPropertyOp12
 70
     1
102
RTVSPropertyOp13
 70
     1
102
RTVSPropertyOp14
 70
     1
102
RTVSPropertyOp15
 70
     1
102
RTVSPropertyOp16
 70
     1
102
RTVSPropertyOp17
 70
     1
102
RTVSPropertyOp18
 70
     1
102
RTVSPropertyOp19
 70
     1
102
RTVSPropertyOp20
 70
     1
102
RTVSPropertyOp21
 70
     1
102
RTVSPropertyOp22
 70
     1
102
RTVSPropertyOp23
 70
     1
102
RTVSPropertyOp24
 70
     1
102
RTVSPropertyOp25
 70
     1
102
RTVSPropertyOp26
 70
     1
102
RTVSPropertyOp27
 70
     1
102
RTVSPropertyOp28
 70
     1
102
RTVSPropertyOp29
 70
     1
102
RTVSPropertyOp30
 70
     1
102
RTVSPropertyOp31
 70
     1
102
RTVSPropertyOp32
 70
     1
102
RTVSPropertyOp33
 70
     1
102
RTVSPropertyOp34
 70
     1
102
RTVSPropertyOp35
 70
     1
102
RTVSPropertyOp36
 70
     1
102
RTVSPropertyOp37
 70
     1
102
RTVSPropertyOp38
 70
     1
102
RTVSPropertyOp39
 70
     1
102
RTVSPropertyOp40
 70
     1
102
RTVSPropertyOp41
 70
     1
102
RTVSPropertyOp42
 70
     1
102
RTVSPropertyOp43
 70
     1
102
RTVSPropertyOp44
 70
     1
102
RTVSPropertyOp45
 70
     1
102
RTVSPropertyOp46
 70
     1
102
RTVSPropertyOp47
 70
     1
102
RTVSPropertyOp48
 70
     1
102
RTVSPropertyOp49
 70
     1
102
RTVSPropertyOp50
 70
     1
102
RTVSPropertyOp51
 70
     0
102
RTVSPropertyOp52
 70
     0
102
RTVSPropertyOp53
 70
     1
102
RTVSPropertyOp54
 70
     1
102
RTVSPropertyOp55
 70
     1
102
RTVSPropertyOp56
 70
     1
102
RTVSPropertyOp57
 70
     1
102
RTVSPropertyOp58
 70
     1
102
RTVSPropertyOp59
 70
     1
102
RTVSPropertyOp60
 70
     1
102
RTVSPropertyOp61
 70
     1
102
RTVSPropertyOp62
 70
     1
  0
XRECORD
  5
A0ABD
102
{ACAD_REACTORS
330
A0ABC
102
}
330
A0ABC
100
AcDbXrecord
280
     1
102
RTVSPost2010Prop28
280
     0
102
RTVSPost2010PropOp28
 70
     1
102
RTVSPost2010Prop29
280
     1
102
RTVSPost2010PropOp29
 70
     1
102
RTVSPost2010Prop30
280
     1
102
RTVSPost2010PropOp30
 70
     1
102
RTVSPost2010Prop31
280
     0
102
RTVSPost2010PropOp31
 70
     1
102
RTVSPost2010Prop32
280
     0
102
RTVSPost2010PropOp32
 70
     1
102
RTVSPost2010Prop33
280
     0
102
RTVSPost2010PropOp33
 70
     1
102
RTVSPost2010Prop34
280
     0
102
RTVSPost2010PropOp34
 70
     1
102
RTVSPost2010Prop35
280
     0
102
RTVSPost2010PropOp35
 70
     1
102
RTVSPost2010Prop36
280
     0
102
RTVSPost2010PropOp36
 70
     1
102
RTVSPost2010Prop37
 90
       50
102
RTVSPost2010PropOp37
 70
     1
102
RTVSPost2010Prop38
140
0.0
102
RTVSPost2010PropOp38
 70
     1
102
RTVSPost2010Prop39
140
1.0
102
RTVSPost2010PropOp39
 70
     1
102
RTVSPost2010Prop40
 90
        0
102
RTVSPost2010PropOp40
 70
     1
102
RTVSPost2010Prop41ColorIndex
 90
       18
102
RTVSPost2010Prop41ColorRGB
 90
        0
102
RTVSPost2010PropOp41
 70
     1
102
RTVSPost2010Prop42
 90
       50
102
RTVSPost2010PropOp42
 70
     1
102
RTVSPost2010Prop43
 90
        3
102
RTVSPost2010PropOp43
 70
     1
102
RTVSPost2010Prop44ColorIndex
 90
        5
102
RTVSPost2010Prop44ColorRGB
 90
      255
102
RTVSPost2010PropOp44
 70
     1
102
RTVSPost2010Prop45
280
     0
102
RTVSPost2010PropOp45
 70
     1
102
RTVSPost2010Prop46
 90
       50
102
RTVSPost2010PropOp46
 70
     1
102
RTVSPost2010Prop47
 90
       50
102
RTVSPost2010PropOp47
 70
     1
102
RTVSPost2010Prop48
 90
       50
102
RTVSPost2010PropOp48
 70
     1
102
RTVSPost2010Prop49
280
     0
102
RTVSPost2010PropOp49
 70
     1
102
RTVSPost2010Prop50
 90
       50
102
RTVSPost2010PropOp50
 70
     1
102
RTVSPost2010Prop51ColorIndex
 90
      256
102
RTVSPost2010Prop51ColorRGB
 90
-16777216
102
RTVSPost2010PropOp51
 70
     0
102
RTVSPost2010Prop52
140
1.0
102
RTVSPost2010PropOp52
 70
     0
102
RTVSPost2010Prop53
 90
        2
102
RTVSPost2010PropOp53
 70
     1
102
RTVSPost2010Prop54
  1
strokes_ogs.tif
102
RTVSPost2010PropOp54
 70
     1
102
RTVSPost2010Prop55
280
     0
102
RTVSPost2010PropOp55
 70
     1
102
RTVSPost2010Prop56
140
1.0
102
RTVSPost2010PropOp56
 70
     1
102
RTVSPost2010Prop57
140
1.0
102
RTVSPost2010PropOp57
 70
     1
102
RTVSPropertyOp0
 70
     1
102
RTVSPropertyOp1
 70
     1
102
RTVSPropertyOp2
 70
     1
102
RTVSPropertyOp3
 70
     1
102
RTVSPropertyOp4
 70
     1
102
RTVSPropertyOp5
 70
     1
102
RTVSPropertyOp6
 70
     1
102
RTVSPropertyOp7
 70
     1
102
RTVSPropertyOp8
 70
     1
102
RTVSPropertyOp9
 70
     1
102
RTVSPropertyOp10
 70
     1
102
RTVSPropertyOp11
 70
     1
102
RTVSPropertyOp12
 70
     1
102
RTVSPropertyOp13
 70
     1
102
RTVSPropertyOp14
 70
     1
102
RTVSPropertyOp15
 70
     1
102
RTVSPropertyOp16
 70
     1
102
RTVSPropertyOp17
 70
     1
102
RTVSPropertyOp18
 70
     1
102
RTVSPropertyOp19
 70
     1
102
RTVSPropertyOp20
 70
     1
102
RTVSPropertyOp21
 70
     1
102
RTVSPropertyOp22
 70
     1
102
RTVSPropertyOp23
 70
     1
102
RTVSPropertyOp24
 70
     1
102
RTVSPropertyOp25
 70
     1
102
RTVSPropertyOp26
 70
     1
102
RTVSPropertyOp27
 70
     1
102
RTVSPropertyOp28
 70
     1
102
RTVSPropertyOp29
 70
     1
102
RTVSPropertyOp30
 70
     1
102
RTVSPropertyOp31
 70
     1
102
RTVSPropertyOp32
 70
     1
102
RTVSPropertyOp33
 70
     1
102
RTVSPropertyOp34
 70
     1
102
RTVSPropertyOp35
 70
     1
102
RTVSPropertyOp36
 70
     1
102
RTVSPropertyOp37
 70
     1
102
RTVSPropertyOp38
 70
     1
102
RTVSPropertyOp39
 70
     1
102
RTVSPropertyOp40
 70
     1
102
RTVSPropertyOp41
 70
     1
102
RTVSPropertyOp42
 70
     1
102
RTVSPropertyOp43
 70
     1
102
RTVSPropertyOp44
 70
     1
102
RTVSPropertyOp45
 70
     1
102
RTVSPropertyOp46
 70
     1
102
RTVSPropertyOp47
 70
     1
102
RTVSPropertyOp48
 70
     1
102
RTVSPropertyOp49
 70
     1
102
RTVSPropertyOp50
 70
     1
102
RTVSPropertyOp51
 70
     0
102
RTVSPropertyOp52
 70
     0
102
RTVSPropertyOp53
 70
     1
102
RTVSPropertyOp54
 70
     1
102
RTVSPropertyOp55
 70
     1
102
RTVSPropertyOp56
 70
     1
102
RTVSPropertyOp57
 70
     1
102
RTVSPropertyOp58
 70
     1
102
RTVSPropertyOp59
 70
     1
102
RTVSPropertyOp60
 70
     1
102
RTVSPropertyOp61
 70
     1
102
RTVSPropertyOp62
 70
     1
  0
XRECORD
  5
A0ABF
102
{ACAD_REACTORS
330
A0ABE
102
}
330
A0ABE
100
AcDbXrecord
280
     1
102
RTVSPost2010Prop28
280
     0
102
RTVSPost2010PropOp28
 70
     1
102
RTVSPost2010Prop29
280
     1
102
RTVSPost2010PropOp29
 70
     1
102
RTVSPost2010Prop30
280
     1
102
RTVSPost2010PropOp30
 70
     1
102
RTVSPost2010Prop31
280
     0
102
RTVSPost2010PropOp31
 70
     1
102
RTVSPost2010Prop32
280
     0
102
RTVSPost2010PropOp32
 70
     1
102
RTVSPost2010Prop33
280
     0
102
RTVSPost2010PropOp33
 70
     1
102
RTVSPost2010Prop34
280
     0
102
RTVSPost2010PropOp34
 70
     1
102
RTVSPost2010Prop35
280
     0
102
RTVSPost2010PropOp35
 70
     1
102
RTVSPost2010Prop36
280
     0
102
RTVSPost2010PropOp36
 70
     1
102
RTVSPost2010Prop37
 90
       50
102
RTVSPost2010PropOp37
 70
     1
102
RTVSPost2010Prop38
140
0.0
102
RTVSPost2010PropOp38
 70
     1
102
RTVSPost2010Prop39
140
1.0
102
RTVSPost2010PropOp39
 70
     1
102
RTVSPost2010Prop40
 90
        0
102
RTVSPost2010PropOp40
 70
     1
102
RTVSPost2010Prop41ColorIndex
 90
       18
102
RTVSPost2010Prop41ColorRGB
 90
        0
102
RTVSPost2010PropOp41
 70
     1
102
RTVSPost2010Prop42
 90
       50
102
RTVSPost2010PropOp42
 70
     1
102
RTVSPost2010Prop43
 90
        3
102
RTVSPost2010PropOp43
 70
     1
102
RTVSPost2010Prop44ColorIndex
 90
        5
102
RTVSPost2010Prop44ColorRGB
 90
      255
102
RTVSPost2010PropOp44
 70
     1
102
RTVSPost2010Prop45
280
     0
102
RTVSPost2010PropOp45
 70
     1
102
RTVSPost2010Prop46
 90
       50
102
RTVSPost2010PropOp46
 70
     1
102
RTVSPost2010Prop47
 90
       50
102
RTVSPost2010PropOp47
 70
     1
102
RTVSPost2010Prop48
 90
       50
102
RTVSPost2010PropOp48
 70
     1
102
RTVSPost2010Prop49
280
     0
102
RTVSPost2010PropOp49
 70
     1
102
RTVSPost2010Prop50
 90
       50
102
RTVSPost2010PropOp50
 70
     1
102
RTVSPost2010Prop51ColorIndex
 90
      256
102
RTVSPost2010Prop51ColorRGB
 90
-16777216
102
RTVSPost2010PropOp51
 70
     0
102
RTVSPost2010Prop52
140
1.0
102
RTVSPost2010PropOp52
 70
     0
102
RTVSPost2010Prop53
 90
        2
102
RTVSPost2010PropOp53
 70
     1
102
RTVSPost2010Prop54
  1
strokes_ogs.tif
102
RTVSPost2010PropOp54
 70
     1
102
RTVSPost2010Prop55
280
     0
102
RTVSPost2010PropOp55
 70
     1
102
RTVSPost2010Prop56
140
1.0
102
RTVSPost2010PropOp56
 70
     1
102
RTVSPost2010Prop57
140
1.0
102
RTVSPost2010PropOp57
 70
     1
102
RTVSPropertyOp0
 70
     1
102
RTVSPropertyOp1
 70
     1
102
RTVSPropertyOp2
 70
     1
102
RTVSPropertyOp3
 70
     1
102
RTVSPropertyOp4
 70
     1
102
RTVSPropertyOp5
 70
     1
102
RTVSPropertyOp6
 70
     1
102
RTVSPropertyOp7
 70
     1
102
RTVSPropertyOp8
 70
     1
102
RTVSPropertyOp9
 70
     1
102
RTVSPropertyOp10
 70
     1
102
RTVSPropertyOp11
 70
     1
102
RTVSPropertyOp12
 70
     1
102
RTVSPropertyOp13
 70
     1
102
RTVSPropertyOp14
 70
     1
102
RTVSPropertyOp15
 70
     1
102
RTVSPropertyOp16
 70
     1
102
RTVSPropertyOp17
 70
     1
102
RTVSPropertyOp18
 70
     1
102
RTVSPropertyOp19
 70
     1
102
RTVSPropertyOp20
 70
     1
102
RTVSPropertyOp21
 70
     1
102
RTVSPropertyOp22
 70
     1
102
RTVSPropertyOp23
 70
     1
102
RTVSPropertyOp24
 70
     1
102
RTVSPropertyOp25
 70
     1
102
RTVSPropertyOp26
 70
     1
102
RTVSPropertyOp27
 70
     1
102
RTVSPropertyOp28
 70
     1
102
RTVSPropertyOp29
 70
     1
102
RTVSPropertyOp30
 70
     1
102
RTVSPropertyOp31
 70
     1
102
RTVSPropertyOp32
 70
     1
102
RTVSPropertyOp33
 70
     1
102
RTVSPropertyOp34
 70
     1
102
RTVSPropertyOp35
 70
     1
102
RTVSPropertyOp36
 70
     1
102
RTVSPropertyOp37
 70
     1
102
RTVSPropertyOp38
 70
     1
102
RTVSPropertyOp39
 70
     1
102
RTVSPropertyOp40
 70
     1
102
RTVSPropertyOp41
 70
     1
102
RTVSPropertyOp42
 70
     1
102
RTVSPropertyOp43
 70
     1
102
RTVSPropertyOp44
 70
     1
102
RTVSPropertyOp45
 70
     1
102
RTVSPropertyOp46
 70
     1
102
RTVSPropertyOp47
 70
     1
102
RTVSPropertyOp48
 70
     1
102
RTVSPropertyOp49
 70
     1
102
RTVSPropertyOp50
 70
     1
102
RTVSPropertyOp51
 70
     0
102
RTVSPropertyOp52
 70
     0
102
RTVSPropertyOp53
 70
     1
102
RTVSPropertyOp54
 70
     1
102
RTVSPropertyOp55
 70
     1
102
RTVSPropertyOp56
 70
     1
102
RTVSPropertyOp57
 70
     1
102
RTVSPropertyOp58
 70
     1
102
RTVSPropertyOp59
 70
     1
102
RTVSPropertyOp60
 70
     1
102
RTVSPropertyOp61
 70
     1
102
RTVSPropertyOp62
 70
     1
  0
XRECORD
  5
A0AC7
102
{ACAD_REACTORS
330
A0AC6
102
}
330
A0AC6
100
AcDbXrecord
280
     1
102
RTVSPost2010Prop28
280
     0
102
RTVSPost2010PropOp28
 70
     1
102
RTVSPost2010Prop29
280
     1
102
RTVSPost2010PropOp29
 70
     1
102
RTVSPost2010Prop30
280
     1
102
RTVSPost2010PropOp30
 70
     1
102
RTVSPost2010Prop31
280
     0
102
RTVSPost2010PropOp31
 70
     1
102
RTVSPost2010Prop32
280
     0
102
RTVSPost2010PropOp32
 70
     1
102
RTVSPost2010Prop33
280
     0
102
RTVSPost2010PropOp33
 70
     1
102
RTVSPost2010Prop34
280
     0
102
RTVSPost2010PropOp34
 70
     1
102
RTVSPost2010Prop35
280
     0
102
RTVSPost2010PropOp35
 70
     1
102
RTVSPost2010Prop36
280
     0
102
RTVSPost2010PropOp36
 70
     1
102
RTVSPost2010Prop37
 90
       50
102
RTVSPost2010PropOp37
 70
     1
102
RTVSPost2010Prop38
140
0.0
102
RTVSPost2010PropOp38
 70
     1
102
RTVSPost2010Prop39
140
1.0
102
RTVSPost2010PropOp39
 70
     1
102
RTVSPost2010Prop40
 90
        0
102
RTVSPost2010PropOp40
 70
     1
102
RTVSPost2010Prop41ColorIndex
 90
       18
102
RTVSPost2010Prop41ColorRGB
 90
        0
102
RTVSPost2010PropOp41
 70
     1
102
RTVSPost2010Prop42
 90
       50
102
RTVSPost2010PropOp42
 70
     1
102
RTVSPost2010Prop43
 90
        3
102
RTVSPost2010PropOp43
 70
     1
102
RTVSPost2010Prop44ColorIndex
 90
        5
102
RTVSPost2010Prop44ColorRGB
 90
      255
102
RTVSPost2010PropOp44
 70
     1
102
RTVSPost2010Prop45
280
     0
102
RTVSPost2010PropOp45
 70
     1
102
RTVSPost2010Prop46
 90
       50
102
RTVSPost2010PropOp46
 70
     1
102
RTVSPost2010Prop47
 90
       50
102
RTVSPost2010PropOp47
 70
     1
102
RTVSPost2010Prop48
 90
       50
102
RTVSPost2010PropOp48
 70
     1
102
RTVSPost2010Prop49
280
     0
102
RTVSPost2010PropOp49
 70
     1
102
RTVSPost2010Prop50
 90
       50
102
RTVSPost2010PropOp50
 70
     1
102
RTVSPost2010Prop51ColorIndex
 90
      256
102
RTVSPost2010Prop51ColorRGB
 90
-16777216
102
RTVSPost2010PropOp51
 70
     0
102
RTVSPost2010Prop52
140
1.0
102
RTVSPost2010PropOp52
 70
     0
102
RTVSPost2010Prop53
 90
        2
102
RTVSPost2010PropOp53
 70
     1
102
RTVSPost2010Prop54
  1
strokes_ogs.tif
102
RTVSPost2010PropOp54
 70
     1
102
RTVSPost2010Prop55
280
     0
102
RTVSPost2010PropOp55
 70
     1
102
RTVSPost2010Prop56
140
1.0
102
RTVSPost2010PropOp56
 70
     1
102
RTVSPost2010Prop57
140
1.0
102
RTVSPost2010PropOp57
 70
     1
102
RTVSPropertyOp0
 70
     1
102
RTVSPropertyOp1
 70
     1
102
RTVSPropertyOp2
 70
     1
102
RTVSPropertyOp3
 70
     1
102
RTVSPropertyOp4
 70
     1
102
RTVSPropertyOp5
 70
     1
102
RTVSPropertyOp6
 70
     1
102
RTVSPropertyOp7
 70
     1
102
RTVSPropertyOp8
 70
     1
102
RTVSPropertyOp9
 70
     1
102
RTVSPropertyOp10
 70
     1
102
RTVSPropertyOp11
 70
     1
102
RTVSPropertyOp12
 70
     1
102
RTVSPropertyOp13
 70
     1
102
RTVSPropertyOp14
 70
     1
102
RTVSPropertyOp15
 70
     1
102
RTVSPropertyOp16
 70
     1
102
RTVSPropertyOp17
 70
     1
102
RTVSPropertyOp18
 70
     1
102
RTVSPropertyOp19
 70
     1
102
RTVSPropertyOp20
 70
     1
102
RTVSPropertyOp21
 70
     1
102
RTVSPropertyOp22
 70
     1
102
RTVSPropertyOp23
 70
     1
102
RTVSPropertyOp24
 70
     1
102
RTVSPropertyOp25
 70
     1
102
RTVSPropertyOp26
 70
     1
102
RTVSPropertyOp27
 70
     1
102
RTVSPropertyOp28
 70
     1
102
RTVSPropertyOp29
 70
     1
102
RTVSPropertyOp30
 70
     1
102
RTVSPropertyOp31
 70
     1
102
RTVSPropertyOp32
 70
     1
102
RTVSPropertyOp33
 70
     1
102
RTVSPropertyOp34
 70
     1
102
RTVSPropertyOp35
 70
     1
102
RTVSPropertyOp36
 70
     1
102
RTVSPropertyOp37
 70
     1
102
RTVSPropertyOp38
 70
     1
102
RTVSPropertyOp39
 70
     1
102
RTVSPropertyOp40
 70
     1
102
RTVSPropertyOp41
 70
     1
102
RTVSPropertyOp42
 70
     1
102
RTVSPropertyOp43
 70
     1
102
RTVSPropertyOp44
 70
     1
102
RTVSPropertyOp45
 70
     1
102
RTVSPropertyOp46
 70
     1
102
RTVSPropertyOp47
 70
     1
102
RTVSPropertyOp48
 70
     1
102
RTVSPropertyOp49
 70
     1
102
RTVSPropertyOp50
 70
     1
102
RTVSPropertyOp51
 70
     0
102
RTVSPropertyOp52
 70
     0
102
RTVSPropertyOp53
 70
     1
102
RTVSPropertyOp54
 70
     1
102
RTVSPropertyOp55
 70
     1
102
RTVSPropertyOp56
 70
     1
102
RTVSPropertyOp57
 70
     1
102
RTVSPropertyOp58
 70
     1
102
RTVSPropertyOp59
 70
     1
102
RTVSPropertyOp60
 70
     1
102
RTVSPropertyOp61
 70
     1
102
RTVSPropertyOp62
 70
     1
  0
XRECORD
  5
A0AE3
102
{ACAD_REACTORS
330
A0AE2
102
}
330
A0AE2
100
AcDbXrecord
280
     1
102
RTVSPost2010Prop28
280
     0
102
RTVSPost2010PropOp28
 70
     1
102
RTVSPost2010Prop29
280
     1
102
RTVSPost2010PropOp29
 70
     1
102
RTVSPost2010Prop30
280
     1
102
RTVSPost2010PropOp30
 70
     1
102
RTVSPost2010Prop31
280
     0
102
RTVSPost2010PropOp31
 70
     1
102
RTVSPost2010Prop32
280
     0
102
RTVSPost2010PropOp32
 70
     1
102
RTVSPost2010Prop33
280
     0
102
RTVSPost2010PropOp33
 70
     1
102
RTVSPost2010Prop34
280
     0
102
RTVSPost2010PropOp34
 70
     1
102
RTVSPost2010Prop35
280
     0
102
RTVSPost2010PropOp35
 70
     1
102
RTVSPost2010Prop36
280
     0
102
RTVSPost2010PropOp36
 70
     1
102
RTVSPost2010Prop37
 90
       50
102
RTVSPost2010PropOp37
 70
     0
102
RTVSPost2010Prop38
140
0.0
102
RTVSPost2010PropOp38
 70
     0
102
RTVSPost2010Prop39
140
1.0
102
RTVSPost2010PropOp39
 70
     0
102
RTVSPost2010Prop40
 90
        0
102
RTVSPost2010PropOp40
 70
     0
102
RTVSPost2010Prop41ColorIndex
 90
       18
102
RTVSPost2010Prop41ColorRGB
 90
        0
102
RTVSPost2010PropOp41
 70
     0
102
RTVSPost2010Prop42
 90
       50
102
RTVSPost2010PropOp42
 70
     0
102
RTVSPost2010Prop43
 90
        3
102
RTVSPost2010PropOp43
 70
     0
102
RTVSPost2010Prop44ColorIndex
 90
        5
102
RTVSPost2010Prop44ColorRGB
 90
      255
102
RTVSPost2010PropOp44
 70
     0
102
RTVSPost2010Prop45
280
     0
102
RTVSPost2010PropOp45
 70
     1
102
RTVSPost2010Prop46
 90
       50
102
RTVSPost2010PropOp46
 70
     0
102
RTVSPost2010Prop47
 90
       50
102
RTVSPost2010PropOp47
 70
     0
102
RTVSPost2010Prop48
 90
       50
102
RTVSPost2010PropOp48
 70
     0
102
RTVSPost2010Prop49
280
     0
102
RTVSPost2010PropOp49
 70
     1
102
RTVSPost2010Prop50
 90
       50
102
RTVSPost2010PropOp50
 70
     0
102
RTVSPost2010Prop51ColorIndex
 90
      256
102
RTVSPost2010Prop51ColorRGB
 90
-16777216
102
RTVSPost2010PropOp51
 70
     0
102
RTVSPost2010Prop52
140
1.0
102
RTVSPost2010PropOp52
 70
     0
102
RTVSPost2010Prop53
 90
        2
102
RTVSPost2010PropOp53
 70
     0
102
RTVSPost2010Prop54
  1
strokes_ogs.tif
102
RTVSPost2010PropOp54
 70
     0
102
RTVSPost2010Prop55
280
     0
102
RTVSPost2010PropOp55
 70
     1
102
RTVSPost2010Prop56
140
1.0
102
RTVSPost2010PropOp56
 70
     0
102
RTVSPost2010Prop57
140
1.0
102
RTVSPost2010PropOp57
 70
     0
102
RTVSPropertyOp0
 70
     0
102
RTVSPropertyOp1
 70
     0
102
RTVSPropertyOp2
 70
     0
102
RTVSPropertyOp3
 70
     0
102
RTVSPropertyOp4
 70
     0
102
RTVSPropertyOp5
 70
     0
102
RTVSPropertyOp6
 70
     0
102
RTVSPropertyOp7
 70
     0
102
RTVSPropertyOp8
 70
     0
102
RTVSPropertyOp9
 70
     0
102
RTVSPropertyOp10
 70
     0
102
RTVSPropertyOp11
 70
     0
102
RTVSPropertyOp12
 70
     0
102
RTVSPropertyOp13
 70
     0
102
RTVSPropertyOp14
 70
     2
102
RTVSPropertyOp15
 70
     0
102
RTVSPropertyOp16
 70
     0
102
RTVSPropertyOp17
 70
     0
102
RTVSPropertyOp18
 70
     0
102
RTVSPropertyOp19
 70
     0
102
RTVSPropertyOp20
 70
     0
102
RTVSPropertyOp21
 70
     0
102
RTVSPropertyOp22
 70
     0
102
RTVSPropertyOp23
 70
     0
102
RTVSPropertyOp24
 70
     0
102
RTVSPropertyOp25
 70
     0
102
RTVSPropertyOp26
 70
     0
102
RTVSPropertyOp27
 70
     0
102
RTVSPropertyOp28
 70
     1
102
RTVSPropertyOp29
 70
     1
102
RTVSPropertyOp30
 70
     1
102
RTVSPropertyOp31
 70
     1
102
RTVSPropertyOp32
 70
     1
102
RTVSPropertyOp33
 70
     1
102
RTVSPropertyOp34
 70
     1
102
RTVSPropertyOp35
 70
     1
102
RTVSPropertyOp36
 70
     1
102
RTVSPropertyOp37
 70
     0
102
RTVSPropertyOp38
 70
     0
102
RTVSPropertyOp39
 70
     0
102
RTVSPropertyOp40
 70
     0
102
RTVSPropertyOp41
 70
     0
102
RTVSPropertyOp42
 70
     0
102
RTVSPropertyOp43
 70
     0
102
RTVSPropertyOp44
 70
     0
102
RTVSPropertyOp45
 70
     1
102
RTVSPropertyOp46
 70
     0
102
RTVSPropertyOp47
 70
     0
102
RTVSPropertyOp48
 70
     0
102
RTVSPropertyOp49
 70
     1
102
RTVSPropertyOp50
 70
     0
102
RTVSPropertyOp51
 70
     0
102
RTVSPropertyOp52
 70
     0
102
RTVSPropertyOp53
 70
     0
102
RTVSPropertyOp54
 70
     0
102
RTVSPropertyOp55
 70
     1
102
RTVSPropertyOp56
 70
     0
102
RTVSPropertyOp57
 70
     0
102
RTVSPropertyOp58
 70
     1
102
RTVSPropertyOp59
 70
     1
102
RTVSPropertyOp60
 70
     1
102
RTVSPropertyOp61
 70
     1
102
RTVSPropertyOp62
 70
     1
  0
XRECORD
  5
A0AD3
102
{ACAD_REACTORS
330
A0AD2
102
}
330
A0AD2
100
AcDbXrecord
280
     1
102
RTVSPost2010Prop28
280
     0
102
RTVSPost2010PropOp28
 70
     1
102
RTVSPost2010Prop29
280
     1
102
RTVSPost2010PropOp29
 70
     1
102
RTVSPost2010Prop30
280
     1
102
RTVSPost2010PropOp30
 70
     1
102
RTVSPost2010Prop31
280
     0
102
RTVSPost2010PropOp31
 70
     1
102
RTVSPost2010Prop32
280
     0
102
RTVSPost2010PropOp32
 70
     1
102
RTVSPost2010Prop33
280
     0
102
RTVSPost2010PropOp33
 70
     1
102
RTVSPost2010Prop34
280
     0
102
RTVSPost2010PropOp34
 70
     1
102
RTVSPost2010Prop35
280
     0
102
RTVSPost2010PropOp35
 70
     1
102
RTVSPost2010Prop36
280
     0
102
RTVSPost2010PropOp36
 70
     1
102
RTVSPost2010Prop37
 90
       50
102
RTVSPost2010PropOp37
 70
     1
102
RTVSPost2010Prop38
140
0.0
102
RTVSPost2010PropOp38
 70
     1
102
RTVSPost2010Prop39
140
1.0
102
RTVSPost2010PropOp39
 70
     1
102
RTVSPost2010Prop40
 90
        0
102
RTVSPost2010PropOp40
 70
     1
102
RTVSPost2010Prop41ColorIndex
 90
       18
102
RTVSPost2010Prop41ColorRGB
 90
        0
102
RTVSPost2010PropOp41
 70
     1
102
RTVSPost2010Prop42
 90
       50
102
RTVSPost2010PropOp42
 70
     1
102
RTVSPost2010Prop43
 90
        3
102
RTVSPost2010PropOp43
 70
     1
102
RTVSPost2010Prop44ColorIndex
 90
        5
102
RTVSPost2010Prop44ColorRGB
 90
      255
102
RTVSPost2010PropOp44
 70
     1
102
RTVSPost2010Prop45
280
     0
102
RTVSPost2010PropOp45
 70
     1
102
RTVSPost2010Prop46
 90
       50
102
RTVSPost2010PropOp46
 70
     1
102
RTVSPost2010Prop47
 90
       50
102
RTVSPost2010PropOp47
 70
     1
102
RTVSPost2010Prop48
 90
       50
102
RTVSPost2010PropOp48
 70
     1
102
RTVSPost2010Prop49
280
     0
102
RTVSPost2010PropOp49
 70
     1
102
RTVSPost2010Prop50
 90
       50
102
RTVSPost2010PropOp50
 70
     1
102
RTVSPost2010Prop51ColorIndex
 90
      256
102
RTVSPost2010Prop51ColorRGB
 90
-16777216
102
RTVSPost2010PropOp51
 70
     0
102
RTVSPost2010Prop52
140
1.0
102
RTVSPost2010PropOp52
 70
     0
102
RTVSPost2010Prop53
 90
        2
102
RTVSPost2010PropOp53
 70
     1
102
RTVSPost2010Prop54
  1
strokes_ogs.tif
102
RTVSPost2010PropOp54
 70
     1
102
RTVSPost2010Prop55
280
     0
102
RTVSPost2010PropOp55
 70
     1
102
RTVSPost2010Prop56
140
1.0
102
RTVSPost2010PropOp56
 70
     1
102
RTVSPost2010Prop57
140
1.0
102
RTVSPost2010PropOp57
 70
     1
102
RTVSPropertyOp0
 70
     1
102
RTVSPropertyOp1
 70
     1
102
RTVSPropertyOp2
 70
     1
102
RTVSPropertyOp3
 70
     1
102
RTVSPropertyOp4
 70
     1
102
RTVSPropertyOp5
 70
     1
102
RTVSPropertyOp6
 70
     1
102
RTVSPropertyOp7
 70
     1
102
RTVSPropertyOp8
 70
     1
102
RTVSPropertyOp9
 70
     1
102
RTVSPropertyOp10
 70
     1
102
RTVSPropertyOp11
 70
     1
102
RTVSPropertyOp12
 70
     1
102
RTVSPropertyOp13
 70
     1
102
RTVSPropertyOp14
 70
     1
102
RTVSPropertyOp15
 70
     1
102
RTVSPropertyOp16
 70
     1
102
RTVSPropertyOp17
 70
     1
102
RTVSPropertyOp18
 70
     1
102
RTVSPropertyOp19
 70
     1
102
RTVSPropertyOp20
 70
     1
102
RTVSPropertyOp21
 70
     1
102
RTVSPropertyOp22
 70
     1
102
RTVSPropertyOp23
 70
     1
102
RTVSPropertyOp24
 70
     1
102
RTVSPropertyOp25
 70
     1
102
RTVSPropertyOp26
 70
     1
102
RTVSPropertyOp27
 70
     1
102
RTVSPropertyOp28
 70
     1
102
RTVSPropertyOp29
 70
     1
102
RTVSPropertyOp30
 70
     1
102
RTVSPropertyOp31
 70
     1
102
RTVSPropertyOp32
 70
     1
102
RTVSPropertyOp33
 70
     1
102
RTVSPropertyOp34
 70
     1
102
RTVSPropertyOp35
 70
     1
102
RTVSPropertyOp36
 70
     1
102
RTVSPropertyOp37
 70
     1
102
RTVSPropertyOp38
 70
     1
102
RTVSPropertyOp39
 70
     1
102
RTVSPropertyOp40
 70
     1
102
RTVSPropertyOp41
 70
     1
102
RTVSPropertyOp42
 70
     1
102
RTVSPropertyOp43
 70
     1
102
RTVSPropertyOp44
 70
     1
102
RTVSPropertyOp45
 70
     1
102
RTVSPropertyOp46
 70
     1
102
RTVSPropertyOp47
 70
     1
102
RTVSPropertyOp48
 70
     1
102
RTVSPropertyOp49
 70
     1
102
RTVSPropertyOp50
 70
     1
102
RTVSPropertyOp51
 70
     0
102
RTVSPropertyOp52
 70
     0
102
RTVSPropertyOp53
 70
     1
102
RTVSPropertyOp54
 70
     1
102
RTVSPropertyOp55
 70
     1
102
RTVSPropertyOp56
 70
     1
102
RTVSPropertyOp57
 70
     1
102
RTVSPropertyOp58
 70
     1
102
RTVSPropertyOp59
 70
     1
102
RTVSPropertyOp60
 70
     1
102
RTVSPropertyOp61
 70
     1
102
RTVSPropertyOp62
 70
     1
  0
XRECORD
  5
A0AE5
102
{ACAD_REACTORS
330
A0AE4
102
}
330
A0AE4
100
AcDbXrecord
280
     1
102
RTVSPost2010Prop28
280
     0
102
RTVSPost2010PropOp28
 70
     1
102
RTVSPost2010Prop29
280
     1
102
RTVSPost2010PropOp29
 70
     1
102
RTVSPost2010Prop30
280
     1
102
RTVSPost2010PropOp30
 70
     1
102
RTVSPost2010Prop31
280
     0
102
RTVSPost2010PropOp31
 70
     1
102
RTVSPost2010Prop32
280
     0
102
RTVSPost2010PropOp32
 70
     1
102
RTVSPost2010Prop33
280
     0
102
RTVSPost2010PropOp33
 70
     1
102
RTVSPost2010Prop34
280
     0
102
RTVSPost2010PropOp34
 70
     1
102
RTVSPost2010Prop35
280
     0
102
RTVSPost2010PropOp35
 70
     1
102
RTVSPost2010Prop36
280
     0
102
RTVSPost2010PropOp36
 70
     1
102
RTVSPost2010Prop37
 90
       50
102
RTVSPost2010PropOp37
 70
     0
102
RTVSPost2010Prop38
140
0.0
102
RTVSPost2010PropOp38
 70
     0
102
RTVSPost2010Prop39
140
1.0
102
RTVSPost2010PropOp39
 70
     0
102
RTVSPost2010Prop40
 90
        0
102
RTVSPost2010PropOp40
 70
     0
102
RTVSPost2010Prop41ColorIndex
 90
       18
102
RTVSPost2010Prop41ColorRGB
 90
        0
102
RTVSPost2010PropOp41
 70
     0
102
RTVSPost2010Prop42
 90
       50
102
RTVSPost2010PropOp42
 70
     0
102
RTVSPost2010Prop43
 90
        3
102
RTVSPost2010PropOp43
 70
     0
102
RTVSPost2010Prop44ColorIndex
 90
        5
102
RTVSPost2010Prop44ColorRGB
 90
      255
102
RTVSPost2010PropOp44
 70
     0
102
RTVSPost2010Prop45
280
     0
102
RTVSPost2010PropOp45
 70
     1
102
RTVSPost2010Prop46
 90
       50
102
RTVSPost2010PropOp46
 70
     0
102
RTVSPost2010Prop47
 90
       50
102
RTVSPost2010PropOp47
 70
     0
102
RTVSPost2010Prop48
 90
       50
102
RTVSPost2010PropOp48
 70
     0
102
RTVSPost2010Prop49
280
     0
102
RTVSPost2010PropOp49
 70
     1
102
RTVSPost2010Prop50
 90
       50
102
RTVSPost2010PropOp50
 70
     0
102
RTVSPost2010Prop51ColorIndex
 90
      256
102
RTVSPost2010Prop51ColorRGB
 90
-16777216
102
RTVSPost2010PropOp51
 70
     0
102
RTVSPost2010Prop52
140
1.0
102
RTVSPost2010PropOp52
 70
     0
102
RTVSPost2010Prop53
 90
        2
102
RTVSPost2010PropOp53
 70
     0
102
RTVSPost2010Prop54
  1
strokes_ogs.tif
102
RTVSPost2010PropOp54
 70
     0
102
RTVSPost2010Prop55
280
     0
102
RTVSPost2010PropOp55
 70
     1
102
RTVSPost2010Prop56
140
1.0
102
RTVSPost2010PropOp56
 70
     0
102
RTVSPost2010Prop57
140
1.0
102
RTVSPost2010PropOp57
 70
     0
102
RTVSPropertyOp0
 70
     0
102
RTVSPropertyOp1
 70
     0
102
RTVSPropertyOp2
 70
     0
102
RTVSPropertyOp3
 70
     0
102
RTVSPropertyOp4
 70
     0
102
RTVSPropertyOp5
 70
     0
102
RTVSPropertyOp6
 70
     0
102
RTVSPropertyOp7
 70
     0
102
RTVSPropertyOp8
 70
     0
102
RTVSPropertyOp9
 70
     0
102
RTVSPropertyOp10
 70
     0
102
RTVSPropertyOp11
 70
     0
102
RTVSPropertyOp12
 70
     0
102
RTVSPropertyOp13
 70
     0
102
RTVSPropertyOp14
 70
     2
102
RTVSPropertyOp15
 70
     0
102
RTVSPropertyOp16
 70
     0
102
RTVSPropertyOp17
 70
     0
102
RTVSPropertyOp18
 70
     0
102
RTVSPropertyOp19
 70
     0
102
RTVSPropertyOp20
 70
     0
102
RTVSPropertyOp21
 70
     0
102
RTVSPropertyOp22
 70
     0
102
RTVSPropertyOp23
 70
     0
102
RTVSPropertyOp24
 70
     0
102
RTVSPropertyOp25
 70
     0
102
RTVSPropertyOp26
 70
     0
102
RTVSPropertyOp27
 70
     0
102
RTVSPropertyOp28
 70
     1
102
RTVSPropertyOp29
 70
     1
102
RTVSPropertyOp30
 70
     1
102
RTVSPropertyOp31
 70
     1
102
RTVSPropertyOp32
 70
     1
102
RTVSPropertyOp33
 70
     1
102
RTVSPropertyOp34
 70
     1
102
RTVSPropertyOp35
 70
     1
102
RTVSPropertyOp36
 70
     1
102
RTVSPropertyOp37
 70
     0
102
RTVSPropertyOp38
 70
     0
102
RTVSPropertyOp39
 70
     0
102
RTVSPropertyOp40
 70
     0
102
RTVSPropertyOp41
 70
     0
102
RTVSPropertyOp42
 70
     0
102
RTVSPropertyOp43
 70
     0
102
RTVSPropertyOp44
 70
     0
102
RTVSPropertyOp45
 70
     1
102
RTVSPropertyOp46
 70
     0
102
RTVSPropertyOp47
 70
     0
102
RTVSPropertyOp48
 70
     0
102
RTVSPropertyOp49
 70
     1
102
RTVSPropertyOp50
 70
     0
102
RTVSPropertyOp51
 70
     0
102
RTVSPropertyOp52
 70
     0
102
RTVSPropertyOp53
 70
     0
102
RTVSPropertyOp54
 70
     0
102
RTVSPropertyOp55
 70
     1
102
RTVSPropertyOp56
 70
     0
102
RTVSPropertyOp57
 70
     0
102
RTVSPropertyOp58
 70
     1
102
RTVSPropertyOp59
 70
     1
102
RTVSPropertyOp60
 70
     1
102
RTVSPropertyOp61
 70
     1
102
RTVSPropertyOp62
 70
     1
  0
XRECORD
  5
A0ACB
102
{ACAD_REACTORS
330
A0ACA
102
}
330
A0ACA
100
AcDbXrecord
280
     1
102
RTVSPost2010Prop28
280
     0
102
RTVSPost2010PropOp28
 70
     1
102
RTVSPost2010Prop29
280
     1
102
RTVSPost2010PropOp29
 70
     1
102
RTVSPost2010Prop30
280
     1
102
RTVSPost2010PropOp30
 70
     1
102
RTVSPost2010Prop31
280
     0
102
RTVSPost2010PropOp31
 70
     1
102
RTVSPost2010Prop32
280
     0
102
RTVSPost2010PropOp32
 70
     1
102
RTVSPost2010Prop33
280
     0
102
RTVSPost2010PropOp33
 70
     1
102
RTVSPost2010Prop34
280
     0
102
RTVSPost2010PropOp34
 70
     1
102
RTVSPost2010Prop35
280
     0
102
RTVSPost2010PropOp35
 70
     1
102
RTVSPost2010Prop36
280
     0
102
RTVSPost2010PropOp36
 70
     1
102
RTVSPost2010Prop37
 90
       50
102
RTVSPost2010PropOp37
 70
     1
102
RTVSPost2010Prop38
140
0.0
102
RTVSPost2010PropOp38
 70
     1
102
RTVSPost2010Prop39
140
1.0
102
RTVSPost2010PropOp39
 70
     1
102
RTVSPost2010Prop40
 90
        0
102
RTVSPost2010PropOp40
 70
     1
102
RTVSPost2010Prop41ColorIndex
 90
       18
102
RTVSPost2010Prop41ColorRGB
 90
        0
102
RTVSPost2010PropOp41
 70
     1
102
RTVSPost2010Prop42
 90
       50
102
RTVSPost2010PropOp42
 70
     1
102
RTVSPost2010Prop43
 90
        3
102
RTVSPost2010PropOp43
 70
     1
102
RTVSPost2010Prop44ColorIndex
 90
        5
102
RTVSPost2010Prop44ColorRGB
 90
      255
102
RTVSPost2010PropOp44
 70
     1
102
RTVSPost2010Prop45
280
     0
102
RTVSPost2010PropOp45
 70
     1
102
RTVSPost2010Prop46
 90
       50
102
RTVSPost2010PropOp46
 70
     1
102
RTVSPost2010Prop47
 90
       50
102
RTVSPost2010PropOp47
 70
     1
102
RTVSPost2010Prop48
 90
       50
102
RTVSPost2010PropOp48
 70
     1
102
RTVSPost2010Prop49
280
     0
102
RTVSPost2010PropOp49
 70
     1
102
RTVSPost2010Prop50
 90
       50
102
RTVSPost2010PropOp50
 70
     1
102
RTVSPost2010Prop51ColorIndex
 90
      256
102
RTVSPost2010Prop51ColorRGB
 90
-16777216
102
RTVSPost2010PropOp51
 70
     0
102
RTVSPost2010Prop52
140
1.0
102
RTVSPost2010PropOp52
 70
     0
102
RTVSPost2010Prop53
 90
        2
102
RTVSPost2010PropOp53
 70
     1
102
RTVSPost2010Prop54
  1
strokes_ogs.tif
102
RTVSPost2010PropOp54
 70
     1
102
RTVSPost2010Prop55
280
     0
102
RTVSPost2010PropOp55
 70
     1
102
RTVSPost2010Prop56
140
1.0
102
RTVSPost2010PropOp56
 70
     1
102
RTVSPost2010Prop57
140
1.0
102
RTVSPost2010PropOp57
 70
     1
102
RTVSPropertyOp0
 70
     1
102
RTVSPropertyOp1
 70
     1
102
RTVSPropertyOp2
 70
     1
102
RTVSPropertyOp3
 70
     1
102
RTVSPropertyOp4
 70
     1
102
RTVSPropertyOp5
 70
     1
102
RTVSPropertyOp6
 70
     1
102
RTVSPropertyOp7
 70
     1
102
RTVSPropertyOp8
 70
     1
102
RTVSPropertyOp9
 70
     1
102
RTVSPropertyOp10
 70
     1
102
RTVSPropertyOp11
 70
     1
102
RTVSPropertyOp12
 70
     1
102
RTVSPropertyOp13
 70
     1
102
RTVSPropertyOp14
 70
     1
102
RTVSPropertyOp15
 70
     1
102
RTVSPropertyOp16
 70
     1
102
RTVSPropertyOp17
 70
     1
102
RTVSPropertyOp18
 70
     1
102
RTVSPropertyOp19
 70
     1
102
RTVSPropertyOp20
 70
     1
102
RTVSPropertyOp21
 70
     1
102
RTVSPropertyOp22
 70
     1
102
RTVSPropertyOp23
 70
     1
102
RTVSPropertyOp24
 70
     1
102
RTVSPropertyOp25
 70
     1
102
RTVSPropertyOp26
 70
     1
102
RTVSPropertyOp27
 70
     1
102
RTVSPropertyOp28
 70
     1
102
RTVSPropertyOp29
 70
     1
102
RTVSPropertyOp30
 70
     1
102
RTVSPropertyOp31
 70
     1
102
RTVSPropertyOp32
 70
     1
102
RTVSPropertyOp33
 70
     1
102
RTVSPropertyOp34
 70
     1
102
RTVSPropertyOp35
 70
     1
102
RTVSPropertyOp36
 70
     1
102
RTVSPropertyOp37
 70
     1
102
RTVSPropertyOp38
 70
     1
102
RTVSPropertyOp39
 70
     1
102
RTVSPropertyOp40
 70
     1
102
RTVSPropertyOp41
 70
     1
102
RTVSPropertyOp42
 70
     1
102
RTVSPropertyOp43
 70
     1
102
RTVSPropertyOp44
 70
     1
102
RTVSPropertyOp45
 70
     1
102
RTVSPropertyOp46
 70
     1
102
RTVSPropertyOp47
 70
     1
102
RTVSPropertyOp48
 70
     1
102
RTVSPropertyOp49
 70
     1
102
RTVSPropertyOp50
 70
     1
102
RTVSPropertyOp51
 70
     0
102
RTVSPropertyOp52
 70
     0
102
RTVSPropertyOp53
 70
     1
102
RTVSPropertyOp54
 70
     1
102
RTVSPropertyOp55
 70
     1
102
RTVSPropertyOp56
 70
     1
102
RTVSPropertyOp57
 70
     1
102
RTVSPropertyOp58
 70
     1
102
RTVSPropertyOp59
 70
     1
102
RTVSPropertyOp60
 70
     1
102
RTVSPropertyOp61
 70
     1
102
RTVSPropertyOp62
 70
     1
  0
XRECORD
  5
A0AE1
102
{ACAD_REACTORS
330
A0AE0
102
}
330
A0AE0
100
AcDbXrecord
280
     1
102
RTVSPost2010Prop28
280
     0
102
RTVSPost2010PropOp28
 70
     1
102
RTVSPost2010Prop29
280
     1
102
RTVSPost2010PropOp29
 70
     1
102
RTVSPost2010Prop30
280
     1
102
RTVSPost2010PropOp30
 70
     1
102
RTVSPost2010Prop31
280
     0
102
RTVSPost2010PropOp31
 70
     1
102
RTVSPost2010Prop32
280
     0
102
RTVSPost2010PropOp32
 70
     1
102
RTVSPost2010Prop33
280
     0
102
RTVSPost2010PropOp33
 70
     1
102
RTVSPost2010Prop34
280
     0
102
RTVSPost2010PropOp34
 70
     1
102
RTVSPost2010Prop35
280
     0
102
RTVSPost2010PropOp35
 70
     1
102
RTVSPost2010Prop36
280
     0
102
RTVSPost2010PropOp36
 70
     1
102
RTVSPost2010Prop37
 90
       50
102
RTVSPost2010PropOp37
 70
     1
102
RTVSPost2010Prop38
140
0.0
102
RTVSPost2010PropOp38
 70
     1
102
RTVSPost2010Prop39
140
1.0
102
RTVSPost2010PropOp39
 70
     1
102
RTVSPost2010Prop40
 90
        0
102
RTVSPost2010PropOp40
 70
     1
102
RTVSPost2010Prop41ColorIndex
 90
       18
102
RTVSPost2010Prop41ColorRGB
 90
        0
102
RTVSPost2010PropOp41
 70
     1
102
RTVSPost2010Prop42
 90
       50
102
RTVSPost2010PropOp42
 70
     1
102
RTVSPost2010Prop43
 90
        3
102
RTVSPost2010PropOp43
 70
     1
102
RTVSPost2010Prop44ColorIndex
 90
        5
102
RTVSPost2010Prop44ColorRGB
 90
      255
102
RTVSPost2010PropOp44
 70
     1
102
RTVSPost2010Prop45
280
     0
102
RTVSPost2010PropOp45
 70
     1
102
RTVSPost2010Prop46
 90
       50
102
RTVSPost2010PropOp46
 70
     1
102
RTVSPost2010Prop47
 90
       50
102
RTVSPost2010PropOp47
 70
     1
102
RTVSPost2010Prop48
 90
       50
102
RTVSPost2010PropOp48
 70
     1
102
RTVSPost2010Prop49
280
     0
102
RTVSPost2010PropOp49
 70
     1
102
RTVSPost2010Prop50
 90
       50
102
RTVSPost2010PropOp50
 70
     1
102
RTVSPost2010Prop51ColorIndex
 90
      256
102
RTVSPost2010Prop51ColorRGB
 90
-16777216
102
RTVSPost2010PropOp51
 70
     0
102
RTVSPost2010Prop52
140
1.0
102
RTVSPost2010PropOp52
 70
     0
102
RTVSPost2010Prop53
 90
        2
102
RTVSPost2010PropOp53
 70
     1
102
RTVSPost2010Prop54
  1
strokes_ogs.tif
102
RTVSPost2010PropOp54
 70
     1
102
RTVSPost2010Prop55
280
     0
102
RTVSPost2010PropOp55
 70
     1
102
RTVSPost2010Prop56
140
1.0
102
RTVSPost2010PropOp56
 70
     1
102
RTVSPost2010Prop57
140
1.0
102
RTVSPost2010PropOp57
 70
     1
102
RTVSPropertyOp0
 70
     1
102
RTVSPropertyOp1
 70
     1
102
RTVSPropertyOp2
 70
     1
102
RTVSPropertyOp3
 70
     1
102
RTVSPropertyOp4
 70
     1
102
RTVSPropertyOp5
 70
     1
102
RTVSPropertyOp6
 70
     1
102
RTVSPropertyOp7
 70
     1
102
RTVSPropertyOp8
 70
     1
102
RTVSPropertyOp9
 70
     1
102
RTVSPropertyOp10
 70
     1
102
RTVSPropertyOp11
 70
     1
102
RTVSPropertyOp12
 70
     1
102
RTVSPropertyOp13
 70
     1
102
RTVSPropertyOp14
 70
     1
102
RTVSPropertyOp15
 70
     1
102
RTVSPropertyOp16
 70
     1
102
RTVSPropertyOp17
 70
     1
102
RTVSPropertyOp18
 70
     1
102
RTVSPropertyOp19
 70
     1
102
RTVSPropertyOp20
 70
     1
102
RTVSPropertyOp21
 70
     1
102
RTVSPropertyOp22
 70
     1
102
RTVSPropertyOp23
 70
     1
102
RTVSPropertyOp24
 70
     1
102
RTVSPropertyOp25
 70
     1
102
RTVSPropertyOp26
 70
     1
102
RTVSPropertyOp27
 70
     1
102
RTVSPropertyOp28
 70
     1
102
RTVSPropertyOp29
 70
     1
102
RTVSPropertyOp30
 70
     1
102
RTVSPropertyOp31
 70
     1
102
RTVSPropertyOp32
 70
     1
102
RTVSPropertyOp33
 70
     1
102
RTVSPropertyOp34
 70
     1
102
RTVSPropertyOp35
 70
     1
102
RTVSPropertyOp36
 70
     1
102
RTVSPropertyOp37
 70
     1
102
RTVSPropertyOp38
 70
     1
102
RTVSPropertyOp39
 70
     1
102
RTVSPropertyOp40
 70
     1
102
RTVSPropertyOp41
 70
     1
102
RTVSPropertyOp42
 70
     1
102
RTVSPropertyOp43
 70
     1
102
RTVSPropertyOp44
 70
     1
102
RTVSPropertyOp45
 70
     1
102
RTVSPropertyOp46
 70
     1
102
RTVSPropertyOp47
 70
     1
102
RTVSPropertyOp48
 70
     1
102
RTVSPropertyOp49
 70
     1
102
RTVSPropertyOp50
 70
     1
102
RTVSPropertyOp51
 70
     0
102
RTVSPropertyOp52
 70
     0
102
RTVSPropertyOp53
 70
     1
102
RTVSPropertyOp54
 70
     1
102
RTVSPropertyOp55
 70
     1
102
RTVSPropertyOp56
 70
     1
102
RTVSPropertyOp57
 70
     1
102
RTVSPropertyOp58
 70
     1
102
RTVSPropertyOp59
 70
     1
102
RTVSPropertyOp60
 70
     1
102
RTVSPropertyOp61
 70
     1
102
RTVSPropertyOp62
 70
     1
  0
XRECORD
  5
A0ADF
102
{ACAD_REACTORS
330
A0ADE
102
}
330
A0ADE
100
AcDbXrecord
280
     1
102
RTVSPost2010Prop28
280
     0
102
RTVSPost2010PropOp28
 70
     1
102
RTVSPost2010Prop29
280
     1
102
RTVSPost2010PropOp29
 70
     1
102
RTVSPost2010Prop30
280
     1
102
RTVSPost2010PropOp30
 70
     1
102
RTVSPost2010Prop31
280
     0
102
RTVSPost2010PropOp31
 70
     1
102
RTVSPost2010Prop32
280
     0
102
RTVSPost2010PropOp32
 70
     1
102
RTVSPost2010Prop33
280
     0
102
RTVSPost2010PropOp33
 70
     1
102
RTVSPost2010Prop34
280
     0
102
RTVSPost2010PropOp34
 70
     1
102
RTVSPost2010Prop35
280
     0
102
RTVSPost2010PropOp35
 70
     1
102
RTVSPost2010Prop36
280
     0
102
RTVSPost2010PropOp36
 70
     1
102
RTVSPost2010Prop37
 90
       50
102
RTVSPost2010PropOp37
 70
     1
102
RTVSPost2010Prop38
140
0.0
102
RTVSPost2010PropOp38
 70
     1
102
RTVSPost2010Prop39
140
1.0
102
RTVSPost2010PropOp39
 70
     1
102
RTVSPost2010Prop40
 90
        0
102
RTVSPost2010PropOp40
 70
     1
102
RTVSPost2010Prop41ColorIndex
 90
       18
102
RTVSPost2010Prop41ColorRGB
 90
        0
102
RTVSPost2010PropOp41
 70
     1
102
RTVSPost2010Prop42
 90
       50
102
RTVSPost2010PropOp42
 70
     1
102
RTVSPost2010Prop43
 90
        3
102
RTVSPost2010PropOp43
 70
     1
102
RTVSPost2010Prop44ColorIndex
 90
        5
102
RTVSPost2010Prop44ColorRGB
 90
      255
102
RTVSPost2010PropOp44
 70
     1
102
RTVSPost2010Prop45
280
     0
102
RTVSPost2010PropOp45
 70
     1
102
RTVSPost2010Prop46
 90
       50
102
RTVSPost2010PropOp46
 70
     1
102
RTVSPost2010Prop47
 90
       50
102
RTVSPost2010PropOp47
 70
     1
102
RTVSPost2010Prop48
 90
       50
102
RTVSPost2010PropOp48
 70
     1
102
RTVSPost2010Prop49
280
     0
102
RTVSPost2010PropOp49
 70
     1
102
RTVSPost2010Prop50
 90
       50
102
RTVSPost2010PropOp50
 70
     1
102
RTVSPost2010Prop51ColorIndex
 90
      256
102
RTVSPost2010Prop51ColorRGB
 90
-16777216
102
RTVSPost2010PropOp51
 70
     0
102
RTVSPost2010Prop52
140
1.0
102
RTVSPost2010PropOp52
 70
     0
102
RTVSPost2010Prop53
 90
        2
102
RTVSPost2010PropOp53
 70
     1
102
RTVSPost2010Prop54
  1
strokes_ogs.tif
102
RTVSPost2010PropOp54
 70
     1
102
RTVSPost2010Prop55
280
     0
102
RTVSPost2010PropOp55
 70
     1
102
RTVSPost2010Prop56
140
1.0
102
RTVSPost2010PropOp56
 70
     1
102
RTVSPost2010Prop57
140
1.0
102
RTVSPost2010PropOp57
 70
     1
102
RTVSPropertyOp0
 70
     1
102
RTVSPropertyOp1
 70
     1
102
RTVSPropertyOp2
 70
     1
102
RTVSPropertyOp3
 70
     1
102
RTVSPropertyOp4
 70
     1
102
RTVSPropertyOp5
 70
     1
102
RTVSPropertyOp6
 70
     1
102
RTVSPropertyOp7
 70
     1
102
RTVSPropertyOp8
 70
     1
102
RTVSPropertyOp9
 70
     1
102
RTVSPropertyOp10
 70
     1
102
RTVSPropertyOp11
 70
     1
102
RTVSPropertyOp12
 70
     1
102
RTVSPropertyOp13
 70
     1
102
RTVSPropertyOp14
 70
     1
102
RTVSPropertyOp15
 70
     1
102
RTVSPropertyOp16
 70
     1
102
RTVSPropertyOp17
 70
     1
102
RTVSPropertyOp18
 70
     1
102
RTVSPropertyOp19
 70
     1
102
RTVSPropertyOp20
 70
     1
102
RTVSPropertyOp21
 70
     1
102
RTVSPropertyOp22
 70
     1
102
RTVSPropertyOp23
 70
     1
102
RTVSPropertyOp24
 70
     1
102
RTVSPropertyOp25
 70
     1
102
RTVSPropertyOp26
 70
     1
102
RTVSPropertyOp27
 70
     1
102
RTVSPropertyOp28
 70
     1
102
RTVSPropertyOp29
 70
     1
102
RTVSPropertyOp30
 70
     1
102
RTVSPropertyOp31
 70
     1
102
RTVSPropertyOp32
 70
     1
102
RTVSPropertyOp33
 70
     1
102
RTVSPropertyOp34
 70
     1
102
RTVSPropertyOp35
 70
     1
102
RTVSPropertyOp36
 70
     1
102
RTVSPropertyOp37
 70
     1
102
RTVSPropertyOp38
 70
     1
102
RTVSPropertyOp39
 70
     1
102
RTVSPropertyOp40
 70
     1
102
RTVSPropertyOp41
 70
     1
102
RTVSPropertyOp42
 70
     1
102
RTVSPropertyOp43
 70
     1
102
RTVSPropertyOp44
 70
     1
102
RTVSPropertyOp45
 70
     1
102
RTVSPropertyOp46
 70
     1
102
RTVSPropertyOp47
 70
     1
102
RTVSPropertyOp48
 70
     1
102
RTVSPropertyOp49
 70
     1
102
RTVSPropertyOp50
 70
     1
102
RTVSPropertyOp51
 70
     0
102
RTVSPropertyOp52
 70
     0
102
RTVSPropertyOp53
 70
     1
102
RTVSPropertyOp54
 70
     1
102
RTVSPropertyOp55
 70
     1
102
RTVSPropertyOp56
 70
     1
102
RTVSPropertyOp57
 70
     1
102
RTVSPropertyOp58
 70
     1
102
RTVSPropertyOp59
 70
     1
102
RTVSPropertyOp60
 70
     1
102
RTVSPropertyOp61
 70
     1
102
RTVSPropertyOp62
 70
     1
  0
XRECORD
  5
A0AD9
102
{ACAD_REACTORS
330
A0AD8
102
}
330
A0AD8
100
AcDbXrecord
280
     1
102
RTVSPost2010Prop28
280
     0
102
RTVSPost2010PropOp28
 70
     1
102
RTVSPost2010Prop29
280
     1
102
RTVSPost2010PropOp29
 70
     1
102
RTVSPost2010Prop30
280
     1
102
RTVSPost2010PropOp30
 70
     1
102
RTVSPost2010Prop31
280
     0
102
RTVSPost2010PropOp31
 70
     1
102
RTVSPost2010Prop32
280
     0
102
RTVSPost2010PropOp32
 70
     1
102
RTVSPost2010Prop33
280
     0
102
RTVSPost2010PropOp33
 70
     1
102
RTVSPost2010Prop34
280
     0
102
RTVSPost2010PropOp34
 70
     1
102
RTVSPost2010Prop35
280
     0
102
RTVSPost2010PropOp35
 70
     1
102
RTVSPost2010Prop36
280
     0
102
RTVSPost2010PropOp36
 70
     1
102
RTVSPost2010Prop37
 90
       50
102
RTVSPost2010PropOp37
 70
     1
102
RTVSPost2010Prop38
140
0.0
102
RTVSPost2010PropOp38
 70
     1
102
RTVSPost2010Prop39
140
1.0
102
RTVSPost2010PropOp39
 70
     1
102
RTVSPost2010Prop40
 90
        0
102
RTVSPost2010PropOp40
 70
     1
102
RTVSPost2010Prop41ColorIndex
 90
       18
102
RTVSPost2010Prop41ColorRGB
 90
        0
102
RTVSPost2010PropOp41
 70
     1
102
RTVSPost2010Prop42
 90
       50
102
RTVSPost2010PropOp42
 70
     1
102
RTVSPost2010Prop43
 90
        3
102
RTVSPost2010PropOp43
 70
     1
102
RTVSPost2010Prop44ColorIndex
 90
        5
102
RTVSPost2010Prop44ColorRGB
 90
      255
102
RTVSPost2010PropOp44
 70
     1
102
RTVSPost2010Prop45
280
     0
102
RTVSPost2010PropOp45
 70
     1
102
RTVSPost2010Prop46
 90
       50
102
RTVSPost2010PropOp46
 70
     1
102
RTVSPost2010Prop47
 90
       50
102
RTVSPost2010PropOp47
 70
     1
102
RTVSPost2010Prop48
 90
       50
102
RTVSPost2010PropOp48
 70
     1
102
RTVSPost2010Prop49
280
     0
102
RTVSPost2010PropOp49
 70
     1
102
RTVSPost2010Prop50
 90
       50
102
RTVSPost2010PropOp50
 70
     1
102
RTVSPost2010Prop51ColorIndex
 90
      256
102
RTVSPost2010Prop51ColorRGB
 90
-16777216
102
RTVSPost2010PropOp51
 70
     0
102
RTVSPost2010Prop52
140
1.0
102
RTVSPost2010PropOp52
 70
     0
102
RTVSPost2010Prop53
 90
        2
102
RTVSPost2010PropOp53
 70
     1
102
RTVSPost2010Prop54
  1
strokes_ogs.tif
102
RTVSPost2010PropOp54
 70
     1
102
RTVSPost2010Prop55
280
     0
102
RTVSPost2010PropOp55
 70
     1
102
RTVSPost2010Prop56
140
1.0
102
RTVSPost2010PropOp56
 70
     1
102
RTVSPost2010Prop57
140
1.0
102
RTVSPost2010PropOp57
 70
     1
102
RTVSPropertyOp0
 70
     1
102
RTVSPropertyOp1
 70
     1
102
RTVSPropertyOp2
 70
     1
102
RTVSPropertyOp3
 70
     1
102
RTVSPropertyOp4
 70
     1
102
RTVSPropertyOp5
 70
     1
102
RTVSPropertyOp6
 70
     1
102
RTVSPropertyOp7
 70
     1
102
RTVSPropertyOp8
 70
     1
102
RTVSPropertyOp9
 70
     1
102
RTVSPropertyOp10
 70
     1
102
RTVSPropertyOp11
 70
     1
102
RTVSPropertyOp12
 70
     1
102
RTVSPropertyOp13
 70
     1
102
RTVSPropertyOp14
 70
     1
102
RTVSPropertyOp15
 70
     1
102
RTVSPropertyOp16
 70
     1
102
RTVSPropertyOp17
 70
     1
102
RTVSPropertyOp18
 70
     1
102
RTVSPropertyOp19
 70
     1
102
RTVSPropertyOp20
 70
     1
102
RTVSPropertyOp21
 70
     1
102
RTVSPropertyOp22
 70
     1
102
RTVSPropertyOp23
 70
     1
102
RTVSPropertyOp24
 70
     1
102
RTVSPropertyOp25
 70
     1
102
RTVSPropertyOp26
 70
     1
102
RTVSPropertyOp27
 70
     1
102
RTVSPropertyOp28
 70
     1
102
RTVSPropertyOp29
 70
     1
102
RTVSPropertyOp30
 70
     1
102
RTVSPropertyOp31
 70
     1
102
RTVSPropertyOp32
 70
     1
102
RTVSPropertyOp33
 70
     1
102
RTVSPropertyOp34
 70
     1
102
RTVSPropertyOp35
 70
     1
102
RTVSPropertyOp36
 70
     1
102
RTVSPropertyOp37
 70
     1
102
RTVSPropertyOp38
 70
     1
102
RTVSPropertyOp39
 70
     1
102
RTVSPropertyOp40
 70
     1
102
RTVSPropertyOp41
 70
     1
102
RTVSPropertyOp42
 70
     1
102
RTVSPropertyOp43
 70
     1
102
RTVSPropertyOp44
 70
     1
102
RTVSPropertyOp45
 70
     1
102
RTVSPropertyOp46
 70
     1
102
RTVSPropertyOp47
 70
     1
102
RTVSPropertyOp48
 70
     1
102
RTVSPropertyOp49
 70
     1
102
RTVSPropertyOp50
 70
     1
102
RTVSPropertyOp51
 70
     0
102
RTVSPropertyOp52
 70
     0
102
RTVSPropertyOp53
 70
     1
102
RTVSPropertyOp54
 70
     1
102
RTVSPropertyOp55
 70
     1
102
RTVSPropertyOp56
 70
     1
102
RTVSPropertyOp57
 70
     1
102
RTVSPropertyOp58
 70
     1
102
RTVSPropertyOp59
 70
     1
102
RTVSPropertyOp60
 70
     1
102
RTVSPropertyOp61
 70
     1
102
RTVSPropertyOp62
 70
     1
  0
XRECORD
  5
A0ADB
102
{ACAD_REACTORS
330
A0ADA
102
}
330
A0ADA
100
AcDbXrecord
280
     1
102
RTVSPost2010Prop28
280
     0
102
RTVSPost2010PropOp28
 70
     1
102
RTVSPost2010Prop29
280
     1
102
RTVSPost2010PropOp29
 70
     1
102
RTVSPost2010Prop30
280
     1
102
RTVSPost2010PropOp30
 70
     1
102
RTVSPost2010Prop31
280
     0
102
RTVSPost2010PropOp31
 70
     1
102
RTVSPost2010Prop32
280
     0
102
RTVSPost2010PropOp32
 70
     1
102
RTVSPost2010Prop33
280
     0
102
RTVSPost2010PropOp33
 70
     1
102
RTVSPost2010Prop34
280
     0
102
RTVSPost2010PropOp34
 70
     1
102
RTVSPost2010Prop35
280
     0
102
RTVSPost2010PropOp35
 70
     1
102
RTVSPost2010Prop36
280
     0
102
RTVSPost2010PropOp36
 70
     1
102
RTVSPost2010Prop37
 90
       50
102
RTVSPost2010PropOp37
 70
     1
102
RTVSPost2010Prop38
140
0.0
102
RTVSPost2010PropOp38
 70
     1
102
RTVSPost2010Prop39
140
1.0
102
RTVSPost2010PropOp39
 70
     1
102
RTVSPost2010Prop40
 90
        0
102
RTVSPost2010PropOp40
 70
     1
102
RTVSPost2010Prop41ColorIndex
 90
       18
102
RTVSPost2010Prop41ColorRGB
 90
        0
102
RTVSPost2010PropOp41
 70
     1
102
RTVSPost2010Prop42
 90
       50
102
RTVSPost2010PropOp42
 70
     1
102
RTVSPost2010Prop43
 90
        3
102
RTVSPost2010PropOp43
 70
     1
102
RTVSPost2010Prop44ColorIndex
 90
        5
102
RTVSPost2010Prop44ColorRGB
 90
      255
102
RTVSPost2010PropOp44
 70
     1
102
RTVSPost2010Prop45
280
     0
102
RTVSPost2010PropOp45
 70
     1
102
RTVSPost2010Prop46
 90
       50
102
RTVSPost2010PropOp46
 70
     1
102
RTVSPost2010Prop47
 90
       50
102
RTVSPost2010PropOp47
 70
     1
102
RTVSPost2010Prop48
 90
       50
102
RTVSPost2010PropOp48
 70
     1
102
RTVSPost2010Prop49
280
     0
102
RTVSPost2010PropOp49
 70
     1
102
RTVSPost2010Prop50
 90
       50
102
RTVSPost2010PropOp50
 70
     1
102
RTVSPost2010Prop51ColorIndex
 90
      256
102
RTVSPost2010Prop51ColorRGB
 90
-16777216
102
RTVSPost2010PropOp51
 70
     0
102
RTVSPost2010Prop52
140
1.0
102
RTVSPost2010PropOp52
 70
     0
102
RTVSPost2010Prop53
 90
        2
102
RTVSPost2010PropOp53
 70
     1
102
RTVSPost2010Prop54
  1
strokes_ogs.tif
102
RTVSPost2010PropOp54
 70
     1
102
RTVSPost2010Prop55
280
     0
102
RTVSPost2010PropOp55
 70
     1
102
RTVSPost2010Prop56
140
1.0
102
RTVSPost2010PropOp56
 70
     1
102
RTVSPost2010Prop57
140
1.0
102
RTVSPost2010PropOp57
 70
     1
102
RTVSPropertyOp0
 70
     1
102
RTVSPropertyOp1
 70
     1
102
RTVSPropertyOp2
 70
     1
102
RTVSPropertyOp3
 70
     1
102
RTVSPropertyOp4
 70
     1
102
RTVSPropertyOp5
 70
     1
102
RTVSPropertyOp6
 70
     1
102
RTVSPropertyOp7
 70
     1
102
RTVSPropertyOp8
 70
     1
102
RTVSPropertyOp9
 70
     1
102
RTVSPropertyOp10
 70
     1
102
RTVSPropertyOp11
 70
     1
102
RTVSPropertyOp12
 70
     1
102
RTVSPropertyOp13
 70
     1
102
RTVSPropertyOp14
 70
     1
102
RTVSPropertyOp15
 70
     1
102
RTVSPropertyOp16
 70
     1
102
RTVSPropertyOp17
 70
     1
102
RTVSPropertyOp18
 70
     1
102
RTVSPropertyOp19
 70
     1
102
RTVSPropertyOp20
 70
     1
102
RTVSPropertyOp21
 70
     1
102
RTVSPropertyOp22
 70
     1
102
RTVSPropertyOp23
 70
     1
102
RTVSPropertyOp24
 70
     1
102
RTVSPropertyOp25
 70
     1
102
RTVSPropertyOp26
 70
     1
102
RTVSPropertyOp27
 70
     1
102
RTVSPropertyOp28
 70
     1
102
RTVSPropertyOp29
 70
     1
102
RTVSPropertyOp30
 70
     1
102
RTVSPropertyOp31
 70
     1
102
RTVSPropertyOp32
 70
     1
102
RTVSPropertyOp33
 70
     1
102
RTVSPropertyOp34
 70
     1
102
RTVSPropertyOp35
 70
     1
102
RTVSPropertyOp36
 70
     1
102
RTVSPropertyOp37
 70
     1
102
RTVSPropertyOp38
 70
     1
102
RTVSPropertyOp39
 70
     1
102
RTVSPropertyOp40
 70
     1
102
RTVSPropertyOp41
 70
     1
102
RTVSPropertyOp42
 70
     1
102
RTVSPropertyOp43
 70
     1
102
RTVSPropertyOp44
 70
     1
102
RTVSPropertyOp45
 70
     1
102
RTVSPropertyOp46
 70
     1
102
RTVSPropertyOp47
 70
     1
102
RTVSPropertyOp48
 70
     1
102
RTVSPropertyOp49
 70
     1
102
RTVSPropertyOp50
 70
     1
102
RTVSPropertyOp51
 70
     0
102
RTVSPropertyOp52
 70
     0
102
RTVSPropertyOp53
 70
     1
102
RTVSPropertyOp54
 70
     1
102
RTVSPropertyOp55
 70
     1
102
RTVSPropertyOp56
 70
     1
102
RTVSPropertyOp57
 70
     1
102
RTVSPropertyOp58
 70
     1
102
RTVSPropertyOp59
 70
     1
102
RTVSPropertyOp60
 70
     1
102
RTVSPropertyOp61
 70
     1
102
RTVSPropertyOp62
 70
     1
  0
XRECORD
  5
A0AD1
102
{ACAD_REACTORS
330
A0AD0
102
}
330
A0AD0
100
AcDbXrecord
280
     1
102
RTVSPost2010Prop28
280
     0
102
RTVSPost2010PropOp28
 70
     1
102
RTVSPost2010Prop29
280
     1
102
RTVSPost2010PropOp29
 70
     1
102
RTVSPost2010Prop30
280
     1
102
RTVSPost2010PropOp30
 70
     1
102
RTVSPost2010Prop31
280
     0
102
RTVSPost2010PropOp31
 70
     1
102
RTVSPost2010Prop32
280
     0
102
RTVSPost2010PropOp32
 70
     1
102
RTVSPost2010Prop33
280
     0
102
RTVSPost2010PropOp33
 70
     1
102
RTVSPost2010Prop34
280
     0
102
RTVSPost2010PropOp34
 70
     1
102
RTVSPost2010Prop35
280
     0
102
RTVSPost2010PropOp35
 70
     1
102
RTVSPost2010Prop36
280
     0
102
RTVSPost2010PropOp36
 70
     1
102
RTVSPost2010Prop37
 90
       50
102
RTVSPost2010PropOp37
 70
     1
102
RTVSPost2010Prop38
140
0.0
102
RTVSPost2010PropOp38
 70
     1
102
RTVSPost2010Prop39
140
1.0
102
RTVSPost2010PropOp39
 70
     1
102
RTVSPost2010Prop40
 90
        0
102
RTVSPost2010PropOp40
 70
     1
102
RTVSPost2010Prop41ColorIndex
 90
       18
102
RTVSPost2010Prop41ColorRGB
 90
        0
102
RTVSPost2010PropOp41
 70
     1
102
RTVSPost2010Prop42
 90
       50
102
RTVSPost2010PropOp42
 70
     1
102
RTVSPost2010Prop43
 90
        3
102
RTVSPost2010PropOp43
 70
     1
102
RTVSPost2010Prop44ColorIndex
 90
        5
102
RTVSPost2010Prop44ColorRGB
 90
      255
102
RTVSPost2010PropOp44
 70
     1
102
RTVSPost2010Prop45
280
     0
102
RTVSPost2010PropOp45
 70
     1
102
RTVSPost2010Prop46
 90
       50
102
RTVSPost2010PropOp46
 70
     1
102
RTVSPost2010Prop47
 90
       50
102
RTVSPost2010PropOp47
 70
     1
102
RTVSPost2010Prop48
 90
       50
102
RTVSPost2010PropOp48
 70
     1
102
RTVSPost2010Prop49
280
     0
102
RTVSPost2010PropOp49
 70
     1
102
RTVSPost2010Prop50
 90
       50
102
RTVSPost2010PropOp50
 70
     1
102
RTVSPost2010Prop51ColorIndex
 90
      256
102
RTVSPost2010Prop51ColorRGB
 90
-16777216
102
RTVSPost2010PropOp51
 70
     0
102
RTVSPost2010Prop52
140
1.0
102
RTVSPost2010PropOp52
 70
     0
102
RTVSPost2010Prop53
 90
        2
102
RTVSPost2010PropOp53
 70
     1
102
RTVSPost2010Prop54
  1
strokes_ogs.tif
102
RTVSPost2010PropOp54
 70
     1
102
RTVSPost2010Prop55
280
     0
102
RTVSPost2010PropOp55
 70
     1
102
RTVSPost2010Prop56
140
1.0
102
RTVSPost2010PropOp56
 70
     1
102
RTVSPost2010Prop57
140
1.0
102
RTVSPost2010PropOp57
 70
     1
102
RTVSPropertyOp0
 70
     1
102
RTVSPropertyOp1
 70
     1
102
RTVSPropertyOp2
 70
     1
102
RTVSPropertyOp3
 70
     1
102
RTVSPropertyOp4
 70
     1
102
RTVSPropertyOp5
 70
     1
102
RTVSPropertyOp6
 70
     1
102
RTVSPropertyOp7
 70
     1
102
RTVSPropertyOp8
 70
     1
102
RTVSPropertyOp9
 70
     1
102
RTVSPropertyOp10
 70
     1
102
RTVSPropertyOp11
 70
     1
102
RTVSPropertyOp12
 70
     1
102
RTVSPropertyOp13
 70
     1
102
RTVSPropertyOp14
 70
     1
102
RTVSPropertyOp15
 70
     1
102
RTVSPropertyOp16
 70
     1
102
RTVSPropertyOp17
 70
     1
102
RTVSPropertyOp18
 70
     1
102
RTVSPropertyOp19
 70
     1
102
RTVSPropertyOp20
 70
     1
102
RTVSPropertyOp21
 70
     1
102
RTVSPropertyOp22
 70
     1
102
RTVSPropertyOp23
 70
     1
102
RTVSPropertyOp24
 70
     1
102
RTVSPropertyOp25
 70
     1
102
RTVSPropertyOp26
 70
     1
102
RTVSPropertyOp27
 70
     1
102
RTVSPropertyOp28
 70
     1
102
RTVSPropertyOp29
 70
     1
102
RTVSPropertyOp30
 70
     1
102
RTVSPropertyOp31
 70
     1
102
RTVSPropertyOp32
 70
     1
102
RTVSPropertyOp33
 70
     1
102
RTVSPropertyOp34
 70
     1
102
RTVSPropertyOp35
 70
     1
102
RTVSPropertyOp36
 70
     1
102
RTVSPropertyOp37
 70
     1
102
RTVSPropertyOp38
 70
     1
102
RTVSPropertyOp39
 70
     1
102
RTVSPropertyOp40
 70
     1
102
RTVSPropertyOp41
 70
     1
102
RTVSPropertyOp42
 70
     1
102
RTVSPropertyOp43
 70
     1
102
RTVSPropertyOp44
 70
     1
102
RTVSPropertyOp45
 70
     1
102
RTVSPropertyOp46
 70
     1
102
RTVSPropertyOp47
 70
     1
102
RTVSPropertyOp48
 70
     1
102
RTVSPropertyOp49
 70
     1
102
RTVSPropertyOp50
 70
     1
102
RTVSPropertyOp51
 70
     0
102
RTVSPropertyOp52
 70
     0
102
RTVSPropertyOp53
 70
     1
102
RTVSPropertyOp54
 70
     1
102
RTVSPropertyOp55
 70
     1
102
RTVSPropertyOp56
 70
     1
102
RTVSPropertyOp57
 70
     1
102
RTVSPropertyOp58
 70
     1
102
RTVSPropertyOp59
 70
     1
102
RTVSPropertyOp60
 70
     1
102
RTVSPropertyOp61
 70
     1
102
RTVSPropertyOp62
 70
     1
  0
XRECORD
  5
A0AC5
102
{ACAD_REACTORS
330
A0AC4
102
}
330
A0AC4
100
AcDbXrecord
280
     1
102
RTVSPost2010Prop28
280
     0
102
RTVSPost2010PropOp28
 70
     1
102
RTVSPost2010Prop29
280
     1
102
RTVSPost2010PropOp29
 70
     1
102
RTVSPost2010Prop30
280
     1
102
RTVSPost2010PropOp30
 70
     1
102
RTVSPost2010Prop31
280
     0
102
RTVSPost2010PropOp31
 70
     1
102
RTVSPost2010Prop32
280
     0
102
RTVSPost2010PropOp32
 70
     1
102
RTVSPost2010Prop33
280
     0
102
RTVSPost2010PropOp33
 70
     1
102
RTVSPost2010Prop34
280
     0
102
RTVSPost2010PropOp34
 70
     1
102
RTVSPost2010Prop35
280
     0
102
RTVSPost2010PropOp35
 70
     1
102
RTVSPost2010Prop36
280
     0
102
RTVSPost2010PropOp36
 70
     1
102
RTVSPost2010Prop37
 90
       50
102
RTVSPost2010PropOp37
 70
     1
102
RTVSPost2010Prop38
140
0.0
102
RTVSPost2010PropOp38
 70
     1
102
RTVSPost2010Prop39
140
1.0
102
RTVSPost2010PropOp39
 70
     1
102
RTVSPost2010Prop40
 90
        0
102
RTVSPost2010PropOp40
 70
     1
102
RTVSPost2010Prop41ColorIndex
 90
       18
102
RTVSPost2010Prop41ColorRGB
 90
        0
102
RTVSPost2010PropOp41
 70
     1
102
RTVSPost2010Prop42
 90
       50
102
RTVSPost2010PropOp42
 70
     1
102
RTVSPost2010Prop43
 90
        3
102
RTVSPost2010PropOp43
 70
     1
102
RTVSPost2010Prop44ColorIndex
 90
        5
102
RTVSPost2010Prop44ColorRGB
 90
      255
102
RTVSPost2010PropOp44
 70
     1
102
RTVSPost2010Prop45
280
     0
102
RTVSPost2010PropOp45
 70
     1
102
RTVSPost2010Prop46
 90
       50
102
RTVSPost2010PropOp46
 70
     1
102
RTVSPost2010Prop47
 90
       50
102
RTVSPost2010PropOp47
 70
     1
102
RTVSPost2010Prop48
 90
       50
102
RTVSPost2010PropOp48
 70
     1
102
RTVSPost2010Prop49
280
     0
102
RTVSPost2010PropOp49
 70
     1
102
RTVSPost2010Prop50
 90
       50
102
RTVSPost2010PropOp50
 70
     1
102
RTVSPost2010Prop51ColorIndex
 90
      256
102
RTVSPost2010Prop51ColorRGB
 90
-16777216
102
RTVSPost2010PropOp51
 70
     0
102
RTVSPost2010Prop52
140
1.0
102
RTVSPost2010PropOp52
 70
     0
102
RTVSPost2010Prop53
 90
        2
102
RTVSPost2010PropOp53
 70
     1
102
RTVSPost2010Prop54
  1
strokes_ogs.tif
102
RTVSPost2010PropOp54
 70
     1
102
RTVSPost2010Prop55
280
     0
102
RTVSPost2010PropOp55
 70
     1
102
RTVSPost2010Prop56
140
1.0
102
RTVSPost2010PropOp56
 70
     1
102
RTVSPost2010Prop57
140
1.0
102
RTVSPost2010PropOp57
 70
     1
102
RTVSPropertyOp0
 70
     1
102
RTVSPropertyOp1
 70
     1
102
RTVSPropertyOp2
 70
     1
102
RTVSPropertyOp3
 70
     1
102
RTVSPropertyOp4
 70
     1
102
RTVSPropertyOp5
 70
     1
102
RTVSPropertyOp6
 70
     1
102
RTVSPropertyOp7
 70
     1
102
RTVSPropertyOp8
 70
     1
102
RTVSPropertyOp9
 70
     1
102
RTVSPropertyOp10
 70
     1
102
RTVSPropertyOp11
 70
     1
102
RTVSPropertyOp12
 70
     1
102
RTVSPropertyOp13
 70
     1
102
RTVSPropertyOp14
 70
     1
102
RTVSPropertyOp15
 70
     1
102
RTVSPropertyOp16
 70
     1
102
RTVSPropertyOp17
 70
     1
102
RTVSPropertyOp18
 70
     1
102
RTVSPropertyOp19
 70
     1
102
RTVSPropertyOp20
 70
     1
102
RTVSPropertyOp21
 70
     1
102
RTVSPropertyOp22
 70
     1
102
RTVSPropertyOp23
 70
     1
102
RTVSPropertyOp24
 70
     1
102
RTVSPropertyOp25
 70
     1
102
RTVSPropertyOp26
 70
     1
102
RTVSPropertyOp27
 70
     1
102
RTVSPropertyOp28
 70
     1
102
RTVSPropertyOp29
 70
     1
102
RTVSPropertyOp30
 70
     1
102
RTVSPropertyOp31
 70
     1
102
RTVSPropertyOp32
 70
     1
102
RTVSPropertyOp33
 70
     1
102
RTVSPropertyOp34
 70
     1
102
RTVSPropertyOp35
 70
     1
102
RTVSPropertyOp36
 70
     1
102
RTVSPropertyOp37
 70
     1
102
RTVSPropertyOp38
 70
     1
102
RTVSPropertyOp39
 70
     1
102
RTVSPropertyOp40
 70
     1
102
RTVSPropertyOp41
 70
     1
102
RTVSPropertyOp42
 70
     1
102
RTVSPropertyOp43
 70
     1
102
RTVSPropertyOp44
 70
     1
102
RTVSPropertyOp45
 70
     1
102
RTVSPropertyOp46
 70
     1
102
RTVSPropertyOp47
 70
     1
102
RTVSPropertyOp48
 70
     1
102
RTVSPropertyOp49
 70
     1
102
RTVSPropertyOp50
 70
     1
102
RTVSPropertyOp51
 70
     0
102
RTVSPropertyOp52
 70
     0
102
RTVSPropertyOp53
 70
     1
102
RTVSPropertyOp54
 70
     1
102
RTVSPropertyOp55
 70
     1
102
RTVSPropertyOp56
 70
     1
102
RTVSPropertyOp57
 70
     1
102
RTVSPropertyOp58
 70
     1
102
RTVSPropertyOp59
 70
     1
102
RTVSPropertyOp60
 70
     1
102
RTVSPropertyOp61
 70
     1
102
RTVSPropertyOp62
 70
     1
  0
XRECORD
  5
A0ADD
102
{ACAD_REACTORS
330
A0ADC
102
}
330
A0ADC
100
AcDbXrecord
280
     1
102
RTVSPost2010Prop28
280
     0
102
RTVSPost2010PropOp28
 70
     1
102
RTVSPost2010Prop29
280
     1
102
RTVSPost2010PropOp29
 70
     1
102
RTVSPost2010Prop30
280
     1
102
RTVSPost2010PropOp30
 70
     1
102
RTVSPost2010Prop31
280
     0
102
RTVSPost2010PropOp31
 70
     1
102
RTVSPost2010Prop32
280
     0
102
RTVSPost2010PropOp32
 70
     1
102
RTVSPost2010Prop33
280
     0
102
RTVSPost2010PropOp33
 70
     1
102
RTVSPost2010Prop34
280
     0
102
RTVSPost2010PropOp34
 70
     1
102
RTVSPost2010Prop35
280
     0
102
RTVSPost2010PropOp35
 70
     1
102
RTVSPost2010Prop36
280
     0
102
RTVSPost2010PropOp36
 70
     1
102
RTVSPost2010Prop37
 90
       50
102
RTVSPost2010PropOp37
 70
     1
102
RTVSPost2010Prop38
140
0.0
102
RTVSPost2010PropOp38
 70
     1
102
RTVSPost2010Prop39
140
1.0
102
RTVSPost2010PropOp39
 70
     1
102
RTVSPost2010Prop40
 90
        0
102
RTVSPost2010PropOp40
 70
     1
102
RTVSPost2010Prop41ColorIndex
 90
       18
102
RTVSPost2010Prop41ColorRGB
 90
        0
102
RTVSPost2010PropOp41
 70
     1
102
RTVSPost2010Prop42
 90
       50
102
RTVSPost2010PropOp42
 70
     1
102
RTVSPost2010Prop43
 90
        3
102
RTVSPost2010PropOp43
 70
     1
102
RTVSPost2010Prop44ColorIndex
 90
        5
102
RTVSPost2010Prop44ColorRGB
 90
      255
102
RTVSPost2010PropOp44
 70
     1
102
RTVSPost2010Prop45
280
     0
102
RTVSPost2010PropOp45
 70
     1
102
RTVSPost2010Prop46
 90
       50
102
RTVSPost2010PropOp46
 70
     1
102
RTVSPost2010Prop47
 90
       50
102
RTVSPost2010PropOp47
 70
     1
102
RTVSPost2010Prop48
 90
       50
102
RTVSPost2010PropOp48
 70
     1
102
RTVSPost2010Prop49
280
     0
102
RTVSPost2010PropOp49
 70
     1
102
RTVSPost2010Prop50
 90
       50
102
RTVSPost2010PropOp50
 70
     1
102
RTVSPost2010Prop51ColorIndex
 90
      256
102
RTVSPost2010Prop51ColorRGB
 90
-16777216
102
RTVSPost2010PropOp51
 70
     0
102
RTVSPost2010Prop52
140
1.0
102
RTVSPost2010PropOp52
 70
     0
102
RTVSPost2010Prop53
 90
        2
102
RTVSPost2010PropOp53
 70
     1
102
RTVSPost2010Prop54
  1
strokes_ogs.tif
102
RTVSPost2010PropOp54
 70
     1
102
RTVSPost2010Prop55
280
     0
102
RTVSPost2010PropOp55
 70
     1
102
RTVSPost2010Prop56
140
1.0
102
RTVSPost2010PropOp56
 70
     1
102
RTVSPost2010Prop57
140
1.0
102
RTVSPost2010PropOp57
 70
     1
102
RTVSPropertyOp0
 70
     1
102
RTVSPropertyOp1
 70
     1
102
RTVSPropertyOp2
 70
     1
102
RTVSPropertyOp3
 70
     1
102
RTVSPropertyOp4
 70
     1
102
RTVSPropertyOp5
 70
     1
102
RTVSPropertyOp6
 70
     1
102
RTVSPropertyOp7
 70
     1
102
RTVSPropertyOp8
 70
     1
102
RTVSPropertyOp9
 70
     1
102
RTVSPropertyOp10
 70
     1
102
RTVSPropertyOp11
 70
     1
102
RTVSPropertyOp12
 70
     1
102
RTVSPropertyOp13
 70
     1
102
RTVSPropertyOp14
 70
     1
102
RTVSPropertyOp15
 70
     1
102
RTVSPropertyOp16
 70
     1
102
RTVSPropertyOp17
 70
     1
102
RTVSPropertyOp18
 70
     1
102
RTVSPropertyOp19
 70
     1
102
RTVSPropertyOp20
 70
     1
102
RTVSPropertyOp21
 70
     1
102
RTVSPropertyOp22
 70
     1
102
RTVSPropertyOp23
 70
     1
102
RTVSPropertyOp24
 70
     1
102
RTVSPropertyOp25
 70
     1
102
RTVSPropertyOp26
 70
     1
102
RTVSPropertyOp27
 70
     1
102
RTVSPropertyOp28
 70
     1
102
RTVSPropertyOp29
 70
     1
102
RTVSPropertyOp30
 70
     1
102
RTVSPropertyOp31
 70
     1
102
RTVSPropertyOp32
 70
     1
102
RTVSPropertyOp33
 70
     1
102
RTVSPropertyOp34
 70
     1
102
RTVSPropertyOp35
 70
     1
102
RTVSPropertyOp36
 70
     1
102
RTVSPropertyOp37
 70
     1
102
RTVSPropertyOp38
 70
     1
102
RTVSPropertyOp39
 70
     1
102
RTVSPropertyOp40
 70
     1
102
RTVSPropertyOp41
 70
     1
102
RTVSPropertyOp42
 70
     1
102
RTVSPropertyOp43
 70
     1
102
RTVSPropertyOp44
 70
     1
102
RTVSPropertyOp45
 70
     1
102
RTVSPropertyOp46
 70
     1
102
RTVSPropertyOp47
 70
     1
102
RTVSPropertyOp48
 70
     1
102
RTVSPropertyOp49
 70
     1
102
RTVSPropertyOp50
 70
     1
102
RTVSPropertyOp51
 70
     0
102
RTVSPropertyOp52
 70
     0
102
RTVSPropertyOp53
 70
     1
102
RTVSPropertyOp54
 70
     1
102
RTVSPropertyOp55
 70
     1
102
RTVSPropertyOp56
 70
     1
102
RTVSPropertyOp57
 70
     1
102
RTVSPropertyOp58
 70
     1
102
RTVSPropertyOp59
 70
     1
102
RTVSPropertyOp60
 70
     1
102
RTVSPropertyOp61
 70
     1
102
RTVSPropertyOp62
 70
     1
  0
ENDSEC
  0
EOF
