  0
SECTION
  2
HEADER
  9
$ACADVER
  1
AC1027
  9
$ACADMAINTVER
 70
   125
  9
$DWGCODEPAGE
  3
ANSI_932
  9
$LASTSAVEDBY
  1
sawaimgm
  9
$REQUIREDVERSIONS
160
                 0
  9
$INSBASE
 10
0.0
 20
0.0
 30
0.0
  9
$EXTMIN
 10
-1303.087845951124
 20
-448.6124207794135
 30
0.0
  9
$EXTMAX
 10
1023.75934458554
 20
757.5277486312292
 30
0.0
  9
$LIMMIN
 10
-3948.01276203993
 20
-241.2751718400067
  9
$LIMMAX
 10
6066.430974056856
 20
4682.367238430699
  9
$ORTHOMODE
 70
     0
  9
$REGENMODE
 70
     1
  9
$FILLMODE
 70
     1
  9
$QTEXTMODE
 70
     0
  9
$MIRRTEXT
 70
     0
  9
$LTSCALE
 40
20.0
  9
$ATTMODE
 70
     1
  9
$TEXTSIZE
 40
64.0
  9
$TRACEWID
 40
0.05
  9
$TEXTSTYLE
  7
STANDARD
  9
$CLAYER
  8
SIZE
  9
$CELTYPE
  6
CONTINUOUS
  9
$CECOLOR
 62
   256
  9
$CELTSCALE
 40
1.0
  9
$DISPSILH
 70
     0
  9
$DIMSCALE
 40
1.0
  9
$DIMASZ
 40
10.0
  9
$DIMEXO
 40
20.0
  9
$DIMDLI
 40
200.0
  9
$DIMRND
 40
0.0
  9
$DIMDLE
 40
0.0
  9
$DIMEXE
 40
20.0
  9
$DIMTP
 40
0.0
  9
$DIMTM
 40
0.0
  9
$DIMTXT
 40
50.0
  9
$DIMCEN
 40
0.082
  9
$DIMTSZ
 40
0.0
  9
$DIMTOL
 70
     0
  9
$DIMLIM
 70
     0
  9
$DIMTIH
 70
     0
  9
$DIMTOH
 70
     0
  9
$DIMSE1
 70
     0
  9
$DIMSE2
 70
     0
  9
$DIMTAD
 70
     1
  9
$DIMZIN
 70
     8
  9
$DIMBLK
  1
ORIGIN
  9
$DIMASO
 70
     1
  9
$DIMSHO
 70
     0
  9
$DIMPOST
  1

  9
$DIMAPOST
  1

  9
$DIMALT
 70
     0
  9
$DIMALTD
 70
     2
  9
$DIMALTF
 40
25.4
  9
$DIMLFAC
 40
1.0
  9
$DIMTOFL
 70
     1
  9
$DIMTVP
 40
0.0
  9
$DIMTIX
 70
     0
  9
$DIMSOXD
 70
     0
  9
$DIMSAH
 70
     0
  9
$DIMBLK1
  1

  9
$DIMBLK2
  1

  9
$DIMSTYLE
  2
STANDARD
  9
$DIMCLRD
 70
     0
  9
$DIMCLRE
 70
     0
  9
$DIMCLRT
 70
     0
  9
$DIMTFAC
 40
1.0
  9
$DIMGAP
 40
10.0
  9
$DIMJUST
 70
     0
  9
$DIMSD1
 70
     0
  9
$DIMSD2
 70
     0
  9
$DIMTOLJ
 70
     1
  9
$DIMTZIN
 70
     0
  9
$DIMALTZ
 70
     0
  9
$DIMALTTZ
 70
     0
  9
$DIMUPT
 70
     0
  9
$DIMDEC
 70
     0
  9
$DIMTDEC
 70
     0
  9
$DIMALTU
 70
     2
  9
$DIMALTTD
 70
     2
  9
$DIMTXSTY
  7
STANDARD
  9
$DIMAUNIT
 70
     0
  9
$DIMADEC
 70
     0
  9
$DIMALTRND
 40
0.0
  9
$DIMAZIN
 70
     0
  9
$DIMDSEP
 70
    46
  9
$DIMATFIT
 70
     3
  9
$DIMFRAC
 70
     0
  9
$DIMLDRBLK
  1
ORIGIN
  9
$DIMLUNIT
 70
     2
  9
$DIMLWD
 70
    -2
  9
$DIMLWE
 70
    -2
  9
$DIMTMOVE
 70
     0
  9
$DIMFXL
 40
1.0
  9
$DIMFXLON
 70
     0
  9
$DIMJOGANG
 40
0.7853981633974483
  9
$DIMTFILL
 70
     0
  9
$DIMTFILLCLR
 70
     0
  9
$DIMARCSYM
 70
     0
  9
$DIMLTYPE
  6

  9
$DIMLTEX1
  6

  9
$DIMLTEX2
  6

  9
$DIMTXTDIRECTION
 70
     0
  9
$LUNITS
 70
     2
  9
$LUPREC
 70
     4
  9
$SKETCHINC
 40
0.1
  9
$FILLETRAD
 40
5.0
  9
$AUNITS
 70
     1
  9
$AUPREC
 70
     3
  9
$MENU
  1
ACAD
  9
$ELEVATION
 40
0.0
  9
$PELEVATION
 40
0.0
  9
$THICKNESS
 40
0.0
  9
$LIMCHECK
 70
     0
  9
$CHAMFERA
 40
0.0
  9
$CHAMFERB
 40
0.0
  9
$CHAMFERC
 40
0.0
  9
$CHAMFERD
 40
0.0
  9
$SKPOLY
 70
     0
  9
$TDCREATE
 40
2450330.393194445
  9
$TDUCREATE
 40
2450330.018194445
  9
$TDUPDATE
 40
2458843.576087963
  9
$TDUUPDATE
 40
2458843.201087963
  9
$TDINDWG
 40
1.3387308218
  9
$TDUSRTIMER
 40
1.3387308218
  9
$USRTIMER
 70
     1
  9
$ANGBASE
 50
0.0
  9
$ANGDIR
 70
     0
  9
$PDMODE
 70
     3
  9
$PDSIZE
 40
-2.0
  9
$PLINEWID
 40
0.0
  9
$SPLFRAME
 70
     0
  9
$SPLINETYPE
 70
     6
  9
$SPLINESEGS
 70
     8
  9
$HANDSEED
  5
1C41B
  9
$SURFTAB1
 70
     6
  9
$SURFTAB2
 70
     6
  9
$SURFTYPE
 70
     6
  9
$SURFU
 70
     6
  9
$SURFV
 70
     6
  9
$UCSBASE
  2

  9
$UCSNAME
  2

  9
$UCSORG
 10
0.0
 20
0.0
 30
0.0
  9
$UCSXDIR
 10
1.0
 20
0.0
 30
0.0
  9
$UCSYDIR
 10
0.0
 20
1.0
 30
0.0
  9
$UCSORTHOREF
  2

  9
$UCSORTHOVIEW
 70
     0
  9
$UCSORGTOP
 10
0.0
 20
0.0
 30
0.0
  9
$UCSORGBOTTOM
 10
0.0
 20
0.0
 30
0.0
  9
$UCSORGLEFT
 10
0.0
 20
0.0
 30
0.0
  9
$UCSORGRIGHT
 10
0.0
 20
0.0
 30
0.0
  9
$UCSORGFRONT
 10
0.0
 20
0.0
 30
0.0
  9
$UCSORGBACK
 10
0.0
 20
0.0
 30
0.0
  9
$PUCSBASE
  2

  9
$PUCSNAME
  2

  9
$PUCSORG
 10
0.0
 20
0.0
 30
0.0
  9
$PUCSXDIR
 10
1.0
 20
0.0
 30
0.0
  9
$PUCSYDIR
 10
0.0
 20
1.0
 30
0.0
  9
$PUCSORTHOREF
  2

  9
$PUCSORTHOVIEW
 70
     0
  9
$PUCSORGTOP
 10
0.0
 20
0.0
 30
0.0
  9
$PUCSORGBOTTOM
 10
0.0
 20
0.0
 30
0.0
  9
$PUCSORGLEFT
 10
0.0
 20
0.0
 30
0.0
  9
$PUCSORGRIGHT
 10
0.0
 20
0.0
 30
0.0
  9
$PUCSORGFRONT
 10
0.0
 20
0.0
 30
0.0
  9
$PUCSORGBACK
 10
0.0
 20
0.0
 30
0.0
  9
$USERI1
 70
     0
  9
$USERI2
 70
     0
  9
$USERI3
 70
     0
  9
$USERI4
 70
     0
  9
$USERI5
 70
     0
  9
$USERR1
 40
20.0
  9
$USERR2
 40
0.0
  9
$USERR3
 40
0.0
  9
$USERR4
 40
0.0
  9
$USERR5
 40
0.0
  9
$WORLDVIEW
 70
     1
  9
$SHADEDGE
 70
     3
  9
$SHADEDIF
 70
    70
  9
$TILEMODE
 70
     1
  9
$MAXACTVP
 70
    64
  9
$PINSBASE
 10
0.0
 20
0.0
 30
0.0
  9
$PLIMCHECK
 70
     0
  9
$PEXTMIN
 10
1.000000000000000E+20
 20
1.000000000000000E+20
 30
1.000000000000000E+20
  9
$PEXTMAX
 10
-1.000000000000000E+20
 20
-1.000000000000000E+20
 30
-1.000000000000000E+20
  9
$PLIMMIN
 10
0.0
 20
0.0
  9
$PLIMMAX
 10
12.0
 20
9.0
  9
$UNITMODE
 70
     0
  9
$VISRETAIN
 70
     1
  9
$PLINEGEN
 70
     0
  9
$PSLTSCALE
 70
     1
  9
$TREEDEPTH
 70
  3020
  9
$CMLSTYLE
  2
STANDARD
  9
$CMLJUST
 70
     0
  9
$CMLSCALE
 40
1.0
  9
$PROXYGRAPHICS
 70
     1
  9
$MEASUREMENT
 70
     0
  9
$CELWEIGHT
370
    -1
  9
$ENDCAPS
280
     0
  9
$JOINSTYLE
280
     0
  9
$LWDISPLAY
290
     0
  9
$INSUNITS
 70
     0
  9
$HYPERLINKBASE
  1

  9
$STYLESHEET
  1

  9
$XEDIT
290
     1
  9
$CEPSNTYPE
380
     0
  9
$PSTYLEMODE
290
     1
  9
$FINGERPRINTGUID
  2
{97DA8DB6-C4F0-4C3D-ABEB-53C4FBBC7EFF}
  9
$VERSIONGUID
  2
{D3828CCA-6A82-294C-803D-F908E13224D3}
  9
$EXTNAMES
290
     1
  9
$PSVPSCALE
 40
0.0
  9
$OLESTARTUP
290
     0
  9
$SORTENTS
280
   127
  9
$INDEXCTL
280
     0
  9
$HIDETEXT
280
     0
  9
$XCLIPFRAME
280
     2
  9
$HALOGAP
280
     0
  9
$OBSCOLOR
 70
   257
  9
$OBSLTYPE
280
     0
  9
$INTERSECTIONDISPLAY
280
     0
  9
$INTERSECTIONCOLOR
 70
   257
  9
$DIMASSOC
280
     1
  9
$PROJECTNAME
  1

  9
$CAMERADISPLAY
290
     0
  9
$LENSLENGTH
 40
50.0
  9
$CAMERAHEIGHT
 40
0.0
  9
$STEPSPERSEC
 40
2.0
  9
$STEPSIZE
 40
6.0
  9
$3DDWFPREC
 40
2.0
  9
$PSOLWIDTH
 40
0.25
  9
$PSOLHEIGHT
 40
4.0
  9
$LOFTANG1
 40
1.570796326794896
  9
$LOFTANG2
 40
1.570796326794896
  9
$LOFTMAG1
 40
0.0
  9
$LOFTMAG2
 40
0.0
  9
$LOFTPARAM
 70
     7
  9
$LOFTNORMALS
280
     1
  9
$LATITUDE
 40
37.795
  9
$LONGITUDE
 40
-122.394
  9
$NORTHDIRECTION
 40
0.0
  9
$TIMEZONE
 70
 -8000
  9
$LIGHTGLYPHDISPLAY
280
     1
  9
$TILEMODELIGHTSYNCH
280
     1
  9
$CMATERIAL
347
1B37D
  9
$SOLIDHIST
280
     0
  9
$SHOWHIST
280
     1
  9
$DWFFRAME
280
     2
  9
$DGNFRAME
280
     0
  9
$REALWORLDSCALE
290
     1
  9
$INTERFERECOLOR
 62
     1
  9
$INTERFEREOBJVS
345
1B39F
  9
$INTERFEREVPVS
346
1B39C
  9
$CSHADOW
280
     0
  9
$SHADOWPLANELOCATION
 40
0.0
  0
ENDSEC
  0
SECTION
  2
CLASSES
  0
CLASS
  1
ACDBDICTIONARYWDFLT
  2
AcDbDictionaryWithDefault
  3
ObjectDBX Classes
 90
        0
 91
        1
280
     0
281
     0
  0
CLASS
  1
MATERIAL
  2
AcDbMaterial
  3
ObjectDBX Classes
 90
     1153
 91
        3
280
     0
281
     0
  0
CLASS
  1
VISUALSTYLE
  2
AcDbVisualStyle
  3
ObjectDBX Classes
 90
     4095
 91
       24
280
     0
281
     0
  0
CLASS
  1
TABLESTYLE
  2
AcDbTableStyle
  3
ObjectDBX Classes
 90
     4095
 91
        1
280
     0
281
     0
  0
CLASS
  1
SCALE
  2
AcDbScale
  3
ObjectDBX Classes
 90
     1153
 91
       17
280
     0
281
     0
  0
CLASS
  1
MLEADERSTYLE
  2
AcDbMLeaderStyle
  3
ACDB_MLEADERSTYLE_CLASS
 90
     4095
 91
        1
280
     0
281
     0
  0
CLASS
  1
ACDBSECTIONVIEWSTYLE
  2
AcDbSectionViewStyle
  3
ObjectDBX Classes
 90
     1025
 91
        2
280
     0
281
     0
  0
CLASS
  1
ACDBDETAILVIEWSTYLE
  2
AcDbDetailViewStyle
  3
ObjectDBX Classes
 90
     1025
 91
        2
280
     0
281
     0
  0
CLASS
  1
DICTIONARYVAR
  2
AcDbDictionaryVar
  3
ObjectDBX Classes
 90
        0
 91
        9
280
     0
281
     0
  0
CLASS
  1
CELLSTYLEMAP
  2
AcDbCellStyleMap
  3
ObjectDBX Classes
 90
     1152
 91
        2
280
     0
281
     0
  0
CLASS
  1
SORTENTSTABLE
  2
AcDbSortentsTable
  3
ObjectDBX Classes
 90
        0
 91
        1
280
     0
281
     0
  0
ENDSEC
  0
SECTION
  2
TABLES
  0
TABLE
  2
VPORT
  5
8
330
0
100
AcDbSymbolTable
 70
     1
1001
ACAD
1000
DbSaveVer
1071
      105
  0
VPORT
  5
1B352
330
8
100
AcDbSymbolTableRecord
100
AcDbViewportTableRecord
  2
*ACTIVE
 70
     0
 10
0.0
 20
0.0
 11
1.0
 21
1.0
 12
50.13312218003625
 22
203.1830709354279
 13
0.0
 23
0.0
 14
50.0
 24
50.0
 15
100.0
 25
100.0
 16
0.0
 26
0.0
 36
1.0
 17
0.0
 27
0.0
 37
0.0
 40
1805.167503844861
 41
1.908004778972521
 42
50.0
 43
0.0
 44
0.0
 50
0.0
 51
0.0
 71
     0
 72
   500
 73
     1
 74
     0
 75
     0
 76
     0
 77
     0
 78
     0
281
     0
 65
     1
110
0.0
120
0.0
130
0.0
111
1.0
121
0.0
131
0.0
112
0.0
122
1.0
132
0.0
 79
     0
146
0.0
348
1B39B
 60
     3
 61
     5
292
     1
282
     1
141
0.0
142
0.0
 63
   250
421
  3355443
1001
ACAD_NAV_VCDISPLAY
1070
     3
  0
ENDTAB
  0
TABLE
  2
LTYPE
  5
5
330
0
100
AcDbSymbolTable
 70
     4
  0
LTYPE
  5
13
330
5
100
AcDbSymbolTableRecord
100
AcDbLinetypeTableRecord
  2
BYBLOCK
 70
     0
  3

 72
    65
 73
     0
 40
0.0
  0
LTYPE
  5
14
330
5
100
AcDbSymbolTableRecord
100
AcDbLinetypeTableRecord
  2
BYLAYER
 70
     0
  3

 72
    65
 73
     0
 40
0.0
  0
LTYPE
  5
15
330
5
100
AcDbSymbolTableRecord
100
AcDbLinetypeTableRecord
  2
CONTINUOUS
 70
     0
  3
実線
 72
    65
 73
     0
 40
0.0
  0
LTYPE
  5
23
330
5
100
AcDbSymbolTableRecord
100
AcDbLinetypeTableRecord
  2
DASHDOT
 70
     0
  3
____ _ ____ _ ____ _ ____ _ ____ _ ____ _ ____
 72
    65
 73
     4
 40
5.5
 49
4.0
 74
     0
 49
-0.6
 74
     0
 49
0.3
 74
     0
 49
-0.6
 74
     0
  0
LTYPE
  5
1BBD4
330
5
100
AcDbSymbolTableRecord
100
AcDbLinetypeTableRecord
  2
CENTER
 70
     0
  3
____ _ ____ _ ____ _ ____ _ ____ _ ____ _ ____
 72
    65
 73
     4
 40
0.6
 49
0.375
 74
     0
 49
-0.075
 74
     0
 49
0.075
 74
     0
 49
-0.075
 74
     0
  0
ENDTAB
  0
TABLE
  2
LAYER
  5
2
102
{ACAD_XDICTIONARY
360
1B3F5
102
}
330
0
100
AcDbSymbolTable
 70
     9
  0
LAYER
  5
10
102
{ACAD_XDICTIONARY
360
1B3D0
102
}
330
2
100
AcDbSymbolTableRecord
100
AcDbLayerTableRecord
  2
0
 70
     0
 62
     7
  6
CONTINUOUS
370
    -3
390
F
347
1B38D
348
0
  0
LAYER
  5
22
102
{ACAD_XDICTIONARY
360
1B3D2
102
}
330
2
100
AcDbSymbolTableRecord
100
AcDbLayerTableRecord
  2
SIZE
 70
     0
 62
    30
  6
CONTINUOUS
370
    -3
390
F
347
1B38D
348
0
  0
LAYER
  5
31
102
{ACAD_XDICTIONARY
360
1B3D4
102
}
330
2
100
AcDbSymbolTableRecord
100
AcDbLayerTableRecord
  2
DETAIL
 70
     0
 62
     5
  6
CONTINUOUS
370
    -3
390
F
347
1B38D
348
0
  0
LAYER
  5
32
102
{ACAD_XDICTIONARY
360
1B3D6
102
}
330
2
100
AcDbSymbolTableRecord
100
AcDbLayerTableRecord
  2
OUTLINE
 70
     0
 62
     3
  6
CONTINUOUS
370
    -3
390
F
347
1B38D
348
0
  0
LAYER
  5
33
102
{ACAD_XDICTIONARY
360
1B3D8
102
}
330
2
100
AcDbSymbolTableRecord
100
AcDbLayerTableRecord
  2
BASIS
 70
     0
 62
     6
  6
CONTINUOUS
370
    -3
390
F
347
1B38D
348
0
  0
LAYER
  5
34
102
{ACAD_XDICTIONARY
360
1B3DA
102
}
330
2
100
AcDbSymbolTableRecord
100
AcDbLayerTableRecord
  2
NOTE
 70
     0
 62
     4
  6
CONTINUOUS
370
    -3
390
F
347
1B38D
348
0
  0
LAYER
  5
35
102
{ACAD_XDICTIONARY
360
1B3DC
102
}
330
2
100
AcDbSymbolTableRecord
100
AcDbLayerTableRecord
  2
ARRANGE
 70
     0
 62
     1
  6
CONTINUOUS
370
    -3
390
F
347
1B38D
348
0
  0
LAYER
  5
37
102
{ACAD_XDICTIONARY
360
1B3DE
102
}
330
2
100
AcDbSymbolTableRecord
100
AcDbLayerTableRecord
  2
ETC
 70
     0
 62
    61
  6
CONTINUOUS
370
    -3
390
F
347
1B38D
348
0
  0
LAYER
  5
3A
330
2
100
AcDbSymbolTableRecord
100
AcDbLayerTableRecord
  2
DEFPOINTS
 70
     0
 62
     7
  6
CONTINUOUS
290
     0
370
    -3
390
F
347
1B38D
348
0
  0
ENDTAB
  0
TABLE
  2
STYLE
  5
3
330
0
100
AcDbSymbolTable
 70
     1
  0
STYLE
  5
11
330
3
100
AcDbSymbolTableRecord
100
AcDbTextStyleTableRecord
  2
STANDARD
 70
     0
 40
0.0
 41
0.9
 50
0.0
 71
     0
 42
64.0
  3
SIMPLEX
  4
BIGFONT
  0
ENDTAB
  0
TABLE
  2
VIEW
  5
6
330
0
100
AcDbSymbolTable
 70
     1
  0
VIEW
  5
3C
330
6
100
AcDbSymbolTableRecord
100
AcDbViewTableRecord
  2
ALL
 70
     0
 40
4282.62
 10
0.0
 20
41.30990399999999
 41
5940.0
 11
0.0
 21
0.0
 31
1.0
 12
0.0
 22
0.0
 32
0.0
 42
50.0
 43
0.0
 44
0.0
 50
0.0
 71
     0
281
     0
 72
     0
 73
     0
348
1B39B
  0
ENDTAB
  0
TABLE
  2
UCS
  5
7
330
0
100
AcDbSymbolTable
 70
     0
  0
ENDTAB
  0
TABLE
  2
APPID
  5
9
330
0
100
AcDbSymbolTable
 70
     5
  0
APPID
  5
12
330
9
100
AcDbSymbolTableRecord
100
AcDbRegAppTableRecord
  2
ACAD
 70
     0
  0
APPID
  5
182E7
330
9
100
AcDbSymbolTableRecord
100
AcDbRegAppTableRecord
  2
ACAD_PSEXT
 70
     0
  0
APPID
  5
1B3CC
330
9
100
AcDbSymbolTableRecord
100
AcDbRegAppTableRecord
  2
ACAD_EXEMPT_FROM_CAD_STANDARDS
 70
     0
  0
APPID
  5
1B3EA
330
9
100
AcDbSymbolTableRecord
100
AcDbRegAppTableRecord
  2
ACAD_NAV_VCDISPLAY
 70
     0
  0
APPID
  5
1B62A
330
9
100
AcDbSymbolTableRecord
100
AcDbRegAppTableRecord
  2
ACAD_DSTYLE_DIMRADIAL_EXTENSION
 70
     0
  0
ENDTAB
  0
TABLE
  2
DIMSTYLE
  5
A
330
0
100
AcDbSymbolTable
 70
     4
100
AcDbDimStyleTable
 71
     1
340
213
  0
DIMSTYLE
105
213
102
{ACAD_REACTORS
330
1B827
330
1B850
330
1B868
330
1C0CF
330
1C13E
330
1C15D
330
1C173
102
}
330
A
100
AcDbSymbolTableRecord
100
AcDbDimStyleTableRecord
  2
STANDARD
 70
     0
340
11
  0
DIMSTYLE
105
1B566
330
A
100
AcDbSymbolTableRecord
100
AcDbDimStyleTableRecord
  2
DIMSTYLE_1
 70
     0
 41
2.0
 42
1.0
 44
2.0
 73
     0
 74
     0
 77
     1
 78
     8
140
3.5
147
0.875
271
     2
272
     2
284
     8
340
11
341
1B54D
342
1B54D
343
1B54D
344
1B54D
  0
DIMSTYLE
105
1B567
330
A
100
AcDbSymbolTableRecord
100
AcDbDimStyleTableRecord
  2
DIMSTYLE_3
 70
     0
  3
<>
 41
2.0
 42
1.0
 44
2.0
 73
     0
 74
     0
 77
     1
 78
     8
140
3.5
147
0.625
271
     2
272
     2
284
     8
340
11
341
1B54D
342
1B54D
343
1B54D
344
1B54D
  0
ENDTAB
  0
TABLE
  2
BLOCK_RECORD
  5
1
330
0
100
AcDbSymbolTable
 70
    33
  0
BLOCK_RECORD
  5
1E
102
{ACAD_XDICTIONARY
360
1B376
102
}
330
1
100
AcDbSymbolTableRecord
100
AcDbBlockTableRecord
  2
*MODEL_SPACE
340
1B3C9
 70
     0
280
     1
281
     0
  0
BLOCK_RECORD
  5
1A
102
{ACAD_XDICTIONARY
360
1B374
102
}
330
1
100
AcDbSymbolTableRecord
100
AcDbBlockTableRecord
  2
*PAPER_SPACE
340
1B3CA
 70
     0
280
     1
281
     0
  0
BLOCK_RECORD
  5
46
330
1
100
AcDbSymbolTableRecord
100
AcDbBlockTableRecord
  2
_ORIGIN
340
0
102
{BLKREFS
331
1C39A
331
1C39B
331
1C3EB
331
1C3EC
331
1C3F4
331
1C3F5
331
1C403
331
1C404
331
1C0C9
331
1C0CA
331
1C158
331
1C14E
331
1C14F
331
1C157
331
1B78C
331
1B78D
331
1BB00
331
1BB01
331
1BB09
331
1BB0A
331
1BB1D
331
1BB1E
331
1BB3A
331
1BB3B
331
1BB45
331
1BB46
331
1B634
331
1B635
331
1BB69
331
1BB6A
331
1BC17
331
1BCEC
331
1BCED
331
1BCF8
331
1BCF9
331
1BC18
331
1C16D
331
1C16E
331
1C0B7
331
1C0B8
331
1C0C0
331
1C0C1
331
1C0FF
331
1C100
331
1BD04
331
1BD05
331
1BD10
331
1BD11
331
1B4DB
331
1B4DC
102
}
 70
     0
280
     1
281
     0
  0
BLOCK_RECORD
  5
175A
330
1
100
AcDbSymbolTableRecord
100
AcDbBlockTableRecord
  2
_NONE
340
0
 70
     0
280
     1
281
     0
  0
BLOCK_RECORD
  5
1B468
330
1
100
AcDbSymbolTableRecord
100
AcDbBlockTableRecord
  2
*D2
340
0
 70
     0
280
     1
281
     0
  0
BLOCK_RECORD
  5
1B4E2
330
1
100
AcDbSymbolTableRecord
100
AcDbBlockTableRecord
  2
*D3
340
0
 70
     0
280
     1
281
     0
  0
BLOCK_RECORD
  5
1B54D
330
1
100
AcDbSymbolTableRecord
100
AcDbBlockTableRecord
  2
_OPEN
340
0
102
{BLKREFS
331
1B563
331
1B564
331
1B63D
331
1B63E
331
1B61C
331
1B558
102
}
 70
     0
280
     1
281
     0
  0
BLOCK_RECORD
  5
1B553
330
1
100
AcDbSymbolTableRecord
100
AcDbBlockTableRecord
  2
*D5
340
0
 70
     0
280
     1
281
     0
  0
BLOCK_RECORD
  5
1B55A
330
1
100
AcDbSymbolTableRecord
100
AcDbBlockTableRecord
  2
*D6
340
0
 70
     0
280
     1
281
     0
  0
BLOCK_RECORD
  5
1B604
330
1
100
AcDbSymbolTableRecord
100
AcDbBlockTableRecord
  2
*D7
340
0
 70
     0
280
     1
281
     0
  0
BLOCK_RECORD
  5
1B60E
330
1
100
AcDbSymbolTableRecord
100
AcDbBlockTableRecord
  2
*D8
340
0
 70
     0
280
     1
281
     0
  0
BLOCK_RECORD
  5
1B62C
330
1
100
AcDbSymbolTableRecord
100
AcDbBlockTableRecord
  2
*D9
340
0
 70
     0
280
     1
281
     0
  0
BLOCK_RECORD
  5
1B644
330
1
100
AcDbSymbolTableRecord
100
AcDbBlockTableRecord
  2
*D10
340
0
 70
     0
280
     1
281
     0
  0
BLOCK_RECORD
  5
1B6C8
330
1
100
AcDbSymbolTableRecord
100
AcDbBlockTableRecord
  2
*D11
340
0
 70
     0
280
     1
281
     0
  0
BLOCK_RECORD
  5
1B6D5
330
1
100
AcDbSymbolTableRecord
100
AcDbBlockTableRecord
  2
*D12
340
0
 70
     0
280
     1
281
     0
  0
BLOCK_RECORD
  5
1B784
330
1
100
AcDbSymbolTableRecord
100
AcDbBlockTableRecord
  2
*D13
340
0
 70
     0
280
     1
281
     0
  0
BLOCK_RECORD
  5
1B828
330
1
100
AcDbSymbolTableRecord
100
AcDbBlockTableRecord
  2
*D14
340
0
 70
     0
280
     1
281
     0
  0
BLOCK_RECORD
  5
1B837
330
1
100
AcDbSymbolTableRecord
100
AcDbBlockTableRecord
  2
*D15
340
0
 70
     0
280
     1
281
     0
  0
BLOCK_RECORD
  5
1B851
330
1
100
AcDbSymbolTableRecord
100
AcDbBlockTableRecord
  2
*D16
340
0
 70
     0
280
     1
281
     0
  0
BLOCK_RECORD
  5
1B869
330
1
100
AcDbSymbolTableRecord
100
AcDbBlockTableRecord
  2
*D17
340
0
 70
     0
280
     1
281
     0
  0
BLOCK_RECORD
  5
1BB62
330
1
100
AcDbSymbolTableRecord
100
AcDbBlockTableRecord
  2
*D18
340
0
 70
     0
280
     1
281
     0
  0
BLOCK_RECORD
  5
1BC10
330
1
100
AcDbSymbolTableRecord
100
AcDbBlockTableRecord
  2
*D19
340
0
 70
     0
280
     1
281
     0
  0
BLOCK_RECORD
  5
1BCE7
330
1
100
AcDbSymbolTableRecord
100
AcDbBlockTableRecord
  2
*D20
340
0
 70
     0
280
     1
281
     0
  0
BLOCK_RECORD
  5
1BCF3
330
1
100
AcDbSymbolTableRecord
100
AcDbBlockTableRecord
  2
*D21
340
0
 70
     0
280
     1
281
     0
  0
BLOCK_RECORD
  5
1BCFF
330
1
100
AcDbSymbolTableRecord
100
AcDbBlockTableRecord
  2
*D22
340
0
 70
     0
280
     1
281
     0
  0
BLOCK_RECORD
  5
1BD0B
330
1
100
AcDbSymbolTableRecord
100
AcDbBlockTableRecord
  2
*D23
340
0
 70
     0
280
     1
281
     0
  0
BLOCK_RECORD
  5
1C013
330
1
100
AcDbSymbolTableRecord
100
AcDbBlockTableRecord
  2
*D24
340
0
 70
     0
280
     1
281
     0
  0
BLOCK_RECORD
  5
1C01F
330
1
100
AcDbSymbolTableRecord
100
AcDbBlockTableRecord
  2
*D25
340
0
 70
     0
280
     1
281
     0
  0
BLOCK_RECORD
  5
1C02B
330
1
100
AcDbSymbolTableRecord
100
AcDbBlockTableRecord
  2
*D26
340
0
 70
     0
280
     1
281
     0
  0
BLOCK_RECORD
  5
1C037
330
1
100
AcDbSymbolTableRecord
100
AcDbBlockTableRecord
  2
*D27
340
0
 70
     0
280
     1
281
     0
  0
BLOCK_RECORD
  5
1C0D0
330
1
100
AcDbSymbolTableRecord
100
AcDbBlockTableRecord
  2
*D28
340
0
 70
     0
280
     1
281
     0
  0
BLOCK_RECORD
  5
1C13F
330
1
100
AcDbSymbolTableRecord
100
AcDbBlockTableRecord
  2
*D29
340
0
 70
     0
280
     1
281
     0
  0
BLOCK_RECORD
  5
1C15E
330
1
100
AcDbSymbolTableRecord
100
AcDbBlockTableRecord
  2
*D30
340
0
 70
     0
280
     1
281
     0
  0
BLOCK_RECORD
  5
1C174
330
1
100
AcDbSymbolTableRecord
100
AcDbBlockTableRecord
  2
*D31
340
0
 70
     0
280
     1
281
     0
  0
ENDTAB
  0
ENDSEC
  0
SECTION
  2
BLOCKS
  0
BLOCK
  5
1F
330
1E
100
AcDbEntity
  8
0
100
AcDbBlockBegin
  2
*MODEL_SPACE
 70
     0
 10
0.0
 20
0.0
 30
0.0
  3
*MODEL_SPACE
  1

  0
ENDBLK
  5
20
330
1E
100
AcDbEntity
  8
0
100
AcDbBlockEnd
  0
BLOCK
  5
1B
330
1A
100
AcDbEntity
 67
     1
  8
0
100
AcDbBlockBegin
  2
*PAPER_SPACE
 70
     0
 10
0.0
 20
0.0
 30
0.0
  3
*PAPER_SPACE
  1

  0
ENDBLK
  5
1C
330
1A
100
AcDbEntity
 67
     1
  8
0
100
AcDbBlockEnd
  0
BLOCK
  5
47
330
46
100
AcDbEntity
  8
0
100
AcDbBlockBegin
  2
_ORIGIN
 70
     0
 10
0.0
 20
0.0
 30
0.0
  3
_ORIGIN
  1

  0
CIRCLE
  5
48
330
46
100
AcDbEntity
  8
0
  6
ByBlock
 62
     0
100
AcDbCircle
 10
0.0
 20
0.0
 30
0.0
 40
0.5
  0
LINE
  5
49
330
46
100
AcDbEntity
  8
0
  6
ByBlock
 62
     0
100
AcDbLine
 10
0.0
 20
0.0
 30
0.0
 11
-1.0
 21
0.0
 31
0.0
  0
ENDBLK
  5
4A
330
46
100
AcDbEntity
  8
0
100
AcDbBlockEnd
  0
BLOCK
  5
175B
330
175A
100
AcDbEntity
  8
0
100
AcDbBlockBegin
  2
_NONE
 70
     0
 10
0.0
 20
0.0
 30
0.0
  3
_NONE
  1

  0
ENDBLK
  5
175C
330
175A
100
AcDbEntity
  8
0
100
AcDbBlockEnd
  0
BLOCK
  5
1B469
330
1B468
100
AcDbEntity
  8
0
100
AcDbBlockBegin
  2
*D2
 70
     1
 10
0.0
 20
0.0
 30
0.0
  3
*D2
  1

  0
LINE
  5
1B4D7
330
1B468
100
AcDbEntity
  8
SIZE
  6
Continuous
 62
     0
440
 16777216
370
    -2
100
AcDbLine
 10
596.9224990107102
 20
0.0000000000000032
 30
0.0
 11
891.1871562585075
 21
0.0000000000000505
 31
0.0
  0
LINE
  5
1B4D8
330
1B468
100
AcDbEntity
  8
SIZE
  6
Continuous
 62
     0
440
 16777216
370
    -2
100
AcDbLine
 10
20.00000000109712
 20
-300.0000000482834
 30
0.0
 11
891.1871562585075
 21
-300.0000000482833
 31
0.0
  0
LINE
  5
1B4D9
330
1B468
100
AcDbEntity
  8
SIZE
  6
Continuous
 62
     0
440
 16777216
370
    -2
100
AcDbLine
 10
871.1871562585074
 20
-9.999999999999953
 30
0.0
 11
871.1871562585075
 21
-290.0000000482833
 31
0.0
  0
LINE
  5
1B4DA
330
1B468
100
AcDbEntity
  8
SIZE
  6
Continuous
 62
     0
440
 16777216
370
    -2
100
AcDbLine
 10
871.1871562585075
 20
-300.0000000482833
 30
0.0
 11
871.1871562585077
 21
-810.0000000482832
 31
0.0
  0
INSERT
  5
1B4DB
330
1B468
100
AcDbEntity
  8
SIZE
  6
Continuous
 62
     0
440
 16777216
370
    -2
100
AcDbBlockReference
  2
_ORIGIN
 10
871.1871562585074
 20
0.0000000000000473
 30
0.0
 41
10.0
 42
10.0
 43
10.0
 50
90.0
  0
INSERT
  5
1B4DC
330
1B468
100
AcDbEntity
  8
SIZE
  6
Continuous
 62
     0
440
 16777216
370
    -2
100
AcDbBlockReference
  2
_ORIGIN
 10
871.1871562585075
 20
-300.0000000482833
 30
0.0
 41
10.0
 42
10.0
 43
10.0
 50
270.0
  0
MTEXT
  5
1B4DD
330
1B468
100
AcDbEntity
  8
SIZE
  6
Continuous
 62
     0
440
 16777216
100
AcDbMText
 10
836.1871562585072
 20
-560.0000000482831
 30
0.0
 40
50.0
 41
0.0
 46
0.0
 71
     5
 72
     1
  1
\A1;300.00000005
 11
0.0000000000000001
 21
1.0
 31
0.0
 73
     1
 44
1.0
  0
POINT
  5
1B4DE
330
1B468
100
AcDbEntity
  8
DEFPOINTS
  6
Continuous
 62
     0
440
 16777216
100
AcDbPoint
 10
576.9224990107102
 20
0.0
 30
0.0
  0
POINT
  5
1B4DF
330
1B468
100
AcDbEntity
  8
DEFPOINTS
  6
Continuous
 62
     0
440
 16777216
100
AcDbPoint
 10
0.0000000010971157
 20
-300.0000000482834
 30
0.0
  0
POINT
  5
1B4E0
330
1B468
100
AcDbEntity
  8
DEFPOINTS
  6
Continuous
 62
     0
440
 16777216
100
AcDbPoint
 10
871.1871562585075
 20
-300.0000000482833
 30
0.0
  0
ENDBLK
  5
1B46A
330
1B468
100
AcDbEntity
  8
0
100
AcDbBlockEnd
  0
BLOCK
  5
1B4E3
330
1B4E2
100
AcDbEntity
  8
0
100
AcDbBlockBegin
  2
*D3
 70
     1
 10
0.0
 20
0.0
 30
0.0
  3
*D3
  1

  0
LINE
  5
1BB37
330
1B4E2
100
AcDbEntity
  8
SIZE
  6
Continuous
 62
     0
440
 16777216
370
    -2
100
AcDbLine
 10
596.9224990107106
 20
0.0000000000000032
 30
0.0
 11
804.9459502056544
 21
0.0000000000000367
 31
0.0
  0
LINE
  5
1BB38
330
1B4E2
100
AcDbEntity
  8
SIZE
  6
Continuous
 62
     0
440
 16777216
370
    -2
100
AcDbLine
 10
20.0
 20
-300.0000000000001
 30
0.0
 11
804.9459502056546
 21
-300.0
 31
0.0
  0
LINE
  5
1BB39
330
1B4E2
100
AcDbEntity
  8
SIZE
  6
Continuous
 62
     0
440
 16777216
370
    -2
100
AcDbLine
 10
784.9459502056544
 20
-9.999999999999966
 30
0.0
 11
784.9459502056544
 21
-290.0
 31
0.0
  0
INSERT
  5
1BB3A
330
1B4E2
100
AcDbEntity
  8
SIZE
  6
Continuous
 62
     0
440
 16777216
370
    -2
100
AcDbBlockReference
  2
_ORIGIN
 10
784.9459502056544
 20
0.0000000000000335
 30
0.0
 41
10.0
 42
10.0
 43
10.0
 50
90.0
  0
INSERT
  5
1BB3B
330
1B4E2
100
AcDbEntity
  8
SIZE
  6
Continuous
 62
     0
440
 16777216
370
    -2
100
AcDbBlockReference
  2
_ORIGIN
 10
784.9459502056544
 20
-300.0
 30
0.0
 41
10.0
 42
10.0
 43
10.0
 50
270.0
  0
MTEXT
  5
1BB3C
330
1B4E2
100
AcDbEntity
  8
SIZE
  6
Continuous
 62
     0
440
 16777216
100
AcDbMText
 10
749.9459502056541
 20
-150.0000000000001
 30
0.0
 40
50.0
 41
0.0
 46
0.0
 71
     5
 72
     1
  1
\A1;300
 11
0.0000000000000001
 21
1.0
 31
0.0
 73
     1
 44
1.0
  0
POINT
  5
1BB3D
330
1B4E2
100
AcDbEntity
  8
DEFPOINTS
  6
Continuous
 62
     0
440
 16777216
100
AcDbPoint
 10
576.9224990107105
 20
0.0
 30
0.0
  0
POINT
  5
1BB3E
330
1B4E2
100
AcDbEntity
  8
DEFPOINTS
  6
Continuous
 62
     0
440
 16777216
100
AcDbPoint
 10
0.0
 20
-300.0000000000001
 30
0.0
  0
POINT
  5
1BB3F
330
1B4E2
100
AcDbEntity
  8
DEFPOINTS
  6
Continuous
 62
     0
440
 16777216
100
AcDbPoint
 10
784.9459502056544
 20
-300.0
 30
0.0
  0
ENDBLK
  5
1B4E4
330
1B4E2
100
AcDbEntity
  8
0
100
AcDbBlockEnd
  0
BLOCK
  5
1B54E
330
1B54D
100
AcDbEntity
  8
0
100
AcDbBlockBegin
  2
_OPEN
 70
     0
 10
0.0
 20
0.0
 30
0.0
  3
_OPEN
  1

  0
LINE
  5
1B54F
330
1B54D
100
AcDbEntity
  8
0
  6
ByBlock
 62
     0
100
AcDbLine
 10
0.0
 20
0.0
 30
0.0
 11
-1.0
 21
0.25
 31
0.0
  0
LINE
  5
1B550
330
1B54D
100
AcDbEntity
  8
0
  6
ByBlock
 62
     0
100
AcDbLine
 10
-1.0
 20
-0.25
 30
0.0
 11
0.0
 21
0.0
 31
0.0
  0
LINE
  5
1B551
330
1B54D
100
AcDbEntity
  8
0
  6
ByBlock
 62
     0
100
AcDbLine
 10
-1.0
 20
0.0
 30
0.0
 11
0.0
 21
0.0
 31
0.0
  0
ENDBLK
  5
1B552
330
1B54D
100
AcDbEntity
  8
0
  6
ByBlock
 62
     0
100
AcDbBlockEnd
  0
BLOCK
  5
1B554
330
1B553
100
AcDbEntity
  8
0
  6
Continuous
 62
     2
100
AcDbBlockBegin
  2
*D5
 70
     1
 10
0.0
 20
0.0
 30
0.0
  3
*D5
  1

  0
MTEXT
  5
1B555
330
1B553
100
AcDbEntity
  8
0
  6
Continuous
 62
     2
440
 16777216
100
AcDbMText
 10
165.1598496592
 20
247.251856156
 30
0.0
 40
3.5
 41
11.8125
 46
0.0
 71
     1
 72
     1
  1
R18
 11
0.7516655147686802
 21
-0.6595445048725183
 31
0.0
 73
     1
 44
0.9
  0
LINE
  5
1B556
330
1B553
100
AcDbEntity
  8
0
  6
Continuous
 62
     2
440
 16777216
100
AcDbLine
 10
154.1427819432
 20
251.0983096849
 30
0.0
 11
151.4367860901
 21
253.4726699024
 31
0.0
  0
LINE
  5
1B557
330
1B553
100
AcDbEntity
  8
0
  6
Continuous
 62
     2
440
 16777216
100
AcDbLine
 10
151.4367860901
 20
253.4726699024
 30
0.0
 11
168.1937083792
 21
238.769406553
 31
0.0
  0
INSERT
  5
1B558
330
1B553
100
AcDbEntity
  8
0
  6
Continuous
 62
     2
440
 16777216
100
AcDbBlockReference
  2
_OPEN
 10
154.1427819432
 20
251.0983096849
 30
0.0
 41
2.0
 42
2.0
 43
2.0
 50
318.734856608
  0
ENDBLK
  5
1B559
330
1B553
100
AcDbEntity
  8
0
  6
ByBlock
 62
     0
100
AcDbBlockEnd
  0
BLOCK
  5
1B55B
330
1B55A
100
AcDbEntity
  8
0
  6
Continuous
 62
     2
100
AcDbBlockBegin
  2
*D6
 70
     1
 10
0.0
 20
0.0
 30
0.0
  3
*D6
  1

  0
MTEXT
  5
1B55C
330
1B55A
100
AcDbEntity
  8
0
  6
Continuous
 62
     2
440
 16777216
100
AcDbMText
 10
160.2990163218
 20
256.8726699024
 30
0.0
 40
3.5
 41
7.875
 46
0.0
 71
     2
 72
     1
  1
70
 11
0.0
 21
1.0
 31
0.0
 73
     1
 44
0.9
  0
LINE
  5
1B55D
330
1B55A
100
AcDbEntity
  8
0
  6
Continuous
 62
     2
440
 16777216
100
AcDbLine
 10
149.9508036296
 20
249.8726699024
 30
0.0
 11
163.7990163218
 21
249.8726699024
 31
0.0
  0
LINE
  5
1B55E
330
1B55A
100
AcDbEntity
  8
0
  6
Continuous
 62
     2
440
 16777216
100
AcDbLine
 10
163.7990163218
 20
249.8726699024
 30
0.0
 11
166.6740163218
 21
249.8726699024
 31
0.0
  0
LINE
  5
1B55F
330
1B55A
100
AcDbEntity
  8
0
  6
Continuous
 62
     2
440
 16777216
100
AcDbLine
 10
156.136819525
 20
263.8726699024
 30
0.0
 11
163.7990163218
 21
263.8726699024
 31
0.0
  0
LINE
  5
1B560
330
1B55A
100
AcDbEntity
  8
0
  6
Continuous
 62
     2
440
 16777216
100
AcDbLine
 10
163.7990163218
 20
263.8726699024
 30
0.0
 11
166.6740163218
 21
263.8726699024
 31
0.0
  0
LINE
  5
1B561
330
1B55A
100
AcDbEntity
  8
0
  6
Continuous
 62
     2
440
 16777216
100
AcDbLine
 10
164.6740163218
 20
249.8726699024
 30
0.0
 11
164.6740163218
 21
256.8726699024
 31
0.0
  0
LINE
  5
1B562
330
1B55A
100
AcDbEntity
  8
0
  6
Continuous
 62
     2
440
 16777216
100
AcDbLine
 10
164.6740163218
 20
263.8726699024
 30
0.0
 11
164.6740163218
 21
256.8726699024
 31
0.0
  0
INSERT
  5
1B563
330
1B55A
100
AcDbEntity
  8
0
  6
Continuous
 62
     2
440
 16777216
100
AcDbBlockReference
  2
_OPEN
 10
164.6740163218
 20
249.8726699024
 30
0.0
 41
2.0
 42
2.0
 43
2.0
 50
270.0
  0
INSERT
  5
1B564
330
1B55A
100
AcDbEntity
  8
0
  6
Continuous
 62
     2
440
 16777216
100
AcDbBlockReference
  2
_OPEN
 10
164.6740163218
 20
263.8726699024
 30
0.0
 41
2.0
 42
2.0
 43
2.0
 50
90.0
  0
ENDBLK
  5
1B565
330
1B55A
100
AcDbEntity
  8
0
  6
ByBlock
 62
     0
100
AcDbBlockEnd
  0
BLOCK
  5
1B605
330
1B604
100
AcDbEntity
  8
0
100
AcDbBlockBegin
  2
*D7
 70
     1
 10
0.0
 20
0.0
 30
0.0
  3
*D7
  1

  0
LINE
  5
1B61A
330
1B604
100
AcDbEntity
  8
0
  6
Continuous
 62
     0
440
 16777216
370
    -2
100
AcDbLine
 10
-782.4780837398953
 20
-1123.895051627108
 30
0.0
 11
-795.4725673150528
 21
-1112.493118097733
 31
0.0
  0
MTEXT
  5
1B61B
330
1B604
100
AcDbEntity
  8
0
  6
Continuous
 62
     0
440
 16777216
100
AcDbMText
 10
-787.541898644582
 20
-1113.964023600082
 30
0.0
 40
3.5
 41
11.8125
 46
0.0
 71
     1
 72
     1
  1
\A1;R18
 11
0.7516655147662136
 21
-0.6595445048753295
 31
0.0
 73
     1
 44
1.0
  0
INSERT
  5
1B61C
330
1B604
100
AcDbEntity
  8
0
  6
Continuous
 62
     0
440
 16777216
370
    -2
100
AcDbBlockReference
  2
_OPEN
 10
-796.9758983445848
 20
-1111.174029087982
 30
0.0
 41
2.0
 42
2.0
 43
2.0
 50
138.7348566076619
  0
LINE
  5
1B61D
330
1B604
100
AcDbEntity
  8
0
  6
Continuous
 62
     0
440
 16777216
370
    -2
100
AcDbLine
 10
-799.7718941976851
 20
-1108.799668870482
 30
0.0
 11
-799.5918941976849
 21
-1108.799668870482
 31
0.0
  0
LINE
  5
1B61E
330
1B604
100
AcDbEntity
  8
0
  6
Continuous
 62
     0
440
 16777216
370
    -2
100
AcDbLine
 10
-799.6818941976852
 20
-1108.889668870482
 30
0.0
 11
-799.6818941976851
 21
-1108.709668870482
 31
0.0
  0
POINT
  5
1B61F
330
1B604
100
AcDbEntity
  8
DEFPOINTS
  6
Continuous
 62
     0
440
 16777216
100
AcDbPoint
 10
-796.9758983445848
 20
-1111.174029087982
 30
0.0
  0
POINT
  5
1B620
330
1B604
100
AcDbEntity
  8
DEFPOINTS
  6
Continuous
 62
     0
440
 16777216
100
AcDbPoint
 10
-799.6818941976852
 20
-1108.799668870482
 30
0.0
  0
ENDBLK
  5
1B606
330
1B604
100
AcDbEntity
  8
0
100
AcDbBlockEnd
  0
BLOCK
  5
1B60F
330
1B60E
100
AcDbEntity
  8
0
100
AcDbBlockBegin
  2
*D8
 70
     1
 10
0.0
 20
0.0
 30
0.0
  3
*D8
  1

  0
LINE
  5
1B63A
330
1B60E
100
AcDbEntity
  8
0
  6
Continuous
 62
     0
440
 16777216
370
    -2
100
AcDbLine
 10
-616.522802806586
 20
-1000.399668870483
 30
0.0
 11
-536.9067393455853
 21
-1000.399668870483
 31
0.0
  0
LINE
  5
1B63B
330
1B60E
100
AcDbEntity
  8
0
  6
Continuous
 62
     0
440
 16777216
370
    -2
100
AcDbLine
 10
-585.5927233295857
 20
-930.3996688704831
 30
0.0
 11
-536.9067393455853
 21
-930.3996688704831
 31
0.0
  0
LINE
  5
1B63C
330
1B60E
100
AcDbEntity
  8
0
  6
Continuous
 62
     0
440
 16777216
370
    -2
100
AcDbLine
 10
-538.9067393455855
 20
-998.3996688704833
 30
0.0
 11
-538.9067393455855
 21
-932.3996688704832
 31
0.0
  0
INSERT
  5
1B63D
330
1B60E
100
AcDbEntity
  8
0
  6
Continuous
 62
     0
440
 16777216
370
    -2
100
AcDbBlockReference
  2
_OPEN
 10
-538.9067393455855
 20
-1000.399668870483
 30
0.0
 41
2.0
 42
2.0
 43
2.0
 50
270.0
  0
INSERT
  5
1B63E
330
1B60E
100
AcDbEntity
  8
0
  6
Continuous
 62
     0
440
 16777216
370
    -2
100
AcDbBlockReference
  2
_OPEN
 10
-538.9067393455855
 20
-930.3996688704831
 30
0.0
 41
2.0
 42
2.0
 43
2.0
 50
90.0
  0
MTEXT
  5
1B63F
330
1B60E
100
AcDbEntity
  8
0
  6
Continuous
 62
     0
440
 16777216
100
AcDbMText
 10
-543.2817393455857
 20
-965.3996741849812
 30
0.0
 40
3.5
 41
7.875
 46
0.0
 71
     2
 72
     1
  1
\A1;70
 11
0.0000000000000001
 21
1.0
 31
0.0
 73
     1
 44
1.0
  0
POINT
  5
1B640
330
1B60E
100
AcDbEntity
  8
DEFPOINTS
  6
Continuous
 62
     0
440
 16777216
100
AcDbPoint
 10
-617.522802806586
 20
-1000.399668870483
 30
0.0
  0
POINT
  5
1B641
330
1B60E
100
AcDbEntity
  8
DEFPOINTS
  6
Continuous
 62
     0
440
 16777216
100
AcDbPoint
 10
-586.5927233295857
 20
-930.3996688704831
 30
0.0
  0
POINT
  5
1B642
330
1B60E
100
AcDbEntity
  8
DEFPOINTS
  6
Continuous
 62
     0
440
 16777216
100
AcDbPoint
 10
-538.9067393455855
 20
-930.3996688704831
 30
0.0
  0
ENDBLK
  5
1B610
330
1B60E
100
AcDbEntity
  8
0
100
AcDbBlockEnd
  0
BLOCK
  5
1B62D
330
1B62C
100
AcDbEntity
  8
0
100
AcDbBlockBegin
  2
*D9
 70
     1
 10
0.0
 20
0.0
 30
0.0
  3
*D9
  1

  0
LINE
  5
1B62F
330
1B62C
100
AcDbEntity
  8
SIZE
  6
Continuous
 62
     0
440
 16777216
370
    -2
100
AcDbLine
 10
-774.6018941976857
 20
-1098.399668870483
 30
0.0
 11
-724.2536760815749
 21
-1098.399668870483
 31
0.0
  0
LINE
  5
1B630
330
1B62C
100
AcDbEntity
  8
SIZE
  6
Continuous
 62
     0
440
 16777216
370
    -2
100
AcDbLine
 10
-779.6818941976856
 20
-1112.399668870483
 30
0.0
 11
-724.2536760815749
 21
-1112.399668870483
 31
0.0
  0
LINE
  5
1B631
330
1B62C
100
AcDbEntity
  8
SIZE
  6
Continuous
 62
     0
440
 16777216
370
    -2
100
AcDbLine
 10
-744.2536760815745
 20
-1088.399668870483
 30
0.0
 11
-744.2536760815745
 21
-1078.399668870483
 31
0.0
  0
LINE
  5
1B632
330
1B62C
100
AcDbEntity
  8
SIZE
  6
Continuous
 62
     0
440
 16777216
370
    -2
100
AcDbLine
 10
-744.2536760815745
 20
-1122.399668870483
 30
0.0
 11
-744.2536760815745
 21
-1218.828240299055
 31
0.0
  0
LINE
  5
1B633
330
1B62C
100
AcDbEntity
  8
SIZE
  6
Continuous
 62
     0
440
 16777216
370
    -2
100
AcDbLine
 10
-744.2536760815745
 20
-1098.399668870483
 30
0.0
 11
-744.2536760815745
 21
-1112.399668870483
 31
0.0
  0
INSERT
  5
1B634
330
1B62C
100
AcDbEntity
  8
SIZE
  6
Continuous
 62
     0
440
 16777216
370
    -2
100
AcDbBlockReference
  2
_ORIGIN
 10
-744.2536760815745
 20
-1098.399668870483
 30
0.0
 41
10.0
 42
10.0
 43
10.0
 50
270.0
  0
INSERT
  5
1B635
330
1B62C
100
AcDbEntity
  8
SIZE
  6
Continuous
 62
     0
440
 16777216
370
    -2
100
AcDbBlockReference
  2
_ORIGIN
 10
-744.2536760815745
 20
-1112.399668870483
 30
0.0
 41
10.0
 42
10.0
 43
10.0
 50
90.0
  0
MTEXT
  5
1B636
330
1B62C
100
AcDbEntity
  8
SIZE
  6
Continuous
 62
     0
440
 16777216
100
AcDbMText
 10
-779.253676081575
 20
-1175.613954584769
 30
0.0
 40
50.0
 41
0.0
 46
0.0
 71
     5
 72
     1
  1
\A1;14
 11
0.0000000000000001
 21
1.0
 31
0.0
 73
     1
 44
1.0
  0
POINT
  5
1B637
330
1B62C
100
AcDbEntity
  8
DEFPOINTS
  6
Continuous
 62
     0
440
 16777216
100
AcDbPoint
 10
-794.6018941976857
 20
-1098.399668870483
 30
0.0
  0
POINT
  5
1B638
330
1B62C
100
AcDbEntity
  8
DEFPOINTS
  6
Continuous
 62
     0
440
 16777216
100
AcDbPoint
 10
-799.6818941976856
 20
-1112.399668870483
 30
0.0
  0
POINT
  5
1B639
330
1B62C
100
AcDbEntity
  8
DEFPOINTS
  6
Continuous
 62
     0
440
 16777216
100
AcDbPoint
 10
-744.2536760815745
 20
-1112.399668870483
 30
0.0
  0
ENDBLK
  5
1B62E
330
1B62C
100
AcDbEntity
  8
0
100
AcDbBlockEnd
  0
BLOCK
  5
1B645
330
1B644
100
AcDbEntity
  8
0
100
AcDbBlockBegin
  2
*D10
 70
     1
 10
0.0
 20
0.0
 30
0.0
  3
*D10
  1

  0
LINE
  5
1BB42
330
1B644
100
AcDbEntity
  8
SIZE
  6
Continuous
 62
     0
440
 16777216
370
    -2
100
AcDbLine
 10
-585.0
 20
-135.6496542420209
 30
0.0
 11
-585.0
 21
-520.0000000116159
 31
0.0
  0
LINE
  5
1BB43
330
1B644
100
AcDbEntity
  8
SIZE
  6
Continuous
 62
     0
440
 16777216
370
    -2
100
AcDbLine
 10
585.0
 20
-135.6496542420209
 30
0.0
 11
585.0
 21
-520.0000000116159
 31
0.0
  0
LINE
  5
1BB44
330
1B644
100
AcDbEntity
  8
SIZE
  6
Continuous
 62
     0
440
 16777216
370
    -2
100
AcDbLine
 10
-575.0
 20
-500.000000011616
 30
0.0
 11
575.0
 21
-500.000000011616
 31
0.0
  0
INSERT
  5
1BB45
330
1B644
100
AcDbEntity
  8
SIZE
  6
Continuous
 62
     0
440
 16777216
370
    -2
100
AcDbBlockReference
  2
_ORIGIN
 10
-585.0
 20
-500.000000011616
 30
0.0
 41
10.0
 42
10.0
 43
10.0
 50
180.0
  0
INSERT
  5
1BB46
330
1B644
100
AcDbEntity
  8
SIZE
  6
Continuous
 62
     0
440
 16777216
370
    -2
100
AcDbBlockReference
  2
_ORIGIN
 10
585.0
 20
-500.000000011616
 30
0.0
 41
10.0
 42
10.0
 43
10.0
  0
MTEXT
  5
1BB47
330
1B644
100
AcDbEntity
  8
SIZE
  6
Continuous
 62
     0
440
 16777216
100
AcDbMText
 10
0.0000000000000021
 20
-465.0000000116158
 30
0.0
 40
50.0
 41
0.0
 46
0.0
 71
     5
 72
     1
  1
\A1;1170
 73
     1
 44
1.0
  0
POINT
  5
1BB48
330
1B644
100
AcDbEntity
  8
DEFPOINTS
  6
Continuous
 62
     0
440
 16777216
100
AcDbPoint
 10
-585.0
 20
-115.6496542420209
 30
0.0
  0
POINT
  5
1BB49
330
1B644
100
AcDbEntity
  8
DEFPOINTS
  6
Continuous
 62
     0
440
 16777216
100
AcDbPoint
 10
585.0
 20
-115.6496542420209
 30
0.0
  0
POINT
  5
1BB4A
330
1B644
100
AcDbEntity
  8
DEFPOINTS
  6
Continuous
 62
     0
440
 16777216
100
AcDbPoint
 10
585.0
 20
-500.000000011616
 30
0.0
  0
ENDBLK
  5
1B646
330
1B644
100
AcDbEntity
  8
0
100
AcDbBlockEnd
  0
BLOCK
  5
1B6C9
330
1B6C8
100
AcDbEntity
  8
0
100
AcDbBlockBegin
  2
*D11
 70
     1
 10
0.0
 20
0.0
 30
0.0
  3
*D11
  1

  0
LINE
  5
1BAFD
330
1B6C8
100
AcDbEntity
  8
SIZE
  6
Continuous
 62
     0
440
 16777216
370
    -2
100
AcDbLine
 10
449.2000000000007
 20
39.99999999999909
 30
0.0
 11
449.2000000000007
 21
220.0
 31
0.0
  0
LINE
  5
1BAFE
330
1B6C8
100
AcDbEntity
  8
SIZE
  6
Continuous
 62
     0
440
 16777216
370
    -2
100
AcDbLine
 10
0.0000000000000012
 20
99.10129269054504
 30
0.0
 11
0.0000000000000086
 21
220.0
 31
0.0
  0
LINE
  5
1BAFF
330
1B6C8
100
AcDbEntity
  8
SIZE
  6
Continuous
 62
     0
440
 16777216
370
    -2
100
AcDbLine
 10
439.2000000000006
 20
200.0
 30
0.0
 11
10.0
 21
200.0
 31
0.0
  0
INSERT
  5
1BB00
330
1B6C8
100
AcDbEntity
  8
SIZE
  6
Continuous
 62
     0
440
 16777216
370
    -2
100
AcDbBlockReference
  2
_ORIGIN
 10
449.2000000000007
 20
200.0
 30
0.0
 41
10.0
 42
10.0
 43
10.0
  0
INSERT
  5
1BB01
330
1B6C8
100
AcDbEntity
  8
SIZE
  6
Continuous
 62
     0
440
 16777216
370
    -2
100
AcDbBlockReference
  2
_ORIGIN
 10
0.0000000000000074
 20
200.0
 30
0.0
 41
10.0
 42
10.0
 43
10.0
 50
180.0
  0
MTEXT
  5
1BB02
330
1B6C8
100
AcDbEntity
  8
SIZE
  6
Continuous
 62
     0
440
 16777216
100
AcDbMText
 10
224.6000000000003
 20
235.0
 30
0.0
 40
50.0
 41
0.0
 46
0.0
 71
     5
 72
     1
  1
\A1;449.2
 73
     1
 44
1.0
  0
POINT
  5
1BB03
330
1B6C8
100
AcDbEntity
  8
DEFPOINTS
  6
Continuous
 62
     0
440
 16777216
100
AcDbPoint
 10
449.2000000000007
 20
19.99999999999909
 30
0.0
  0
POINT
  5
1BB04
330
1B6C8
100
AcDbEntity
  8
DEFPOINTS
  6
Continuous
 62
     0
440
 16777216
100
AcDbPoint
 10
0.0
 20
79.10129269054504
 30
0.0
  0
POINT
  5
1BB05
330
1B6C8
100
AcDbEntity
  8
DEFPOINTS
  6
Continuous
 62
     0
440
 16777216
100
AcDbPoint
 10
0.0000000000000074
 20
200.0
 30
0.0
  0
ENDBLK
  5
1B6CA
330
1B6C8
100
AcDbEntity
  8
0
100
AcDbBlockEnd
  0
BLOCK
  5
1B6D6
330
1B6D5
100
AcDbEntity
  8
0
100
AcDbBlockBegin
  2
*D12
 70
     1
 10
0.0
 20
0.0
 30
0.0
  3
*D12
  1

  0
LINE
  5
1BB06
330
1B6D5
100
AcDbEntity
  8
SIZE
  6
Continuous
 62
     0
440
 16777216
370
    -2
100
AcDbLine
 10
-530.4999999999998
 20
40.0
 30
0.0
 11
-530.4999999999998
 21
220.0
 31
0.0
  0
LINE
  5
1BB07
330
1B6D5
100
AcDbEntity
  8
SIZE
  6
Continuous
 62
     0
440
 16777216
370
    -2
100
AcDbLine
 10
0.0000000000000012
 20
99.10129269054504
 30
0.0
 11
0.0000000000000086
 21
220.0
 31
0.0
  0
LINE
  5
1BB08
330
1B6D5
100
AcDbEntity
  8
SIZE
  6
Continuous
 62
     0
440
 16777216
370
    -2
100
AcDbLine
 10
-520.4999999999999
 20
200.0
 30
0.0
 11
-9.999999999999991
 21
200.0
 31
0.0
  0
INSERT
  5
1BB09
330
1B6D5
100
AcDbEntity
  8
SIZE
  6
Continuous
 62
     0
440
 16777216
370
    -2
100
AcDbBlockReference
  2
_ORIGIN
 10
-530.4999999999998
 20
200.0
 30
0.0
 41
10.0
 42
10.0
 43
10.0
 50
180.0
  0
INSERT
  5
1BB0A
330
1B6D5
100
AcDbEntity
  8
SIZE
  6
Continuous
 62
     0
440
 16777216
370
    -2
100
AcDbBlockReference
  2
_ORIGIN
 10
0.0000000000000074
 20
200.0
 30
0.0
 41
10.0
 42
10.0
 43
10.0
  0
MTEXT
  5
1BB0B
330
1B6D5
100
AcDbEntity
  8
SIZE
  6
Continuous
 62
     0
440
 16777216
100
AcDbMText
 10
-265.2499999999999
 20
235.0
 30
0.0
 40
50.0
 41
0.0
 46
0.0
 71
     5
 72
     1
  1
\A1;530.5
 73
     1
 44
1.0
  0
POINT
  5
1BB0C
330
1B6D5
100
AcDbEntity
  8
DEFPOINTS
  6
Continuous
 62
     0
440
 16777216
100
AcDbPoint
 10
-530.4999999999998
 20
20.0
 30
0.0
  0
POINT
  5
1BB0D
330
1B6D5
100
AcDbEntity
  8
DEFPOINTS
  6
Continuous
 62
     0
440
 16777216
100
AcDbPoint
 10
0.0
 20
79.10129269054504
 30
0.0
  0
POINT
  5
1BB0E
330
1B6D5
100
AcDbEntity
  8
DEFPOINTS
  6
Continuous
 62
     0
440
 16777216
100
AcDbPoint
 10
0.0000000000000074
 20
200.0
 30
0.0
  0
ENDBLK
  5
1B6D7
330
1B6D5
100
AcDbEntity
  8
0
100
AcDbBlockEnd
  0
BLOCK
  5
1B785
330
1B784
100
AcDbEntity
  8
0
100
AcDbBlockBegin
  2
*D13
 70
     1
 10
0.0
 20
0.0
 30
0.0
  3
*D13
  1

  0
LINE
  5
1B787
330
1B784
100
AcDbEntity
  8
SIZE
  6
Continuous
 62
     0
440
 16777216
370
    -2
100
AcDbLine
 10
-576.9225009892908
 20
20.0
 30
0.0
 11
-576.9225009892908
 21
145.1441375141912
 31
0.0
  0
LINE
  5
1B788
330
1B784
100
AcDbEntity
  8
SIZE
  6
Continuous
 62
     0
440
 16777216
370
    -2
100
AcDbLine
 10
-583.2999999999993
 20
20.0
 30
0.0
 11
-583.2999999999993
 21
145.1441375141912
 31
0.0
  0
LINE
  5
1B789
330
1B784
100
AcDbEntity
  8
SIZE
  6
Continuous
 62
     0
440
 16777216
370
    -2
100
AcDbLine
 10
-566.9225009892908
 20
125.1441375141912
 30
0.0
 11
-556.9225009892908
 21
125.1441375141912
 31
0.0
  0
LINE
  5
1B78A
330
1B784
100
AcDbEntity
  8
SIZE
  6
Continuous
 62
     0
440
 16777216
370
    -2
100
AcDbLine
 10
-593.2999999999992
 20
125.1441375141912
 30
0.0
 11
-651.1571428571421
 21
125.1441375141912
 31
0.0
  0
LINE
  5
1B78B
330
1B784
100
AcDbEntity
  8
SIZE
  6
Continuous
 62
     0
440
 16777216
370
    -2
100
AcDbLine
 10
-576.9225009892908
 20
125.1441375141912
 30
0.0
 11
-583.2999999999993
 21
125.1441375141912
 31
0.0
  0
INSERT
  5
1B78C
330
1B784
100
AcDbEntity
  8
SIZE
  6
Continuous
 62
     0
440
 16777216
370
    -2
100
AcDbBlockReference
  2
_ORIGIN
 10
-576.9225009892908
 20
125.1441375141912
 30
0.0
 41
10.0
 42
10.0
 43
10.0
 50
180.0
  0
INSERT
  5
1B78D
330
1B784
100
AcDbEntity
  8
SIZE
  6
Continuous
 62
     0
440
 16777216
370
    -2
100
AcDbBlockReference
  2
_ORIGIN
 10
-583.2999999999993
 20
125.1441375141912
 30
0.0
 41
10.0
 42
10.0
 43
10.0
  0
MTEXT
  5
1B78E
330
1B784
100
AcDbEntity
  8
SIZE
  6
Continuous
 62
     0
440
 16777216
100
AcDbMText
 10
-627.2285714285708
 20
160.1441375141912
 30
0.0
 40
50.0
 41
0.0
 46
0.0
 71
     5
 72
     1
  1
\A1;6
 73
     1
 44
1.0
  0
POINT
  5
1B78F
330
1B784
100
AcDbEntity
  8
DEFPOINTS
  6
Continuous
 62
     0
440
 16777216
100
AcDbPoint
 10
-576.9225009892908
 20
0.0
 30
0.0
  0
POINT
  5
1B790
330
1B784
100
AcDbEntity
  8
DEFPOINTS
  6
Continuous
 62
     0
440
 16777216
100
AcDbPoint
 10
-583.2999999999993
 20
0.0
 30
0.0
  0
POINT
  5
1B791
330
1B784
100
AcDbEntity
  8
DEFPOINTS
  6
Continuous
 62
     0
440
 16777216
100
AcDbPoint
 10
-583.2999999999993
 20
125.1441375141912
 30
0.0
  0
ENDBLK
  5
1B786
330
1B784
100
AcDbEntity
  8
0
100
AcDbBlockEnd
  0
BLOCK
  5
1B829
330
1B828
100
AcDbEntity
  8
0
100
AcDbBlockBegin
  2
*D14
 70
     1
 10
0.0
 20
0.0
 30
0.0
  3
*D14
  1

  0
LINE
  5
1C0FA
330
1B828
100
AcDbEntity
  8
SIZE
  6
Continuous
 62
     0
440
 16777216
370
    -2
100
AcDbLine
 10
-389.9999999999995
 20
-135.6496542420209
 30
0.0
 11
-389.9999999999995
 21
-435.0
 31
0.0
  0
LINE
  5
1C0FB
330
1B828
100
AcDbEntity
  8
SIZE
  6
Continuous
 62
     0
440
 16777216
370
    -2
100
AcDbLine
 10
-392.9999999999996
 20
-22.99999999999966
 30
0.0
 11
-392.9999999999996
 21
-435.0
 31
0.0
  0
LINE
  5
1C0FC
330
1B828
100
AcDbEntity
  8
SIZE
  6
Continuous
 62
     0
440
 16777216
370
    -2
100
AcDbLine
 10
-379.9999999999995
 20
-415.0
 30
0.0
 11
-369.9999999999996
 21
-415.0
 31
0.0
  0
LINE
  5
1C0FD
330
1B828
100
AcDbEntity
  8
SIZE
  6
Continuous
 62
     0
440
 16777216
370
    -2
100
AcDbLine
 10
-402.9999999999994
 20
-415.0
 30
0.0
 11
-462.9999999999993
 21
-415.0
 31
0.0
  0
LINE
  5
1C0FE
330
1B828
100
AcDbEntity
  8
SIZE
  6
Continuous
 62
     0
440
 16777216
370
    -2
100
AcDbLine
 10
-389.9999999999995
 20
-415.0
 30
0.0
 11
-392.9999999999996
 21
-415.0
 31
0.0
  0
INSERT
  5
1C0FF
330
1B828
100
AcDbEntity
  8
SIZE
  6
Continuous
 62
     0
440
 16777216
370
    -2
100
AcDbBlockReference
  2
_ORIGIN
 10
-389.9999999999995
 20
-415.0
 30
0.0
 41
10.0
 42
10.0
 43
10.0
 50
180.0
  0
INSERT
  5
1C100
330
1B828
100
AcDbEntity
  8
SIZE
  6
Continuous
 62
     0
440
 16777216
370
    -2
100
AcDbBlockReference
  2
_ORIGIN
 10
-392.9999999999996
 20
-415.0
 30
0.0
 41
10.0
 42
10.0
 43
10.0
  0
MTEXT
  5
1C101
330
1B828
100
AcDbEntity
  8
SIZE
  6
Continuous
 62
     0
440
 16777216
100
AcDbMText
 10
-437.9999999999993
 20
-380.0
 30
0.0
 40
50.0
 41
0.0
 46
0.0
 71
     5
 72
     1
  1
\A1;3
 73
     1
 44
1.0
  0
POINT
  5
1C102
330
1B828
100
AcDbEntity
  8
DEFPOINTS
  6
Continuous
 62
     0
440
 16777216
100
AcDbPoint
 10
-389.9999999999995
 20
-115.6496542420209
 30
0.0
  0
POINT
  5
1C103
330
1B828
100
AcDbEntity
  8
DEFPOINTS
  6
Continuous
 62
     0
440
 16777216
100
AcDbPoint
 10
-392.9999999999996
 20
-2.999999999999658
 30
0.0
  0
POINT
  5
1C104
330
1B828
100
AcDbEntity
  8
DEFPOINTS
  6
Continuous
 62
     0
440
 16777216
100
AcDbPoint
 10
-392.9999999999996
 20
-415.0
 30
0.0
  0
ENDBLK
  5
1B82A
330
1B828
100
AcDbEntity
  8
0
100
AcDbBlockEnd
  0
BLOCK
  5
1B838
330
1B837
100
AcDbEntity
  8
0
100
AcDbBlockBegin
  2
*D15
 70
     1
 10
0.0
 20
0.0
 30
0.0
  3
*D15
  1

  0
LINE
  5
1BB18
330
1B837
100
AcDbEntity
  8
SIZE
  6
Continuous
 62
     0
440
 16777216
370
    -2
100
AcDbLine
 10
-585.0
 20
-95.64965424202092
 30
0.0
 11
-585.0
 21
120.0
 31
0.0
  0
LINE
  5
1BB19
330
1B837
100
AcDbEntity
  8
SIZE
  6
Continuous
 62
     0
440
 16777216
370
    -2
100
AcDbLine
 10
-593.0
 20
17.00000000000034
 30
0.0
 11
-593.0
 21
120.0
 31
0.0
  0
LINE
  5
1BB1A
330
1B837
100
AcDbEntity
  8
SIZE
  6
Continuous
 62
     0
440
 16777216
370
    -2
100
AcDbLine
 10
-575.0
 20
100.0
 30
0.0
 11
-565.0
 21
100.0
 31
0.0
  0
LINE
  5
1BB1B
330
1B837
100
AcDbEntity
  8
SIZE
  6
Continuous
 62
     0
440
 16777216
370
    -2
100
AcDbLine
 10
-603.0
 20
100.0
 30
0.0
 11
-663.0
 21
100.0
 31
0.0
  0
LINE
  5
1BB1C
330
1B837
100
AcDbEntity
  8
SIZE
  6
Continuous
 62
     0
440
 16777216
370
    -2
100
AcDbLine
 10
-585.0
 20
100.0
 30
0.0
 11
-593.0
 21
100.0
 31
0.0
  0
INSERT
  5
1BB1D
330
1B837
100
AcDbEntity
  8
SIZE
  6
Continuous
 62
     0
440
 16777216
370
    -2
100
AcDbBlockReference
  2
_ORIGIN
 10
-585.0
 20
100.0
 30
0.0
 41
10.0
 42
10.0
 43
10.0
 50
180.0
  0
INSERT
  5
1BB1E
330
1B837
100
AcDbEntity
  8
SIZE
  6
Continuous
 62
     0
440
 16777216
370
    -2
100
AcDbBlockReference
  2
_ORIGIN
 10
-593.0
 20
100.0
 30
0.0
 41
10.0
 42
10.0
 43
10.0
  0
MTEXT
  5
1BB1F
330
1B837
100
AcDbEntity
  8
SIZE
  6
Continuous
 62
     0
440
 16777216
100
AcDbMText
 10
-638.0
 20
135.0
 30
0.0
 40
50.0
 41
0.0
 46
0.0
 71
     5
 72
     1
  1
\A1;8
 73
     1
 44
1.0
  0
POINT
  5
1BB20
330
1B837
100
AcDbEntity
  8
DEFPOINTS
  6
Continuous
 62
     0
440
 16777216
100
AcDbPoint
 10
-585.0
 20
-115.6496542420209
 30
0.0
  0
POINT
  5
1BB21
330
1B837
100
AcDbEntity
  8
DEFPOINTS
  6
Continuous
 62
     0
440
 16777216
100
AcDbPoint
 10
-593.0
 20
-2.999999999999658
 30
0.0
  0
POINT
  5
1BB22
330
1B837
100
AcDbEntity
  8
DEFPOINTS
  6
Continuous
 62
     0
440
 16777216
100
AcDbPoint
 10
-593.0
 20
100.0
 30
0.0
  0
ENDBLK
  5
1B839
330
1B837
100
AcDbEntity
  8
0
100
AcDbBlockEnd
  0
BLOCK
  5
1B852
330
1B851
100
AcDbEntity
  8
0
100
AcDbBlockBegin
  2
*D16
 70
     1
 10
0.0
 20
0.0
 30
0.0
  3
*D16
  1

  0
LINE
  5
1C0B4
330
1B851
100
AcDbEntity
  8
SIZE
  6
Continuous
 62
     0
440
 16777216
370
    -2
100
AcDbLine
 10
-392.9999999999996
 20
17.00000000000034
 30
0.0
 11
-392.9999999999996
 21
220.0
 31
0.0
  0
LINE
  5
1C0B5
330
1B851
100
AcDbEntity
  8
SIZE
  6
Continuous
 62
     0
440
 16777216
370
    -2
100
AcDbLine
 10
-680.9999999999994
 20
17.00000000000034
 30
0.0
 11
-680.9999999999994
 21
220.0
 31
0.0
  0
LINE
  5
1C0B6
330
1B851
100
AcDbEntity
  8
SIZE
  6
Continuous
 62
     0
440
 16777216
370
    -2
100
AcDbLine
 10
-402.9999999999994
 20
200.0
 30
0.0
 11
-670.9999999999994
 21
200.0
 31
0.0
  0
INSERT
  5
1C0B7
330
1B851
100
AcDbEntity
  8
SIZE
  6
Continuous
 62
     0
440
 16777216
370
    -2
100
AcDbBlockReference
  2
_ORIGIN
 10
-392.9999999999996
 20
200.0
 30
0.0
 41
10.0
 42
10.0
 43
10.0
  0
INSERT
  5
1C0B8
330
1B851
100
AcDbEntity
  8
SIZE
  6
Continuous
 62
     0
440
 16777216
370
    -2
100
AcDbBlockReference
  2
_ORIGIN
 10
-680.9999999999994
 20
200.0
 30
0.0
 41
10.0
 42
10.0
 43
10.0
 50
180.0
  0
MTEXT
  5
1C0B9
330
1B851
100
AcDbEntity
  8
SIZE
  6
Continuous
 62
     0
440
 16777216
100
AcDbMText
 10
-500.8269218483976
 20
235.0
 30
0.0
 40
50.0
 41
0.0
 46
0.0
 71
     5
 72
     1
  1
\A1;288
 73
     1
 44
1.0
  0
POINT
  5
1C0BA
330
1B851
100
AcDbEntity
  8
DEFPOINTS
  6
Continuous
 62
     0
440
 16777216
100
AcDbPoint
 10
-392.9999999999996
 20
-2.999999999999658
 30
0.0
  0
POINT
  5
1C0BB
330
1B851
100
AcDbEntity
  8
DEFPOINTS
  6
Continuous
 62
     0
440
 16777216
100
AcDbPoint
 10
-680.9999999999994
 20
-2.999999999999658
 30
0.0
  0
POINT
  5
1C0BC
330
1B851
100
AcDbEntity
  8
DEFPOINTS
  6
Continuous
 62
     0
440
 16777216
100
AcDbPoint
 10
-680.9999999999994
 20
200.0
 30
0.0
  0
ENDBLK
  5
1B853
330
1B851
100
AcDbEntity
  8
0
100
AcDbBlockEnd
  0
BLOCK
  5
1B86A
330
1B869
100
AcDbEntity
  8
0
100
AcDbBlockBegin
  2
*D17
 70
     1
 10
0.0
 20
0.0
 30
0.0
  3
*D17
  1

  0
LINE
  5
1C0BD
330
1B869
100
AcDbEntity
  8
SIZE
  6
Continuous
 62
     0
440
 16777216
370
    -2
100
AcDbLine
 10
-688.2362546169996
 20
-210.0000000000007
 30
0.0
 11
-901.0
 21
-210.0000000000008
 31
0.0
  0
LINE
  5
1C0BE
330
1B869
100
AcDbEntity
  8
SIZE
  6
Continuous
 62
     0
440
 16777216
370
    -2
100
AcDbLine
 10
-673.9999999999997
 20
-0.0000000000000254
 30
0.0
 11
-901.0
 21
-0.0000000000000619
 31
0.0
  0
LINE
  5
1C0BF
330
1B869
100
AcDbEntity
  8
SIZE
  6
Continuous
 62
     0
440
 16777216
370
    -2
100
AcDbLine
 10
-881.0
 20
-200.0000000000007
 30
0.0
 11
-881.0
 21
-10.00000000000006
 31
0.0
  0
INSERT
  5
1C0C0
330
1B869
100
AcDbEntity
  8
SIZE
  6
Continuous
 62
     0
440
 16777216
370
    -2
100
AcDbBlockReference
  2
_ORIGIN
 10
-881.0
 20
-210.0000000000008
 30
0.0
 41
10.0
 42
10.0
 43
10.0
 50
270.0
  0
INSERT
  5
1C0C1
330
1B869
100
AcDbEntity
  8
SIZE
  6
Continuous
 62
     0
440
 16777216
370
    -2
100
AcDbBlockReference
  2
_ORIGIN
 10
-881.0
 20
-0.0000000000000587
 30
0.0
 41
10.0
 42
10.0
 43
10.0
 50
90.0
  0
MTEXT
  5
1C0C2
330
1B869
100
AcDbEntity
  8
SIZE
  6
Continuous
 62
     0
440
 16777216
100
AcDbMText
 10
-915.9999999999996
 20
-105.0000000000001
 30
0.0
 40
50.0
 41
0.0
 46
0.0
 71
     5
 72
     1
  1
\A1;210
 11
0.0000000000000001
 21
1.0
 31
0.0
 73
     1
 44
1.0
  0
POINT
  5
1C0C3
330
1B869
100
AcDbEntity
  8
DEFPOINTS
  6
Continuous
 62
     0
440
 16777216
100
AcDbPoint
 10
-668.2362546169995
 20
-210.0000000000007
 30
0.0
  0
POINT
  5
1C0C4
330
1B869
100
AcDbEntity
  8
DEFPOINTS
  6
Continuous
 62
     0
440
 16777216
100
AcDbPoint
 10
-653.9999999999998
 20
-0.0000000000000222
 30
0.0
  0
POINT
  5
1C0C5
330
1B869
100
AcDbEntity
  8
DEFPOINTS
  6
Continuous
 62
     0
440
 16777216
100
AcDbPoint
 10
-881.0
 20
-0.0000000000000587
 30
0.0
  0
ENDBLK
  5
1B86B
330
1B869
100
AcDbEntity
  8
0
100
AcDbBlockEnd
  0
BLOCK
  5
1BB63
330
1BB62
100
AcDbEntity
  8
0
100
AcDbBlockBegin
  2
*D18
 70
     1
 10
0.0
 20
0.0
 30
0.0
  3
*D18
  1

  0
LINE
  5
1BB65
330
1BB62
100
AcDbEntity
  8
SIZE
  6
Continuous
 62
     0
440
 16777216
370
    -2
100
AcDbLine
 10
-588.0
 20
17.00000000000034
 30
0.0
 11
-588.0
 21
57.6982787070392
 31
0.0
  0
LINE
  5
1BB66
330
1BB62
100
AcDbEntity
  8
SIZE
  6
Continuous
 62
     0
440
 16777216
370
    -2
100
AcDbLine
 10
-673.2999999999988
 20
-7.0
 30
0.0
 11
-673.2999999999988
 21
57.6982787070392
 31
0.0
  0
LINE
  5
1BB67
330
1BB62
100
AcDbEntity
  8
SIZE
  6
Continuous
 62
     0
440
 16777216
370
    -2
100
AcDbLine
 10
-598.0
 20
37.69827870703922
 30
0.0
 11
-663.2999999999988
 21
37.69827870703922
 31
0.0
  0
LINE
  5
1BB68
330
1BB62
100
AcDbEntity
  8
SIZE
  6
Continuous
 62
     0
440
 16777216
370
    -2
100
AcDbLine
 10
-673.2999999999988
 20
37.69827870703922
 30
0.0
 11
-776.1571428571417
 21
37.69827870703922
 31
0.0
  0
INSERT
  5
1BB69
330
1BB62
100
AcDbEntity
  8
SIZE
  6
Continuous
 62
     0
440
 16777216
370
    -2
100
AcDbBlockReference
  2
_ORIGIN
 10
-588.0
 20
37.69827870703922
 30
0.0
 41
10.0
 42
10.0
 43
10.0
  0
INSERT
  5
1BB6A
330
1BB62
100
AcDbEntity
  8
SIZE
  6
Continuous
 62
     0
440
 16777216
370
    -2
100
AcDbBlockReference
  2
_ORIGIN
 10
-673.2999999999988
 20
37.69827870703922
 30
0.0
 41
10.0
 42
10.0
 43
10.0
 50
180.0
  0
MTEXT
  5
1BB6B
330
1BB62
100
AcDbEntity
  8
SIZE
  6
Continuous
 62
     0
440
 16777216
100
AcDbMText
 10
-729.7285714285703
 20
72.6982787070392
 30
0.0
 40
50.0
 41
0.0
 46
0.0
 71
     5
 72
     1
  1
\A1;85
 73
     1
 44
1.0
  0
POINT
  5
1BB6C
330
1BB62
100
AcDbEntity
  8
DEFPOINTS
  6
Continuous
 62
     0
440
 16777216
100
AcDbPoint
 10
-588.0
 20
-2.999999999999658
 30
0.0
  0
POINT
  5
1BB6D
330
1BB62
100
AcDbEntity
  8
DEFPOINTS
  6
Continuous
 62
     0
440
 16777216
100
AcDbPoint
 10
-673.2999999999988
 20
-27.0
 30
0.0
  0
POINT
  5
1BB6E
330
1BB62
100
AcDbEntity
  8
DEFPOINTS
  6
Continuous
 62
     0
440
 16777216
100
AcDbPoint
 10
-673.2999999999988
 20
37.69827870703922
 30
0.0
  0
ENDBLK
  5
1BB64
330
1BB62
100
AcDbEntity
  8
0
100
AcDbBlockEnd
  0
BLOCK
  5
1BC11
330
1BC10
100
AcDbEntity
  8
0
100
AcDbBlockBegin
  2
*D19
 70
     1
 10
0.0
 20
0.0
 30
0.0
  3
*D19
  1

  0
LINE
  5
1BC13
330
1BC10
100
AcDbEntity
  8
SIZE
  6
Continuous
 62
     0
440
 16777216
370
    -2
100
AcDbLine
 10
-588.0
 20
17.00000000000034
 30
0.0
 11
-588.0
 21
57.05353087731872
 31
0.0
  0
LINE
  5
1BC14
330
1BC10
100
AcDbEntity
  8
SIZE
  6
Continuous
 62
     0
440
 16777216
370
    -2
100
AcDbLine
 10
-660.0
 20
0.2695238836604403
 30
0.0
 11
-660.0
 21
57.05353087731872
 31
0.0
  0
LINE
  5
1BC15
330
1BC10
100
AcDbEntity
  8
SIZE
  6
Continuous
 62
     0
440
 16777216
370
    -2
100
AcDbLine
 10
-598.0
 20
37.05353087731874
 30
0.0
 11
-650.0
 21
37.05353087731874
 31
0.0
  0
LINE
  5
1BC16
330
1BC10
100
AcDbEntity
  8
SIZE
  6
Continuous
 62
     0
440
 16777216
370
    -2
100
AcDbLine
 10
-660.0
 20
37.05353087731874
 30
0.0
 11
-762.8571428571429
 21
37.05353087731874
 31
0.0
  0
INSERT
  5
1BC17
330
1BC10
100
AcDbEntity
  8
SIZE
  6
Continuous
 62
     0
440
 16777216
370
    -2
100
AcDbBlockReference
  2
_ORIGIN
 10
-588.0
 20
37.05353087731874
 30
0.0
 41
10.0
 42
10.0
 43
10.0
  0
INSERT
  5
1BC18
330
1BC10
100
AcDbEntity
  8
SIZE
  6
Continuous
 62
     0
440
 16777216
370
    -2
100
AcDbBlockReference
  2
_ORIGIN
 10
-660.0
 20
37.05353087731874
 30
0.0
 41
10.0
 42
10.0
 43
10.0
 50
180.0
  0
MTEXT
  5
1BC19
330
1BC10
100
AcDbEntity
  8
SIZE
  6
Continuous
 62
     0
440
 16777216
100
AcDbMText
 10
-716.4285714285713
 20
72.05353087731873
 30
0.0
 40
50.0
 41
0.0
 46
0.0
 71
     5
 72
     1
  1
\A1;72
 73
     1
 44
1.0
  0
POINT
  5
1BC1A
330
1BC10
100
AcDbEntity
  8
DEFPOINTS
  6
Continuous
 62
     0
440
 16777216
100
AcDbPoint
 10
-588.0
 20
-2.999999999999658
 30
0.0
  0
POINT
  5
1BC1B
330
1BC10
100
AcDbEntity
  8
DEFPOINTS
  6
Continuous
 62
     0
440
 16777216
100
AcDbPoint
 10
-660.0
 20
-19.73047611633956
 30
0.0
  0
POINT
  5
1BC1C
330
1BC10
100
AcDbEntity
  8
DEFPOINTS
  6
Continuous
 62
     0
440
 16777216
100
AcDbPoint
 10
-660.0
 20
37.05353087731874
 30
0.0
  0
ENDBLK
  5
1BC12
330
1BC10
100
AcDbEntity
  8
0
100
AcDbBlockEnd
  0
BLOCK
  5
1BCE8
330
1BCE7
100
AcDbEntity
  8
0
100
AcDbBlockBegin
  2
*D20
 70
     1
 10
0.0
 20
0.0
 30
0.0
  3
*D20
  1

  0
LINE
  5
1BCE9
330
1BCE7
100
AcDbEntity
  8
SIZE
  6
Continuous
 62
     0
440
 16777216
370
    -2
100
AcDbLine
 10
-409.7007499999931
 20
-0.0000000000000032
 30
0.0
 11
-563.0406339731887
 21
-0.0000000000000279
 31
0.0
  0
LINE
  5
1BCEA
330
1BCE7
100
AcDbEntity
  8
SIZE
  6
Continuous
 62
     0
440
 16777216
370
    -2
100
AcDbLine
 10
-396.4248957872154
 20
-215.0000000000001
 30
0.0
 11
-563.0406339731887
 21
-215.0000000000002
 31
0.0
  0
LINE
  5
1BCEB
330
1BCE7
100
AcDbEntity
  8
SIZE
  6
Continuous
 62
     0
440
 16777216
370
    -2
100
AcDbLine
 10
-533.0406339731887
 20
-10.00000000000002
 30
0.0
 11
-533.0406339731887
 21
-205.0000000000002
 31
0.0
  0
INSERT
  5
1BCEC
330
1BCE7
100
AcDbEntity
  8
SIZE
  6
Continuous
 62
     0
440
 16777216
370
    -2
100
AcDbBlockReference
  2
_ORIGIN
 10
-533.0406339731887
 20
-0.0000000000000231
 30
0.0
 41
10.0
 42
10.0
 43
10.0
 50
90.0
  0
INSERT
  5
1BCED
330
1BCE7
100
AcDbEntity
  8
SIZE
  6
Continuous
 62
     0
440
 16777216
370
    -2
100
AcDbBlockReference
  2
_ORIGIN
 10
-533.0406339731887
 20
-215.0000000000002
 30
0.0
 41
10.0
 42
10.0
 43
10.0
 50
270.0
  0
MTEXT
  5
1BCEE
330
1BCE7
100
AcDbEntity
  8
SIZE
  6
Continuous
 62
     0
440
 16777216
100
AcDbMText
 10
-585.0406339731887
 20
-107.4999999999998
 30
0.0
 40
64.0
 41
0.0
 46
0.0
 71
     5
 72
     1
  1
\A1;215
 11
0.0000000000000001
 21
1.0
 31
0.0
 73
     1
 44
1.0
  0
POINT
  5
1BCEF
330
1BCE7
100
AcDbEntity
  8
DEFPOINTS
  6
Continuous
 62
     0
440
 16777216
100
AcDbPoint
 10
-389.7007499999931
 20
0.0
 30
0.0
  0
POINT
  5
1BCF0
330
1BCE7
100
AcDbEntity
  8
DEFPOINTS
  6
Continuous
 62
     0
440
 16777216
100
AcDbPoint
 10
-376.4248957872153
 20
-215.0000000000001
 30
0.0
  0
POINT
  5
1BCF1
330
1BCE7
100
AcDbEntity
  8
DEFPOINTS
  6
Continuous
 62
     0
440
 16777216
100
AcDbPoint
 10
-533.0406339731887
 20
-215.0000000000002
 30
0.0
  0
ENDBLK
  5
1BCF2
330
1BCE7
100
AcDbEntity
  8
0
100
AcDbBlockEnd
  0
BLOCK
  5
1BCF4
330
1BCF3
100
AcDbEntity
  8
0
100
AcDbBlockBegin
  2
*D21
 70
     1
 10
0.0
 20
0.0
 30
0.0
  3
*D21
  1

  0
LINE
  5
1BCF5
330
1BCF3
100
AcDbEntity
  8
SIZE
  6
Continuous
 62
     0
440
 16777216
370
    -2
100
AcDbLine
 10
0.0000000000000012
 20
76.76258288460701
 30
0.0
 11
0.0000000000000066
 21
164.291551624281
 31
0.0
  0
LINE
  5
1BCF6
330
1BCF3
100
AcDbEntity
  8
SIZE
  6
Continuous
 62
     0
440
 16777216
370
    -2
100
AcDbLine
 10
-335.0
 20
40.0
 30
0.0
 11
-335.0
 21
164.291551624281
 31
0.0
  0
LINE
  5
1BCF7
330
1BCF3
100
AcDbEntity
  8
SIZE
  6
Continuous
 62
     0
440
 16777216
370
    -2
100
AcDbLine
 10
-9.999999999999994
 20
134.291551624281
 30
0.0
 11
-325.0
 21
134.291551624281
 31
0.0
  0
INSERT
  5
1BCF8
330
1BCF3
100
AcDbEntity
  8
SIZE
  6
Continuous
 62
     0
440
 16777216
370
    -2
100
AcDbBlockReference
  2
_ORIGIN
 10
0.0000000000000047
 20
134.291551624281
 30
0.0
 41
10.0
 42
10.0
 43
10.0
  0
INSERT
  5
1BCF9
330
1BCF3
100
AcDbEntity
  8
SIZE
  6
Continuous
 62
     0
440
 16777216
370
    -2
100
AcDbBlockReference
  2
_ORIGIN
 10
-335.0
 20
134.291551624281
 30
0.0
 41
10.0
 42
10.0
 43
10.0
 50
180.0
  0
MTEXT
  5
1BCFA
330
1BCF3
100
AcDbEntity
  8
SIZE
  6
Continuous
 62
     0
440
 16777216
100
AcDbMText
 10
-167.5
 20
186.291551624281
 30
0.0
 40
64.0
 41
0.0
 46
0.0
 71
     5
 72
     1
  1
\A1;335
 73
     1
 44
1.0
  0
POINT
  5
1BCFB
330
1BCF3
100
AcDbEntity
  8
DEFPOINTS
  6
Continuous
 62
     0
440
 16777216
100
AcDbPoint
 10
0.0
 20
56.76258288460701
 30
0.0
  0
POINT
  5
1BCFC
330
1BCF3
100
AcDbEntity
  8
DEFPOINTS
  6
Continuous
 62
     0
440
 16777216
100
AcDbPoint
 10
-335.0
 20
20.0
 30
0.0
  0
POINT
  5
1BCFD
330
1BCF3
100
AcDbEntity
  8
DEFPOINTS
  6
Continuous
 62
     0
440
 16777216
100
AcDbPoint
 10
-335.0
 20
134.291551624281
 30
0.0
  0
ENDBLK
  5
1BCFE
330
1BCF3
100
AcDbEntity
  8
0
100
AcDbBlockEnd
  0
BLOCK
  5
1BD00
330
1BCFF
100
AcDbEntity
  8
0
100
AcDbBlockBegin
  2
*D22
 70
     1
 10
0.0
 20
0.0
 30
0.0
  3
*D22
  1

  0
LINE
  5
1BD01
330
1BCFF
100
AcDbEntity
  8
SIZE
  6
Continuous
 62
     0
440
 16777216
370
    -2
100
AcDbLine
 10
0.0000000000000012
 20
76.76258288460701
 30
0.0
 11
0.0000000000000066
 21
164.291551624281
 31
0.0
  0
LINE
  5
1BD02
330
1BCFF
100
AcDbEntity
  8
SIZE
  6
Continuous
 62
     0
440
 16777216
370
    -2
100
AcDbLine
 10
320.0
 20
40.0
 30
0.0
 11
320.0
 21
164.291551624281
 31
0.0
  0
LINE
  5
1BD03
330
1BCFF
100
AcDbEntity
  8
SIZE
  6
Continuous
 62
     0
440
 16777216
370
    -2
100
AcDbLine
 10
10.0
 20
134.291551624281
 30
0.0
 11
310.0
 21
134.291551624281
 31
0.0
  0
INSERT
  5
1BD04
330
1BCFF
100
AcDbEntity
  8
SIZE
  6
Continuous
 62
     0
440
 16777216
370
    -2
100
AcDbBlockReference
  2
_ORIGIN
 10
0.0000000000000047
 20
134.291551624281
 30
0.0
 41
10.0
 42
10.0
 43
10.0
 50
180.0
  0
INSERT
  5
1BD05
330
1BCFF
100
AcDbEntity
  8
SIZE
  6
Continuous
 62
     0
440
 16777216
370
    -2
100
AcDbBlockReference
  2
_ORIGIN
 10
320.0
 20
134.291551624281
 30
0.0
 41
10.0
 42
10.0
 43
10.0
  0
MTEXT
  5
1BD06
330
1BCFF
100
AcDbEntity
  8
SIZE
  6
Continuous
 62
     0
440
 16777216
100
AcDbMText
 10
160.0
 20
186.291551624281
 30
0.0
 40
64.0
 41
0.0
 46
0.0
 71
     5
 72
     1
  1
\A1;320
 73
     1
 44
1.0
  0
POINT
  5
1BD07
330
1BCFF
100
AcDbEntity
  8
DEFPOINTS
  6
Continuous
 62
     0
440
 16777216
100
AcDbPoint
 10
0.0
 20
56.76258288460701
 30
0.0
  0
POINT
  5
1BD08
330
1BCFF
100
AcDbEntity
  8
DEFPOINTS
  6
Continuous
 62
     0
440
 16777216
100
AcDbPoint
 10
320.0
 20
20.0
 30
0.0
  0
POINT
  5
1BD09
330
1BCFF
100
AcDbEntity
  8
DEFPOINTS
  6
Continuous
 62
     0
440
 16777216
100
AcDbPoint
 10
320.0
 20
134.291551624281
 30
0.0
  0
ENDBLK
  5
1BD0A
330
1BCFF
100
AcDbEntity
  8
0
100
AcDbBlockEnd
  0
BLOCK
  5
1BD0C
330
1BD0B
100
AcDbEntity
  8
0
100
AcDbBlockBegin
  2
*D23
 70
     1
 10
0.0
 20
0.0
 30
0.0
  3
*D23
  1

  0
LINE
  5
1BD0D
330
1BD0B
100
AcDbEntity
  8
SIZE
  6
Continuous
 62
     0
440
 16777216
370
    -2
100
AcDbLine
 10
389.9999999999997
 20
-91.8610491031684
 30
0.0
 11
389.9999999999997
 21
-439.8712060377538
 31
0.0
  0
LINE
  5
1BD0E
330
1BD0B
100
AcDbEntity
  8
SIZE
  6
Continuous
 62
     0
440
 16777216
370
    -2
100
AcDbLine
 10
-389.9999999999995
 20
-91.8610491031684
 30
0.0
 11
-389.9999999999995
 21
-439.8712060377538
 31
0.0
  0
LINE
  5
1BD0F
330
1BD0B
100
AcDbEntity
  8
SIZE
  6
Continuous
 62
     0
440
 16777216
370
    -2
100
AcDbLine
 10
379.9999999999997
 20
-409.8712060377538
 30
0.0
 11
-379.9999999999995
 21
-409.8712060377538
 31
0.0
  0
INSERT
  5
1BD10
330
1BD0B
100
AcDbEntity
  8
SIZE
  6
Continuous
 62
     0
440
 16777216
370
    -2
100
AcDbBlockReference
  2
_ORIGIN
 10
389.9999999999997
 20
-409.8712060377538
 30
0.0
 41
10.0
 42
10.0
 43
10.0
  0
INSERT
  5
1BD11
330
1BD0B
100
AcDbEntity
  8
SIZE
  6
Continuous
 62
     0
440
 16777216
370
    -2
100
AcDbBlockReference
  2
_ORIGIN
 10
-389.9999999999995
 20
-409.8712060377538
 30
0.0
 41
10.0
 42
10.0
 43
10.0
 50
180.0
  0
MTEXT
  5
1BD12
330
1BD0B
100
AcDbEntity
  8
SIZE
  6
Continuous
 62
     0
440
 16777216
100
AcDbMText
 10
0.00000000000006
 20
-357.8712060377538
 30
0.0
 40
64.0
 41
0.0
 46
0.0
 71
     5
 72
     1
  1
\A1;780
 73
     1
 44
1.0
  0
POINT
  5
1BD13
330
1BD0B
100
AcDbEntity
  8
DEFPOINTS
  6
Continuous
 62
     0
440
 16777216
100
AcDbPoint
 10
389.9999999999997
 20
-71.86104910316839
 30
0.0
  0
POINT
  5
1BD14
330
1BD0B
100
AcDbEntity
  8
DEFPOINTS
  6
Continuous
 62
     0
440
 16777216
100
AcDbPoint
 10
-389.9999999999995
 20
-71.86104910316839
 30
0.0
  0
POINT
  5
1BD15
330
1BD0B
100
AcDbEntity
  8
DEFPOINTS
  6
Continuous
 62
     0
440
 16777216
100
AcDbPoint
 10
-389.9999999999995
 20
-409.8712060377538
 30
0.0
  0
ENDBLK
  5
1BD16
330
1BD0B
100
AcDbEntity
  8
0
100
AcDbBlockEnd
  0
BLOCK
  5
1C014
330
1C013
100
AcDbEntity
  8
0
100
AcDbBlockBegin
  2
*D24
 70
     1
 10
0.0
 20
0.0
 30
0.0
  3
*D24
  1

  0
LINE
  5
1C16A
330
1C013
100
AcDbEntity
  8
SIZE
  6
Continuous
 62
     0
440
 16777216
370
    -2
100
AcDbLine
 10
409.8004999999957
 20
0.0000000000000032
 30
0.0
 11
619.8004999999957
 21
0.000000000000037
 31
0.0
  0
LINE
  5
1C16B
330
1C013
100
AcDbEntity
  8
SIZE
  6
Continuous
 62
     0
440
 16777216
370
    -2
100
AcDbLine
 10
397.1485547043879
 20
-214.9999999999999
 30
0.0
 11
619.8004999999957
 21
-214.9999999999999
 31
0.0
  0
LINE
  5
1C16C
330
1C013
100
AcDbEntity
  8
SIZE
  6
Continuous
 62
     0
440
 16777216
370
    -2
100
AcDbLine
 10
589.8004999999957
 20
-9.999999999999966
 30
0.0
 11
589.8004999999957
 21
-204.9999999999999
 31
0.0
  0
INSERT
  5
1C16D
330
1C013
100
AcDbEntity
  8
SIZE
  6
Continuous
 62
     0
440
 16777216
370
    -2
100
AcDbBlockReference
  2
_ORIGIN
 10
589.8004999999957
 20
0.0000000000000322
 30
0.0
 41
10.0
 42
10.0
 43
10.0
 50
90.0
  0
INSERT
  5
1C16E
330
1C013
100
AcDbEntity
  8
SIZE
  6
Continuous
 62
     0
440
 16777216
370
    -2
100
AcDbBlockReference
  2
_ORIGIN
 10
589.8004999999957
 20
-214.9999999999999
 30
0.0
 41
10.0
 42
10.0
 43
10.0
 50
270.0
  0
MTEXT
  5
1C16F
330
1C013
100
AcDbEntity
  8
SIZE
  6
Continuous
 62
     0
440
 16777216
100
AcDbMText
 10
544.8004999999956
 20
-107.4999999999999
 30
0.0
 40
50.0
 41
0.0
 46
0.0
 71
     5
 72
     1
  1
\A1;215
 11
0.0000000000000001
 21
1.0
 31
0.0
 73
     1
 44
1.0
  0
POINT
  5
1C170
330
1C013
100
AcDbEntity
  8
DEFPOINTS
  6
Continuous
 62
     0
440
 16777216
100
AcDbPoint
 10
389.800499999996
 20
0.0
 30
0.0
  0
POINT
  5
1C171
330
1C013
100
AcDbEntity
  8
DEFPOINTS
  6
Continuous
 62
     0
440
 16777216
100
AcDbPoint
 10
377.148554704388
 20
-214.9999999999999
 30
0.0
  0
POINT
  5
1C172
330
1C013
100
AcDbEntity
  8
DEFPOINTS
  6
Continuous
 62
     0
440
 16777216
100
AcDbPoint
 10
589.8004999999957
 20
-214.9999999999999
 30
0.0
  0
ENDBLK
  5
1C015
330
1C013
100
AcDbEntity
  8
0
100
AcDbBlockEnd
  0
BLOCK
  5
1C020
330
1C01F
100
AcDbEntity
  8
0
100
AcDbBlockBegin
  2
*D25
 70
     1
 10
0.0
 20
0.0
 30
0.0
  3
*D25
  1

  0
LINE
  5
1C154
330
1C01F
100
AcDbEntity
  8
SIZE
  6
Continuous
 62
     0
440
 16777216
370
    -2
100
AcDbLine
 10
0.0000000000000012
 20
20.00000000000006
 30
0.0
 11
0.0000000000000018
 21
30.00000000000011
 31
0.0
  0
LINE
  5
1C155
330
1C01F
100
AcDbEntity
  8
SIZE
  6
Continuous
 62
     0
440
 16777216
370
    -2
100
AcDbLine
 10
-335.0
 20
0.0
 30
0.0
 11
-335.0
 21
-30.0
 31
0.0
  0
LINE
  5
1C156
330
1C01F
100
AcDbEntity
  8
SIZE
  6
Continuous
 62
     0
440
 16777216
370
    -2
100
AcDbLine
 10
-10.0
 20
0.0
 30
0.0
 11
-325.0
 21
0.0
 31
0.0
  0
INSERT
  5
1C157
330
1C01F
100
AcDbEntity
  8
SIZE
  6
Continuous
 62
     0
440
 16777216
370
    -2
100
AcDbBlockReference
  2
_ORIGIN
 10
0.0
 20
0.0
 30
0.0
 41
10.0
 42
10.0
 43
10.0
  0
INSERT
  5
1C158
330
1C01F
100
AcDbEntity
  8
SIZE
  6
Continuous
 62
     0
440
 16777216
370
    -2
100
AcDbBlockReference
  2
_ORIGIN
 10
-335.0
 20
0.0
 30
0.0
 41
10.0
 42
10.0
 43
10.0
 50
180.0
  0
MTEXT
  5
1C159
330
1C01F
100
AcDbEntity
  8
SIZE
  6
Continuous
 62
     0
440
 16777216
100
AcDbMText
 10
-167.5
 20
52.0
 30
0.0
 40
64.0
 41
0.0
 46
0.0
 71
     5
 72
     1
  1
\A1;335
 73
     1
 44
1.0
  0
POINT
  5
1C15A
330
1C01F
100
AcDbEntity
  8
DEFPOINTS
  6
Continuous
 62
     0
440
 16777216
100
AcDbPoint
 10
0.0
 20
0.0000000000000568
 30
0.0
  0
POINT
  5
1C15B
330
1C01F
100
AcDbEntity
  8
DEFPOINTS
  6
Continuous
 62
     0
440
 16777216
100
AcDbPoint
 10
-335.0
 20
20.0
 30
0.0
  0
POINT
  5
1C15C
330
1C01F
100
AcDbEntity
  8
DEFPOINTS
  6
Continuous
 62
     0
440
 16777216
100
AcDbPoint
 10
-335.0
 20
0.0
 30
0.0
  0
ENDBLK
  5
1C021
330
1C01F
100
AcDbEntity
  8
0
100
AcDbBlockEnd
  0
BLOCK
  5
1C02C
330
1C02B
100
AcDbEntity
  8
0
100
AcDbBlockBegin
  2
*D26
 70
     1
 10
0.0
 20
0.0
 30
0.0
  3
*D26
  1

  0
LINE
  5
1C14B
330
1C02B
100
AcDbEntity
  8
SIZE
  6
Continuous
 62
     0
440
 16777216
370
    -2
100
AcDbLine
 10
0.0000000000000012
 20
20.00000000000006
 30
0.0
 11
0.0000000000000018
 21
30.00000000000011
 31
0.0
  0
LINE
  5
1C14C
330
1C02B
100
AcDbEntity
  8
SIZE
  6
Continuous
 62
     0
440
 16777216
370
    -2
100
AcDbLine
 10
320.0
 20
0.0
 30
0.0
 11
320.0
 21
-30.0
 31
0.0
  0
LINE
  5
1C14D
330
1C02B
100
AcDbEntity
  8
SIZE
  6
Continuous
 62
     0
440
 16777216
370
    -2
100
AcDbLine
 10
10.0
 20
0.0
 30
0.0
 11
310.0
 21
0.0
 31
0.0
  0
INSERT
  5
1C14E
330
1C02B
100
AcDbEntity
  8
SIZE
  6
Continuous
 62
     0
440
 16777216
370
    -2
100
AcDbBlockReference
  2
_ORIGIN
 10
0.0
 20
0.0
 30
0.0
 41
10.0
 42
10.0
 43
10.0
 50
180.0
  0
INSERT
  5
1C14F
330
1C02B
100
AcDbEntity
  8
SIZE
  6
Continuous
 62
     0
440
 16777216
370
    -2
100
AcDbBlockReference
  2
_ORIGIN
 10
320.0
 20
0.0
 30
0.0
 41
10.0
 42
10.0
 43
10.0
  0
MTEXT
  5
1C150
330
1C02B
100
AcDbEntity
  8
SIZE
  6
Continuous
 62
     0
440
 16777216
100
AcDbMText
 10
160.0
 20
52.0
 30
0.0
 40
64.0
 41
0.0
 46
0.0
 71
     5
 72
     1
  1
\A1;320
 73
     1
 44
1.0
  0
POINT
  5
1C151
330
1C02B
100
AcDbEntity
  8
DEFPOINTS
  6
Continuous
 62
     0
440
 16777216
100
AcDbPoint
 10
0.0
 20
0.0000000000000568
 30
0.0
  0
POINT
  5
1C152
330
1C02B
100
AcDbEntity
  8
DEFPOINTS
  6
Continuous
 62
     0
440
 16777216
100
AcDbPoint
 10
320.0
 20
20.0
 30
0.0
  0
POINT
  5
1C153
330
1C02B
100
AcDbEntity
  8
DEFPOINTS
  6
Continuous
 62
     0
440
 16777216
100
AcDbPoint
 10
320.0
 20
0.0
 30
0.0
  0
ENDBLK
  5
1C02D
330
1C02B
100
AcDbEntity
  8
0
100
AcDbBlockEnd
  0
BLOCK
  5
1C038
330
1C037
100
AcDbEntity
  8
0
100
AcDbBlockBegin
  2
*D27
 70
     1
 10
0.0
 20
0.0
 30
0.0
  3
*D27
  1

  0
LINE
  5
1C0C6
330
1C037
100
AcDbEntity
  8
SIZE
  6
Continuous
 62
     0
440
 16777216
370
    -2
100
AcDbLine
 10
390.0
 20
-91.8610491031684
 30
0.0
 11
390.0
 21
-530.0000000116162
 31
0.0
  0
LINE
  5
1C0C7
330
1C037
100
AcDbEntity
  8
SIZE
  6
Continuous
 62
     0
440
 16777216
370
    -2
100
AcDbLine
 10
-389.9999999999995
 20
-91.8610491031684
 30
0.0
 11
-389.9999999999995
 21
-530.0000000116162
 31
0.0
  0
LINE
  5
1C0C8
330
1C037
100
AcDbEntity
  8
SIZE
  6
Continuous
 62
     0
440
 16777216
370
    -2
100
AcDbLine
 10
380.0
 20
-500.000000011616
 30
0.0
 11
-379.9999999999995
 21
-500.000000011616
 31
0.0
  0
INSERT
  5
1C0C9
330
1C037
100
AcDbEntity
  8
SIZE
  6
Continuous
 62
     0
440
 16777216
370
    -2
100
AcDbBlockReference
  2
_ORIGIN
 10
390.0
 20
-500.000000011616
 30
0.0
 41
10.0
 42
10.0
 43
10.0
  0
INSERT
  5
1C0CA
330
1C037
100
AcDbEntity
  8
SIZE
  6
Continuous
 62
     0
440
 16777216
370
    -2
100
AcDbBlockReference
  2
_ORIGIN
 10
-389.9999999999995
 20
-500.000000011616
 30
0.0
 41
10.0
 42
10.0
 43
10.0
 50
180.0
  0
MTEXT
  5
1C0CB
330
1C037
100
AcDbEntity
  8
SIZE
  6
Continuous
 62
     0
440
 16777216
100
AcDbMText
 10
0.0000000000002306
 20
-448.0000000116159
 30
0.0
 40
64.0
 41
0.0
 46
0.0
 71
     5
 72
     1
  1
\A1;780
 73
     1
 44
1.0
  0
POINT
  5
1C0CC
330
1C037
100
AcDbEntity
  8
DEFPOINTS
  6
Continuous
 62
     0
440
 16777216
100
AcDbPoint
 10
390.0
 20
-71.86104910316839
 30
0.0
  0
POINT
  5
1C0CD
330
1C037
100
AcDbEntity
  8
DEFPOINTS
  6
Continuous
 62
     0
440
 16777216
100
AcDbPoint
 10
-389.9999999999995
 20
-71.86104910316839
 30
0.0
  0
POINT
  5
1C0CE
330
1C037
100
AcDbEntity
  8
DEFPOINTS
  6
Continuous
 62
     0
440
 16777216
100
AcDbPoint
 10
-389.9999999999995
 20
-500.000000011616
 30
0.0
  0
ENDBLK
  5
1C039
330
1C037
100
AcDbEntity
  8
0
100
AcDbBlockEnd
  0
BLOCK
  5
1C0D1
330
1C0D0
100
AcDbEntity
  8
0
100
AcDbBlockBegin
  2
*D28
 70
     1
 10
0.0
 20
0.0
 30
0.0
  3
*D28
  1

  0
LINE
  5
1C397
330
1C0D0
100
AcDbEntity
  8
SIZE
  6
Continuous
 62
     0
440
 16777216
370
    -2
100
AcDbLine
 10
-389.9999999999995
 20
-91.8610491031684
 30
0.0
 11
-389.9999999999995
 21
-435.0
 31
0.0
  0
LINE
  5
1C398
330
1C0D0
100
AcDbEntity
  8
SIZE
  6
Continuous
 62
     0
440
 16777216
370
    -2
100
AcDbLine
 10
390.0
 20
-91.8610491031684
 30
0.0
 11
390.0
 21
-435.0
 31
0.0
  0
LINE
  5
1C399
330
1C0D0
100
AcDbEntity
  8
SIZE
  6
Continuous
 62
     0
440
 16777216
370
    -2
100
AcDbLine
 10
-379.9999999999995
 20
-415.0
 30
0.0
 11
380.0
 21
-415.0
 31
0.0
  0
INSERT
  5
1C39A
330
1C0D0
100
AcDbEntity
  8
SIZE
  6
Continuous
 62
     0
440
 16777216
370
    -2
100
AcDbBlockReference
  2
_ORIGIN
 10
-389.9999999999995
 20
-415.0
 30
0.0
 41
10.0
 42
10.0
 43
10.0
 50
180.0
  0
INSERT
  5
1C39B
330
1C0D0
100
AcDbEntity
  8
SIZE
  6
Continuous
 62
     0
440
 16777216
370
    -2
100
AcDbBlockReference
  2
_ORIGIN
 10
390.0
 20
-415.0
 30
0.0
 41
10.0
 42
10.0
 43
10.0
  0
MTEXT
  5
1C39C
330
1C0D0
100
AcDbEntity
  8
SIZE
  6
Continuous
 62
     0
440
 16777216
100
AcDbMText
 10
0.0000000000002579
 20
-380.0
 30
0.0
 40
50.0
 41
0.0
 46
0.0
 71
     5
 72
     1
  1
\A1;780
 73
     1
 44
1.0
  0
POINT
  5
1C39D
330
1C0D0
100
AcDbEntity
  8
DEFPOINTS
  6
Continuous
 62
     0
440
 16777216
100
AcDbPoint
 10
-389.9999999999995
 20
-71.86104910316839
 30
0.0
  0
POINT
  5
1C39E
330
1C0D0
100
AcDbEntity
  8
DEFPOINTS
  6
Continuous
 62
     0
440
 16777216
100
AcDbPoint
 10
390.0
 20
-71.86104910316839
 30
0.0
  0
POINT
  5
1C39F
330
1C0D0
100
AcDbEntity
  8
DEFPOINTS
  6
Continuous
 62
     0
440
 16777216
100
AcDbPoint
 10
390.0
 20
-415.0
 30
0.0
  0
ENDBLK
  5
1C0D2
330
1C0D0
100
AcDbEntity
  8
0
100
AcDbBlockEnd
  0
BLOCK
  5
1C140
330
1C13F
100
AcDbEntity
  8
0
100
AcDbBlockBegin
  2
*D29
 70
     1
 10
0.0
 20
0.0
 30
0.0
  3
*D29
  1

  0
LINE
  5
1C3F1
330
1C13F
100
AcDbEntity
  8
SIZE
  6
Continuous
 62
     0
440
 16777216
370
    -2
100
AcDbLine
 10
-335.0
 20
42.26952388366044
 30
0.0
 11
-335.0
 21
220.0
 31
0.0
  0
LINE
  5
1C3F2
330
1C13F
100
AcDbEntity
  8
SIZE
  6
Continuous
 62
     0
440
 16777216
370
    -2
100
AcDbLine
 10
0.0000000000002286
 20
20.0
 30
0.0
 11
0.0000000000002409
 21
220.0
 31
0.0
  0
LINE
  5
1C3F3
330
1C13F
100
AcDbEntity
  8
SIZE
  6
Continuous
 62
     0
440
 16777216
370
    -2
100
AcDbLine
 10
-325.0
 20
200.0
 30
0.0
 11
-9.99999999999976
 21
200.0
 31
0.0
  0
INSERT
  5
1C3F4
330
1C13F
100
AcDbEntity
  8
SIZE
  6
Continuous
 62
     0
440
 16777216
370
    -2
100
AcDbBlockReference
  2
_ORIGIN
 10
-335.0
 20
200.0
 30
0.0
 41
10.0
 42
10.0
 43
10.0
 50
180.0
  0
INSERT
  5
1C3F5
330
1C13F
100
AcDbEntity
  8
SIZE
  6
Continuous
 62
     0
440
 16777216
370
    -2
100
AcDbBlockReference
  2
_ORIGIN
 10
0.0000000000002396
 20
200.0
 30
0.0
 41
10.0
 42
10.0
 43
10.0
  0
MTEXT
  5
1C3F6
330
1C13F
100
AcDbEntity
  8
SIZE
  6
Continuous
 62
     0
440
 16777216
100
AcDbMText
 10
-167.4999999999999
 20
235.0
 30
0.0
 40
50.0
 41
0.0
 46
0.0
 71
     5
 72
     1
  1
\A1;335
 73
     1
 44
1.0
  0
POINT
  5
1C3F7
330
1C13F
100
AcDbEntity
  8
DEFPOINTS
  6
Continuous
 62
     0
440
 16777216
100
AcDbPoint
 10
-335.0
 20
22.26952388366044
 30
0.0
  0
POINT
  5
1C3F8
330
1C13F
100
AcDbEntity
  8
DEFPOINTS
  6
Continuous
 62
     0
440
 16777216
100
AcDbPoint
 10
0.0000000000002274
 20
0.0
 30
0.0
  0
POINT
  5
1C3F9
330
1C13F
100
AcDbEntity
  8
DEFPOINTS
  6
Continuous
 62
     0
440
 16777216
100
AcDbPoint
 10
0.0000000000002396
 20
200.0
 30
0.0
  0
ENDBLK
  5
1C141
330
1C13F
100
AcDbEntity
  8
0
100
AcDbBlockEnd
  0
BLOCK
  5
1C15F
330
1C15E
100
AcDbEntity
  8
0
100
AcDbBlockBegin
  2
*D30
 70
     1
 10
0.0
 20
0.0
 30
0.0
  3
*D30
  1

  0
LINE
  5
1C400
330
1C15E
100
AcDbEntity
  8
SIZE
  6
Continuous
 62
     0
440
 16777216
370
    -2
100
AcDbLine
 10
0.0000000000002286
 20
20.0
 30
0.0
 11
0.0000000000002409
 21
220.0
 31
0.0
  0
LINE
  5
1C401
330
1C15E
100
AcDbEntity
  8
SIZE
  6
Continuous
 62
     0
440
 16777216
370
    -2
100
AcDbLine
 10
320.0
 20
42.26952388366044
 30
0.0
 11
320.0
 21
220.0
 31
0.0
  0
LINE
  5
1C402
330
1C15E
100
AcDbEntity
  8
SIZE
  6
Continuous
 62
     0
440
 16777216
370
    -2
100
AcDbLine
 10
10.00000000000024
 20
200.0
 30
0.0
 11
310.0
 21
200.0
 31
0.0
  0
INSERT
  5
1C403
330
1C15E
100
AcDbEntity
  8
SIZE
  6
Continuous
 62
     0
440
 16777216
370
    -2
100
AcDbBlockReference
  2
_ORIGIN
 10
0.0000000000002396
 20
200.0
 30
0.0
 41
10.0
 42
10.0
 43
10.0
 50
180.0
  0
INSERT
  5
1C404
330
1C15E
100
AcDbEntity
  8
SIZE
  6
Continuous
 62
     0
440
 16777216
370
    -2
100
AcDbBlockReference
  2
_ORIGIN
 10
320.0
 20
200.0
 30
0.0
 41
10.0
 42
10.0
 43
10.0
  0
MTEXT
  5
1C405
330
1C15E
100
AcDbEntity
  8
SIZE
  6
Continuous
 62
     0
440
 16777216
100
AcDbMText
 10
160.0000000000001
 20
235.0
 30
0.0
 40
50.0
 41
0.0
 46
0.0
 71
     5
 72
     1
  1
\A1;320
 73
     1
 44
1.0
  0
POINT
  5
1C406
330
1C15E
100
AcDbEntity
  8
DEFPOINTS
  6
Continuous
 62
     0
440
 16777216
100
AcDbPoint
 10
0.0000000000002274
 20
0.0
 30
0.0
  0
POINT
  5
1C407
330
1C15E
100
AcDbEntity
  8
DEFPOINTS
  6
Continuous
 62
     0
440
 16777216
100
AcDbPoint
 10
320.0
 20
22.26952388366044
 30
0.0
  0
POINT
  5
1C408
330
1C15E
100
AcDbEntity
  8
DEFPOINTS
  6
Continuous
 62
     0
440
 16777216
100
AcDbPoint
 10
320.0
 20
200.0
 30
0.0
  0
ENDBLK
  5
1C160
330
1C15E
100
AcDbEntity
  8
0
100
AcDbBlockEnd
  0
BLOCK
  5
1C175
330
1C174
100
AcDbEntity
  8
0
100
AcDbBlockBegin
  2
*D31
 70
     1
 10
0.0
 20
0.0
 30
0.0
  3
*D31
  1

  0
LINE
  5
1C3E8
330
1C174
100
AcDbEntity
  8
SIZE
  6
Continuous
 62
     0
440
 16777216
370
    -2
100
AcDbLine
 10
409.8004999999958
 20
0.0000000000000032
 30
0.0
 11
609.8004999999963
 21
0.0000000000000354
 31
0.0
  0
LINE
  5
1C3E9
330
1C174
100
AcDbEntity
  8
SIZE
  6
Continuous
 62
     0
440
 16777216
370
    -2
100
AcDbLine
 10
397.148554704388
 20
-214.9999999999999
 30
0.0
 11
609.8004999999963
 21
-214.9999999999999
 31
0.0
  0
LINE
  5
1C3EA
330
1C174
100
AcDbEntity
  8
SIZE
  6
Continuous
 62
     0
440
 16777216
370
    -2
100
AcDbLine
 10
589.8004999999963
 20
-9.999999999999969
 30
0.0
 11
589.8004999999963
 21
-204.9999999999998
 31
0.0
  0
INSERT
  5
1C3EB
330
1C174
100
AcDbEntity
  8
SIZE
  6
Continuous
 62
     0
440
 16777216
370
    -2
100
AcDbBlockReference
  2
_ORIGIN
 10
589.8004999999963
 20
0.0000000000000322
 30
0.0
 41
10.0
 42
10.0
 43
10.0
 50
90.0
  0
INSERT
  5
1C3EC
330
1C174
100
AcDbEntity
  8
SIZE
  6
Continuous
 62
     0
440
 16777216
370
    -2
100
AcDbBlockReference
  2
_ORIGIN
 10
589.8004999999963
 20
-214.9999999999999
 30
0.0
 41
10.0
 42
10.0
 43
10.0
 50
270.0
  0
MTEXT
  5
1C3ED
330
1C174
100
AcDbEntity
  8
SIZE
  6
Continuous
 62
     0
440
 16777216
100
AcDbMText
 10
554.8004999999961
 20
-107.5
 30
0.0
 40
50.0
 41
0.0
 46
0.0
 71
     5
 72
     1
  1
\A1;215
 11
0.0000000000000001
 21
1.0
 31
0.0
 73
     1
 44
1.0
  0
POINT
  5
1C3EE
330
1C174
100
AcDbEntity
  8
DEFPOINTS
  6
Continuous
 62
     0
440
 16777216
100
AcDbPoint
 10
389.8004999999959
 20
0.0
 30
0.0
  0
POINT
  5
1C3EF
330
1C174
100
AcDbEntity
  8
DEFPOINTS
  6
Continuous
 62
     0
440
 16777216
100
AcDbPoint
 10
377.148554704388
 20
-214.9999999999999
 30
0.0
  0
POINT
  5
1C3F0
330
1C174
100
AcDbEntity
  8
DEFPOINTS
  6
Continuous
 62
     0
440
 16777216
100
AcDbPoint
 10
589.8004999999963
 20
-214.9999999999999
 30
0.0
  0
ENDBLK
  5
1C176
330
1C174
100
AcDbEntity
  8
0
100
AcDbBlockEnd
  0
ENDSEC
  0
SECTION
  2
ENTITIES
  0
LINE
  5
16436
330
1E
100
AcDbEntity
  8
BASIS
  6
CENTER
100
AcDbLine
 10
0.0
 20
-245.0838576570832
 30
0.0
 11
0.0
 21
0.0000000000000568
 31
0.0
  0
POINT
  5
17662
330
1E
100
AcDbEntity
  8
ARRANGE
  6
Continuous
100
AcDbPoint
 10
0.0
 20
0.0
 30
0.0
  0
CIRCLE
  5
17663
330
1E
100
AcDbEntity
  8
ARRANGE
  6
Continuous
100
AcDbCircle
 10
0.0
 20
0.0
 30
0.0
 40
40.0
  0
LINE
  5
187B7
330
1E
100
AcDbEntity
  8
NOTE
  6
Continuous
100
AcDbLine
 10
-464.9999999999987
 20
-42.0
 30
0.0
 11
-680.3037166537152
 21
365.3908316871102
 31
0.0
  0
TEXT
  5
187B8
330
1E
100
AcDbEntity
  8
NOTE
  6
Continuous
100
AcDbText
 10
-1301.039561374317
 20
392.2610986871104
 30
0.0
 40
64.0
  1
WD VP20（メス）
 41
0.9
100
AcDbText
  0
LINE
  5
187B9
330
1E
100
AcDbEntity
  8
NOTE
  6
Continuous
100
AcDbLine
 10
-680.3037166537152
 20
365.3908316871102
 30
0.0
 11
-1303.087845951124
 21
365.3908316871106
 31
0.0
  0
LWPOLYLINE
  5
187BA
330
1E
100
AcDbEntity
  8
NOTE
  6
Continuous
100
AcDbPolyline
 90
        3
 70
     0
 43
0.0
 10
-495.1324203776139
 20
-15.69339953774715
 10
-464.9999999999987
 20
-42.0
 10
-477.9421423680354
 20
-4.151605488552831
  0
LINE
  5
187BB
330
1E
100
AcDbEntity
  8
NOTE
  6
Continuous
100
AcDbLine
 10
-464.9999999999995
 20
-21.00568838129402
 30
0.0
 11
-464.9999999999995
 21
-61.00568838129402
 31
0.0
  0
LINE
  5
187BC
330
1E
100
AcDbEntity
  8
NOTE
  6
Continuous
100
AcDbLine
 10
-484.9999999999995
 20
-42.0
 30
0.0
 11
-444.9999999999993
 21
-42.0
 31
0.0
  0
TEXT
  5
187C6
330
1E
100
AcDbEntity
  8
NOTE
  6
Continuous
100
AcDbText
 10
-1275.211685253875
 20
266.7316522258906
 30
0.0
 40
64.0
  1
(フレキシブル)
 41
0.9
100
AcDbText
  0
LINE
  5
1A5F2
330
1E
100
AcDbEntity
  8
BASIS
  6
CENTER
100
AcDbLine
 10
-491.9635144464513
 20
-42.0
 30
0.0
 11
-438.0364855535472
 21
-42.0
 31
0.0
  0
LINE
  5
1A5F3
330
1E
100
AcDbEntity
  8
BASIS
  6
CENTER
100
AcDbLine
 10
-464.9999999999995
 20
-64.26952388366044
 30
0.0
 11
-464.9999999999995
 21
-19.73047611633956
 31
0.0
  0
TEXT
  5
1AA90
330
1E
100
AcDbEntity
  8
NOTE
  6
Continuous
100
AcDbText
 10
-1272.900275992068
 20
-430.9740541485579
 30
0.0
 40
64.0
  1
ドレンアップメカ
 41
0.9
100
AcDbText
  0
LINE
  5
1AA91
330
1E
100
AcDbEntity
  8
NOTE
  6
Continuous
100
AcDbLine
 10
-708.6792986551202
 20
-448.6124207794135
 30
0.0
 11
-1288.715073197695
 21
-448.6124207794132
 31
0.0
  0
LINE
  5
1AA92
330
1E
100
AcDbEntity
  8
NOTE
  6
Continuous
100
AcDbLine
 10
-491.0311260131826
 20
-210.0000000000006
 30
0.0
 11
-708.6792986551202
 21
-448.6124207794135
 31
0.0
  0
LWPOLYLINE
  5
1AA93
330
1E
100
AcDbEntity
  8
NOTE
  6
Continuous
100
AcDbPolyline
 90
        3
 70
     0
 43
0.0
 10
-508.8037108096417
 20
-245.8348324308436
 10
-491.0311260131826
 20
-210.0000000000006
 10
-524.340051913746
 20
-232.1475838754356
  0
LINE
  5
1AED3
330
1E
100
AcDbEntity
  8
NOTE
  6
DASHDOT
 62
     4
100
AcDbLine
 10
-464.9999999999987
 20
-22.0
 30
0.0
 11
-464.9999999999987
 21
-62.0
 31
0.0
  0
LINE
  5
1AED4
330
1E
100
AcDbEntity
  8
NOTE
  6
DASHDOT
 62
     4
100
AcDbLine
 10
-444.9999999999986
 20
-42.0
 30
0.0
 11
-484.9999999999988
 21
-42.0
 31
0.0
  0
MTEXT
  5
1B3CE
330
1E
100
AcDbEntity
  8
ETC
  6
Continuous
100
AcDbMText
 10
609.2131882940382
 20
659.486450096369
 30
0.0
 40
64.0
 41
547.4375504709168
 46
0.0
 71
     1
 72
     5
  1
SPAC7441
 73
     1
 44
1.0
1001
ACAD
1000
ACAD_MTEXT_COLUMN_INFO_BEGIN
1070
    75
1070
     2
1070
    79
1070
     0
1070
    76
1070
     1
1070
    78
1070
     0
1070
    48
1040
547.4375504709168
1070
    49
1040
320.0
1070
    50
1070
     1
1040
0.0
1000
ACAD_MTEXT_COLUMN_INFO_END
  0
MTEXT
  5
1B3CF
330
1E
100
AcDbEntity
  8
ETC
  6
Continuous
100
AcDbMText
 10
609.2131882940382
 20
757.5277486312285
 30
0.0
 40
64.0
 41
547.4375504709168
 46
0.0
 71
     1
 72
     5
  1
PAC別売
 73
     1
 44
1.0
1001
ACAD
1000
ACAD_MTEXT_COLUMN_INFO_BEGIN
1070
    75
1070
     2
1070
    79
1070
     0
1070
    76
1070
     1
1070
    78
1070
     0
1070
    48
1040
547.4375504709168
1070
    49
1040
320.0
1070
    50
1070
     1
1040
0.0
1000
ACAD_MTEXT_COLUMN_INFO_END
  0
LINE
  5
1B5BB
330
1E
100
AcDbEntity
  8
DETAIL
  6
Continuous
100
AcDbLine
 10
-673.2325691989995
 20
-205.1919390455001
 30
0.0
 11
-680.9999999999994
 21
-2.999999999999658
 31
0.0
  0
LINE
  5
1B5BC
330
1E
100
AcDbEntity
  8
DETAIL
  6
Continuous
100
AcDbLine
 10
-670.2347804499992
 20
-205.1919390455001
 30
0.0
 11
-678.002211250999
 21
-2.999999999999658
 31
0.0
  0
LINE
  5
1B5BE
330
1E
100
AcDbEntity
  8
DETAIL
  6
Continuous
100
AcDbLine
 10
-655.5999999999998
 20
-2.999999999999658
 30
0.0
 11
-655.5999999999998
 21
-1.600000000000022
 31
0.0
  0
LINE
  5
1B5BF
330
1E
100
AcDbEntity
  8
DETAIL
  6
Continuous
100
AcDbLine
 10
-653.9999999999994
 20
-0.0000000000005684
 30
0.0
 11
-653.9999999999994
 21
-2.999999999999658
 31
0.0
  0
LINE
  5
1B5C0
330
1E
100
AcDbEntity
  8
DETAIL
  6
Continuous
100
AcDbLine
 10
-511.9999999999993
 20
-0.0000000000005684
 30
0.0
 11
-511.9999999999993
 21
-2.999999999999658
 31
0.0
  0
LINE
  5
1B5C1
330
1E
100
AcDbEntity
  8
DETAIL
  6
Continuous
100
AcDbLine
 10
-501.9999999999995
 20
-7.999999999999656
 30
0.0
 11
-501.9999999999995
 21
-51.99999999999966
 31
0.0
  0
LINE
  5
1B5C2
330
1E
100
AcDbEntity
  8
DETAIL
  6
Continuous
100
AcDbLine
 10
-470.7999999999993
 20
-13.87964713999975
 30
0.0
 11
-470.7999999999993
 21
-25.20000000000039
 31
0.0
  0
LINE
  5
1B5C3
330
1E
100
AcDbEntity
  8
DETAIL
  6
Continuous
100
AcDbLine
 10
-469.1999999999993
 20
-15.60000000000002
 30
0.0
 11
-469.1999999999993
 21
-25.20000000000039
 31
0.0
  0
LINE
  5
1B5C4
330
1E
100
AcDbEntity
  8
DETAIL
  6
Continuous
100
AcDbLine
 10
-468.3999999999992
 20
-15.60000000000002
 30
0.0
 11
-468.3999999999992
 21
-69.92859508200092
 31
0.0
  0
LINE
  5
1B5C5
330
1E
100
AcDbEntity
  8
DETAIL
  6
Continuous
100
AcDbLine
 10
-461.9999999999993
 20
-1.600000000000022
 30
0.0
 11
-461.9999999999993
 21
-12.19999999999948
 31
0.0
  0
LINE
  5
1B5C6
330
1E
100
AcDbEntity
  8
DETAIL
  6
Continuous
100
AcDbLine
 10
-461.1999999999991
 20
-1.600000000000022
 30
0.0
 11
-461.1999999999991
 21
-12.19999999999948
 31
0.0
  0
LINE
  5
1B5C7
330
1E
100
AcDbEntity
  8
DETAIL
  6
Continuous
100
AcDbLine
 10
-451.9999999999995
 20
-7.999999999999656
 30
0.0
 11
-451.9999999999995
 21
-51.99999999999966
 31
0.0
  0
LINE
  5
1B5C8
330
1E
100
AcDbEntity
  8
DETAIL
  6
Continuous
100
AcDbLine
 10
-442.7999999999991
 20
-2.999999999999658
 30
0.0
 11
-442.7999999999991
 21
-1.799999999999839
 31
0.0
  0
LINE
  5
1B5C9
330
1E
100
AcDbEntity
  8
DETAIL
  6
Continuous
100
AcDbLine
 10
-441.9999999999993
 20
-2.999999999999658
 30
0.0
 11
-441.9999999999993
 21
-1.799999999999839
 31
0.0
  0
LINE
  5
1B5CA
330
1E
100
AcDbEntity
  8
DETAIL
  6
Continuous
100
AcDbLine
 10
-409.9999999999995
 20
-8.500000000000566
 30
0.0
 11
-409.9999999999995
 21
-36.49999999999966
 31
0.0
  0
LINE
  5
1B5CB
330
1E
100
AcDbEntity
  8
DETAIL
  6
Continuous
100
AcDbLine
 10
-409.9999999999995
 20
-43.50000000000057
 30
0.0
 11
-409.9999999999995
 21
-51.99999999999966
 31
0.0
  0
LINE
  5
1B5CC
330
1E
100
AcDbEntity
  8
DETAIL
  6
Continuous
100
AcDbLine
 10
-406.9999999999994
 20
-51.99999999999966
 30
0.0
 11
-406.9999999999994
 21
-43.50000000000057
 31
0.0
  0
LINE
  5
1B5CD
330
1E
100
AcDbEntity
  8
DETAIL
  6
Continuous
100
AcDbLine
 10
-406.9999999999994
 20
-36.49999999999966
 30
0.0
 11
-406.9999999999994
 21
-8.500000000000566
 31
0.0
  0
LINE
  5
1B5CF
330
1E
100
AcDbEntity
  8
DETAIL
  6
Continuous
100
AcDbLine
 10
-398.7999999999997
 20
-1.600000000000022
 30
0.0
 11
-398.7999999999997
 21
-2.999999999999658
 31
0.0
  0
LINE
  5
1B5D0
330
1E
100
AcDbEntity
  8
DETAIL
  6
Continuous
100
AcDbLine
 10
-397.9999999999995
 20
-1.600000000000022
 30
0.0
 11
-397.9999999999995
 21
-2.999999999999658
 31
0.0
  0
LINE
  5
1B5D1
330
1E
100
AcDbEntity
  8
DETAIL
  6
Continuous
100
AcDbLine
 10
-395.9977887489994
 20
-2.999999999999658
 30
0.0
 11
-403.7652195499994
 21
-205.1919390455001
 31
0.0
  0
LINE
  5
1B5D2
330
1E
100
AcDbEntity
  8
DETAIL
  6
Continuous
100
AcDbLine
 10
-392.9999999999996
 20
-2.999999999999658
 30
0.0
 11
-400.7674308009991
 21
-205.1919390455001
 31
0.0
  0
LINE
  5
1B5D3
330
1E
100
AcDbEntity
  8
DETAIL
  6
Continuous
100
AcDbLine
 10
-470.7999999999993
 20
-13.87964713999975
 30
0.0
 11
-486.2347459619999
 21
-4.9683924039997
 31
0.0
  0
LINE
  5
1B5D4
330
1E
100
AcDbEntity
  8
DETAIL
  6
Continuous
100
AcDbLine
 10
-405.7637453829998
 20
-210.0000000000006
 30
0.0
 11
-668.2362546169993
 21
-210.0000000000006
 31
0.0
  0
LINE
  5
1B5D5
330
1E
100
AcDbEntity
  8
DETAIL
  6
Continuous
100
AcDbLine
 10
-405.7637453829998
 20
-207.1151634269996
 30
0.0
 11
-668.2362546169993
 21
-207.1151634269996
 31
0.0
  0
LINE
  5
1B5D6
330
1E
100
AcDbEntity
  8
DETAIL
  6
Continuous
100
AcDbLine
 10
-483.9999999999995
 20
-70.00000000000056
 30
0.0
 11
-469.9999999999993
 21
-70.00000000000056
 31
0.0
  0
LINE
  5
1B5D7
330
1E
100
AcDbEntity
  8
DETAIL
  6
Continuous
100
AcDbLine
 10
-452.4999999999995
 20
-70.00000000000056
 30
0.0
 11
-440.4999999999994
 21
-70.00000000000056
 31
0.0
  0
LINE
  5
1B5D8
330
1E
100
AcDbEntity
  8
DETAIL
  6
Continuous
100
AcDbLine
 10
-433.4999999999992
 20
-70.00000000000056
 30
0.0
 11
-424.9999999999992
 21
-70.00000000000056
 31
0.0
  0
LINE
  5
1B5D9
330
1E
100
AcDbEntity
  8
DETAIL
  6
Continuous
100
AcDbLine
 10
-424.9999999999992
 20
-66.99999999999966
 30
0.0
 11
-433.4999999999992
 21
-66.99999999999966
 31
0.0
  0
LINE
  5
1B5DA
330
1E
100
AcDbEntity
  8
DETAIL
  6
Continuous
100
AcDbLine
 10
-440.4999999999994
 20
-66.99999999999966
 30
0.0
 11
-452.4999999999995
 21
-66.99999999999966
 31
0.0
  0
LINE
  5
1B5DB
330
1E
100
AcDbEntity
  8
DETAIL
  6
Continuous
100
AcDbLine
 10
-501.9999999999995
 20
-25.20000000000039
 30
0.0
 11
-468.3999999999992
 21
-25.20000000000039
 31
0.0
  0
LINE
  5
1B5DC
330
1E
100
AcDbEntity
  8
DETAIL
  6
Continuous
100
AcDbLine
 10
-467.5999999999993
 20
-14.79999999999893
 30
0.0
 11
-451.9999999999995
 21
-14.79999999999893
 31
0.0
  0
LINE
  5
1B5DD
330
1E
100
AcDbEntity
  8
DETAIL
  6
Continuous
100
AcDbLine
 10
-467.5999999999993
 20
-13.99999999999966
 30
0.0
 11
-451.9999999999995
 21
-13.99999999999966
 31
0.0
  0
LINE
  5
1B5DE
330
1E
100
AcDbEntity
  8
DETAIL
  6
Continuous
100
AcDbLine
 10
-460.1999999999994
 20
-13.19999999999948
 30
0.0
 11
-451.9999999999995
 21
-13.19999999999948
 31
0.0
  0
LINE
  5
1B5DF
330
1E
100
AcDbEntity
  8
DETAIL
  6
Continuous
100
AcDbLine
 10
-489.1397459619993
 20
-4.190000000000168
 30
0.0
 11
-503.7622446534992
 21
-4.190000000000168
 31
0.0
  0
LINE
  5
1B5E0
330
1E
100
AcDbEntity
  8
DETAIL
  6
Continuous
100
AcDbLine
 10
-392.9999999999996
 20
-2.999999999999658
 30
0.0
 11
-446.9999999999995
 21
-2.999999999999658
 31
0.0
  0
LINE
  5
1B5E1
330
1E
100
AcDbEntity
  8
DETAIL
  6
Continuous
100
AcDbLine
 10
-506.9999999999994
 20
-2.999999999999658
 30
0.0
 11
-680.9999999999994
 21
-2.999999999999658
 31
0.0
  0
LINE
  5
1B5E2
330
1E
100
AcDbEntity
  8
DETAIL
  6
Continuous
100
AcDbLine
 10
-462.7999999999993
 20
-0.799999999999841
 30
0.0
 11
-511.9999999999993
 21
-0.799999999999841
 31
0.0
  0
LINE
  5
1B5E3
330
1E
100
AcDbEntity
  8
DETAIL
  6
Continuous
100
AcDbLine
 10
-440.9999999999993
 20
-0.799999999999841
 30
0.0
 11
-399.5999999999993
 21
-0.799999999999841
 31
0.0
  0
LINE
  5
1B5E4
330
1E
100
AcDbEntity
  8
DETAIL
  6
Continuous
100
AcDbLine
 10
-462.7999999999993
 20
-0.0000000000005684
 30
0.0
 11
-653.9999999999994
 21
-0.0000000000005684
 31
0.0
  0
LINE
  5
1B5E5
330
1E
100
AcDbEntity
  8
DETAIL
  6
Continuous
100
AcDbLine
 10
-440.9999999999993
 20
-0.0000000000005684
 30
0.0
 11
-399.5999999999993
 21
-0.0000000000005684
 31
0.0
  0
ARC
  5
1B5E6
330
1E
100
AcDbEntity
  8
DETAIL
  6
Continuous
100
AcDbCircle
 10
-469.9999999999993
 20
-51.99999999999966
 30
0.0
 40
18.0
100
AcDbArc
 50
270.0
 51
0.0
  0
ARC
  5
1B5E7
330
1E
100
AcDbEntity
  8
DETAIL
  6
Continuous
100
AcDbCircle
 10
-483.9999999999995
 20
-51.99999999999966
 30
0.0
 40
18.0
100
AcDbArc
 50
180.0
 51
270.0
  0
ARC
  5
1B5E8
330
1E
100
AcDbEntity
  8
DETAIL
  6
Continuous
100
AcDbCircle
 10
-424.9999999999992
 20
-51.99999999999966
 30
0.0
 40
18.0
100
AcDbArc
 50
270.0
 51
0.0
  0
ARC
  5
1B5E9
330
1E
100
AcDbEntity
  8
DETAIL
  6
Continuous
100
AcDbCircle
 10
-489.1397459619993
 20
-10.00000000000057
 30
0.0
 40
5.809999999999997
100
AcDbArc
 50
59.99999999999989
 51
90.0
  0
ARC
  5
1B5EA
330
1E
100
AcDbEntity
  8
DETAIL
  6
Continuous
100
AcDbCircle
 10
-405.7637453829998
 20
-205.0000000000006
 30
0.0
 40
5.0
100
AcDbArc
 50
270.0
 51
357.8000000000104
  0
ARC
  5
1B5EB
330
1E
100
AcDbEntity
  8
DETAIL
  6
Continuous
100
AcDbCircle
 10
-668.2362546169993
 20
-205.0000000000006
 30
0.0
 40
5.0
100
AcDbArc
 50
182.1999999999897
 51
270.0
  0
ARC
  5
1B5EC
330
1E
100
AcDbEntity
  8
DETAIL
  6
Continuous
100
AcDbCircle
 10
-506.9999999999994
 20
-7.999999999999656
 30
0.0
 40
5.0
100
AcDbArc
 50
0.0
 51
90.0
  0
ARC
  5
1B5ED
330
1E
100
AcDbEntity
  8
DETAIL
  6
Continuous
100
AcDbCircle
 10
-446.9999999999995
 20
-7.999999999999656
 30
0.0
 40
5.0
100
AcDbArc
 50
90.0
 51
180.0
  0
ARC
  5
1B5EE
330
1E
100
AcDbEntity
  8
DETAIL
  6
Continuous
100
AcDbCircle
 10
-405.7637453829998
 20
-205.1151634270005
 30
0.0
 40
2.0
100
AcDbArc
 50
270.0
 51
357.8000000000104
  0
ARC
  5
1B5EF
330
1E
100
AcDbEntity
  8
DETAIL
  6
Continuous
100
AcDbCircle
 10
-668.2362546169993
 20
-205.1151634270005
 30
0.0
 40
2.0
100
AcDbArc
 50
182.1999999999897
 51
270.0
  0
ARC
  5
1B5F0
330
1E
100
AcDbEntity
  8
DETAIL
  6
Continuous
100
AcDbCircle
 10
-440.9999999999993
 20
-1.799999999999839
 30
0.0
 40
1.799999999999999
100
AcDbArc
 50
90.0
 51
180.0
  0
ARC
  5
1B5F1
330
1E
100
AcDbEntity
  8
DETAIL
  6
Continuous
100
AcDbCircle
 10
-460.1999999999994
 20
-12.19999999999948
 30
0.0
 40
1.799999999999999
100
AcDbArc
 50
180.0
 51
270.0
  0
ARC
  5
1B5F2
330
1E
100
AcDbEntity
  8
DETAIL
  6
Continuous
100
AcDbCircle
 10
-462.7999999999993
 20
-1.600000000000022
 30
0.0
 40
1.6
100
AcDbArc
 50
0.0
 51
90.0
  0
ARC
  5
1B5F3
330
1E
100
AcDbEntity
  8
DETAIL
  6
Continuous
100
AcDbCircle
 10
-399.5999999999993
 20
-1.600000000000022
 30
0.0
 40
1.6
100
AcDbArc
 50
0.0
 51
90.0
  0
ARC
  5
1B5F4
330
1E
100
AcDbEntity
  8
DETAIL
  6
Continuous
100
AcDbCircle
 10
-653.9999999999994
 20
-1.600000000000022
 30
0.0
 40
1.6
100
AcDbArc
 50
90.0
 51
180.0
  0
ARC
  5
1B5F5
330
1E
100
AcDbEntity
  8
DETAIL
  6
Continuous
100
AcDbCircle
 10
-467.5999999999993
 20
-15.60000000000002
 30
0.0
 40
1.6
100
AcDbArc
 50
90.0
 51
180.0
  0
ARC
  5
1B5F6
330
1E
100
AcDbEntity
  8
DETAIL
  6
Continuous
100
AcDbCircle
 10
-452.4999999999995
 20
-68.50000000000057
 30
0.0
 40
1.5
100
AcDbArc
 50
90.0
 51
270.0
  0
ARC
  5
1B5F7
330
1E
100
AcDbEntity
  8
DETAIL
  6
Continuous
100
AcDbCircle
 10
-440.4999999999994
 20
-68.50000000000057
 30
0.0
 40
1.5
100
AcDbArc
 50
270.0
 51
90.0
  0
ARC
  5
1B5F8
330
1E
100
AcDbEntity
  8
DETAIL
  6
Continuous
100
AcDbCircle
 10
-433.4999999999992
 20
-68.50000000000057
 30
0.0
 40
1.5
100
AcDbArc
 50
90.0
 51
270.0
  0
ARC
  5
1B5F9
330
1E
100
AcDbEntity
  8
DETAIL
  6
Continuous
100
AcDbCircle
 10
-408.4999999999992
 20
-43.50000000000057
 30
0.0
 40
1.5
100
AcDbArc
 50
0.0
 51
180.0
  0
ARC
  5
1B5FA
330
1E
100
AcDbEntity
  8
DETAIL
  6
Continuous
100
AcDbCircle
 10
-408.4999999999992
 20
-36.49999999999966
 30
0.0
 40
1.5
100
AcDbArc
 50
180.0
 51
0.0
  0
ARC
  5
1B5FB
330
1E
100
AcDbEntity
  8
DETAIL
  6
Continuous
100
AcDbCircle
 10
-408.4999999999992
 20
-8.500000000000566
 30
0.0
 40
1.5
100
AcDbArc
 50
0.0
 51
180.0
  0
ARC
  5
1B5FC
330
1E
100
AcDbEntity
  8
DETAIL
  6
Continuous
100
AcDbCircle
 10
-460.1999999999994
 20
-12.19999999999948
 30
0.0
 40
1.0
100
AcDbArc
 50
180.0
 51
270.0
  0
ARC
  5
1B5FD
330
1E
100
AcDbEntity
  8
DETAIL
  6
Continuous
100
AcDbCircle
 10
-440.9999999999993
 20
-1.799999999999839
 30
0.0
 40
1.0
100
AcDbArc
 50
90.0
 51
180.0
  0
ARC
  5
1B5FE
330
1E
100
AcDbEntity
  8
DETAIL
  6
Continuous
100
AcDbCircle
 10
-462.7999999999993
 20
-1.600000000000022
 30
0.0
 40
0.8
100
AcDbArc
 50
0.0
 51
90.0
  0
ARC
  5
1B5FF
330
1E
100
AcDbEntity
  8
DETAIL
  6
Continuous
100
AcDbCircle
 10
-399.5999999999993
 20
-1.600000000000022
 30
0.0
 40
0.8
100
AcDbArc
 50
0.0
 51
90.0
  0
ARC
  5
1B600
330
1E
100
AcDbEntity
  8
DETAIL
  6
Continuous
100
AcDbCircle
 10
-467.5999999999993
 20
-15.60000000000002
 30
0.0
 40
0.8
100
AcDbArc
 50
90.0
 51
180.0
  0
SPLINE
  5
1B603
330
1E
100
AcDbEntity
  8
DETAIL
  6
Continuous
100
AcDbSpline
210
0.0
220
0.0
230
1.0
 70
     8
 71
     3
 72
    13
 73
     9
 74
     0
 42
0.0000001
 43
0.0000000001
 40
0.0
 40
0.0
 40
0.0
 40
0.0
 40
0.1253049604
 40
0.2505994412
 40
0.5
 40
0.7494005588000002
 40
0.8746950395999999
 40
1.0
 40
1.0
 40
1.0
 40
1.0
 10
-424.9999999999992
 20
-66.99999999999966
 30
0.0
 10
-424.019818351499
 20
-66.99999999999966
 30
0.0
 10
-422.0537999854999
 20
-66.80438654049942
 30
0.0
 10
-418.2906936074994
 20
-65.66756709599997
 30
0.0
 10
-414.1150637244995
 20
-62.88493627500031
 30
0.0
 10
-411.3324329034993
 20
-58.70930639199979
 30
0.0
 10
-410.1956134594995
 20
-54.94620001400074
 30
0.0
 10
-409.9999999999995
 20
-52.98018164799997
 30
0.0
 10
-409.9999999999995
 20
-51.99999999999966
 30
0.0
  0
LINE
  5
1B7DD
330
1E
100
AcDbEntity
  8
OUTLINE
  6
Continuous
100
AcDbLine
 10
-673.2325691989995
 20
-205.1919390455001
 30
0.0
 11
-680.9999999999994
 21
-2.999999999999658
 31
0.0
  0
LINE
  5
1B7DF
330
1E
100
AcDbEntity
  8
OUTLINE
  6
Continuous
100
AcDbLine
 10
-655.5999999999998
 20
-2.999999999999658
 30
0.0
 11
-655.5999999999998
 21
-1.600000000000022
 31
0.0
  0
LINE
  5
1B7E1
330
1E
100
AcDbEntity
  8
OUTLINE
  6
Continuous
100
AcDbLine
 10
-511.9999999999993
 20
-0.0000000000005684
 30
0.0
 11
-511.9999999999993
 21
-2.999999999999658
 31
0.0
  0
LINE
  5
1B7E2
330
1E
100
AcDbEntity
  8
OUTLINE
  6
Continuous
100
AcDbLine
 10
-501.9999999999995
 20
-7.999999999999656
 30
0.0
 11
-501.9999999999995
 21
-51.99999999999966
 31
0.0
  0
LINE
  5
1B7E6
330
1E
100
AcDbEntity
  8
OUTLINE
  6
Continuous
100
AcDbLine
 10
-461.9999999999993
 20
-1.600000000000022
 30
0.0
 11
-461.9999999999993
 21
-12.19999999999948
 31
0.0
  0
LINE
  5
1B7E7
330
1E
100
AcDbEntity
  8
OUTLINE
  6
Continuous
100
AcDbLine
 10
-461.1999999999991
 20
-1.600000000000022
 30
0.0
 11
-461.1999999999991
 21
-12.19999999999948
 31
0.0
  0
LINE
  5
1B7E8
330
1E
100
AcDbEntity
  8
OUTLINE
  6
Continuous
100
AcDbLine
 10
-451.9999999999995
 20
-7.999999999999656
 30
0.0
 11
-451.9999999999995
 21
-51.99999999999966
 31
0.0
  0
LINE
  5
1B7E9
330
1E
100
AcDbEntity
  8
OUTLINE
  6
Continuous
100
AcDbLine
 10
-442.7999999999991
 20
-2.999999999999658
 30
0.0
 11
-442.7999999999991
 21
-1.799999999999839
 31
0.0
  0
LINE
  5
1B7EA
330
1E
100
AcDbEntity
  8
OUTLINE
  6
Continuous
100
AcDbLine
 10
-441.9999999999993
 20
-2.999999999999658
 30
0.0
 11
-441.9999999999993
 21
-1.799999999999839
 31
0.0
  0
LINE
  5
1B7EF
330
1E
100
AcDbEntity
  8
OUTLINE
  6
Continuous
100
AcDbLine
 10
-398.7999999999997
 20
-1.600000000000022
 30
0.0
 11
-398.7999999999997
 21
-2.999999999999658
 31
0.0
  0
LINE
  5
1B7F0
330
1E
100
AcDbEntity
  8
OUTLINE
  6
Continuous
100
AcDbLine
 10
-397.9999999999995
 20
-1.600000000000022
 30
0.0
 11
-397.9999999999995
 21
-2.999999999999658
 31
0.0
  0
LINE
  5
1B7F2
330
1E
100
AcDbEntity
  8
OUTLINE
  6
Continuous
100
AcDbLine
 10
-392.9999999999996
 20
-2.999999999999658
 30
0.0
 11
-400.7674308009991
 21
-205.1919390455001
 31
0.0
  0
LINE
  5
1B7F4
330
1E
100
AcDbEntity
  8
OUTLINE
  6
Continuous
100
AcDbLine
 10
-405.7637453829998
 20
-210.0000000000006
 30
0.0
 11
-668.2362546169993
 21
-210.0000000000006
 31
0.0
  0
LINE
  5
1B7F6
330
1E
100
AcDbEntity
  8
OUTLINE
  6
Continuous
100
AcDbLine
 10
-483.9999999999995
 20
-70.00000000000056
 30
0.0
 11
-469.9999999999993
 21
-70.00000000000056
 31
0.0
  0
LINE
  5
1B7FD
330
1E
100
AcDbEntity
  8
OUTLINE
  6
Continuous
100
AcDbLine
 10
-460.1999999999994
 20
-13.99999999999943
 30
0.0
 11
-451.9999999999995
 21
-13.99999999999966
 31
0.0
  0
LINE
  5
1B7FE
330
1E
100
AcDbEntity
  8
OUTLINE
  6
Continuous
100
AcDbLine
 10
-460.1999999999994
 20
-13.19999999999948
 30
0.0
 11
-451.9999999999995
 21
-13.19999999999948
 31
0.0
  0
LINE
  5
1B800
330
1E
100
AcDbEntity
  8
OUTLINE
  6
Continuous
100
AcDbLine
 10
-392.9999999999996
 20
-2.999999999999658
 30
0.0
 11
-446.9999999999995
 21
-2.999999999999658
 31
0.0
  0
LINE
  5
1B801
330
1E
100
AcDbEntity
  8
OUTLINE
  6
Continuous
100
AcDbLine
 10
-506.9999999999994
 20
-2.999999999999658
 30
0.0
 11
-680.9999999999994
 21
-2.999999999999658
 31
0.0
  0
LINE
  5
1B802
330
1E
100
AcDbEntity
  8
OUTLINE
  6
Continuous
100
AcDbLine
 10
-462.7999999999993
 20
-0.799999999999841
 30
0.0
 11
-511.9999999999993
 21
-0.799999999999841
 31
0.0
  0
LINE
  5
1B803
330
1E
100
AcDbEntity
  8
OUTLINE
  6
Continuous
100
AcDbLine
 10
-440.9999999999993
 20
-0.799999999999841
 30
0.0
 11
-399.5999999999993
 21
-0.799999999999841
 31
0.0
  0
LINE
  5
1B804
330
1E
100
AcDbEntity
  8
OUTLINE
  6
Continuous
100
AcDbLine
 10
-462.7999999999993
 20
-0.0000000000005684
 30
0.0
 11
-653.9999999999994
 21
-0.0000000000005684
 31
0.0
  0
LINE
  5
1B805
330
1E
100
AcDbEntity
  8
OUTLINE
  6
Continuous
100
AcDbLine
 10
-440.9999999999993
 20
-0.0000000000005684
 30
0.0
 11
-399.5999999999993
 21
-0.0000000000005684
 31
0.0
  0
ARC
  5
1B806
330
1E
100
AcDbEntity
  8
OUTLINE
  6
Continuous
100
AcDbCircle
 10
-469.9999999999993
 20
-51.99999999999966
 30
0.0
 40
18.0
100
AcDbArc
 50
270.0
 51
0.0
  0
ARC
  5
1B807
330
1E
100
AcDbEntity
  8
OUTLINE
  6
Continuous
100
AcDbCircle
 10
-483.9999999999995
 20
-51.99999999999966
 30
0.0
 40
18.0
100
AcDbArc
 50
180.0
 51
270.0
  0
ARC
  5
1B80A
330
1E
100
AcDbEntity
  8
OUTLINE
  6
Continuous
100
AcDbCircle
 10
-405.7637453829998
 20
-205.0000000000006
 30
0.0
 40
5.0
100
AcDbArc
 50
270.0
 51
357.8000000000038
  0
ARC
  5
1B80B
330
1E
100
AcDbEntity
  8
OUTLINE
  6
Continuous
100
AcDbCircle
 10
-668.2362546169993
 20
-205.0000000000006
 30
0.0
 40
5.0
100
AcDbArc
 50
182.1999999999961
 51
270.0
  0
ARC
  5
1B80C
330
1E
100
AcDbEntity
  8
OUTLINE
  6
Continuous
100
AcDbCircle
 10
-506.9999999999994
 20
-7.999999999999656
 30
0.0
 40
5.0
100
AcDbArc
 50
0.0
 51
90.0
  0
ARC
  5
1B80D
330
1E
100
AcDbEntity
  8
OUTLINE
  6
Continuous
100
AcDbCircle
 10
-446.9999999999995
 20
-7.999999999999656
 30
0.0
 40
5.0
100
AcDbArc
 50
90.0
 51
180.0
  0
ARC
  5
1B810
330
1E
100
AcDbEntity
  8
OUTLINE
  6
Continuous
100
AcDbCircle
 10
-440.9999999999993
 20
-1.799999999999839
 30
0.0
 40
1.799999999999999
100
AcDbArc
 50
90.0
 51
180.0
  0
ARC
  5
1B811
330
1E
100
AcDbEntity
  8
OUTLINE
  6
Continuous
100
AcDbCircle
 10
-460.1999999999994
 20
-12.19999999999948
 30
0.0
 40
1.799999999999999
100
AcDbArc
 50
180.0
 51
270.0
  0
ARC
  5
1B812
330
1E
100
AcDbEntity
  8
OUTLINE
  6
Continuous
100
AcDbCircle
 10
-462.7999999999993
 20
-1.600000000000022
 30
0.0
 40
1.6
100
AcDbArc
 50
0.0
 51
90.0
  0
ARC
  5
1B813
330
1E
100
AcDbEntity
  8
OUTLINE
  6
Continuous
100
AcDbCircle
 10
-399.5999999999993
 20
-1.600000000000022
 30
0.0
 40
1.6
100
AcDbArc
 50
0.0
 51
90.0
  0
ARC
  5
1B814
330
1E
100
AcDbEntity
  8
OUTLINE
  6
Continuous
100
AcDbCircle
 10
-653.9999999999994
 20
-1.600000000000022
 30
0.0
 40
1.6
100
AcDbArc
 50
90.0
 51
180.0
  0
ARC
  5
1B81C
330
1E
100
AcDbEntity
  8
OUTLINE
  6
Continuous
100
AcDbCircle
 10
-460.1999999999994
 20
-12.19999999999948
 30
0.0
 40
1.0
100
AcDbArc
 50
180.0
 51
270.0
  0
ARC
  5
1B81D
330
1E
100
AcDbEntity
  8
OUTLINE
  6
Continuous
100
AcDbCircle
 10
-440.9999999999993
 20
-1.799999999999839
 30
0.0
 40
1.0
100
AcDbArc
 50
90.0
 51
180.0
  0
ARC
  5
1B81E
330
1E
100
AcDbEntity
  8
OUTLINE
  6
Continuous
100
AcDbCircle
 10
-462.7999999999993
 20
-1.600000000000022
 30
0.0
 40
0.8
100
AcDbArc
 50
0.0
 51
90.0
  0
ARC
  5
1B81F
330
1E
100
AcDbEntity
  8
OUTLINE
  6
Continuous
100
AcDbCircle
 10
-399.5999999999993
 20
-1.600000000000022
 30
0.0
 40
0.8
100
AcDbArc
 50
0.0
 51
90.0
  0
DIMENSION
  5
1B827
330
1E
100
AcDbEntity
  8
SIZE
  6
Continuous
100
AcDbDimension
280
     0
  2
*D14
 10
-392.9999999999996
 20
-415.0
 30
0.0
 11
-437.9999999999993
 21
-380.0
 31
0.0
 70
    32
 71
     5
 42
3.0
 73
     0
 74
     0
 75
     0
  3
STANDARD
100
AcDbAlignedDimension
 13
-389.9999999999995
 23
-115.6496542420209
 33
0.0
 14
-392.9999999999996
 24
-2.999999999999658
 34
0.0
100
AcDbRotatedDimension
1001
ACAD
1000
DSTYLE
1002
{
1070
    41
1040
10.0
1070
    42
1040
20.0
1070
    43
1040
200.0
1070
    44
1040
20.0
1070
    73
1070
     0
1070
    74
1070
     0
1070
    77
1070
     1
1070
    78
1070
     8
1070
   140
1040
50.0
1070
   141
1040
0.082
1070
   147
1040
10.0
1070
   172
1070
     1
1070
   271
1070
     8
1070
   272
1070
     0
1070
   341
1005
46
1070
   342
1005
46
1002
}
  0
DIMENSION
  5
1B850
330
1E
100
AcDbEntity
  8
SIZE
  6
Continuous
100
AcDbDimension
280
     0
  2
*D16
 10
-680.9999999999994
 20
200.0
 30
0.0
 11
-500.8269218483976
 21
200.0
 31
0.0
 70
   160
 71
     5
 42
288.0
 73
     0
 74
     0
 75
     0
  3
STANDARD
100
AcDbAlignedDimension
 13
-392.9999999999996
 23
-2.999999999999658
 33
0.0
 14
-680.9999999999994
 24
-2.999999999999658
 34
0.0
100
AcDbRotatedDimension
1001
ACAD
1000
DSTYLE
1002
{
1070
    41
1040
10.0
1070
    42
1040
20.0
1070
    43
1040
200.0
1070
    44
1040
20.0
1070
    73
1070
     0
1070
    74
1070
     0
1070
    77
1070
     1
1070
    78
1070
     8
1070
   140
1040
50.0
1070
   141
1040
0.082
1070
   147
1040
10.0
1070
   172
1070
     1
1070
   271
1070
     8
1070
   272
1070
     0
1070
   341
1005
46
1070
   342
1005
46
1002
}
  0
DIMENSION
  5
1B868
330
1E
100
AcDbEntity
  8
SIZE
  6
Continuous
100
AcDbDimension
280
     0
  2
*D17
 10
-881.0
 20
-0.0000000000000587
 30
0.0
 11
-915.9999999999996
 21
-105.0000000000001
 31
0.0
 70
    32
 71
     5
 42
210.0000000000006
 73
     0
 74
     0
 75
     0
  3
STANDARD
100
AcDbAlignedDimension
 13
-668.2362546169993
 23
-210.0000000000006
 33
0.0
 14
-653.9999999999994
 24
-0.0000000000000222
 34
0.0
 50
90.0
100
AcDbRotatedDimension
1001
ACAD
1000
DSTYLE
1002
{
1070
    41
1040
10.0
1070
    42
1040
20.0
1070
    43
1040
200.0
1070
    44
1040
20.0
1070
    73
1070
     0
1070
    74
1070
     0
1070
    77
1070
     1
1070
    78
1070
     8
1070
   140
1040
50.0
1070
   141
1040
0.082
1070
   147
1040
10.0
1070
   172
1070
     1
1070
   271
1070
     8
1070
   272
1070
     0
1070
   341
1005
46
1070
   342
1005
46
1002
}
  0
LINE
  5
1BBF5
330
1E
100
AcDbEntity
  8
BASIS
  6
CENTER
100
AcDbLine
 10
389.8004999999957
 20
0.0
 30
0.0
 11
-681.1152483749496
 21
0.0
 31
0.0
  0
LINE
  5
1BE9B
330
1E
100
AcDbEntity
  8
NOTE
  6
Continuous
 62
     4
100
AcDbLine
 10
319.8004999999958
 20
0.0
 30
0.0
 11
345.4204685262823
 21
30.71834986856293
 31
0.0
  0
LINE
  5
1BE9C
330
1E
100
AcDbEntity
  8
NOTE
  6
Continuous
 62
     4
100
AcDbLine
 10
326.6288684675686
 20
39.41286237656007
 30
0.0
 11
319.8004999999958
 21
0.0
 31
0.0
  0
LINE
  5
1BE9D
330
1E
100
AcDbEntity
  8
NOTE
  6
Continuous
 62
     4
100
AcDbLine
 10
-334.9999999999994
 20
0.0
 30
0.0
 11
-311.3580998294144
 21
32.16330300113515
 31
0.0
  0
LINE
  5
1BE9E
330
1E
100
AcDbEntity
  8
NOTE
  6
Continuous
 62
     4
100
AcDbLine
 10
-330.7789292659062
 20
39.77666330202996
 30
0.0
 11
-334.9999999999994
 21
0.0
 31
0.0
  0
LINE
  5
1BE9F
330
1E
100
AcDbEntity
  8
NOTE
  6
DASHDOT
 62
     4
100
AcDbLine
 10
299.8004999999957
 20
0.0
 30
0.0
 11
339.8004999999957
 21
0.0
 31
0.0
  0
LINE
  5
1BEA0
330
1E
100
AcDbEntity
  8
NOTE
  6
DASHDOT
 62
     4
100
AcDbLine
 10
320.0
 20
20.0
 30
0.0
 11
320.0
 21
-20.0
 31
0.0
  0
LINE
  5
1BEA1
330
1E
100
AcDbEntity
  8
NOTE
  6
DASHDOT
 62
     4
100
AcDbLine
 10
-355.1995000000047
 20
0.0
 30
0.0
 11
-315.1995000000047
 21
0.0
 31
0.0
  0
LINE
  5
1BEA2
330
1E
100
AcDbEntity
  8
NOTE
  6
DASHDOT
 62
     4
100
AcDbLine
 10
-335.0
 20
20.0
 30
0.0
 11
-335.0
 21
-20.0
 31
0.0
  0
LINE
  5
1BEA3
330
1E
100
AcDbEntity
  8
NOTE
  6
Continuous
 62
     4
100
AcDbLine
 10
-334.9999999999994
 20
0.0
 30
0.0
 11
-201.8358341813099
 21
365.3908316871099
 31
0.0
  0
LINE
  5
1BEA4
330
1E
100
AcDbEntity
  8
NOTE
  6
Continuous
 62
     4
100
AcDbLine
 10
324.2732634078194
 20
365.3908316871104
 30
0.0
 11
-201.8358341813099
 21
365.3908316871099
 31
0.0
  0
LINE
  5
1BEA5
330
1E
100
AcDbEntity
  8
NOTE
  6
Continuous
 62
     4
100
AcDbLine
 10
319.8004999999958
 20
0.0
 30
0.0
 11
476.853990481957
 21
365.3908316871105
 31
0.0
  0
LINE
  5
1BEA6
330
1E
100
AcDbEntity
  8
NOTE
  6
Continuous
 62
     4
100
AcDbLine
 10
476.853990481957
 20
365.3908316871105
 30
0.0
 11
1023.75934458554
 21
365.3908316871105
 31
0.0
  0
TEXT
  5
1BEA7
330
1E
100
AcDbEntity
  8
NOTE
 62
     4
100
AcDbText
 10
520.8112045855394
 20
392.1416916871106
 30
0.0
 40
64.0
  1
D,RL,RG%%C65
 41
0.9
100
AcDbText
  0
TEXT
  5
1BEA8
330
1E
100
AcDbEntity
  8
NOTE
 62
     4
100
AcDbText
 10
-193.2449141813102
 20
388.9217516871101
 30
0.0
 40
64.0
  1
D,RL,RG%%C65
 41
0.9
100
AcDbText
  0
LINE
  5
1BEA9
330
1E
100
AcDbEntity
  8
DETAIL
100
AcDbLine
 10
-338.1524999999961
 20
-29.61670508541829
 30
0.0
 11
-341.1450000000018
 21
-34.79907770552883
 31
0.0
  0
LINE
  5
1BEAA
330
1E
100
AcDbEntity
  8
DETAIL
100
AcDbLine
 10
-338.1524999999961
 20
-29.70391177029751
 30
0.0
 11
-341.0694046473722
 21
-34.75536934096908
 31
0.0
  0
LINE
  5
1BEAB
330
1E
100
AcDbEntity
  8
DETAIL
100
AcDbLine
 10
-54.86250000000654
 20
-29.61670508541829
 30
0.0
 11
-57.85499999999956
 21
-34.79907770552883
 31
0.0
  0
LINE
  5
1BEAC
330
1E
100
AcDbEntity
  8
DETAIL
100
AcDbLine
 10
-54.86250000000654
 20
-29.70391177029751
 30
0.0
 11
-57.77940464737094
 21
-34.75536934096908
 31
0.0
  0
LINE
  5
1BEAD
330
1E
100
AcDbEntity
  8
DETAIL
100
AcDbLine
 10
-60.8475000000044
 20
-26.44176836297766
 30
0.0
 11
-60.91684183759936
 21
-26.51111020057852
 31
0.0
  0
LINE
  5
1BEAE
330
1E
100
AcDbEntity
  8
DETAIL
100
AcDbLine
 10
-341.1450000000018
 20
-34.79907770552883
 30
0.0
 11
-341.0694046473722
 21
-34.75536934096908
 31
0.0
  0
LINE
  5
1BEAF
330
1E
100
AcDbEntity
  8
DETAIL
100
AcDbLine
 10
-342.6412500000038
 20
-153.3723231092201
 30
0.0
 11
-342.6412500000038
 21
-165.9029189191881
 31
0.0
  0
LINE
  5
1BEB0
330
1E
100
AcDbEntity
  8
DETAIL
100
AcDbLine
 10
-342.6412500000038
 20
-170.34870410709
 30
0.0
 11
-342.6412500000038
 21
-189.0672991031683
 31
0.0
  0
LINE
  5
1BEB1
330
1E
100
AcDbEntity
  8
DETAIL
100
AcDbLine
 10
-342.6412500000038
 20
-148.3716580443679
 30
0.0
 11
-342.6412500000038
 21
-134.1156489823897
 31
0.0
  0
LINE
  5
1BEB2
330
1E
100
AcDbEntity
  8
DETAIL
100
AcDbLine
 10
-342.6412500000038
 20
-129.7076109194977
 30
0.0
 11
-342.6412500000038
 21
-115.0633989823882
 31
0.0
  0
LINE
  5
1BEB3
330
1E
100
AcDbEntity
  8
DETAIL
100
AcDbLine
 10
-342.6412500000038
 20
-110.6553609194991
 30
0.0
 11
-342.6412500000038
 21
-96.01114898238961
 31
0.0
  0
LINE
  5
1BEB4
330
1E
100
AcDbEntity
  8
DETAIL
100
AcDbLine
 10
-342.6412500000038
 20
-91.60311091949756
 30
0.0
 11
-342.6412500000038
 21
-76.95889898238807
 31
0.0
  0
LINE
  5
1BEB5
330
1E
100
AcDbEntity
  8
DETAIL
100
AcDbLine
 10
-342.6412500000038
 20
-72.55086091949897
 30
0.0
 11
-342.6412500000038
 21
-57.89269359562855
 31
0.0
  0
LINE
  5
1BEB6
330
1E
100
AcDbEntity
  8
DETAIL
100
AcDbLine
 10
-342.6412500000038
 20
-53.51536310207894
 30
0.0
 11
-342.6412500000038
 21
-38.4796378772794
 31
0.0
  0
LINE
  5
1BEB7
330
1E
100
AcDbEntity
  8
DETAIL
100
AcDbLine
 10
-243.576977140282
 20
-197.6184347747796
 30
0.0
 11
-243.8175313462052
 21
-200.3679819258298
 31
0.0
  0
LINE
  5
1BEB8
330
1E
100
AcDbEntity
  8
DETAIL
100
AcDbLine
 10
-57.85499999999956
 20
-34.79907770552883
 30
0.0
 11
-57.77940464737094
 21
-34.75536934096908
 31
0.0
  0
LINE
  5
1BEB9
330
1E
100
AcDbEntity
  8
DETAIL
100
AcDbLine
 10
-229.9949698468163
 20
-200.3679682853483
 30
0.0
 11
-230.2355228597171
 21
-197.6184347747796
 31
0.0
  0
LINE
  5
1BEBA
330
1E
100
AcDbEntity
  8
DETAIL
100
AcDbLine
 10
-60.8475000000044
 20
-26.44176836297766
 30
0.0
 11
-60.8475000000044
 21
-24.97854910317028
 31
0.0
  0
LINE
  5
1BEBB
330
1E
100
AcDbEntity
  8
DETAIL
100
AcDbLine
 10
-64.02697714028271
 20
-197.6184347747796
 30
0.0
 11
-64.26753134620503
 21
-200.3679819258298
 31
0.0
  0
LINE
  5
1BEBC
330
1E
100
AcDbEntity
  8
DETAIL
100
AcDbLine
 10
338.1524999999956
 20
-29.61670508541829
 30
0.0
 11
335.1600000000035
 21
-34.79907770552883
 31
0.0
  0
LINE
  5
1BEBD
330
1E
100
AcDbEntity
  8
DETAIL
100
AcDbLine
 10
338.1524999999956
 20
-29.70391177029751
 30
0.0
 11
335.2355953526312
 21
-34.75536934096908
 31
0.0
  0
LINE
  5
1BEBE
330
1E
100
AcDbEntity
  8
DETAIL
100
AcDbLine
 10
335.1600000000035
 20
-34.79907770552883
 30
0.0
 11
335.2355953526312
 21
-34.75536934096908
 31
0.0
  0
LINE
  5
1BEBF
330
1E
100
AcDbEntity
  8
DETAIL
100
AcDbLine
 10
-50.44496990001515
 20
-200.3679676841875
 30
0.0
 11
-50.68552285971779
 21
-197.6184347747796
 31
0.0
  0
LINE
  5
1BEC0
330
1E
100
AcDbEntity
  8
DETAIL
100
AcDbLine
 10
-15.4503346115298
 20
-201.4565562374089
 30
0.0
 11
-15.46190464026131
 21
-199.6821747621086
 31
0.0
  0
LINE
  5
1BEC1
330
1E
100
AcDbEntity
  8
DETAIL
100
AcDbLine
 10
8.119948055657005
 20
-200.3679636955176
 30
0.0
 11
8.110057065102409
 21
-199.2346648993773
 31
0.0
  0
LINE
  5
1BEC2
330
1E
100
AcDbEntity
  8
DETAIL
100
AcDbLine
 10
-37.90499999999884
 20
-26.44176836297766
 30
0.0
 11
-37.90499999999884
 21
-24.97854910317028
 31
0.0
  0
LINE
  5
1BEC3
330
1E
100
AcDbEntity
  8
DETAIL
100
AcDbLine
 10
41.39624999999614
 20
-189.0672991031683
 30
0.0
 11
41.39624999999614
 21
-170.34870410709
 31
0.0
  0
LINE
  5
1BEC4
330
1E
100
AcDbEntity
  8
DETAIL
100
AcDbLine
 10
41.39624999999614
 20
-165.9029189191881
 30
0.0
 11
41.39624999999614
 21
-153.3723231092201
 31
0.0
  0
LINE
  5
1BEC5
330
1E
100
AcDbEntity
  8
DETAIL
100
AcDbLine
 10
41.39624999999614
 20
-148.3716580443679
 30
0.0
 11
41.39624999999614
 21
-134.1156489823897
 31
0.0
  0
LINE
  5
1BEC6
330
1E
100
AcDbEntity
  8
DETAIL
100
AcDbLine
 10
41.39624999999614
 20
-129.7076109194977
 30
0.0
 11
41.39624999999614
 21
-115.0633989823882
 31
0.0
  0
LINE
  5
1BEC7
330
1E
100
AcDbEntity
  8
DETAIL
100
AcDbLine
 10
41.39624999999614
 20
-110.6553609194991
 30
0.0
 11
41.39624999999614
 21
-96.01114898238961
 31
0.0
  0
LINE
  5
1BEC8
330
1E
100
AcDbEntity
  8
DETAIL
100
AcDbLine
 10
41.39624999999614
 20
-91.60311091949756
 30
0.0
 11
41.39624999999614
 21
-76.95889898238807
 31
0.0
  0
LINE
  5
1BEC9
330
1E
100
AcDbEntity
  8
DETAIL
100
AcDbLine
 10
41.39624999999614
 20
-72.55086091949897
 30
0.0
 11
41.39624999999614
 21
-57.89269359562855
 31
0.0
  0
LINE
  5
1BECA
330
1E
100
AcDbEntity
  8
DETAIL
100
AcDbLine
 10
41.39624999999614
 20
-53.51536310207894
 30
0.0
 11
41.39624999999614
 21
-38.4796378772794
 31
0.0
  0
LINE
  5
1BECB
330
1E
100
AcDbEntity
  8
DETAIL
100
AcDbLine
 10
60.34874999999829
 20
-38.4796378772794
 30
0.0
 11
60.34874999999829
 21
-53.51536310207894
 31
0.0
  0
LINE
  5
1BECC
330
1E
100
AcDbEntity
  8
DETAIL
100
AcDbLine
 10
60.34874999999829
 20
-57.89269359562855
 30
0.0
 11
60.34874999999829
 21
-72.55086091949897
 31
0.0
  0
LINE
  5
1BECD
330
1E
100
AcDbEntity
  8
DETAIL
100
AcDbLine
 10
60.34874999999829
 20
-76.95889898238807
 30
0.0
 11
60.34874999999829
 21
-91.60311091949756
 31
0.0
  0
LINE
  5
1BECE
330
1E
100
AcDbEntity
  8
DETAIL
100
AcDbLine
 10
60.34874999999829
 20
-96.01114898238961
 30
0.0
 11
60.34874999999829
 21
-110.6553609194991
 31
0.0
  0
LINE
  5
1BECF
330
1E
100
AcDbEntity
  8
DETAIL
100
AcDbLine
 10
60.34874999999829
 20
-115.0633989823882
 30
0.0
 11
60.34874999999829
 21
-129.7076109194977
 31
0.0
  0
LINE
  5
1BED0
330
1E
100
AcDbEntity
  8
DETAIL
100
AcDbLine
 10
60.34874999999829
 20
-134.1156489823897
 30
0.0
 11
60.34874999999829
 21
-148.3716580443679
 31
0.0
  0
LINE
  5
1BED1
330
1E
100
AcDbEntity
  8
DETAIL
100
AcDbLine
 10
60.34874999999829
 20
-153.3723231092201
 30
0.0
 11
60.34874999999829
 21
-165.9029189191881
 31
0.0
  0
LINE
  5
1BED2
330
1E
100
AcDbEntity
  8
DETAIL
100
AcDbLine
 10
60.34874999999829
 20
-170.34870410709
 30
0.0
 11
60.34874999999829
 21
-189.0672991031683
 31
0.0
  0
LINE
  5
1BED3
330
1E
100
AcDbEntity
  8
DETAIL
100
AcDbLine
 10
-8.110057065115142
 20
-199.2346648993773
 30
0.0
 11
-8.119948055657912
 21
-200.3679636955176
 31
0.0
  0
LINE
  5
1BED4
330
1E
100
AcDbEntity
  8
DETAIL
100
AcDbLine
 10
-24.44966538847166
 20
-201.4565562374089
 30
0.0
 11
-24.43993531769047
 21
-199.6821747621086
 31
0.0
  0
LINE
  5
1BED5
330
1E
100
AcDbEntity
  8
DETAIL
100
AcDbLine
 10
74.62552285971923
 20
-197.6184347747796
 30
0.0
 11
74.38496876019597
 21
-200.3679807062194
 31
0.0
  0
LINE
  5
1BED6
330
1E
100
AcDbEntity
  8
DETAIL
100
AcDbLine
 10
214.2755228597198
 20
-197.6184347747796
 30
0.0
 11
214.0349686537975
 21
-200.3679819258298
 31
0.0
  0
LINE
  5
1BED7
330
1E
100
AcDbEntity
  8
DETAIL
100
AcDbLine
 10
353.4330792050068
 20
-174.6749385409387
 30
0.0
 11
350.0925801391132
 21
-185.5709449874387
 31
0.0
  0
LINE
  5
1BED8
330
1E
100
AcDbEntity
  8
DETAIL
100
AcDbLine
 10
88.20753015318588
 20
-200.3679682853483
 30
0.0
 11
87.9669771402723
 21
-197.6184347747796
 31
0.0
  0
LINE
  5
1BED9
330
1E
100
AcDbEntity
  8
DETAIL
100
AcDbLine
 10
227.8575301531864
 20
-200.3679682853483
 30
0.0
 11
227.616977140272
 21
-197.6184347747796
 31
0.0
  0
LINE
  5
1BEDA
330
1E
100
AcDbEntity
  8
DETAIL
100
AcDbLine
 10
248.8762500000011
 20
-38.4796378772794
 30
0.0
 11
248.8762500000011
 21
-53.51536310207894
 31
0.0
  0
LINE
  5
1BEDB
330
1E
100
AcDbEntity
  8
DETAIL
100
AcDbLine
 10
248.8762500000011
 20
-57.89269359562855
 30
0.0
 11
248.8762500000011
 21
-72.55086091949897
 31
0.0
  0
LINE
  5
1BEDC
330
1E
100
AcDbEntity
  8
DETAIL
100
AcDbLine
 10
248.8762500000011
 20
-76.95889898238807
 30
0.0
 11
248.8762500000011
 21
-91.60311091949756
 31
0.0
  0
LINE
  5
1BEDD
330
1E
100
AcDbEntity
  8
DETAIL
100
AcDbLine
 10
248.8762500000011
 20
-96.01114898238961
 30
0.0
 11
248.8762500000011
 21
-110.6553609194991
 31
0.0
  0
LINE
  5
1BEDE
330
1E
100
AcDbEntity
  8
DETAIL
100
AcDbLine
 10
248.8762500000011
 20
-115.0633989823882
 30
0.0
 11
248.8762500000011
 21
-129.7076109194977
 31
0.0
  0
LINE
  5
1BEDF
330
1E
100
AcDbEntity
  8
DETAIL
100
AcDbLine
 10
248.8762500000011
 20
-189.0672991031683
 30
0.0
 11
248.8762500000011
 21
-170.34870410709
 31
0.0
  0
LINE
  5
1BEE0
330
1E
100
AcDbEntity
  8
DETAIL
100
AcDbLine
 10
248.8762500000011
 20
-165.9029189191881
 30
0.0
 11
248.8762500000011
 21
-153.3723231092201
 31
0.0
  0
LINE
  5
1BEE1
330
1E
100
AcDbEntity
  8
DETAIL
100
AcDbLine
 10
248.8762500000011
 20
-148.3716580443679
 30
0.0
 11
248.8762500000011
 21
-134.1156489823897
 31
0.0
  0
LINE
  5
1BEE2
330
1E
100
AcDbEntity
  8
DETAIL
100
AcDbLine
 10
257.3549999999977
 20
-189.17610643642
 30
0.0
 11
257.3549999999977
 21
-170.09859465715
 31
0.0
  0
LINE
  5
1BEE3
330
1E
100
AcDbEntity
  8
DETAIL
100
AcDbLine
 10
352.4062204844304
 20
-178.0243360489696
 30
0.0
 11
352.5029664067788
 21
-172.481765845029
 31
0.0
  0
LINE
  5
1BEE4
330
1E
100
AcDbEntity
  8
DETAIL
100
AcDbLine
 10
363.5389192757001
 20
-165.3135024600876
 30
0.0
 11
363.2102824389158
 21
-171.5842668479476
 31
0.0
  0
LINE
  5
1BEE5
330
1E
100
AcDbEntity
  8
DETAIL
100
AcDbLine
 10
349.5977767984132
 20
-169.7173907620495
 30
0.0
 11
348.9114751287179
 21
-177.561854739328
 31
0.0
  0
LINE
  5
1BEE6
330
1E
100
AcDbEntity
  8
DETAIL
100
AcDbLine
 10
373.2926517109981
 20
-65.94751737934848
 30
0.0
 11
371.4337519356786
 21
-44.69111345464898
 31
0.0
  0
LINE
  5
1BEE7
330
1E
100
AcDbEntity
  8
DETAIL
100
AcDbLine
 10
372.9822731035747
 20
-44.55563525500884
 30
0.0
 11
374.8419630292356
 21
-65.81198836971839
 31
0.0
  0
LINE
  5
1BEE8
330
1E
100
AcDbEntity
  8
DETAIL
100
AcDbLine
 10
373.6135807243008
 20
-165.3135024600876
 30
0.0
 11
373.9422175597429
 21
-171.5842668479476
 31
0.0
  0
LINE
  5
1BEE9
330
1E
100
AcDbEntity
  8
DETAIL
100
AcDbLine
 10
351.527784872108
 20
-197.6184347747796
 30
0.0
 11
352.3101821992141
 21
-212.8588372892489
 31
0.0
  0
LINE
  5
1BEEA
330
1E
100
AcDbEntity
  8
DETAIL
100
AcDbLine
 10
349.1383469968723
 20
-210.782495974858
 30
0.0
 11
348.6786478504027
 21
-197.6184347747796
 31
0.0
  0
LINE
  5
1BEEB
330
1E
100
AcDbEntity
  8
DETAIL
100
AcDbLine
 10
349.7070308986076
 20
-212.8025377215902
 30
0.0
 11
349.1767903396503
 21
-197.6184347747796
 31
0.0
  0
LINE
  5
1BEEC
330
1E
100
AcDbEntity
  8
DETAIL
100
AcDbLine
 10
356.1376961218311
 20
-172.7335101136798
 30
0.0
 11
356.1415564774234
 21
-172.9546696877
 31
0.0
  0
LINE
  5
1BEED
330
1E
100
AcDbEntity
  8
DETAIL
100
AcDbLine
 10
357.6295519095602
 20
-172.481765845029
 30
0.0
 11
357.6339461218331
 21
-172.7335101136798
 31
0.0
  0
LINE
  5
1BEEE
330
1E
100
AcDbEntity
  8
DETAIL
100
AcDbLine
 10
388.2911924244199
 20
-70.36479910316892
 30
0.0
 11
388.295620914384
 21
-70.87635960486022
 31
0.0
  0
LINE
  5
1BEEF
330
1E
100
AcDbEntity
  8
DETAIL
100
AcDbLine
 10
352.0674161434481
 20
-150.236991230518
 30
0.0
 11
350.9273223618011
 21
-27.49523517823901
 31
0.0
  0
LINE
  5
1BEF0
330
1E
100
AcDbEntity
  8
DETAIL
100
AcDbLine
 10
376.6368488618373
 20
-172.481765845029
 30
0.0
 11
376.640928632848
 21
-172.9546696877
 31
0.0
  0
LINE
  5
1BEF1
330
1E
100
AcDbEntity
  8
DETAIL
100
AcDbLine
 10
338.1524999999956
 20
-29.61670508541829
 30
0.0
 11
338.1524999999956
 21
-29.70391177029751
 31
0.0
  0
LINE
  5
1BEF2
330
1E
100
AcDbEntity
  8
DETAIL
100
AcDbLine
 10
365.0850000000028
 20
-172.9546696877
 30
0.0
 11
365.0850000000028
 21
-165.3135024600876
 31
0.0
  0
LINE
  5
1BEF3
330
1E
100
AcDbEntity
  8
DETAIL
100
AcDbLine
 10
372.4664999999949
 20
-172.9546696877
 30
0.0
 11
372.4664999999949
 21
-165.3135024600876
 31
0.0
  0
LINE
  5
1BEF4
330
1E
100
AcDbEntity
  8
DETAIL
100
AcDbLine
 10
389.8004999999957
 20
-70.36479910316892
 30
0.0
 11
389.8004999999957
 21
0.0
 31
0.0
  0
LINE
  5
1BEF5
330
1E
100
AcDbEntity
  8
DETAIL
100
AcDbLine
 10
357.7730538781652
 20
-172.7335101136798
 30
0.0
 11
357.769193522573
 21
-172.9546696877
 31
0.0
  0
LINE
  5
1BEF6
330
1E
100
AcDbEntity
  8
DETAIL
100
AcDbLine
 10
359.9883653151755
 20
-172.9546696877
 30
0.0
 11
359.9966198817092
 21
-172.481765845029
 31
0.0
  0
LINE
  5
1BEF7
330
1E
100
AcDbEntity
  8
DETAIL
100
AcDbLine
 10
360.9844997562941
 20
-172.9546696877
 30
0.0
 11
360.9927543241592
 21
-172.481765845029
 31
0.0
  0
LINE
  5
1BEF8
330
1E
100
AcDbEntity
  8
DETAIL
100
AcDbLine
 10
385.1543128810145
 20
-210.6202270788508
 30
0.0
 11
390.0
 21
-71.86104910316839
 31
0.0
  0
LINE
  5
1BEF9
330
1E
100
AcDbEntity
  8
DETAIL
100
AcDbLine
 10
-335.2355953526326
 20
-34.75536934096908
 30
0.0
 11
-338.1524999999961
 21
-29.70391177029751
 31
0.0
  0
LINE
  5
1BEFA
330
1E
100
AcDbEntity
  8
DETAIL
100
AcDbLine
 10
-335.1600000000039
 20
-34.79907770552883
 30
0.0
 11
-338.1524999999961
 21
-29.61670508541829
 31
0.0
  0
LINE
  5
1BEFB
330
1E
100
AcDbEntity
  8
DETAIL
100
AcDbLine
 10
-51.94559535263032
 20
-34.75536934096908
 30
0.0
 11
-54.86250000000654
 21
-29.70391177029751
 31
0.0
  0
LINE
  5
1BEFC
330
1E
100
AcDbEntity
  8
DETAIL
100
AcDbLine
 10
-51.87000000000171
 20
-34.79907770552883
 30
0.0
 11
-54.86250000000654
 21
-29.61670508541829
 31
0.0
  0
LINE
  5
1BEFD
330
1E
100
AcDbEntity
  8
DETAIL
100
AcDbLine
 10
341.0694046473718
 20
-34.75536934096908
 30
0.0
 11
338.1524999999956
 21
-29.70391177029751
 31
0.0
  0
LINE
  5
1BEFE
330
1E
100
AcDbEntity
  8
DETAIL
100
AcDbLine
 10
341.1450000000004
 20
-34.79907770552883
 30
0.0
 11
338.1524999999956
 21
-29.61670508541829
 31
0.0
  0
LINE
  5
1BEFF
330
1E
100
AcDbEntity
  8
DETAIL
100
AcDbLine
 10
-37.8356581624048
 20
-26.51111020057852
 30
0.0
 11
-37.90499999999884
 21
-26.44176836297766
 31
0.0
  0
LINE
  5
1BF00
330
1E
100
AcDbEntity
  8
DETAIL
100
AcDbLine
 10
-335.1600000000039
 20
-34.79907770552883
 30
0.0
 11
-335.2355953526326
 21
-34.75536934096908
 31
0.0
  0
LINE
  5
1BF01
330
1E
100
AcDbEntity
  8
DETAIL
100
AcDbLine
 10
341.1450000000004
 20
-34.79907770552883
 30
0.0
 11
341.0694046473718
 21
-34.75536934096908
 31
0.0
  0
LINE
  5
1BF02
330
1E
100
AcDbEntity
  8
DETAIL
100
AcDbLine
 10
-376.5246457872176
 20
-215.0
 30
0.0
 11
377.1485547043903
 21
-215.0
 31
0.0
  0
LINE
  5
1BF03
330
1E
100
AcDbEntity
  8
DETAIL
100
AcDbLine
 10
-389.8004999999953
 20
0.0
 30
0.0
 11
389.8004999999957
 21
0.0
 31
0.0
  0
LINE
  5
1BF04
330
1E
100
AcDbEntity
  8
DETAIL
100
AcDbLine
 10
-389.8004999999953
 20
-5.0
 30
0.0
 11
389.8004999999957
 21
-5.0
 31
0.0
  0
LINE
  5
1BF05
330
1E
100
AcDbEntity
  8
DETAIL
100
AcDbLine
 10
352.3101821992141
 20
-213.3007407098776
 30
0.0
 11
-349.6067328122799
 21
-213.3007407098776
 31
0.0
  0
LINE
  5
1BF06
330
1E
100
AcDbEntity
  8
DETAIL
100
AcDbLine
 10
-349.7070308986081
 20
-212.8025377215902
 30
0.0
 11
-246.1159060387345
 21
-212.8025377215902
 31
0.0
  0
LINE
  5
1BF07
330
1E
100
AcDbEntity
  8
DETAIL
100
AcDbLine
 10
-246.1159060387345
 20
-212.8025377215902
 30
0.0
 11
-147.1784156224803
 21
-212.8025377215902
 31
0.0
  0
LINE
  5
1BF08
330
1E
100
AcDbEntity
  8
DETAIL
100
AcDbLine
 10
-147.1784156224794
 20
-212.8025377215902
 30
0.0
 11
-48.13067767875782
 21
-212.8025377215902
 31
0.0
  0
LINE
  5
1BF09
330
1E
100
AcDbEntity
  8
DETAIL
100
AcDbLine
 10
-48.13067767875782
 20
-212.8025377215902
 30
0.0
 11
50.9090778182308
 21
-212.8025377215902
 31
0.0
  0
LINE
  5
1BF0A
330
1E
100
AcDbEntity
  8
DETAIL
100
AcDbLine
 10
50.90907781823171
 20
-212.8025377215902
 30
0.0
 11
151.1613958273465
 21
-212.8025377215902
 31
0.0
  0
LINE
  5
1BF0B
330
1E
100
AcDbEntity
  8
DETAIL
100
AcDbLine
 10
151.1613958273465
 20
-212.8025377215902
 30
0.0
 11
258.6143054074291
 21
-212.8025377215902
 31
0.0
  0
LINE
  5
1BF0C
330
1E
100
AcDbEntity
  8
DETAIL
100
AcDbLine
 10
259.0881945912424
 20
-212.8025377215902
 30
0.0
 11
349.7070308986076
 21
-212.8025377215902
 31
0.0
  0
LINE
  5
1BF0D
330
1E
100
AcDbEntity
  8
DETAIL
100
AcDbLine
 10
-349.3638726537323
 20
-209.1970137212584
 30
0.0
 11
-246.1159060387335
 21
-209.1970137212584
 31
0.0
  0
LINE
  5
1BF0E
330
1E
100
AcDbEntity
  8
DETAIL
100
AcDbLine
 10
-246.1159060387345
 20
-209.1970137212584
 30
0.0
 11
-147.1784156224794
 21
-209.1970137212584
 31
0.0
  0
LINE
  5
1BF0F
330
1E
100
AcDbEntity
  8
DETAIL
100
AcDbLine
 10
-147.1784156224803
 20
-209.1970137212584
 30
0.0
 11
-48.13067767875782
 21
-209.1970137212584
 31
0.0
  0
LINE
  5
1BF10
330
1E
100
AcDbEntity
  8
DETAIL
100
AcDbLine
 10
-48.13067767875873
 20
-209.1970137212584
 30
0.0
 11
50.90907781823171
 21
-209.1970137212584
 31
0.0
  0
LINE
  5
1BF11
330
1E
100
AcDbEntity
  8
DETAIL
100
AcDbLine
 10
50.9090778182308
 20
-209.1970137212584
 30
0.0
 11
151.1613958273465
 21
-209.1970137212584
 31
0.0
  0
LINE
  5
1BF12
330
1E
100
AcDbEntity
  8
DETAIL
100
AcDbLine
 10
151.1613958273465
 20
-209.1970137212584
 30
0.0
 11
258.8288618722681
 21
-209.1970137212584
 31
0.0
  0
LINE
  5
1BF13
330
1E
100
AcDbEntity
  8
DETAIL
100
AcDbLine
 10
258.8288618722681
 20
-209.1970137212584
 30
0.0
 11
345.9841562727843
 21
-209.1970137212584
 31
0.0
  0
LINE
  5
1BF14
330
1E
100
AcDbEntity
  8
DETAIL
100
AcDbLine
 10
-15.4503346115298
 20
-201.4565562374089
 30
0.0
 11
-19.65696957443106
 21
-201.4565562374089
 31
0.0
  0
LINE
  5
1BF15
330
1E
100
AcDbEntity
  8
DETAIL
100
AcDbLine
 10
-19.65696957443106
 20
-201.4565562374089
 30
0.0
 11
-24.44966538847166
 21
-201.4565562374089
 31
0.0
  0
LINE
  5
1BF16
330
1E
100
AcDbEntity
  8
DETAIL
100
AcDbLine
 10
-246.1159060387335
 20
-200.7278856905846
 30
0.0
 11
-348.7872322729959
 21
-200.7278857858075
 31
0.0
  0
LINE
  5
1BF17
330
1E
100
AcDbEntity
  8
DETAIL
100
AcDbLine
 10
-13.96815940436227
 20
-200.3679325282985
 30
0.0
 11
-8.119944044386102
 21
-200.3679636955176
 31
0.0
  0
LINE
  5
1BF18
330
1E
100
AcDbEntity
  8
DETAIL
100
AcDbLine
 10
74.38511958352865
 20
-200.3679636955176
 30
0.0
 11
50.9090778182308
 21
-200.3679636955176
 31
0.0
  0
LINE
  5
1BF19
330
1E
100
AcDbEntity
  8
DETAIL
100
AcDbLine
 10
50.90907781823171
 20
-200.3679636955176
 30
0.0
 11
8.119944044373369
 21
-200.3679636955176
 31
0.0
  0
LINE
  5
1BF1A
330
1E
100
AcDbEntity
  8
DETAIL
100
AcDbLine
 10
-48.97058857928914
 20
-200.3679636955176
 30
0.0
 11
-50.44511386452722
 21
-200.3679636955176
 31
0.0
  0
LINE
  5
1BF1B
330
1E
100
AcDbEntity
  8
DETAIL
100
AcDbLine
 10
-246.1159060387345
 20
-200.3679636955176
 30
0.0
 11
-243.8173807436542
 21
-200.3679636955176
 31
0.0
  0
LINE
  5
1BF1C
330
1E
100
AcDbEntity
  8
DETAIL
100
AcDbLine
 10
-229.9951137355201
 20
-200.3679636955176
 30
0.0
 11
-147.1784156224803
 21
-200.3679636955176
 31
0.0
  0
LINE
  5
1BF1D
330
1E
100
AcDbEntity
  8
DETAIL
100
AcDbLine
 10
-147.1784156224794
 20
-200.3679636955178
 30
0.0
 11
-64.26738074365403
 21
-200.3679636955176
 31
0.0
  0
LINE
  5
1BF1E
330
1E
100
AcDbEntity
  8
DETAIL
100
AcDbLine
 10
88.20738626448202
 20
-200.3679636955176
 30
0.0
 11
151.1613958273465
 21
-200.3679636955176
 31
0.0
  0
LINE
  5
1BF1F
330
1E
100
AcDbEntity
  8
DETAIL
100
AcDbLine
 10
151.1613958273465
 20
-200.3679636955176
 30
0.0
 11
214.0351192563485
 21
-200.3679636955176
 31
0.0
  0
LINE
  5
1BF20
330
1E
100
AcDbEntity
  8
DETAIL
100
AcDbLine
 10
227.8573862644817
 20
-200.3679636955176
 30
0.0
 11
258.8288618722681
 21
-200.3679636955176
 31
0.0
  0
LINE
  5
1BF21
330
1E
100
AcDbEntity
  8
DETAIL
100
AcDbLine
 10
-25.93247913129744
 20
-200.3679364624379
 30
0.0
 11
-48.13067767875873
 21
-200.3679647741601
 31
0.0
  0
LINE
  5
1BF22
330
1E
100
AcDbEntity
  8
DETAIL
100
AcDbLine
 10
-243.7945890204383
 20
-200.107209004048
 30
0.0
 11
-230.0179165416375
 21
-200.107209004048
 31
0.0
  0
LINE
  5
1BF23
330
1E
100
AcDbEntity
  8
DETAIL
100
AcDbLine
 10
74.40791097956389
 20
-200.107209004048
 30
0.0
 11
88.18458345836459
 21
-200.107209004048
 31
0.0
  0
LINE
  5
1BF24
330
1E
100
AcDbEntity
  8
DETAIL
100
AcDbLine
 10
214.0579109795635
 20
-200.107209004048
 30
0.0
 11
227.8345834583652
 21
-200.107209004048
 31
0.0
  0
LINE
  5
1BF25
330
1E
100
AcDbEntity
  8
DETAIL
100
AcDbLine
 10
-24.6217720182085
 20
-199.6821747621086
 30
0.0
 11
-15.27822798180477
 21
-199.6821747621086
 31
0.0
  0
LINE
  5
1BF26
330
1E
100
AcDbEntity
  8
DETAIL
100
AcDbLine
 10
8.110057065102409
 20
-199.2346648993773
 30
0.0
 11
-8.110057065115142
 21
-199.2346648993773
 31
0.0
  0
LINE
  5
1BF27
330
1E
100
AcDbEntity
  8
DETAIL
100
AcDbLine
 10
-348.6786478504032
 20
-197.6184347747796
 30
0.0
 11
351.527784872108
 21
-197.6184347747796
 31
0.0
  0
LINE
  5
1BF28
330
1E
100
AcDbEntity
  8
DETAIL
100
AcDbLine
 10
-385.7553837647647
 20
-193.4081992102785
 30
0.0
 11
385.7553837647647
 21
-193.4081992102785
 31
0.0
  0
LINE
  5
1BF29
330
1E
100
AcDbEntity
  8
DETAIL
100
AcDbLine
 10
345.2287754032532
 20
-189.1670491031705
 30
0.0
 11
-346.2107367126582
 21
-189.1670491031705
 31
0.0
  0
LINE
  5
1BF2A
330
1E
100
AcDbEntity
  8
DETAIL
100
AcDbLine
 10
257.3549999999977
 20
-189.1577167352286
 30
0.0
 11
153.5295901344762
 21
-189.1577167352286
 31
0.0
  0
LINE
  5
1BF2B
330
1E
100
AcDbEntity
  8
DETAIL
100
AcDbLine
 10
-149.5395901344855
 20
-189.1577167352286
 30
0.0
 11
-243.7247848655196
 21
-189.1577167352286
 31
0.0
  0
LINE
  5
1BF2C
330
1E
100
AcDbEntity
  8
DETAIL
100
AcDbLine
 10
148.6219794293483
 20
-189.0672991031683
 30
0.0
 11
53.37177057065037
 21
-189.0672991031683
 31
0.0
  0
LINE
  5
1BF2D
330
1E
100
AcDbEntity
  8
DETAIL
100
AcDbLine
 10
48.37322942934406
 20
-189.0672991031683
 30
0.0
 11
-45.6301044293541
 21
-189.0672991031683
 31
0.0
  0
LINE
  5
1BF2E
330
1E
100
AcDbEntity
  8
DETAIL
100
AcDbLine
 10
-50.62864557064949
 20
-189.0672991031683
 30
0.0
 11
-144.6319794293467
 21
-189.0672991031683
 31
0.0
  0
LINE
  5
1BF2F
330
1E
100
AcDbEntity
  8
DETAIL
100
AcDbLine
 10
-149.630520570653
 20
-189.0672991031683
 30
0.0
 11
-243.6338544293521
 21
-189.0672991031683
 31
0.0
  0
LINE
  5
1BF30
330
1E
100
AcDbEntity
  8
DETAIL
100
AcDbLine
 10
-248.6323955706466
 20
-189.0672991031683
 30
0.0
 11
-346.2294863012371
 21
-189.0672991031683
 31
0.0
  0
LINE
  5
1BF31
330
1E
100
AcDbEntity
  8
DETAIL
100
AcDbLine
 10
153.6205205706428
 20
-189.0672991031683
 30
0.0
 11
257.3549999999977
 21
-189.0672991031683
 31
0.0
  0
LINE
  5
1BF32
330
1E
100
AcDbEntity
  8
DETAIL
100
AcDbLine
 10
348.9114751287179
 20
-177.561854739328
 30
0.0
 11
351.4219617888721
 21
-177.561854739328
 31
0.0
  0
LINE
  5
1BF33
330
1E
100
AcDbEntity
  8
DETAIL
100
AcDbLine
 10
348.9338313793496
 20
-177.3063216278603
 30
0.0
 11
258.3524999999954
 21
-177.3063216278603
 31
0.0
  0
LINE
  5
1BF34
330
1E
100
AcDbEntity
  8
DETAIL
100
AcDbLine
 10
258.2547279028504
 20
-175.95564711169
 30
0.0
 11
349.0519844683185
 21
-175.9558256336004
 31
0.0
  0
LINE
  5
1BF35
330
1E
100
AcDbEntity
  8
DETAIL
100
AcDbLine
 10
352.4487400311473
 20
-175.5883927912487
 30
0.0
 11
350.119343397947
 21
-175.5883896936786
 31
0.0
  0
LINE
  5
1BF36
330
1E
100
AcDbEntity
  8
DETAIL
100
AcDbLine
 10
386.4696447545338
 20
-172.9549042767094
 30
0.0
 11
355.7318115257895
 21
-172.9546696877
 31
0.0
  0
LINE
  5
1BF37
330
1E
100
AcDbEntity
  8
DETAIL
100
AcDbLine
 10
350.3567432508489
 20
-172.8422644091881
 30
0.0
 11
352.4966739679621
 21
-172.8422643493388
 31
0.0
  0
LINE
  5
1BF38
330
1E
100
AcDbEntity
  8
DETAIL
100
AcDbLine
 10
356.1376961218311
 20
-172.7335101136798
 30
0.0
 11
357.7730538781652
 21
-172.7335101136798
 31
0.0
  0
LINE
  5
1BF39
330
1E
100
AcDbEntity
  8
DETAIL
100
AcDbLine
 10
362.2096505974742
 20
-172.481765845029
 30
0.0
 11
352.5029664067788
 21
-172.481765845029
 31
0.0
  0
LINE
  5
1BF3A
330
1E
100
AcDbEntity
  8
DETAIL
100
AcDbLine
 10
374.9428494025151
 20
-172.481765845029
 30
0.0
 11
376.6368521815167
 21
-172.481765845029
 31
0.0
  0
LINE
  5
1BF3B
330
1E
100
AcDbEntity
  8
DETAIL
100
AcDbLine
 10
-349.5425440370504
 20
-170.34870410709
 30
0.0
 11
-246.1419692082099
 21
-170.34870410709
 31
0.0
  0
LINE
  5
1BF3C
330
1E
100
AcDbEntity
  8
DETAIL
100
AcDbLine
 10
-246.1419692082099
 20
-170.34870410709
 30
0.0
 11
-147.0580698190078
 21
-170.34870410709
 31
0.0
  0
LINE
  5
1BF3D
330
1E
100
AcDbEntity
  8
DETAIL
100
AcDbLine
 10
-147.0580698190078
 20
-170.3487041070898
 30
0.0
 11
-48.09156689552492
 21
-170.34870410709
 31
0.0
  0
LINE
  5
1BF3E
330
1E
100
AcDbEntity
  8
DETAIL
100
AcDbLine
 10
-48.09156689552492
 20
-170.34870410709
 30
0.0
 11
50.94376459482919
 21
-170.34870410709
 31
0.0
  0
LINE
  5
1BF3F
330
1E
100
AcDbEntity
  8
DETAIL
100
AcDbLine
 10
50.9437645948301
 20
-170.34870410709
 30
0.0
 11
151.0509559517622
 21
-170.34870410709
 31
0.0
  0
LINE
  5
1BF40
330
1E
100
AcDbEntity
  8
DETAIL
100
AcDbLine
 10
151.0509559517613
 20
-170.34870410709
 30
0.0
 11
257.3549999999977
 21
-170.34870410709
 31
0.0
  0
LINE
  5
1BF41
330
1E
100
AcDbEntity
  8
DETAIL
100
AcDbLine
 10
258.2660093392415
 20
-170.0113088159894
 30
0.0
 11
349.5720911308481
 21
-170.0109792818875
 31
0.0
  0
LINE
  5
1BF42
330
1E
100
AcDbEntity
  8
DETAIL
100
AcDbLine
 10
349.6626550908368
 20
-166.1854047134102
 30
0.0
 11
258.8219693981755
 21
-166.1854047134102
 31
0.0
  0
LINE
  5
1BF43
330
1E
100
AcDbEntity
  8
DETAIL
100
AcDbLine
 10
-350.0297215750529
 20
-165.9029189191881
 30
0.0
 11
-247.7917783859739
 21
-165.9029189191881
 31
0.0
  0
LINE
  5
1BF44
330
1E
100
AcDbEntity
  8
DETAIL
100
AcDbLine
 10
-244.4744716140367
 20
-165.9029189191881
 30
0.0
 11
-147.0580698190078
 21
-165.9029189191881
 31
0.0
  0
LINE
  5
1BF45
330
1E
100
AcDbEntity
  8
DETAIL
100
AcDbLine
 10
-147.0580698190078
 20
-165.9029189191881
 30
0.0
 11
-48.09156689552492
 21
-165.9029189191881
 31
0.0
  0
LINE
  5
1BF46
330
1E
100
AcDbEntity
  8
DETAIL
100
AcDbLine
 10
-48.09156689552583
 20
-165.9029189191881
 30
0.0
 11
50.94376459482919
 21
-165.9029189191881
 31
0.0
  0
LINE
  5
1BF47
330
1E
100
AcDbEntity
  8
DETAIL
100
AcDbLine
 10
50.94376459482919
 20
-165.9029189191881
 30
0.0
 11
151.0509559517613
 21
-165.9029189191881
 31
0.0
  0
LINE
  5
1BF48
330
1E
100
AcDbEntity
  8
DETAIL
100
AcDbLine
 10
151.0509559517622
 20
-165.9029189191881
 30
0.0
 11
258.8219693981755
 21
-165.9029189191881
 31
0.0
  0
LINE
  5
1BF49
330
1E
100
AcDbEntity
  8
DETAIL
100
AcDbLine
 10
373.6135807243008
 20
-165.3135024600876
 30
0.0
 11
363.5389192757001
 21
-165.3135024600876
 31
0.0
  0
LINE
  5
1BF4A
330
1E
100
AcDbEntity
  8
DETAIL
100
AcDbLine
 10
258.8219693981755
 20
-154.4572664503098
 30
0.0
 11
350.7932022313571
 21
-154.4572664503098
 31
0.0
  0
LINE
  5
1BF4B
330
1E
100
AcDbEntity
  8
DETAIL
100
AcDbLine
 10
-350.7985336214793
 20
-153.3723231092201
 30
0.0
 11
-246.1419692082099
 21
-153.3723231092201
 31
0.0
  0
LINE
  5
1BF4C
330
1E
100
AcDbEntity
  8
DETAIL
100
AcDbLine
 10
-246.1419692082099
 20
-153.3723231092201
 30
0.0
 11
-147.0580698190078
 21
-153.3723231092201
 31
0.0
  0
LINE
  5
1BF4D
330
1E
100
AcDbEntity
  8
DETAIL
100
AcDbLine
 10
-147.0580698190078
 20
-153.3723231092201
 30
0.0
 11
-48.09156689552583
 21
-153.3723231092201
 31
0.0
  0
LINE
  5
1BF4E
330
1E
100
AcDbEntity
  8
DETAIL
100
AcDbLine
 10
-48.09156689552583
 20
-153.3723231092201
 30
0.0
 11
50.94376459482919
 21
-153.3723231092201
 31
0.0
  0
LINE
  5
1BF4F
330
1E
100
AcDbEntity
  8
DETAIL
100
AcDbLine
 10
50.94376459482919
 20
-153.3723231092201
 30
0.0
 11
151.0509559517622
 21
-153.3723231092201
 31
0.0
  0
LINE
  5
1BF50
330
1E
100
AcDbEntity
  8
DETAIL
100
AcDbLine
 10
151.0509559517613
 20
-153.3723231092201
 30
0.0
 11
258.8219693981755
 21
-153.3723231092201
 31
0.0
  0
LINE
  5
1BF51
330
1E
100
AcDbEntity
  8
DETAIL
100
AcDbLine
 10
258.8219693981755
 20
-152.9208822519388
 30
0.0
 11
350.9281070307562
 21
-152.9208822519388
 31
0.0
  0
LINE
  5
1BF52
330
1E
100
AcDbEntity
  8
DETAIL
100
AcDbLine
 10
350.9343890995533
 20
-148.7135561103198
 30
0.0
 11
258.8219693981755
 21
-148.7135561103198
 31
0.0
  0
LINE
  5
1BF53
330
1E
100
AcDbEntity
  8
DETAIL
100
AcDbLine
 10
-350.6785942819862
 20
-148.3716580443679
 30
0.0
 11
-246.1419692082099
 21
-148.3716580443679
 31
0.0
  0
LINE
  5
1BF54
330
1E
100
AcDbEntity
  8
DETAIL
100
AcDbLine
 10
-246.1419692082109
 20
-148.3716580443679
 30
0.0
 11
-147.0580698190078
 21
-148.3716580443679
 31
0.0
  0
LINE
  5
1BF55
330
1E
100
AcDbEntity
  8
DETAIL
100
AcDbLine
 10
-147.0580698190078
 20
-148.3716580443679
 30
0.0
 11
-48.09156689552492
 21
-148.3716580443679
 31
0.0
  0
LINE
  5
1BF56
330
1E
100
AcDbEntity
  8
DETAIL
100
AcDbLine
 10
-46.57015006259098
 20
-148.3716580443679
 30
0.0
 11
50.94376459482919
 21
-148.3716580443679
 31
0.0
  0
LINE
  5
1BF57
330
1E
100
AcDbEntity
  8
DETAIL
100
AcDbLine
 10
50.94376459482919
 20
-148.3716580443679
 30
0.0
 11
151.0509559517613
 21
-148.3716580443679
 31
0.0
  0
LINE
  5
1BF58
330
1E
100
AcDbEntity
  8
DETAIL
100
AcDbLine
 10
151.0509559517622
 20
-148.3716580443679
 30
0.0
 11
258.8219693981755
 21
-148.3716580443679
 31
0.0
  0
LINE
  5
1BF59
330
1E
100
AcDbEntity
  8
DETAIL
100
AcDbLine
 10
60.34874999999829
 20
-139.8603275317882
 30
0.0
 11
50.94376459482919
 21
-139.8603275317882
 31
0.0
  0
LINE
  5
1BF5A
330
1E
100
AcDbEntity
  8
DETAIL
100
AcDbLine
 10
50.94376459482919
 20
-139.8603275317882
 30
0.0
 11
41.39624999999614
 21
-139.8603275317882
 31
0.0
  0
LINE
  5
1BF5B
330
1E
100
AcDbEntity
  8
DETAIL
100
AcDbLine
 10
-350.5031930729765
 20
-139.8603275317882
 30
0.0
 11
-342.6412500000038
 21
-139.8603275317882
 31
0.0
  0
LINE
  5
1BF5C
330
1E
100
AcDbEntity
  8
DETAIL
100
AcDbLine
 10
248.8762500000011
 20
-139.8603275317882
 30
0.0
 11
258.8219693981755
 21
-139.8603275317882
 31
0.0
  0
LINE
  5
1BF5D
330
1E
100
AcDbEntity
  8
DETAIL
100
AcDbLine
 10
-350.4052691405304
 20
-134.1156489823897
 30
0.0
 11
-246.1419692082109
 21
-134.1156489823897
 31
0.0
  0
LINE
  5
1BF5E
330
1E
100
AcDbEntity
  8
DETAIL
100
AcDbLine
 10
-246.1419692082099
 20
-134.1156489823897
 30
0.0
 11
-147.0580698190078
 21
-134.1156489823897
 31
0.0
  0
LINE
  5
1BF5F
330
1E
100
AcDbEntity
  8
DETAIL
100
AcDbLine
 10
-147.0580698190078
 20
-134.1156489823897
 30
0.0
 11
-48.09156689552492
 21
-134.1156489823897
 31
0.0
  0
LINE
  5
1BF60
330
1E
100
AcDbEntity
  8
DETAIL
100
AcDbLine
 10
-48.09156689552492
 20
-134.1156489823897
 30
0.0
 11
50.9437645948301
 21
-134.1156489823897
 31
0.0
  0
LINE
  5
1BF61
330
1E
100
AcDbEntity
  8
DETAIL
100
AcDbLine
 10
50.94376459482919
 20
-134.1156489823897
 30
0.0
 11
151.0509559517622
 21
-134.1156489823897
 31
0.0
  0
LINE
  5
1BF62
330
1E
100
AcDbEntity
  8
DETAIL
100
AcDbLine
 10
151.0509559517622
 20
-134.1156489823897
 30
0.0
 11
258.8219693981755
 21
-134.1156489823897
 31
0.0
  0
LINE
  5
1BF63
330
1E
100
AcDbEntity
  8
DETAIL
100
AcDbLine
 10
350.8319791487719
 20
-134.0020072321392
 30
0.0
 11
258.8219693981755
 21
-134.0020072321392
 31
0.0
  0
LINE
  5
1BF64
330
1E
100
AcDbEntity
  8
DETAIL
100
AcDbLine
 10
350.7967651750105
 20
-129.8209061103175
 30
0.0
 11
258.8219693981755
 21
-129.8209061103175
 31
0.0
  0
LINE
  5
1BF65
330
1E
100
AcDbEntity
  8
DETAIL
100
AcDbLine
 10
-350.3413097045527
 20
-129.7076109194977
 30
0.0
 11
-246.1419692082099
 21
-129.7076109194977
 31
0.0
  0
LINE
  5
1BF66
330
1E
100
AcDbEntity
  8
DETAIL
100
AcDbLine
 10
-246.1419692082099
 20
-129.7076109194977
 30
0.0
 11
-147.0580698190078
 21
-129.7076109194977
 31
0.0
  0
LINE
  5
1BF67
330
1E
100
AcDbEntity
  8
DETAIL
100
AcDbLine
 10
-147.0580698190078
 20
-129.7076109194977
 30
0.0
 11
-48.09156689552583
 21
-129.7076109194977
 31
0.0
  0
LINE
  5
1BF68
330
1E
100
AcDbEntity
  8
DETAIL
100
AcDbLine
 10
-48.09156689552583
 20
-129.7076109194977
 30
0.0
 11
50.94376459482919
 21
-129.7076109194977
 31
0.0
  0
LINE
  5
1BF69
330
1E
100
AcDbEntity
  8
DETAIL
100
AcDbLine
 10
50.9437645948301
 20
-129.7076109194977
 30
0.0
 11
151.0509559517622
 21
-129.7076109194977
 31
0.0
  0
LINE
  5
1BF6A
330
1E
100
AcDbEntity
  8
DETAIL
100
AcDbLine
 10
151.0509559517613
 20
-129.7076109194977
 30
0.0
 11
258.8219693981755
 21
-129.7076109194977
 31
0.0
  0
LINE
  5
1BF6B
330
1E
100
AcDbEntity
  8
DETAIL
100
AcDbLine
 10
-350.1985141468963
 20
-115.0633989823882
 30
0.0
 11
-246.1419692082099
 21
-115.0633989823882
 31
0.0
  0
LINE
  5
1BF6C
330
1E
100
AcDbEntity
  8
DETAIL
100
AcDbLine
 10
-246.1419692082109
 20
-115.0633989823882
 30
0.0
 11
-147.0580698190078
 21
-115.0633989823882
 31
0.0
  0
LINE
  5
1BF6D
330
1E
100
AcDbEntity
  8
DETAIL
100
AcDbLine
 10
-147.0580698190078
 20
-115.0633989823882
 30
0.0
 11
-48.09156689552583
 21
-115.0633989823882
 31
0.0
  0
LINE
  5
1BF6E
330
1E
100
AcDbEntity
  8
DETAIL
100
AcDbLine
 10
-48.09156689552583
 20
-115.0633989823882
 30
0.0
 11
50.94376459482919
 21
-115.0633989823882
 31
0.0
  0
LINE
  5
1BF6F
330
1E
100
AcDbEntity
  8
DETAIL
100
AcDbLine
 10
50.94376459482919
 20
-115.0633989823882
 30
0.0
 11
151.0509559517622
 21
-115.0633989823882
 31
0.0
  0
LINE
  5
1BF70
330
1E
100
AcDbEntity
  8
DETAIL
100
AcDbLine
 10
151.0509559517622
 20
-115.0633989823882
 30
0.0
 11
258.8219693981755
 21
-115.0633989823882
 31
0.0
  0
LINE
  5
1BF71
330
1E
100
AcDbEntity
  8
DETAIL
100
AcDbLine
 10
350.6715177290425
 20
-114.9497572321374
 30
0.0
 11
258.8219693981755
 21
-114.9497572321374
 31
0.0
  0
LINE
  5
1BF72
330
1E
100
AcDbEntity
  8
DETAIL
100
AcDbLine
 10
350.636303755281
 20
-110.7686561103189
 30
0.0
 11
258.8219693981755
 21
-110.7686561103189
 31
0.0
  0
LINE
  5
1BF73
330
1E
100
AcDbEntity
  8
DETAIL
100
AcDbLine
 10
-350.1765057199873
 20
-110.6553609194991
 30
0.0
 11
-246.1419692082099
 21
-110.6553609194991
 31
0.0
  0
LINE
  5
1BF74
330
1E
100
AcDbEntity
  8
DETAIL
100
AcDbLine
 10
-246.1419692082099
 20
-110.6553609194991
 30
0.0
 11
-147.0580698190078
 21
-110.6553609194991
 31
0.0
  0
LINE
  5
1BF75
330
1E
100
AcDbEntity
  8
DETAIL
100
AcDbLine
 10
-147.0580698190078
 20
-110.6553609194991
 30
0.0
 11
-48.09156689552583
 21
-110.6553609194991
 31
0.0
  0
LINE
  5
1BF76
330
1E
100
AcDbEntity
  8
DETAIL
100
AcDbLine
 10
-48.09156689552583
 20
-110.6553609194991
 30
0.0
 11
50.94376459482919
 21
-110.6553609194991
 31
0.0
  0
LINE
  5
1BF77
330
1E
100
AcDbEntity
  8
DETAIL
100
AcDbLine
 10
50.94376459482919
 20
-110.6553609194991
 30
0.0
 11
151.0509559517622
 21
-110.6553609194991
 31
0.0
  0
LINE
  5
1BF78
330
1E
100
AcDbEntity
  8
DETAIL
100
AcDbLine
 10
151.0509559517613
 20
-110.6553609194991
 30
0.0
 11
258.8219693981755
 21
-110.6553609194991
 31
0.0
  0
LINE
  5
1BF79
330
1E
100
AcDbEntity
  8
DETAIL
100
AcDbLine
 10
-350.1730643496208
 20
-96.01114898238961
 30
0.0
 11
-246.1419692082099
 21
-96.01114898238961
 31
0.0
  0
LINE
  5
1BF7A
330
1E
100
AcDbEntity
  8
DETAIL
100
AcDbLine
 10
-246.1419692082099
 20
-96.01114898238961
 30
0.0
 11
-147.0580698190078
 21
-96.01114898238961
 31
0.0
  0
LINE
  5
1BF7B
330
1E
100
AcDbEntity
  8
DETAIL
100
AcDbLine
 10
-147.0580698190069
 20
-96.01114898238961
 30
0.0
 11
-48.09156689552583
 21
-96.01114898238961
 31
0.0
  0
LINE
  5
1BF7C
330
1E
100
AcDbEntity
  8
DETAIL
100
AcDbLine
 10
-48.09156689552583
 20
-96.01114898238961
 30
0.0
 11
50.94376459482919
 21
-96.01114898238961
 31
0.0
  0
LINE
  5
1BF7D
330
1E
100
AcDbEntity
  8
DETAIL
100
AcDbLine
 10
50.94376459482919
 20
-96.01114898238961
 30
0.0
 11
151.0509559517613
 21
-96.01114898238961
 31
0.0
  0
LINE
  5
1BF7E
330
1E
100
AcDbEntity
  8
DETAIL
100
AcDbLine
 10
151.0509559517613
 20
-96.01114898238961
 30
0.0
 11
258.8219693981755
 21
-96.01114898238961
 31
0.0
  0
LINE
  5
1BF7F
330
1E
100
AcDbEntity
  8
DETAIL
100
AcDbLine
 10
350.5110563093258
 20
-95.89750723213908
 30
0.0
 11
258.8219693981755
 21
-95.89750723213908
 31
0.0
  0
LINE
  5
1BF80
330
1E
100
AcDbEntity
  8
DETAIL
100
AcDbLine
 10
350.4758423355643
 20
-91.71640611032037
 30
0.0
 11
258.8219693981755
 21
-91.71640611032037
 31
0.0
  0
LINE
  5
1BF81
330
1E
100
AcDbEntity
  8
DETAIL
100
AcDbLine
 10
-350.1930009525945
 20
-91.60311091949756
 30
0.0
 11
-246.1419692082099
 21
-91.60311091949756
 31
0.0
  0
LINE
  5
1BF82
330
1E
100
AcDbEntity
  8
DETAIL
100
AcDbLine
 10
-246.1419692082099
 20
-91.60311091949756
 30
0.0
 11
-147.0580698190078
 21
-91.60311091949756
 31
0.0
  0
LINE
  5
1BF83
330
1E
100
AcDbEntity
  8
DETAIL
100
AcDbLine
 10
-147.0580698190078
 20
-91.60311091949756
 30
0.0
 11
-48.09156689552492
 21
-91.60311091949756
 31
0.0
  0
LINE
  5
1BF84
330
1E
100
AcDbEntity
  8
DETAIL
100
AcDbLine
 10
-48.09156689552492
 20
-91.60311091949756
 30
0.0
 11
50.94376459482919
 21
-91.60311091949756
 31
0.0
  0
LINE
  5
1BF85
330
1E
100
AcDbEntity
  8
DETAIL
100
AcDbLine
 10
50.9437645948301
 20
-91.60311091949756
 30
0.0
 11
151.0509559517622
 21
-91.60311091949756
 31
0.0
  0
LINE
  5
1BF86
330
1E
100
AcDbEntity
  8
DETAIL
100
AcDbLine
 10
151.0509559517613
 20
-91.60311091949756
 30
0.0
 11
258.8219693981755
 21
-91.60311091949756
 31
0.0
  0
LINE
  5
1BF87
330
1E
100
AcDbEntity
  8
DETAIL
100
AcDbLine
 10
-350.3289128346001
 20
-76.95889898238807
 30
0.0
 11
-246.1419692082099
 21
-76.95889898238807
 31
0.0
  0
LINE
  5
1BF88
330
1E
100
AcDbEntity
  8
DETAIL
100
AcDbLine
 10
-246.1419692082099
 20
-76.95889898238807
 30
0.0
 11
-147.0580698190078
 21
-76.95889898238807
 31
0.0
  0
LINE
  5
1BF89
330
1E
100
AcDbEntity
  8
DETAIL
100
AcDbLine
 10
-147.0580698190078
 20
-76.95889898238807
 30
0.0
 11
-48.09156689552583
 21
-76.95889898238807
 31
0.0
  0
LINE
  5
1BF8A
330
1E
100
AcDbEntity
  8
DETAIL
100
AcDbLine
 10
-48.09156689552492
 20
-76.95889898238807
 30
0.0
 11
50.94376459482919
 21
-76.95889898238807
 31
0.0
  0
LINE
  5
1BF8B
330
1E
100
AcDbEntity
  8
DETAIL
100
AcDbLine
 10
50.9437645948301
 20
-76.95889898238807
 30
0.0
 11
151.0509559517613
 21
-76.95889898238807
 31
0.0
  0
LINE
  5
1BF8C
330
1E
100
AcDbEntity
  8
DETAIL
100
AcDbLine
 10
151.0509559517622
 20
-76.95889898238807
 30
0.0
 11
258.8219693981755
 21
-76.95889898238807
 31
0.0
  0
LINE
  5
1BF8D
330
1E
100
AcDbEntity
  8
DETAIL
100
AcDbLine
 10
350.3505948896081
 20
-76.84525723213757
 30
0.0
 11
258.8219693981755
 21
-76.84525723213757
 31
0.0
  0
LINE
  5
1BF8E
330
1E
100
AcDbEntity
  8
DETAIL
100
AcDbLine
 10
350.3153809158466
 20
-72.6641561103188
 30
0.0
 11
258.8219693981755
 21
-72.6641561103188
 31
0.0
  0
LINE
  5
1BF8F
330
1E
100
AcDbEntity
  8
DETAIL
100
AcDbLine
 10
-350.3907998837267
 20
-72.55086091949897
 30
0.0
 11
-246.1419692082099
 21
-72.55086091949897
 31
0.0
  0
LINE
  5
1BF90
330
1E
100
AcDbEntity
  8
DETAIL
100
AcDbLine
 10
-246.1419692082099
 20
-72.55086091949897
 30
0.0
 11
-147.0580698190078
 21
-72.55086091949897
 31
0.0
  0
LINE
  5
1BF91
330
1E
100
AcDbEntity
  8
DETAIL
100
AcDbLine
 10
-147.0580698190069
 20
-72.55086091949897
 30
0.0
 11
-48.09156689552583
 21
-72.55086091949897
 31
0.0
  0
LINE
  5
1BF92
330
1E
100
AcDbEntity
  8
DETAIL
100
AcDbLine
 10
-48.09156689552492
 20
-72.55086091949897
 30
0.0
 11
50.94376459482919
 21
-72.55086091949897
 31
0.0
  0
LINE
  5
1BF93
330
1E
100
AcDbEntity
  8
DETAIL
100
AcDbLine
 10
50.94376459482919
 20
-72.55086091949897
 30
0.0
 11
151.0509559517613
 21
-72.55086091949897
 31
0.0
  0
LINE
  5
1BF94
330
1E
100
AcDbEntity
  8
DETAIL
100
AcDbLine
 10
151.0509559517622
 20
-72.55086091949897
 30
0.0
 11
258.8219693981755
 21
-72.55086091949897
 31
0.0
  0
LINE
  5
1BF95
330
1E
100
AcDbEntity
  8
DETAIL
100
AcDbLine
 10
-350.6664154140608
 20
-57.89269359562855
 30
0.0
 11
-246.1419692082109
 21
-57.89269359562855
 31
0.0
  0
LINE
  5
1BF96
330
1E
100
AcDbEntity
  8
DETAIL
100
AcDbLine
 10
-246.1419692082099
 20
-57.89269359562855
 30
0.0
 11
-147.0580698190078
 21
-57.89269359562855
 31
0.0
  0
LINE
  5
1BF97
330
1E
100
AcDbEntity
  8
DETAIL
100
AcDbLine
 10
-147.0580698190078
 20
-57.89269359562855
 30
0.0
 11
-48.09156689552492
 21
-57.89269359562855
 31
0.0
  0
LINE
  5
1BF98
330
1E
100
AcDbEntity
  8
DETAIL
100
AcDbLine
 10
-48.09156689552492
 20
-57.89269359562855
 30
0.0
 11
50.9437645948301
 21
-57.89269359562855
 31
0.0
  0
LINE
  5
1BF99
330
1E
100
AcDbEntity
  8
DETAIL
100
AcDbLine
 10
50.9437645948301
 20
-57.89269359562855
 30
0.0
 11
151.0509559517622
 21
-57.89269359562855
 31
0.0
  0
LINE
  5
1BF9A
330
1E
100
AcDbEntity
  8
DETAIL
100
AcDbLine
 10
151.0509559517622
 20
-57.89269359562855
 30
0.0
 11
258.8219693981755
 21
-57.89269359562855
 31
0.0
  0
LINE
  5
1BF9B
330
1E
100
AcDbEntity
  8
DETAIL
100
AcDbLine
 10
350.1900159351326
 20
-57.77905184537782
 30
0.0
 11
258.8219693981755
 21
-57.77905184537782
 31
0.0
  0
LINE
  5
1BF9C
330
1E
100
AcDbEntity
  8
DETAIL
100
AcDbLine
 10
350.1550605865168
 20
-53.62865829289922
 30
0.0
 11
258.8219693981755
 21
-53.62865829289922
 31
0.0
  0
LINE
  5
1BF9D
330
1E
100
AcDbEntity
  8
DETAIL
100
AcDbLine
 10
-350.7695431909451
 20
-53.51536310207894
 30
0.0
 11
-246.1419692082099
 21
-53.51536310207894
 31
0.0
  0
LINE
  5
1BF9E
330
1E
100
AcDbEntity
  8
DETAIL
100
AcDbLine
 10
-246.1419692082099
 20
-53.51536310207894
 30
0.0
 11
-147.0580698190069
 21
-53.51536310207894
 31
0.0
  0
LINE
  5
1BF9F
330
1E
100
AcDbEntity
  8
DETAIL
100
AcDbLine
 10
-147.0580698190078
 20
-53.51536310207894
 30
0.0
 11
-48.09156689552583
 21
-53.51536310207894
 31
0.0
  0
LINE
  5
1BFA0
330
1E
100
AcDbEntity
  8
DETAIL
100
AcDbLine
 10
-48.09156689552492
 20
-53.51536310207894
 30
0.0
 11
50.94376459482919
 21
-53.51536310207894
 31
0.0
  0
LINE
  5
1BFA1
330
1E
100
AcDbEntity
  8
DETAIL
100
AcDbLine
 10
50.94376459482919
 20
-53.51536310207894
 30
0.0
 11
151.0509559517613
 21
-53.51536310207894
 31
0.0
  0
LINE
  5
1BFA2
330
1E
100
AcDbEntity
  8
DETAIL
100
AcDbLine
 10
151.0509559517613
 20
-53.51536310207894
 30
0.0
 11
258.8219693981755
 21
-53.51536310207894
 31
0.0
  0
LINE
  5
1BFA3
330
1E
100
AcDbEntity
  8
DETAIL
100
AcDbLine
 10
-351.1967450990342
 20
-38.4796378772794
 30
0.0
 11
-246.1419692082099
 21
-38.4796378772794
 31
0.0
  0
LINE
  5
1BFA4
330
1E
100
AcDbEntity
  8
DETAIL
100
AcDbLine
 10
-246.1419692082099
 20
-38.4796378772794
 30
0.0
 11
-147.0580698190078
 21
-38.4796378772794
 31
0.0
  0
LINE
  5
1BFA5
330
1E
100
AcDbEntity
  8
DETAIL
100
AcDbLine
 10
-147.0580698190078
 20
-38.4796378772794
 30
0.0
 11
-49.60943937746833
 21
-38.4796378772794
 31
0.0
  0
LINE
  5
1BFA6
330
1E
100
AcDbEntity
  8
DETAIL
100
AcDbLine
 10
-48.09156689552583
 20
-38.4796378772794
 30
0.0
 11
50.94376459482919
 21
-38.4796378772794
 31
0.0
  0
LINE
  5
1BFA7
330
1E
100
AcDbEntity
  8
DETAIL
100
AcDbLine
 10
50.94376459482919
 20
-38.4796378772794
 30
0.0
 11
151.0509559517613
 21
-38.4796378772794
 31
0.0
  0
LINE
  5
1BFA8
330
1E
100
AcDbEntity
  8
DETAIL
100
AcDbLine
 10
151.0509559517613
 20
-38.4796378772794
 30
0.0
 11
258.8219693981755
 21
-38.4796378772794
 31
0.0
  0
LINE
  5
1BFA9
330
1E
100
AcDbEntity
  8
DETAIL
100
AcDbLine
 10
350.0272821346034
 20
-38.45699267350982
 30
0.0
 11
258.8219693981755
 21
-38.45699267350982
 31
0.0
  0
LINE
  5
1BFAA
330
1E
100
AcDbEntity
  8
DETAIL
100
AcDbLine
 10
350.0225675146867
 20
-36.44979910316943
 30
0.0
 11
258.8219693981755
 21
-36.44979910316943
 31
0.0
  0
LINE
  5
1BFAB
330
1E
100
AcDbEntity
  8
DETAIL
100
AcDbLine
 10
258.8219693981764
 20
-36.44979910316943
 30
0.0
 11
151.0509559517613
 21
-36.44979910316943
 31
0.0
  0
LINE
  5
1BFAC
330
1E
100
AcDbEntity
  8
DETAIL
100
AcDbLine
 10
151.0509559517613
 20
-36.44979910316943
 30
0.0
 11
52.31711776941484
 21
-36.44979910316943
 31
0.0
  0
LINE
  5
1BFAD
330
1E
100
AcDbEntity
  8
DETAIL
100
AcDbLine
 10
49.42788223057869
 20
-36.44979910316943
 30
0.0
 11
-48.09156689552583
 21
-36.44979910316943
 31
0.0
  0
LINE
  5
1BFAE
330
1E
100
AcDbEntity
  8
DETAIL
100
AcDbLine
 10
-48.09156689552583
 20
-36.44979910316943
 30
0.0
 11
-147.0580698190078
 21
-36.44979910316943
 31
0.0
  0
LINE
  5
1BFAF
330
1E
100
AcDbEntity
  8
DETAIL
100
AcDbLine
 10
-147.0580698190078
 20
-36.44979910316943
 30
0.0
 11
-246.1419692082099
 21
-36.44979910316943
 31
0.0
  0
LINE
  5
1BFB0
330
1E
100
AcDbEntity
  8
DETAIL
100
AcDbLine
 10
-246.1419692082099
 20
-36.44979910316943
 30
0.0
 11
-351.2630799321359
 21
-36.44979910316943
 31
0.0
  0
LINE
  5
1BFB1
330
1E
100
AcDbEntity
  8
DETAIL
100
AcDbLine
 10
-341.1450000000018
 20
-34.79907770552883
 30
0.0
 11
-335.1600000000039
 21
-34.79907770552883
 31
0.0
  0
LINE
  5
1BFB2
330
1E
100
AcDbEntity
  8
DETAIL
100
AcDbLine
 10
-57.85499999999956
 20
-34.79907770552883
 30
0.0
 11
-51.87000000000171
 21
-34.79907770552883
 31
0.0
  0
LINE
  5
1BFB3
330
1E
100
AcDbEntity
  8
DETAIL
100
AcDbLine
 10
335.1600000000035
 20
-34.79907770552883
 30
0.0
 11
341.1450000000004
 21
-34.79907770552883
 31
0.0
  0
LINE
  5
1BFB4
330
1E
100
AcDbEntity
  8
DETAIL
100
AcDbLine
 10
-341.0694046473722
 20
-34.75536934096908
 30
0.0
 11
-335.2355953526326
 21
-34.75536934096908
 31
0.0
  0
LINE
  5
1BFB5
330
1E
100
AcDbEntity
  8
DETAIL
100
AcDbLine
 10
-57.77940464737094
 20
-34.75536934096908
 30
0.0
 11
-51.94559535263032
 21
-34.75536934096908
 31
0.0
  0
LINE
  5
1BFB6
330
1E
100
AcDbEntity
  8
DETAIL
100
AcDbLine
 10
335.2355953526312
 20
-34.75536934096908
 30
0.0
 11
341.0694046473718
 21
-34.75536934096908
 31
0.0
  0
LINE
  5
1BFB7
330
1E
100
AcDbEntity
  8
DETAIL
100
AcDbLine
 10
348.9666762147999
 20
-28.46979910316759
 30
0.0
 11
258.8219693981755
 21
-28.46979910316804
 31
0.0
  0
LINE
  5
1BFB8
330
1E
100
AcDbEntity
  8
DETAIL
100
AcDbLine
 10
258.8219693981764
 20
-28.46979910316804
 30
0.0
 11
151.0509559517613
 21
-28.46979910316759
 31
0.0
  0
LINE
  5
1BFB9
330
1E
100
AcDbEntity
  8
DETAIL
100
AcDbLine
 10
151.0509559517613
 20
-28.46979910316759
 30
0.0
 11
50.94376459482919
 21
-28.46979910316759
 31
0.0
  0
LINE
  5
1BFBA
330
1E
100
AcDbEntity
  8
DETAIL
100
AcDbLine
 10
50.9437645948301
 20
-28.46979910316759
 30
0.0
 11
-48.09156689552492
 21
-28.46979910316804
 31
0.0
  0
LINE
  5
1BFBB
330
1E
100
AcDbEntity
  8
DETAIL
100
AcDbLine
 10
-48.09156689552583
 20
-28.46979910316759
 30
0.0
 11
-147.0580698190078
 21
-28.46979910316759
 31
0.0
  0
LINE
  5
1BFBC
330
1E
100
AcDbEntity
  8
DETAIL
100
AcDbLine
 10
-147.0580698190078
 20
-28.46979910316759
 30
0.0
 11
-246.1419692082109
 21
-28.46979910316759
 31
0.0
  0
LINE
  5
1BFBD
330
1E
100
AcDbEntity
  8
DETAIL
100
AcDbLine
 10
-246.1419692082109
 20
-28.46979910316804
 30
0.0
 11
-351.5438474403404
 21
-28.46979910316759
 31
0.0
  0
LINE
  5
1BFBE
330
1E
100
AcDbEntity
  8
DETAIL
100
AcDbLine
 10
-60.91684183759936
 20
-26.51111020057852
 30
0.0
 11
-351.6176325592629
 21
-26.51111020057852
 31
0.0
  0
LINE
  5
1BFBF
330
1E
100
AcDbEntity
  8
DETAIL
100
AcDbLine
 10
-37.8356581624048
 20
-26.51111020057852
 30
0.0
 11
328.1081581624003
 21
-26.51111020057852
 31
0.0
  0
LINE
  5
1BFC0
330
1E
100
AcDbEntity
  8
DETAIL
100
AcDbLine
 10
-60.8475000000044
 20
-26.44176836297766
 30
0.0
 11
-37.90499999999884
 21
-26.44176836297766
 31
0.0
  0
LINE
  5
1BFC1
330
1E
100
AcDbEntity
  8
DETAIL
100
AcDbLine
 10
328.1774999999961
 20
-26.44176836297766
 30
0.0
 11
351.6176325592633
 21
-26.51111020057852
 31
0.0
  0
LINE
  5
1BFC2
330
1E
100
AcDbEntity
  8
DETAIL
100
AcDbLine
 10
351.6176325592633
 20
-24.97854910317028
 30
0.0
 11
-351.6176325592746
 21
-24.97854910317028
 31
0.0
  0
ARC
  5
1BFC3
330
1E
100
AcDbEntity
  8
DETAIL
100
AcDbCircle
 10
345.9841562727843
 20
-206.2045137212597
 30
0.0
 40
2.9925
100
AcDbArc
 50
270.0
 51
2.000000000108109
  0
ARC
  5
1BFC4
330
1E
100
AcDbEntity
  8
DETAIL
100
AcDbCircle
 10
379.8104840848519
 20
-65.37729910316897
 30
0.0
 40
4.987499999999998
100
AcDbArc
 50
185.0000000000005
 51
270.0
  0
ARC
  5
1BFC5
330
1E
100
AcDbEntity
  8
DETAIL
100
AcDbCircle
 10
389.2930829326406
 20
-70.86765488570063
 30
0.0
 40
0.9975000000000443
100
AcDbArc
 50
180.4999999999914
 51
269.9999961818329
  0
LINE
  5
1BFC6
330
1E
100
AcDbEntity
  8
DETAIL
  6
Continuous
100
AcDbLine
 10
379.8104840848755
 20
-71.92022992430793
 30
0.0
 11
390.0
 21
-71.86104910316839
 31
0.0
  0
LINE
  5
1BFC7
330
1E
100
AcDbEntity
  8
DETAIL
  6
Continuous
100
AcDbLine
 10
379.8104840848519
 20
-70.36479910316892
 30
0.0
 11
389.8004999999957
 21
-70.36479910316892
 31
0.0
  0
ARC
  5
1BFC8
330
1E
100
AcDbEntity
  8
DETAIL
  6
Continuous
100
AcDbCircle
 10
350.1129998089327
 20
-48.06681761506069
 30
0.0
 40
23.13724405780726
100
AcDbArc
 50
8.728619758050834
 51
86.27138024365647
  0
ARC
  5
1BFC9
330
1E
100
AcDbEntity
  8
DETAIL
  6
Continuous
100
AcDbCircle
 10
351.5649213042425
 20
-46.47927588945367
 30
0.0
 40
19.96823526140397
100
AcDbArc
 50
5.142553198445797
 51
89.84875298628084
  0
ARC
  5
1BFCA
330
1E
100
AcDbEntity
  8
DETAIL
  6
Continuous
100
AcDbCircle
 10
379.8180629390181
 20
-65.3692508832612
 30
0.0
 40
6.550983425048697
100
AcDbArc
 50
185.0641874995333
 51
269.9337143103595
  0
ARC
  5
1BFCB
330
1E
100
AcDbEntity
  8
DETAIL
  6
Continuous
100
AcDbCircle
 10
381.1958295752102
 20
-210.7342841523612
 30
0.0
 40
3.960126146771444
100
AcDbArc
 50
290.3603340711119
 51
1.650425394002111
  0
ARC
  5
1BFCC
330
1E
100
AcDbEntity
  8
DETAIL
  6
Continuous
100
AcDbCircle
 10
377.4306563196305
 20
-190.8803717529044
 30
0.0
 40
24.12127791182306
100
AcDbArc
 50
269.3299028149935
 51
282.3107637903389
  0
LINE
  5
1BFCD
330
1E
100
AcDbEntity
  8
DETAIL
  6
Continuous
100
AcDbLine
 10
351.9229453749076
 20
-150.093407753523
 30
0.0
 11
350.119343397947
 21
-175.5883896936786
 31
0.0
  0
ARC
  5
1BFCE
330
1E
100
AcDbEntity
  8
DETAIL
  6
Continuous
100
AcDbCircle
 10
374.9184901029849
 20
-171.5023668937804
 30
0.0
 40
0.9797018327941927
100
AcDbArc
 50
184.7953411710048
 51
271.4247486884003
  0
ARC
  5
1BFCF
330
1E
100
AcDbEntity
  8
DETAIL
  6
Continuous
100
AcDbCircle
 10
362.2335426042291
 20
-171.5018459051961
 30
0.0
 40
0.9802111591229374
100
AcDbArc
 50
268.6033144780388
 51
355.1765957382577
  0
ARC
  5
1BFD0
330
1E
100
AcDbEntity
  8
DETAIL
  6
Continuous
100
AcDbCircle
 10
355.7458611480752
 20
-175.3694452601382
 30
0.0
 40
2.414808460146105
100
AcDbArc
 50
90.33368665647683
 51
163.2854806668822
  0
ARC
  5
1BFD1
330
1E
100
AcDbEntity
  8
DETAIL
  6
Continuous
100
AcDbCircle
 10
349.6617497722009
 20
-172.6429864165063
 30
0.0
 40
4.307013679605116
100
AcDbArc
 50
341.2407811843647
 51
2.145202572940279
  0
ARC
  5
1BFD2
330
1E
100
AcDbEntity
  8
DETAIL
  6
Continuous
100
AcDbCircle
 10
351.4204753682907
 20
-178.5356877857375
 30
0.0
 40
0.9735069722491886
100
AcDbArc
 50
18.52686171868816
 51
88.18297055992918
  0
ARC
  5
1BFD3
330
1E
100
AcDbEntity
  8
DETAIL
  6
Continuous
100
AcDbCircle
 10
350.2493542324046
 20
-176.8546882588318
 30
0.0
 40
1.272955173282038
100
AcDbArc
 50
95.86201607889639
 51
178.0479355964879
  0
ARC
  5
1BFD4
330
1E
100
AcDbEntity
  8
DETAIL
  6
Continuous
100
AcDbCircle
 10
350.3232500557924
 20
-171.5791719154829
 30
0.0
 40
1.263531565590823
100
AcDbArc
 50
220.5408936116062
 51
271.5189715352748
  0
ARC
  5
1BFD5
330
1E
100
AcDbEntity
  8
DETAIL
  6
Continuous
100
AcDbCircle
 10
348.8308603331643
 20
-167.139050601666
 30
0.0
 40
2.677177927269325
100
AcDbArc
 50
285.6172923929436
 51
313.9937534193725
  0
ARC
  5
1BFD6
330
1E
100
AcDbEntity
  8
DETAIL
  6
Continuous
100
AcDbCircle
 10
345.2287754032541
 20
-184.0797991031682
 30
0.0
 40
5.08725000000004
100
AcDbArc
 50
270.0
 51
342.9555011514192
  0
ARC
  5
1BFD7
330
1E
100
AcDbEntity
  8
DETAIL
  6
Continuous
100
AcDbCircle
 10
258.1315290956836
 20
-173.4803434377791
 30
0.0
 40
3.469758241107478
100
AcDbArc
 50
88.48422263579918
 51
102.9322764683657
  0
ARC
  5
1BFD8
330
1E
100
AcDbEntity
  8
DETAIL
  6
Continuous
100
AcDbCircle
 10
258.1168729966348
 20
-168.3285978378337
 30
0.0
 40
7.628294999605072
100
AcDbArc
 50
264.2680499232798
 51
271.0354783461532
  0
ARC
  5
1BFD9
330
1E
100
AcDbEntity
  8
DETAIL
  6
Continuous
100
AcDbCircle
 10
258.1947695299459
 20
-176.0026758604835
 30
0.0
 40
1.313153147192485
100
AcDbArc
 50
230.381163361211
 51
276.8987870565315
  0
LINE
  5
1BFDA
330
1E
100
AcDbEntity
  8
DETAIL
  6
Continuous
100
AcDbLine
 10
-37.85276571831946
 20
-24.97854910317028
 30
0.0
 11
-37.83936371131677
 21
-26.48347938141752
 31
0.0
  0
LINE
  5
1BFDB
330
1E
100
AcDbEntity
  8
DETAIL
  6
Continuous
100
AcDbLine
 10
151.0509559517613
 20
-28.46979910316804
 30
0.0
 11
151.0509559517613
 21
-189.1670491031705
 31
0.0
  0
LINE
  5
1BFDC
330
1E
100
AcDbEntity
  8
DETAIL
  6
Continuous
100
AcDbLine
 10
258.8219693981755
 20
-28.46979910316804
 30
0.0
 11
258.8219693981755
 21
-166.1854047134102
 31
0.0
  0
LINE
  5
1BFDD
330
1E
100
AcDbEntity
  8
DETAIL
  6
Continuous
100
AcDbLine
 10
50.94376459482919
 20
-28.46979910316759
 30
0.0
 11
50.94376459482919
 21
-189.1670491031705
 31
0.0
  0
LINE
  5
1BFDE
330
1E
100
AcDbEntity
  8
DETAIL
  6
Continuous
100
AcDbLine
 10
-60.91684183759936
 20
-26.51111020057852
 30
0.0
 11
-60.89973428168377
 21
-24.97854910317028
 31
0.0
  0
LINE
  5
1BFDF
330
1E
100
AcDbEntity
  8
DETAIL
  6
Continuous
100
AcDbLine
 10
-48.09156689552583
 20
-28.46979910316759
 30
0.0
 11
-48.09156689552583
 21
-189.1670491031705
 31
0.0
  0
LINE
  5
1BFE0
330
1E
100
AcDbEntity
  8
DETAIL
  6
Continuous
100
AcDbLine
 10
-147.0580698190078
 20
-28.46979910316759
 30
0.0
 11
-147.0580698190078
 21
-189.1670491031705
 31
0.0
  0
LINE
  5
1BFE1
330
1E
100
AcDbEntity
  8
DETAIL
  6
Continuous
100
AcDbLine
 10
-246.1419692082099
 20
-28.41156591082198
 30
0.0
 11
-246.1419692082099
 21
-189.1670491031705
 31
0.0
  0
ARC
  5
1BFE2
330
1E
100
AcDbEntity
  8
DETAIL
  6
Continuous
100
AcDbCircle
 10
352.1121218940298
 20
-211.0353853563497
 30
0.0
 40
2.984508364577627
100
AcDbArc
 50
175.1392700327319
 51
216.3067672890907
  0
LINE
  5
1BFE3
330
1E
100
AcDbEntity
  8
DETAIL
  6
Continuous
100
AcDbLine
 10
258.8288618722672
 20
-197.6184347747796
 30
0.0
 11
258.8288618722681
 21
-213.3007407098776
 31
0.0
  0
LINE
  5
1BFE4
330
1E
100
AcDbEntity
  8
DETAIL
  6
Continuous
100
AcDbLine
 10
151.1613958273465
 20
-213.3007407098776
 30
0.0
 11
151.1613958273465
 21
-197.6184347747796
 31
0.0
  0
LINE
  5
1BFE5
330
1E
100
AcDbEntity
  8
DETAIL
  6
Continuous
100
AcDbLine
 10
50.9090778182308
 20
-213.3007407098776
 30
0.0
 11
50.90907781823171
 21
-197.6184347747796
 31
0.0
  0
LINE
  5
1BFE6
330
1E
100
AcDbEntity
  8
DETAIL
  6
Continuous
100
AcDbLine
 10
-48.13067767875873
 20
-197.6184347747796
 30
0.0
 11
-48.13067767875873
 21
-213.3007407098776
 31
0.0
  0
LINE
  5
1BFE7
330
1E
100
AcDbEntity
  8
DETAIL
  6
Continuous
100
AcDbLine
 10
-147.1784156224803
 20
-197.6184347747796
 30
0.0
 11
-147.1784156224803
 21
-213.3007407098776
 31
0.0
  0
LINE
  5
1BFE8
330
1E
100
AcDbEntity
  8
DETAIL
  6
Continuous
100
AcDbLine
 10
-25.93247913129744
 20
-200.3679364624379
 30
0.0
 11
-24.6217720182085
 21
-199.6821747621086
 31
0.0
  0
LINE
  5
1BFE9
330
1E
100
AcDbEntity
  8
DETAIL
  6
Continuous
100
AcDbLine
 10
-13.96815940436227
 20
-200.3679325282985
 30
0.0
 11
-15.27822798180477
 21
-199.6821747621086
 31
0.0
  0
LINE
  5
1BFEA
330
1E
100
AcDbEntity
  8
DETAIL
  6
Continuous
100
AcDbLine
 10
-246.1159060387345
 20
-213.3007407098776
 30
0.0
 11
-246.1159060387345
 21
-197.6184347747796
 31
0.0
  0
LINE
  5
1BFEB
330
1E
100
AcDbEntity
  8
DETAIL
  6
Continuous
100
AcDbLine
 10
-348.6786478504032
 20
-197.6184347747796
 30
0.0
 11
-349.6067328122799
 21
-213.3007407098776
 31
0.0
  0
LINE
  5
1BFEC
330
1E
100
AcDbEntity
  8
DETAIL
100
AcDbLine
 10
-373.2926517109986
 20
-65.94751737934848
 30
0.0
 11
-371.4337519356791
 21
-44.69111345464898
 31
0.0
  0
LINE
  5
1BFED
330
1E
100
AcDbEntity
  8
DETAIL
100
AcDbLine
 10
-372.9822731035739
 20
-44.55563525500884
 30
0.0
 11
-374.841963029236
 21
-65.81198836971839
 31
0.0
  0
LINE
  5
1BFEE
330
1E
100
AcDbEntity
  8
DETAIL
100
AcDbLine
 10
-388.2911924244195
 20
-70.36479910316892
 30
0.0
 11
-388.2956209143836
 21
-70.87635960486022
 31
0.0
  0
LINE
  5
1BFEF
330
1E
100
AcDbEntity
  8
DETAIL
100
AcDbLine
 10
-389.8004999999957
 20
-70.36479910316892
 30
0.0
 11
-389.8004999999953
 21
0.0
 31
0.0
  0
LINE
  5
1BFF0
330
1E
100
AcDbEntity
  8
DETAIL
100
AcDbLine
 10
-385.1543128810141
 20
-210.6202270788508
 30
0.0
 11
-389.9999999999995
 21
-71.86104910316839
 31
0.0
  0
ARC
  5
1BFF1
330
1E
100
AcDbEntity
  8
DETAIL
100
AcDbCircle
 10
-379.8104840848523
 20
-65.37729910316897
 30
0.0
 40
4.987499999999998
100
AcDbArc
 50
270.0
 51
354.9999999999994
  0
ARC
  5
1BFF2
330
1E
100
AcDbEntity
  8
DETAIL
100
AcDbCircle
 10
-389.2930829326402
 20
-70.86765488570063
 30
0.0
 40
0.9975000000000443
100
AcDbArc
 50
270.000003818167
 51
359.5000000000085
  0
LINE
  5
1BFF3
330
1E
100
AcDbEntity
  8
DETAIL
  6
Continuous
100
AcDbLine
 10
-379.8104840848755
 20
-71.92022992430793
 30
0.0
 11
-389.9999999999995
 21
-71.86104910316839
 31
0.0
  0
LINE
  5
1BFF4
330
1E
100
AcDbEntity
  8
DETAIL
  6
Continuous
100
AcDbLine
 10
-379.8104840848523
 20
-70.36479910316892
 30
0.0
 11
-389.8004999999957
 21
-70.36479910316892
 31
0.0
  0
ARC
  5
1BFF5
330
1E
100
AcDbEntity
  8
DETAIL
  6
Continuous
100
AcDbCircle
 10
-350.1129998089323
 20
-48.06681761506069
 30
0.0
 40
23.13724405780726
100
AcDbArc
 50
93.72861975634355
 51
171.2713802419491
  0
ARC
  5
1BFF6
330
1E
100
AcDbEntity
  8
DETAIL
  6
Continuous
100
AcDbCircle
 10
-351.5649213042425
 20
-46.47927588945367
 30
0.0
 40
19.96823526140397
100
AcDbArc
 50
90.15124701371915
 51
174.8574468015541
  0
ARC
  5
1BFF7
330
1E
100
AcDbEntity
  8
DETAIL
  6
Continuous
100
AcDbCircle
 10
-379.8180629390181
 20
-65.3692508832612
 30
0.0
 40
6.550983425048697
100
AcDbArc
 50
270.0662856896407
 51
354.9358125004666
  0
ARC
  5
1BFF8
330
1E
100
AcDbEntity
  8
DETAIL
  6
Continuous
100
AcDbCircle
 10
-381.1958295752102
 20
-210.7342841523612
 30
0.0
 40
3.960126146771444
100
AcDbArc
 50
178.3495746059979
 51
249.639665928888
  0
ARC
  5
1BFF9
330
1E
100
AcDbEntity
  8
DETAIL
  6
Continuous
100
AcDbCircle
 10
-377.2811735711771
 20
-189.9154915306517
 30
0.0
 40
25.09591399883087
100
AcDbArc
 50
257.8254910703868
 51
271.7274691359193
  0
ARC
  5
1BFFA
330
1E
100
AcDbEntity
  8
DETAIL
  6
Continuous
100
AcDbCircle
 10
-2352.402174129037
 20
-102.8627341722749
 30
0.0
 40
2002.240832734087
100
AcDbArc
 50
358.5544729403057
 51
2.185394808408918
  0
ARC
  5
1BFFB
330
1E
100
AcDbEntity
  8
DETAIL
  6
Continuous
100
AcDbCircle
 10
-172.9826176520544
 20
-148.7513483795301
 30
0.0
 40
177.8759494127802
100
AcDbArc
 50
181.4886337363837
 51
193.1000443914295
  0
LINE
  5
1BFFC
330
1E
100
AcDbEntity
  8
DETAIL
  6
Continuous
100
AcDbLine
 10
-346.2294863012371
 20
-189.0672991031683
 30
0.0
 11
-346.2107367126582
 21
-189.1670491031705
 31
0.0
  0
LINE
  5
1BFFD
330
1E
100
AcDbEntity
  8
OUTLINE
100
AcDbLine
 10
388.2911924244199
 20
-70.36479910316892
 30
0.0
 11
388.295620914384
 21
-70.87635960486022
 31
0.0
  0
LINE
  5
1BFFE
330
1E
100
AcDbEntity
  8
OUTLINE
100
AcDbLine
 10
389.8004999999957
 20
-70.36479910316892
 30
0.0
 11
389.8004999999957
 21
0.0
 31
0.0
  0
LINE
  5
1BFFF
330
1E
100
AcDbEntity
  8
OUTLINE
100
AcDbLine
 10
385.1543128810145
 20
-210.620227078851
 30
0.0
 11
390.0
 21
-71.86104910316839
 31
0.0
  0
LINE
  5
1C000
330
1E
100
AcDbEntity
  8
OUTLINE
100
AcDbLine
 10
-376.5246457872176
 20
-215.0
 30
0.0
 11
377.1485547043913
 21
-215.0
 31
0.0
  0
LINE
  5
1C001
330
1E
100
AcDbEntity
  8
OUTLINE
100
AcDbLine
 10
-389.8004999999953
 20
0.0
 30
0.0
 11
389.8004999999957
 21
0.0
 31
0.0
  0
ARC
  5
1C002
330
1E
100
AcDbEntity
  8
OUTLINE
100
AcDbCircle
 10
389.2930829326406
 20
-70.86765488570063
 30
0.0
 40
0.9975000000000443
100
AcDbArc
 50
180.4999999999914
 51
269.9999961818329
  0
LINE
  5
1C003
330
1E
100
AcDbEntity
  8
OUTLINE
  6
Continuous
100
AcDbLine
 10
389.2930828661656
 20
-71.8651548857008
 30
0.0
 11
390.0
 21
-71.86104910316839
 31
0.0
  0
LINE
  5
1C004
330
1E
100
AcDbEntity
  8
OUTLINE
  6
Continuous
100
AcDbLine
 10
388.2911924244199
 20
-70.36479910316892
 30
0.0
 11
389.8004999999957
 21
-70.36479910316892
 31
0.0
  0
ARC
  5
1C005
330
1E
100
AcDbEntity
  8
OUTLINE
  6
Continuous
100
AcDbCircle
 10
381.1958295752111
 20
-210.7342841523612
 30
0.0
 40
3.960126146771444
100
AcDbArc
 50
290.3603340711119
 51
1.650425394002111
  0
ARC
  5
1C006
330
1E
100
AcDbEntity
  8
OUTLINE
  6
Continuous
100
AcDbCircle
 10
377.4306563196305
 20
-190.8803717529044
 30
0.0
 40
24.12127791182306
100
AcDbArc
 50
269.3299028149935
 51
282.3107637903389
  0
LINE
  5
1C007
330
1E
100
AcDbEntity
  8
OUTLINE
100
AcDbLine
 10
-388.2911924244195
 20
-70.36479910316892
 30
0.0
 11
-388.2956209143836
 21
-70.87635960486022
 31
0.0
  0
LINE
  5
1C008
330
1E
100
AcDbEntity
  8
OUTLINE
100
AcDbLine
 10
-389.8004999999957
 20
-70.36479910316892
 30
0.0
 11
-389.8004999999953
 21
0.0
 31
0.0
  0
LINE
  5
1C009
330
1E
100
AcDbEntity
  8
OUTLINE
100
AcDbLine
 10
-385.1543128810141
 20
-210.620227078851
 30
0.0
 11
-389.9999999999995
 21
-71.86104910316839
 31
0.0
  0
ARC
  5
1C00A
330
1E
100
AcDbEntity
  8
OUTLINE
100
AcDbCircle
 10
-389.2930829326402
 20
-70.86765488570063
 30
0.0
 40
0.9975000000000443
100
AcDbArc
 50
270.000003818167
 51
359.5000000000085
  0
LINE
  5
1C00B
330
1E
100
AcDbEntity
  8
OUTLINE
  6
Continuous
100
AcDbLine
 10
-389.2930828661665
 20
-71.8651548857008
 30
0.0
 11
-389.9999999999995
 21
-71.86104910316839
 31
0.0
  0
LINE
  5
1C00C
330
1E
100
AcDbEntity
  8
OUTLINE
  6
Continuous
100
AcDbLine
 10
-388.2911924244195
 20
-70.36479910316892
 30
0.0
 11
-389.8004999999957
 21
-70.36479910316892
 31
0.0
  0
ARC
  5
1C00D
330
1E
100
AcDbEntity
  8
OUTLINE
  6
Continuous
100
AcDbCircle
 10
-381.1958295752102
 20
-210.7342841523612
 30
0.0
 40
3.960126146771444
100
AcDbArc
 50
178.3495746059979
 51
249.639665928888
  0
ARC
  5
1C00E
330
1E
100
AcDbEntity
  8
OUTLINE
  6
Continuous
100
AcDbCircle
 10
-377.2811735711771
 20
-189.9154915306517
 30
0.0
 40
25.09591399883087
100
AcDbArc
 50
257.8254910703868
 51
271.7274691359193
  0
DIMENSION
  5
1C0CF
330
1E
100
AcDbEntity
  8
SIZE
  6
Continuous
100
AcDbDimension
280
     0
  2
*D28
 10
390.0
 20
-415.0
 30
0.0
 11
0.0000000000002579
 21
-380.0
 31
0.0
 70
    32
 71
     5
 42
779.9999999999995
 73
     0
 74
     0
 75
     0
  3
STANDARD
100
AcDbAlignedDimension
 13
-389.9999999999995
 23
-71.86104910316839
 33
0.0
 14
390.0
 24
-71.86104910316839
 34
0.0
100
AcDbRotatedDimension
1001
ACAD
1000
DSTYLE
1002
{
1070
    41
1040
10.0
1070
    42
1040
20.0
1070
    43
1040
200.0
1070
    44
1040
20.0
1070
    73
1070
     0
1070
    74
1070
     0
1070
    77
1070
     1
1070
    78
1070
     8
1070
   140
1040
50.0
1070
   141
1040
0.082
1070
   147
1040
10.0
1070
   172
1070
     1
1070
   271
1070
     8
1070
   272
1070
     0
1070
   341
1005
46
1070
   342
1005
46
1002
}
  0
DIMENSION
  5
1C13E
330
1E
100
AcDbEntity
  8
SIZE
  6
Continuous
100
AcDbDimension
280
     0
  2
*D29
 10
0.0000000000002396
 20
200.0
 30
0.0
 11
-167.4999999999999
 21
235.0
 31
0.0
 70
    32
 71
     5
 42
335.0000000000002
 73
     0
 74
     0
 75
     0
  3
STANDARD
100
AcDbAlignedDimension
 13
-335.0
 23
22.26952388366044
 33
0.0
 14
0.0000000000002274
 24
0.0
 34
0.0
100
AcDbRotatedDimension
1001
ACAD
1000
DSTYLE
1002
{
1070
    41
1040
10.0
1070
    42
1040
20.0
1070
    43
1040
200.0
1070
    44
1040
20.0
1070
    73
1070
     0
1070
    74
1070
     0
1070
    77
1070
     1
1070
    78
1070
     8
1070
   140
1040
50.0
1070
   141
1040
0.082
1070
   147
1040
10.0
1070
   172
1070
     1
1070
   271
1070
     8
1070
   272
1070
     0
1070
   341
1005
46
1070
   342
1005
46
1002
}
  0
DIMENSION
  5
1C15D
330
1E
100
AcDbEntity
  8
SIZE
  6
Continuous
100
AcDbDimension
280
     0
  2
*D30
 10
320.0
 20
200.0
 30
0.0
 11
160.0000000000001
 21
235.0
 31
0.0
 70
    32
 71
     5
 42
319.9999999999998
 73
     0
 74
     0
 75
     0
  3
STANDARD
100
AcDbAlignedDimension
 13
0.0000000000002274
 23
0.0
 33
0.0
 14
320.0
 24
22.26952388366044
 34
0.0
100
AcDbRotatedDimension
1001
ACAD
1000
DSTYLE
1002
{
1070
    41
1040
10.0
1070
    42
1040
20.0
1070
    43
1040
200.0
1070
    44
1040
20.0
1070
    73
1070
     0
1070
    74
1070
     0
1070
    77
1070
     1
1070
    78
1070
     8
1070
   140
1040
50.0
1070
   141
1040
0.082
1070
   147
1040
10.0
1070
   172
1070
     1
1070
   271
1070
     8
1070
   272
1070
     0
1070
   341
1005
46
1070
   342
1005
46
1002
}
  0
DIMENSION
  5
1C173
330
1E
100
AcDbEntity
  8
SIZE
  6
Continuous
100
AcDbDimension
280
     0
  2
*D31
 10
589.8004999999963
 20
-214.9999999999999
 30
0.0
 11
554.8004999999961
 21
-107.5
 31
0.0
 70
    32
 71
     5
 42
214.9999999999999
 73
     0
 74
     0
 75
     0
  3
STANDARD
100
AcDbAlignedDimension
 13
389.8004999999957
 23
0.0
 33
0.0
 14
377.1485547043878
 24
-214.9999999999998
 34
0.0
 50
90.0
100
AcDbRotatedDimension
1001
ACAD
1000
DSTYLE
1002
{
1070
    41
1040
10.0
1070
    42
1040
20.0
1070
    43
1040
200.0
1070
    44
1040
20.0
1070
    73
1070
     0
1070
    74
1070
     0
1070
    77
1070
     1
1070
    78
1070
     8
1070
   140
1040
50.0
1070
   141
1040
0.082
1070
   147
1040
10.0
1070
   172
1070
     1
1070
   271
1070
     8
1070
   272
1070
     0
1070
   341
1005
46
1070
   342
1005
46
1002
}
  0
LINE
  5
1C219
330
1E
100
AcDbEntity
  8
BASIS
  6
CENTER
100
AcDbLine
 10
-362.1630144464572
 20
0.0
 30
0.0
 11
-308.2359855535533
 21
0.0
 31
0.0
  0
LINE
  5
1C21A
330
1E
100
AcDbEntity
  8
BASIS
  6
CENTER
100
AcDbLine
 10
-335.0
 20
-22.26952388366044
 30
0.0
 11
-335.0
 21
22.26952388366044
 31
0.0
  0
LINE
  5
1C21B
330
1E
100
AcDbEntity
  8
BASIS
  6
CENTER
100
AcDbLine
 10
292.8369855535439
 20
0.0
 30
0.0
 11
346.7640144464478
 21
0.0
 31
0.0
  0
LINE
  5
1C21C
330
1E
100
AcDbEntity
  8
BASIS
  6
CENTER
100
AcDbLine
 10
320.0
 20
-22.26952388366044
 30
0.0
 11
320.0
 21
22.26952388366044
 31
0.0
  0
ENDSEC
  0
SECTION
  2
OBJECTS
  0
DICTIONARY
  5
C
330
0
100
AcDbDictionary
281
     1
  3
ACAD_CIP_PREVIOUS_PRODUCT_INFO
350
1B3CB
  3
ACAD_COLOR
350
1B3AE
  3
ACAD_DETAILVIEWSTYLE
350
1B3C7
  3
ACAD_GROUP
350
D
  3
ACAD_LAYOUT
350
19
  3
ACAD_MATERIAL
350
1B37C
  3
ACAD_MLEADERSTYLE
350
1B3C3
  3
ACAD_MLINESTYLE
350
16
  3
ACAD_PLOTSETTINGS
350
18
  3
ACAD_PLOTSTYLENAME
350
E
  3
ACAD_SCALELIST
350
1B3B1
  3
ACAD_SECTIONVIEWSTYLE
350
1B3C5
  3
ACAD_TABLESTYLE
350
1B3AF
  3
ACAD_VISUALSTYLE
350
1B395
  3
ACDB_RECOMPOSE_DATA
350
1C40A
  3
AcDbVariableDictionary
350
1B3E0
  3
AcDsDecomposeData
350
1C410
  0
DICTIONARY
  5
1B3F5
330
2
100
AcDbDictionary
280
     1
281
     1
  3
ACAD_LAYERSTATES
360
1B3F6
  0
DICTIONARY
  5
1B3D0
330
10
100
AcDbDictionary
280
     1
281
     1
  3
ADSK_XREC_LAYER_RECONCILED
360
1B3D1
  0
DICTIONARY
  5
1B3D2
330
22
100
AcDbDictionary
280
     1
281
     1
  3
ADSK_XREC_LAYER_RECONCILED
360
1B3D3
  0
DICTIONARY
  5
1B3D4
330
31
100
AcDbDictionary
280
     1
281
     1
  3
ADSK_XREC_LAYER_RECONCILED
360
1B3D5
  0
DICTIONARY
  5
1B3D6
330
32
100
AcDbDictionary
280
     1
281
     1
  3
ADSK_XREC_LAYER_RECONCILED
360
1B3D7
  0
DICTIONARY
  5
1B3D8
330
33
100
AcDbDictionary
280
     1
281
     1
  3
ADSK_XREC_LAYER_RECONCILED
360
1B3D9
  0
DICTIONARY
  5
1B3DA
330
34
100
AcDbDictionary
280
     1
281
     1
  3
ADSK_XREC_LAYER_RECONCILED
360
1B3DB
  0
DICTIONARY
  5
1B3DC
330
35
100
AcDbDictionary
280
     1
281
     1
  3
ADSK_XREC_LAYER_RECONCILED
360
1B3DD
  0
DICTIONARY
  5
1B3DE
330
37
100
AcDbDictionary
280
     1
281
     1
  3
ADSK_XREC_LAYER_RECONCILED
360
1B3DF
  0
DICTIONARY
  5
1B376
330
1E
100
AcDbDictionary
280
     1
281
     1
  3
ACAD_LAYOUTSELFREF
360
1B377
  3
ACAD_SORTENTS
360
1B543
  0
DICTIONARY
  5
1B374
330
1A
100
AcDbDictionary
280
     1
281
     1
  3
ACAD_LAYOUTSELFREF
360
1B375
  0
XRECORD
  5
1B3CB
102
{ACAD_REACTORS
330
C
102
}
330
C
100
AcDbXrecord
280
     1
300
ACD
300
2019
300
87084ACD_2019_0F
  0
DICTIONARY
  5
1B3AE
102
{ACAD_REACTORS
330
C
102
}
330
C
100
AcDbDictionary
281
     1
  0
DICTIONARY
  5
1B3C7
102
{ACAD_REACTORS
330
C
102
}
330
C
100
AcDbDictionary
281
     1
  3
Imperial24
350
1B3C8
  3
Metric50
350
1B569
  0
DICTIONARY
  5
D
102
{ACAD_REACTORS
330
C
102
}
330
C
100
AcDbDictionary
281
     1
  0
DICTIONARY
  5
19
102
{ACAD_REACTORS
330
C
102
}
330
C
100
AcDbDictionary
281
     1
  3
Model
350
1B3C9
  3
レイアウト1
350
1B3CA
  0
DICTIONARY
  5
1B37C
102
{ACAD_REACTORS
330
C
102
}
330
C
100
AcDbDictionary
281
     1
  3
ByBlock
350
1B385
  3
ByLayer
350
1B37D
  3
Global
350
1B38D
  0
DICTIONARY
  5
1B3C3
102
{ACAD_REACTORS
330
C
102
}
330
C
100
AcDbDictionary
281
     1
  3
Standard
350
1B3C4
  0
DICTIONARY
  5
16
102
{ACAD_REACTORS
330
C
102
}
330
C
100
AcDbDictionary
281
     1
  3
STANDARD
350
17
  0
DICTIONARY
  5
18
102
{ACAD_REACTORS
330
C
102
}
330
C
100
AcDbDictionary
281
     1
  0
ACDBDICTIONARYWDFLT
  5
E
102
{ACAD_REACTORS
330
C
102
}
330
C
100
AcDbDictionary
281
     1
  3
Normal
350
F
100
AcDbDictionaryWithDefault
340
F
  0
DICTIONARY
  5
1B3B1
102
{ACAD_REACTORS
330
C
102
}
330
C
100
AcDbDictionary
281
     1
  3
A0
350
1B3B2
  3
A1
350
1B3B3
  3
A2
350
1B3B4
  3
A3
350
1B3B5
  3
A4
350
1B3B6
  3
A5
350
1B3B7
  3
A6
350
1B3B8
  3
A7
350
1B3B9
  3
A8
350
1B3BA
  3
A9
350
1B3BB
  3
B0
350
1B3BC
  3
B1
350
1B3BD
  3
B2
350
1B3BE
  3
B3
350
1B3BF
  3
B4
350
1B3C0
  3
B5
350
1B3C1
  3
B6
350
1B3C2
  0
DICTIONARY
  5
1B3C5
102
{ACAD_REACTORS
330
C
102
}
330
C
100
AcDbDictionary
281
     1
  3
Imperial24
350
1B3C6
  3
Metric50
350
1B568
  0
DICTIONARY
  5
1B3AF
102
{ACAD_REACTORS
330
C
102
}
330
C
100
AcDbDictionary
281
     1
  3
Standard
350
1B3B0
  0
DICTIONARY
  5
1B395
102
{ACAD_REACTORS
330
C
102
}
330
C
100
AcDbDictionary
281
     1
  3
2dWireframe
350
1B39B
  3
Basic
350
1B39A
  3
Brighten
350
1B3A1
  3
ColorChange
350
1B3A5
  3
Conceptual
350
1B39E
  3
Dim
350
1B3A0
  3
EdgeColorOff
350
1B3AD
  3
Facepattern
350
1B3A4
  3
Flat
350
1B396
  3
FlatWithEdges
350
1B397
  3
Gouraud
350
1B398
  3
GouraudWithEdges
350
1B399
  3
Hidden
350
1B39D
  3
JitterOff
350
1B3AB
  3
Linepattern
350
1B3A3
  3
OverhangOff
350
1B3AC
  3
Realistic
350
1B39F
  3
Shaded
350
1B3AA
  3
Shaded with edges
350
1B3A9
  3
Shades of Gray
350
1B3A6
  3
Sketchy
350
1B3A7
  3
Thicken
350
1B3A2
  3
Wireframe
350
1B39C
  3
X-Ray
350
1B3A8
  0
XRECORD
  5
1C40A
102
{ACAD_REACTORS
330
C
102
}
330
C
100
AcDbXrecord
280
     1
 90
        1
330
1B3B0
330
1B3CE
330
1B3CF
  0
DICTIONARY
  5
1B3E0
102
{ACAD_REACTORS
330
C
102
}
330
C
100
AcDbDictionary
281
     1
  3
CANNOSCALE
350
1B3E6
  3
CMLEADERSTYLE
350
1B3E2
  3
CTABLESTYLE
350
1B3E1
  3
CVIEWDETAILSTYLE
350
1B3E3
  3
CVIEWSECTIONSTYLE
350
1B3E4
  3
LAYEREVAL
350
1B3E8
  3
LAYERNOTIFY
350
1B3E9
  3
LIGHTINGUNITS
350
1B3E7
  3
MSLTSCALE
350
1B3E5
  0
DICTIONARY
  5
1C410
102
{ACAD_REACTORS
330
C
102
}
330
C
100
AcDbDictionary
281
     1
  3
AcDsRecords
350
1C412
  3
AcDsSchemas
350
1C411
1001
ACAD
1070
     2
  0
DICTIONARY
  5
1B3F6
102
{ACAD_REACTORS
330
1B3F5
102
}
330
1B3F5
100
AcDbDictionary
281
     1
  0
XRECORD
  5
1B3D1
102
{ACAD_REACTORS
330
1B3D0
102
}
330
1B3D0
100
AcDbXrecord
280
     1
290
     1
  0
XRECORD
  5
1B3D3
102
{ACAD_REACTORS
330
1B3D2
102
}
330
1B3D2
100
AcDbXrecord
280
     1
290
     1
  0
XRECORD
  5
1B3D5
102
{ACAD_REACTORS
330
1B3D4
102
}
330
1B3D4
100
AcDbXrecord
280
     1
290
     1
  0
XRECORD
  5
1B3D7
102
{ACAD_REACTORS
330
1B3D6
102
}
330
1B3D6
100
AcDbXrecord
280
     1
290
     1
  0
XRECORD
  5
1B3D9
102
{ACAD_REACTORS
330
1B3D8
102
}
330
1B3D8
100
AcDbXrecord
280
     1
290
     1
  0
XRECORD
  5
1B3DB
102
{ACAD_REACTORS
330
1B3DA
102
}
330
1B3DA
100
AcDbXrecord
280
     1
290
     1
  0
XRECORD
  5
1B3DD
102
{ACAD_REACTORS
330
1B3DC
102
}
330
1B3DC
100
AcDbXrecord
280
     1
290
     1
  0
XRECORD
  5
1B3DF
102
{ACAD_REACTORS
330
1B3DE
102
}
330
1B3DE
100
AcDbXrecord
280
     1
290
     1
  0
XRECORD
  5
1B377
102
{ACAD_REACTORS
330
1B376
102
}
330
1B376
100
AcDbXrecord
280
     1
340
1E
  0
SORTENTSTABLE
  5
1B543
102
{ACAD_REACTORS
330
1B376
102
}
330
1B376
100
AcDbSortentsTable
330
1E
331
17662
  5
17664
331
17663
  5
17668
331
187B7
  5
187B9
331
187B8
  5
187BA
331
187B9
  5
187BB
331
187BA
  5
187BC
331
187BB
  5
187C6
331
187BC
  5
1A5DF
331
187C6
  5
1A5E0
331
1A5F2
  5
1A5F4
331
1A5F3
  5
1A5F5
331
1AA90
  5
1AA92
331
1AA91
  5
1AA93
331
1AA92
  5
1AED3
331
1AA93
  5
1AED4
331
1AED3
  5
1B1D4
331
1AED4
  5
1B301
331
1B3CE
  5
1B4E1
331
1B3CF
  5
1B5BB
331
1B5BB
  5
1B5BD
331
1B5BC
  5
1B5BE
331
1B5BE
  5
1B5C0
331
1B5BF
  5
1B5C1
331
1B5C0
  5
1B5C2
331
1B5C1
  5
1B5C3
331
1B5C2
  5
1B5C4
331
1B5C3
  5
1B5C5
331
1B5C4
  5
1B5C6
331
1B5C5
  5
1B5C7
331
1B5C6
  5
1B5C8
331
1B5C7
  5
1B5C9
331
1B5C8
  5
1B5CA
331
1B5C9
  5
1B5CB
331
1B5CA
  5
1B5CC
331
1B5CB
  5
1B5CD
331
1B5CC
  5
1B5CE
331
1B5CD
  5
1B5CF
331
1B5CF
  5
1B5D1
331
1B5D0
  5
1B5D2
331
1B5D1
  5
1B5D3
331
1B5D2
  5
1B5D4
331
1B5D3
  5
1B5D5
331
1B5D4
  5
1B5D6
331
1B5D5
  5
1B5D7
331
1B5D6
  5
1B5D8
331
1B5D7
  5
1B5D9
331
1B5D8
  5
1B5DA
331
1B5D9
  5
1B5DB
331
1B5DA
  5
1B5DC
331
1B5DB
  5
1B5DD
331
1B5DC
  5
1B5DE
331
1B5DD
  5
1B5DF
331
1B5DE
  5
1B5E0
331
1B5DF
  5
1B5E1
331
1B5E0
  5
1B5E2
331
1B5E1
  5
1B5E3
331
1B5E2
  5
1B5E4
331
1B5E3
  5
1B5E5
331
1B5E4
  5
1B5E6
331
1B5E5
  5
1B5E7
331
1B5E6
  5
1B5E8
331
1B5E7
  5
1B5E9
331
1B5E8
  5
1B5EA
331
1B5E9
  5
1B5EB
331
1B5EA
  5
1B5EC
331
1B5EB
  5
1B5ED
331
1B5EC
  5
1B5EE
331
1B5ED
  5
1B5EF
331
1B5EE
  5
1B5F0
331
1B5EF
  5
1B5F1
331
1B5F0
  5
1B5F2
331
1B5F1
  5
1B5F3
331
1B5F2
  5
1B5F4
331
1B5F3
  5
1B5F5
331
1B5F4
  5
1B5F6
331
1B5F5
  5
1B5F7
331
1B5F6
  5
1B5F8
331
1B5F7
  5
1B5F9
331
1B5F8
  5
1B5FA
331
1B5F9
  5
1B5FB
331
1B5FA
  5
1B5FC
331
1B5FB
  5
1B5FD
331
1B5FC
  5
1B5FE
331
1B5FD
  5
1B5FF
331
1B5FE
  5
1B600
331
1B5FF
  5
1B601
331
1B600
  5
1B602
331
1B603
  5
1B650
  0
XRECORD
  5
1B375
102
{ACAD_REACTORS
330
1B374
102
}
330
1B374
100
AcDbXrecord
280
     1
340
1A
  0
ACDBDETAILVIEWSTYLE
  5
1B3C8
102
{ACAD_XDICTIONARY
360
1C415
102
}
102
{ACAD_REACTORS
330
1B3C7
102
}
330
1B3C7
100
AcDbModelDocViewStyle
 70
     0
  3
Imperial24
290
     0
100
AcDbDetailViewStyle
 70
     0
 71
     0
 90
        3
 71
     1
340
11
 62
   256
 40
0.24
340
0
 62
   256
 40
0.24
300

 40
0.36
280
     3
 71
     2
340
15
 90
       25
 62
   256
 71
     3
340
11
 62
   256
 40
0.24
 90
        1
 40
0.75
 90
        1
300
%<\AcVar ViewType \f "%tc1">% %<\AcVar ViewDetailId>%\PSCALE %<\AcVar ViewScale \f "%sn">%
 71
     4
340
15
 90
       25
 62
   256
340
15
 90
       25
 62
   256
280
     0
  0
ACDBDETAILVIEWSTYLE
  5
1B569
102
{ACAD_XDICTIONARY
360
1C419
102
}
102
{ACAD_REACTORS
330
1B3C7
102
}
330
1B3C7
100
AcDbModelDocViewStyle
 70
     0
  3
Metric50
290
     0
100
AcDbDetailViewStyle
 70
     0
 71
     0
 90
        3
 71
     1
340
11
 62
   256
 40
5.0
340
0
 62
   256
 40
5.0
300

 40
0.0
280
     1
 71
     2
340
15
 90
       25
 62
   256
 71
     3
340
11
 62
   256
 40
5.0
 90
        0
 40
15.0
 90
        1
300
%<\AcVar ViewDetailId>% (%<\AcVar ViewScale \f "%sn">%)
 71
     4
340
15
 90
       25
 62
   256
340
15
 90
       25
 62
   256
280
     0
  0
LAYOUT
  5
1B3C9
102
{ACAD_REACTORS
330
19
102
}
330
19
100
AcDbPlotSettings
  1

  2
FUJI XEROX AP6_C6671_6F
  4
A4
  6

 40
4.900083065032958
 41
4.900054931640625
 42
4.90008544921875
 43
4.90008544921875
 44
210.0156707763672
 45
297.0106506347656
 46
0.0
 47
0.0
 48
0.0
 49
0.0
140
0.0
141
0.0
142
1.0
143
408.5291268161721
 70
 11952
 72
     0
 73
     1
 74
     0
  7

 75
     0
147
0.0024478058830062
 76
     0
 77
     2
 78
   300
148
50872.7999055995
149
34440.22612361147
100
AcDbLayout
  1
Model
 70
     1
 71
     0
 10
0.0
 20
0.0
 11
12.0
 21
9.0
 12
0.0
 22
0.0
 32
0.0
 14
0.0
 24
0.0
 34
0.0
 15
0.0
 25
0.0
 35
0.0
146
0.0
 13
0.0
 23
0.0
 33
0.0
 16
1.0
 26
0.0
 36
0.0
 17
0.0
 27
1.0
 37
0.0
 76
     0
330
1E
331
1B352
1001
ACAD_PSEXT
1000
FUJI XEROX AP6_C6671_6F
1000
FX ApeosPort-VI C6671
1000
IP_10.102.240.16
1000

1070
     0
  0
LAYOUT
  5
1B3CA
102
{ACAD_REACTORS
330
19
102
}
330
19
100
AcDbPlotSettings
  1

  2
FUJI XEROX AP6_C6671_6F
  4

  6

 40
0.0
 41
0.0
 42
0.0
 43
0.0
 44
0.0
 45
0.0
 46
0.0
 47
0.0
 48
0.0
 49
0.0
140
0.0
141
0.0
142
1.0
143
1.0
 70
   688
 72
     0
 73
     0
 74
     5
  7

 75
    16
147
1.0
 76
     0
 77
     2
 78
   300
148
0.0
149
0.0
100
AcDbLayout
  1
レイアウト1
 70
     1
 71
     1
 10
0.0
 20
0.0
 11
12.0
 21
9.0
 12
0.0
 22
0.0
 32
0.0
 14
1.000000000000000E+20
 24
1.000000000000000E+20
 34
1.000000000000000E+20
 15
-1.000000000000000E+20
 25
-1.000000000000000E+20
 35
-1.000000000000000E+20
146
0.0
 13
0.0
 23
0.0
 33
0.0
 16
1.0
 26
0.0
 36
0.0
 17
0.0
 27
1.0
 37
0.0
 76
     0
330
1A
  0
MATERIAL
  5
1B385
102
{ACAD_XDICTIONARY
360
1B386
102
}
102
{ACAD_REACTORS
330
1B37C
102
}
330
1B37C
100
AcDbMaterial
  1
ByBlock
 72
     0
 43
0.0208333333333333
 43
0.0
 43
0.0
 43
0.0
 43
0.0
 43
0.0208333333333333
 43
0.0
 43
0.0
 43
0.0
 43
0.0
 43
1.0
 43
0.0
 43
0.0
 43
0.0
 43
0.0
 43
1.0
 77
     0
 47
0.0208333333333333
 47
0.0
 47
0.0
 47
0.0
 47
0.0
 47
0.0208333333333333
 47
0.0
 47
0.0
 47
0.0
 47
0.0
 47
1.0
 47
0.0
 47
0.0
 47
0.0
 47
0.0
 47
1.0
171
     0
 49
0.0208333333333333
 49
0.0
 49
0.0
 49
0.0
 49
0.0
 49
0.0208333333333333
 49
0.0
 49
0.0
 49
0.0
 49
0.0
 49
1.0
 49
0.0
 49
0.0
 49
0.0
 49
0.0
 49
1.0
175
     0
142
0.0208333333333333
142
0.0
142
0.0
142
0.0
142
0.0
142
0.0208333333333333
142
0.0
142
0.0
142
0.0
142
0.0
142
1.0
142
0.0
142
0.0
142
0.0
142
0.0
142
1.0
179
     0
144
0.0208333333333333
144
0.0
144
0.0
144
0.0
144
0.0
144
0.0208333333333333
144
0.0
144
0.0
144
0.0
144
0.0
144
1.0
144
0.0
144
0.0
144
0.0
144
0.0
144
1.0
147
0.0208333333333333
147
0.0
147
0.0
147
0.0
147
0.0
147
0.0208333333333333
147
0.0
147
0.0
147
0.0
147
0.0
147
1.0
147
0.0
147
0.0
147
0.0
147
0.0
147
1.0
  0
MATERIAL
  5
1B37D
102
{ACAD_XDICTIONARY
360
1B37E
102
}
102
{ACAD_REACTORS
330
1B37C
102
}
330
1B37C
100
AcDbMaterial
  1
ByLayer
 72
     0
 43
0.0208333333333333
 43
0.0
 43
0.0
 43
0.0
 43
0.0
 43
0.0208333333333333
 43
0.0
 43
0.0
 43
0.0
 43
0.0
 43
1.0
 43
0.0
 43
0.0
 43
0.0
 43
0.0
 43
1.0
 77
     0
 47
0.0208333333333333
 47
0.0
 47
0.0
 47
0.0
 47
0.0
 47
0.0208333333333333
 47
0.0
 47
0.0
 47
0.0
 47
0.0
 47
1.0
 47
0.0
 47
0.0
 47
0.0
 47
0.0
 47
1.0
171
     0
 49
0.0208333333333333
 49
0.0
 49
0.0
 49
0.0
 49
0.0
 49
0.0208333333333333
 49
0.0
 49
0.0
 49
0.0
 49
0.0
 49
1.0
 49
0.0
 49
0.0
 49
0.0
 49
0.0
 49
1.0
175
     0
142
0.0208333333333333
142
0.0
142
0.0
142
0.0
142
0.0
142
0.0208333333333333
142
0.0
142
0.0
142
0.0
142
0.0
142
1.0
142
0.0
142
0.0
142
0.0
142
0.0
142
1.0
179
     0
144
0.0208333333333333
144
0.0
144
0.0
144
0.0
144
0.0
144
0.0208333333333333
144
0.0
144
0.0
144
0.0
144
0.0
144
1.0
144
0.0
144
0.0
144
0.0
144
0.0
144
1.0
147
0.0208333333333333
147
0.0
147
0.0
147
0.0
147
0.0
147
0.0208333333333333
147
0.0
147
0.0
147
0.0
147
0.0
147
1.0
147
0.0
147
0.0
147
0.0
147
0.0
147
1.0
  0
MATERIAL
  5
1B38D
102
{ACAD_XDICTIONARY
360
1B38E
102
}
102
{ACAD_REACTORS
330
1B37C
102
}
330
1B37C
100
AcDbMaterial
  1
Global
 72
     0
 43
0.0208333333333333
 43
0.0
 43
0.0
 43
0.0
 43
0.0
 43
0.0208333333333333
 43
0.0
 43
0.0
 43
0.0
 43
0.0
 43
1.0
 43
0.0
 43
0.0
 43
0.0
 43
0.0
 43
1.0
 77
     0
 47
0.0208333333333333
 47
0.0
 47
0.0
 47
0.0
 47
0.0
 47
0.0208333333333333
 47
0.0
 47
0.0
 47
0.0
 47
0.0
 47
1.0
 47
0.0
 47
0.0
 47
0.0
 47
0.0
 47
1.0
171
     0
 49
0.0208333333333333
 49
0.0
 49
0.0
 49
0.0
 49
0.0
 49
0.0208333333333333
 49
0.0
 49
0.0
 49
0.0
 49
0.0
 49
1.0
 49
0.0
 49
0.0
 49
0.0
 49
0.0
 49
1.0
175
     0
142
0.0208333333333333
142
0.0
142
0.0
142
0.0
142
0.0
142
0.0208333333333333
142
0.0
142
0.0
142
0.0
142
0.0
142
1.0
142
0.0
142
0.0
142
0.0
142
0.0
142
1.0
179
     0
144
0.0208333333333333
144
0.0
144
0.0
144
0.0
144
0.0
144
0.0208333333333333
144
0.0
144
0.0
144
0.0
144
0.0
144
1.0
144
0.0
144
0.0
144
0.0
144
0.0
144
1.0
147
0.0208333333333333
147
0.0
147
0.0
147
0.0
147
0.0
147
0.0208333333333333
147
0.0
147
0.0
147
0.0
147
0.0
147
1.0
147
0.0
147
0.0
147
0.0
147
0.0
147
1.0
  0
MLEADERSTYLE
  5
1B3C4
102
{ACAD_REACTORS
330
1B3C3
102
}
330
1B3C3
100
AcDbMLeaderStyle
179
     2
170
     2
171
     1
172
     0
 90
        2
 40
0.0
 41
0.0
173
     1
 91
-1056964608
340
13
 92
       -2
290
     1
 42
0.09
291
     1
 43
0.36
  3
Standard
 44
0.18
300

342
11
174
     1
178
     6
175
     1
176
     0
 93
-1056964608
 45
0.18
292
     0
297
     0
 46
0.18
 94
-1056964608
 47
1.0
 49
1.0
140
1.0
293
     1
141
0.0
294
     1
177
     0
142
1.0
295
     0
296
     0
143
0.125
271
     0
272
     9
273
     9
298
     0
  0
MLINESTYLE
  5
17
102
{ACAD_REACTORS
330
16
102
}
330
16
100
AcDbMlineStyle
  2
STANDARD
 70
     0
  3

 62
   256
 51
90.0
 52
90.0
 71
     2
 49
0.5
 62
   256
  6
BYLAYER
 49
-0.5
 62
   256
  6
BYLAYER
  0
ACDBPLACEHOLDER
  5
F
102
{ACAD_REACTORS
330
E
102
}
330
E
  0
SCALE
  5
1B3B2
102
{ACAD_REACTORS
330
1B3B1
102
}
330
1B3B1
100
AcDbScale
 70
     0
300
1:1
140
1.0
141
1.0
290
     1
  0
SCALE
  5
1B3B3
102
{ACAD_REACTORS
330
1B3B1
102
}
330
1B3B1
100
AcDbScale
 70
     0
300
1/128" = 1'-0"
140
0.0078125
141
12.0
290
     0
  0
SCALE
  5
1B3B4
102
{ACAD_REACTORS
330
1B3B1
102
}
330
1B3B1
100
AcDbScale
 70
     0
300
1/64" = 1'-0"
140
0.015625
141
12.0
290
     0
  0
SCALE
  5
1B3B5
102
{ACAD_REACTORS
330
1B3B1
102
}
330
1B3B1
100
AcDbScale
 70
     0
300
1/32" = 1'-0"
140
0.03125
141
12.0
290
     0
  0
SCALE
  5
1B3B6
102
{ACAD_REACTORS
330
1B3B1
102
}
330
1B3B1
100
AcDbScale
 70
     0
300
1/16" = 1'-0"
140
0.0625
141
12.0
290
     0
  0
SCALE
  5
1B3B7
102
{ACAD_REACTORS
330
1B3B1
102
}
330
1B3B1
100
AcDbScale
 70
     0
300
3/32" = 1'-0"
140
0.09375
141
12.0
290
     0
  0
SCALE
  5
1B3B8
102
{ACAD_REACTORS
330
1B3B1
102
}
330
1B3B1
100
AcDbScale
 70
     0
300
1/8" = 1'-0"
140
0.125
141
12.0
290
     0
  0
SCALE
  5
1B3B9
102
{ACAD_REACTORS
330
1B3B1
102
}
330
1B3B1
100
AcDbScale
 70
     0
300
3/16" = 1'-0"
140
0.1875
141
12.0
290
     0
  0
SCALE
  5
1B3BA
102
{ACAD_REACTORS
330
1B3B1
102
}
330
1B3B1
100
AcDbScale
 70
     0
300
1/4" = 1'-0"
140
0.25
141
12.0
290
     0
  0
SCALE
  5
1B3BB
102
{ACAD_REACTORS
330
1B3B1
102
}
330
1B3B1
100
AcDbScale
 70
     0
300
3/8" = 1'-0"
140
0.375
141
12.0
290
     0
  0
SCALE
  5
1B3BC
102
{ACAD_REACTORS
330
1B3B1
102
}
330
1B3B1
100
AcDbScale
 70
     0
300
1/2" = 1'-0"
140
0.5
141
12.0
290
     0
  0
SCALE
  5
1B3BD
102
{ACAD_REACTORS
330
1B3B1
102
}
330
1B3B1
100
AcDbScale
 70
     0
300
3/4" = 1'-0"
140
0.75
141
12.0
290
     0
  0
SCALE
  5
1B3BE
102
{ACAD_REACTORS
330
1B3B1
102
}
330
1B3B1
100
AcDbScale
 70
     0
300
1" = 1'-0"
140
1.0
141
12.0
290
     0
  0
SCALE
  5
1B3BF
102
{ACAD_REACTORS
330
1B3B1
102
}
330
1B3B1
100
AcDbScale
 70
     0
300
1-1/2" = 1'-0"
140
1.5
141
12.0
290
     0
  0
SCALE
  5
1B3C0
102
{ACAD_REACTORS
330
1B3B1
102
}
330
1B3B1
100
AcDbScale
 70
     0
300
3" = 1'-0"
140
3.0
141
12.0
290
     0
  0
SCALE
  5
1B3C1
102
{ACAD_REACTORS
330
1B3B1
102
}
330
1B3B1
100
AcDbScale
 70
     0
300
6" = 1'-0"
140
6.0
141
12.0
290
     0
  0
SCALE
  5
1B3C2
102
{ACAD_REACTORS
330
1B3B1
102
}
330
1B3B1
100
AcDbScale
 70
     0
300
1'-0" = 1'-0"
140
12.0
141
12.0
290
     0
  0
ACDBSECTIONVIEWSTYLE
  5
1B3C6
102
{ACAD_XDICTIONARY
360
1C413
102
}
102
{ACAD_REACTORS
330
1B3C5
102
}
330
1B3C5
100
AcDbModelDocViewStyle
 70
     0
  3
Imperial24
290
     0
100
AcDbSectionViewStyle
 70
     0
 71
     0
 90
       78
 71
     1
340
11
 62
   256
 40
0.24
340
0
340
0
 62
   256
 40
0.24
300
I, O, Q, S, X, Z
 40
0.48
 90
        3
 40
0.18
 90
        1
 71
     2
340
15
 90
       25
 62
   256
340
15
 90
       50
 62
   256
 40
0.24
 40
0.0
 40
0.24
 71
     3
340
11
 62
   256
 40
0.24
 90
        1
 40
0.75
 90
        1
300
%<\AcVar ViewType \f "%tc1">% %<\AcVar ViewSectionStartId>%-%<\AcVar ViewSectionEndId>%\PSCALE %<\AcVar ViewScale \f "%sn">%
 71
     4
 62
   256
 62
   257
300
ANSI31
 40
1.0
 90
        0
290
     0
290
     0
 90
        6
 40
0.0
 40
1.570796326794896
 40
0.2617993877991494
 40
1.308996938995747
 40
-0.2617993877991494
 40
1.832595714594044
  0
ACDBSECTIONVIEWSTYLE
  5
1B568
102
{ACAD_XDICTIONARY
360
1C417
102
}
102
{ACAD_REACTORS
330
1B3C5
102
}
330
1B3C5
100
AcDbModelDocViewStyle
 70
     0
  3
Metric50
290
     0
100
AcDbSectionViewStyle
 70
     0
 71
     0
 90
      102
 71
     1
340
11
 62
   256
 40
5.0
340
0
340
0
 62
   256
 40
5.0
300
I, O, Q, S, X, Z
 40
10.0
 90
        0
 40
2.5
 90
        0
 71
     2
340
15
 90
       25
 62
   256
340
15
 90
       50
 62
   256
 40
5.0
 40
2.5
 40
5.0
 71
     3
340
11
 62
   256
 40
5.0
 90
        0
 40
15.0
 90
        1
300
%<\AcVar ViewSectionStartId>%-%<\AcVar ViewSectionEndId>% (%<\AcVar ViewScale \f "%sn">%)
 71
     4
 62
   256
 62
   257
300
ANSI31
 40
1.0
 90
        0
290
     0
290
     0
 90
        6
 40
0.0
 40
1.570796326794896
 40
0.2617993877991494
 40
1.308996938995747
 40
-0.2617993877991494
 40
1.832595714594044
  0
TABLESTYLE
  5
1B3B0
102
{ACAD_XDICTIONARY
360
1B453
102
}
102
{ACAD_REACTORS
330
1B3AF
102
}
330
1B3AF
100
AcDbTableStyle
280
     0
  3
Standard
 70
     0
 71
     0
 40
0.06
 41
0.06
280
     0
281
     0
  7
STANDARD
140
0.18
170
     2
 62
     0
 63
     7
283
     0
 90
      512
 91
        0
  1

274
    -2
284
     1
 64
     0
275
    -2
285
     1
 65
     0
276
    -2
286
     1
 66
     0
277
    -2
287
     1
 67
     0
278
    -2
288
     1
 68
     0
279
    -2
289
     1
 69
     0
  7
STANDARD
140
0.25
170
     5
 62
     0
 63
     7
283
     0
 90
      512
 91
        0
  1

274
    -2
284
     1
 64
     0
275
    -2
285
     1
 65
     0
276
    -2
286
     1
 66
     0
277
    -2
287
     1
 67
     0
278
    -2
288
     1
 68
     0
279
    -2
289
     1
 69
     0
  7
STANDARD
140
0.18
170
     5
 62
     0
 63
     7
283
     0
 90
      512
 91
        0
  1

274
    -2
284
     1
 64
     0
275
    -2
285
     1
 65
     0
276
    -2
286
     1
 66
     0
277
    -2
287
     1
 67
     0
278
    -2
288
     1
 68
     0
279
    -2
289
     1
 69
     0
  0
VISUALSTYLE
  5
1B39B
102
{ACAD_REACTORS
330
1B395
102
}
330
1B395
100
AcDbVisualStyle
  2
2dWireframe
 70
     4
177
     3
291
     0
 70
    58
 90
        0
176
     1
 90
        2
176
     1
 90
        0
176
     1
 90
        0
176
     1
 40
0.6
176
     1
 40
30.0
176
     1
 62
     7
420
 16777215
176
     1
 90
        1
176
     1
 90
        4
176
     1
 62
     7
176
     1
 62
   257
176
     1
 90
        1
176
     1
 90
        1
176
     1
 40
1.0
176
     1
 90
        0
176
     1
 62
   257
176
     1
 40
1.0
176
     1
 90
        1
176
     1
 90
        6
176
     1
 90
        2
176
     1
 62
     7
176
     1
 90
        5
176
     1
 90
        0
176
     1
 90
        0
176
     1
290
     0
176
     1
 90
        1
176
     1
 40
0.0
176
     1
 90
        0
176
     1
290
     1
176
     1
290
     1
176
     1
290
     0
176
     1
290
     0
176
     1
290
     0
176
     1
290
     0
176
     1
290
     0
176
     1
290
     0
176
     1
290
     0
176
     1
 90
       50
176
     1
 40
0.0
176
     1
 40
1.0
176
     1
 90
        0
176
     1
 62
    18
176
     1
 90
       50
176
     1
 90
        3
176
     1
 62
     5
420
      255
176
     1
290
     0
176
     1
 90
       50
176
     1
 90
       50
176
     1
 90
       50
176
     1
290
     0
176
     1
 90
       50
176
     1
 62
   256
176
     0
 40
1.0
176
     0
 90
        2
176
     1
  1
strokes_ogs.tif
176
     1
290
     0
176
     1
 40
1.0
176
     1
 40
1.0
176
     1
1001
ACAD
1000
AcDbSavedByObjectVersion
1070
     0
  0
VISUALSTYLE
  5
1B39A
102
{ACAD_REACTORS
330
1B395
102
}
330
1B395
100
AcDbVisualStyle
  2
Basic
 70
     7
177
     3
291
     1
 70
    58
 90
        1
176
     1
 90
        0
176
     1
 90
        1
176
     1
 90
        0
176
     1
 40
0.6
176
     1
 40
30.0
176
     1
 62
     7
420
 16777215
176
     1
 90
        0
176
     1
 90
        4
176
     1
 62
     7
176
     1
 62
   257
176
     1
 90
        1
176
     1
 90
        1
176
     1
 40
1.0
176
     1
 90
        8
176
     1
 62
     7
176
     1
 40
1.0
176
     1
 90
        1
176
     1
 90
        6
176
     1
 90
        2
176
     1
 62
     7
176
     1
 90
        5
176
     1
 90
        0
176
     1
 90
        0
176
     1
290
     0
176
     1
 90
        1
176
     1
 40
0.0
176
     1
 90
        0
176
     1
290
     0
176
     1
290
     1
176
     1
290
     1
176
     1
290
     0
176
     1
290
     0
176
     1
290
     0
176
     1
290
     0
176
     1
290
     0
176
     1
290
     0
176
     1
 90
       50
176
     1
 40
0.0
176
     1
 40
1.0
176
     1
 90
        0
176
     1
 62
    18
176
     1
 90
       50
176
     1
 90
        3
176
     1
 62
     5
420
      255
176
     1
290
     0
176
     1
 90
       50
176
     1
 90
       50
176
     1
 90
       50
176
     1
290
     0
176
     1
 90
       50
176
     1
 62
   256
176
     0
 40
1.0
176
     0
 90
        2
176
     1
  1
strokes_ogs.tif
176
     1
290
     0
176
     1
 40
1.0
176
     1
 40
1.0
176
     1
1001
ACAD
1000
AcDbSavedByObjectVersion
1070
     0
  0
VISUALSTYLE
  5
1B3A1
102
{ACAD_REACTORS
330
1B395
102
}
330
1B395
100
AcDbVisualStyle
  2
Brighten
 70
    12
177
     3
291
     1
 70
    58
 90
        2
176
     1
 90
        2
176
     1
 90
        0
176
     1
 90
        0
176
     1
 40
0.6
176
     1
 40
30.0
176
     1
 62
     7
420
 16777215
176
     1
 90
        1
176
     1
 90
        4
176
     1
 62
     7
176
     1
 62
   257
176
     1
 90
        1
176
     1
 90
        1
176
     1
 40
1.0
176
     1
 90
        8
176
     1
 62
     7
176
     1
 40
1.0
176
     1
 90
        1
176
     1
 90
        6
176
     1
 90
        2
176
     1
 62
     7
176
     1
 90
        5
176
     1
 90
        0
176
     1
 90
        0
176
     1
290
     0
176
     1
 90
        1
176
     1
 40
50.0
176
     1
 90
        0
176
     1
290
     0
176
     1
290
     1
176
     1
290
     1
176
     1
290
     0
176
     1
290
     0
176
     1
290
     0
176
     1
290
     0
176
     1
290
     0
176
     1
290
     0
176
     1
 90
       50
176
     1
 40
0.0
176
     1
 40
1.0
176
     1
 90
        0
176
     1
 62
    18
176
     1
 90
       50
176
     1
 90
        3
176
     1
 62
     5
420
      255
176
     1
290
     0
176
     1
 90
       50
176
     1
 90
       50
176
     1
 90
       50
176
     1
290
     0
176
     1
 90
       50
176
     1
 62
   256
176
     0
 40
1.0
176
     0
 90
        2
176
     1
  1
strokes_ogs.tif
176
     1
290
     0
176
     1
 40
1.0
176
     1
 40
1.0
176
     1
1001
ACAD
1000
AcDbSavedByObjectVersion
1070
     0
  0
VISUALSTYLE
  5
1B3A5
102
{ACAD_REACTORS
330
1B395
102
}
330
1B395
100
AcDbVisualStyle
  2
ColorChange
 70
    16
177
     3
291
     1
 70
    58
 90
        2
176
     1
 90
        2
176
     1
 90
        3
176
     1
 90
        0
176
     1
 40
0.6
176
     1
 40
30.0
176
     1
 62
     8
420
  8421504
176
     1
 90
        1
176
     1
 90
        4
176
     1
 62
     7
176
     1
 62
   257
176
     1
 90
        1
176
     1
 90
        1
176
     1
 40
1.0
176
     1
 90
        8
176
     1
 62
     8
420
  8421504
176
     1
 40
1.0
176
     1
 90
        1
176
     1
 90
        6
176
     1
 90
        2
176
     1
 62
     7
176
     1
 90
        5
176
     1
 90
        0
176
     1
 90
        0
176
     1
290
     0
176
     1
 90
        1
176
     1
 40
0.0
176
     1
 90
        0
176
     1
290
     0
176
     1
290
     1
176
     1
290
     1
176
     1
290
     0
176
     1
290
     0
176
     1
290
     0
176
     1
290
     0
176
     1
290
     0
176
     1
290
     0
176
     1
 90
       50
176
     1
 40
0.0
176
     1
 40
1.0
176
     1
 90
        0
176
     1
 62
    18
176
     1
 90
       50
176
     1
 90
        3
176
     1
 62
     5
420
      255
176
     1
290
     0
176
     1
 90
       50
176
     1
 90
       50
176
     1
 90
       50
176
     1
290
     0
176
     1
 90
       50
176
     1
 62
   256
176
     0
 40
1.0
176
     0
 90
        2
176
     1
  1
strokes_ogs.tif
176
     1
290
     0
176
     1
 40
1.0
176
     1
 40
1.0
176
     1
1001
ACAD
1000
AcDbSavedByObjectVersion
1070
     0
  0
VISUALSTYLE
  5
1B39E
102
{ACAD_REACTORS
330
1B395
102
}
330
1B395
100
AcDbVisualStyle
  2
Conceptual
 70
     9
177
     3
291
     0
 70
    58
 90
        3
176
     1
 90
        2
176
     1
 90
        0
176
     1
 90
        0
176
     1
 40
0.6
176
     1
 40
30.0
176
     1
 62
     7
420
 16777215
176
     1
 90
        2
176
     1
 90
        2
176
     1
 62
     7
176
     1
 62
   257
176
     1
 90
        1
176
     1
 90
        1
176
     1
 40
179.0
176
     1
 90
        8
176
     1
 62
     7
176
     1
 40
1.0
176
     1
 90
        1
176
     1
 90
        6
176
     1
 90
        2
176
     1
 62
     7
176
     1
 90
        3
176
     1
 90
        0
176
     1
 90
        0
176
     1
290
     0
176
     1
 90
        1
176
     1
 40
0.0
176
     1
 90
        0
176
     1
290
     0
176
     1
290
     1
176
     1
290
     1
176
     1
290
     0
176
     1
290
     0
176
     1
290
     0
176
     1
290
     0
176
     1
290
     0
176
     1
290
     0
176
     1
 90
       50
176
     1
 40
0.0
176
     1
 40
1.0
176
     1
 90
        0
176
     1
 62
    18
176
     1
 90
       50
176
     1
 90
        3
176
     1
 62
     5
420
      255
176
     1
290
     0
176
     1
 90
       50
176
     1
 90
       50
176
     1
 90
       50
176
     1
290
     0
176
     1
 90
       50
176
     1
 62
   256
176
     0
 40
1.0
176
     0
 90
        2
176
     1
  1
strokes_ogs.tif
176
     1
290
     0
176
     1
 40
1.0
176
     1
 40
1.0
176
     1
1001
ACAD
1000
AcDbSavedByObjectVersion
1070
     0
  0
VISUALSTYLE
  5
1B3A0
102
{ACAD_REACTORS
330
1B395
102
}
330
1B395
100
AcDbVisualStyle
  2
Dim
 70
    11
177
     3
291
     1
 70
    58
 90
        2
176
     1
 90
        2
176
     1
 90
        0
176
     1
 90
        0
176
     1
 40
0.6
176
     1
 40
30.0
176
     1
 62
     7
420
 16777215
176
     1
 90
        1
176
     1
 90
        4
176
     1
 62
     7
176
     1
 62
   257
176
     1
 90
        1
176
     1
 90
        1
176
     1
 40
1.0
176
     1
 90
        8
176
     1
 62
     7
176
     1
 40
1.0
176
     1
 90
        1
176
     1
 90
        6
176
     1
 90
        2
176
     1
 62
     7
176
     1
 90
        5
176
     1
 90
        0
176
     1
 90
        0
176
     1
290
     0
176
     1
 90
        1
176
     1
 40
-50.0
176
     1
 90
        0
176
     1
290
     0
176
     1
290
     1
176
     1
290
     1
176
     1
290
     0
176
     1
290
     0
176
     1
290
     0
176
     1
290
     0
176
     1
290
     0
176
     1
290
     0
176
     1
 90
       50
176
     1
 40
0.0
176
     1
 40
1.0
176
     1
 90
        0
176
     1
 62
    18
176
     1
 90
       50
176
     1
 90
        3
176
     1
 62
     5
420
      255
176
     1
290
     0
176
     1
 90
       50
176
     1
 90
       50
176
     1
 90
       50
176
     1
290
     0
176
     1
 90
       50
176
     1
 62
   256
176
     0
 40
1.0
176
     0
 90
        2
176
     1
  1
strokes_ogs.tif
176
     1
290
     0
176
     1
 40
1.0
176
     1
 40
1.0
176
     1
1001
ACAD
1000
AcDbSavedByObjectVersion
1070
     0
  0
VISUALSTYLE
  5
1B3AD
102
{ACAD_REACTORS
330
1B395
102
}
330
1B395
100
AcDbVisualStyle
  2
EdgeColorOff
 70
    22
177
     3
291
     1
 70
    58
 90
        2
176
     0
 90
        2
176
     0
 90
        0
176
     0
 90
        0
176
     0
 40
0.6
176
     0
 40
30.0
176
     0
 62
     7
420
 16777215
176
     0
 90
        1
176
     0
 90
        4
176
     0
 62
     7
176
     0
 62
   257
176
     0
 90
        1
176
     0
 90
        1
176
     0
 40
1.0
176
     0
 90
        8
176
     2
 62
     7
176
     0
 40
1.0
176
     0
 90
        1
176
     0
 90
        6
176
     0
 90
        2
176
     0
 62
     7
176
     0
 90
        5
176
     0
 90
        0
176
     0
 90
        0
176
     0
290
     0
176
     0
 90
        1
176
     0
 40
0.0
176
     0
 90
        0
176
     0
290
     0
176
     1
290
     1
176
     1
290
     1
176
     1
290
     0
176
     1
290
     0
176
     1
290
     0
176
     1
290
     0
176
     1
290
     0
176
     1
290
     0
176
     1
 90
       50
176
     0
 40
0.0
176
     0
 40
1.0
176
     0
 90
        0
176
     0
 62
    18
176
     0
 90
       50
176
     0
 90
        3
176
     0
 62
     5
420
      255
176
     0
290
     0
176
     1
 90
       50
176
     0
 90
       50
176
     0
 90
       50
176
     0
290
     0
176
     1
 90
       50
176
     0
 62
   256
176
     0
 40
1.0
176
     0
 90
        2
176
     0
  1
strokes_ogs.tif
176
     0
290
     0
176
     1
 40
1.0
176
     0
 40
1.0
176
     0
1001
ACAD
1000
AcDbSavedByObjectVersion
1070
     0
  0
VISUALSTYLE
  5
1B3A4
102
{ACAD_REACTORS
330
1B395
102
}
330
1B395
100
AcDbVisualStyle
  2
Facepattern
 70
    15
177
     3
291
     1
 70
    58
 90
        2
176
     1
 90
        2
176
     1
 90
        0
176
     1
 90
        0
176
     1
 40
0.6
176
     1
 40
30.0
176
     1
 62
     7
420
 16777215
176
     1
 90
        1
176
     1
 90
        4
176
     1
 62
     7
176
     1
 62
   257
176
     1
 90
        1
176
     1
 90
        1
176
     1
 40
1.0
176
     1
 90
        8
176
     1
 62
     7
176
     1
 40
1.0
176
     1
 90
        1
176
     1
 90
        6
176
     1
 90
        2
176
     1
 62
     7
176
     1
 90
        5
176
     1
 90
        0
176
     1
 90
        0
176
     1
290
     0
176
     1
 90
        1
176
     1
 40
0.0
176
     1
 90
        0
176
     1
290
     0
176
     1
290
     1
176
     1
290
     1
176
     1
290
     0
176
     1
290
     0
176
     1
290
     0
176
     1
290
     0
176
     1
290
     0
176
     1
290
     0
176
     1
 90
       50
176
     1
 40
0.0
176
     1
 40
1.0
176
     1
 90
        0
176
     1
 62
    18
176
     1
 90
       50
176
     1
 90
        3
176
     1
 62
     5
420
      255
176
     1
290
     0
176
     1
 90
       50
176
     1
 90
       50
176
     1
 90
       50
176
     1
290
     0
176
     1
 90
       50
176
     1
 62
   256
176
     0
 40
1.0
176
     0
 90
        2
176
     1
  1
strokes_ogs.tif
176
     1
290
     0
176
     1
 40
1.0
176
     1
 40
1.0
176
     1
1001
ACAD
1000
AcDbSavedByObjectVersion
1070
     0
  0
VISUALSTYLE
  5
1B396
102
{ACAD_REACTORS
330
1B395
102
}
330
1B395
100
AcDbVisualStyle
  2
Flat
 70
     0
177
     3
291
     1
 70
    58
 90
        2
176
     1
 90
        1
176
     1
 90
        1
176
     1
 90
        2
176
     1
 40
0.6
176
     1
 40
30.0
176
     1
 62
     7
420
 16777215
176
     1
 90
        0
176
     1
 90
        0
176
     1
 62
     7
176
     1
 62
   257
176
     1
 90
        1
176
     1
 90
        1
176
     1
 40
1.0
176
     1
 90
        8
176
     1
 62
     7
176
     1
 40
1.0
176
     1
 90
        1
176
     1
 90
        6
176
     1
 90
        2
176
     1
 62
     7
176
     1
 90
        5
176
     1
 90
        0
176
     1
 90
        0
176
     1
290
     0
176
     1
 90
       13
176
     1
 40
0.0
176
     1
 90
        0
176
     1
290
     0
176
     1
290
     1
176
     1
290
     1
176
     1
290
     0
176
     1
290
     0
176
     1
290
     0
176
     1
290
     0
176
     1
290
     0
176
     1
290
     0
176
     1
 90
       50
176
     1
 40
0.0
176
     1
 40
1.0
176
     1
 90
        0
176
     1
 62
    18
176
     1
 90
       50
176
     1
 90
        3
176
     1
 62
     5
420
      255
176
     1
290
     0
176
     1
 90
       50
176
     1
 90
       50
176
     1
 90
       50
176
     1
290
     0
176
     1
 90
       50
176
     1
 62
   256
176
     0
 40
1.0
176
     0
 90
        2
176
     1
  1
strokes_ogs.tif
176
     1
290
     0
176
     1
 40
1.0
176
     1
 40
1.0
176
     1
1001
ACAD
1000
AcDbSavedByObjectVersion
1070
     0
  0
VISUALSTYLE
  5
1B397
102
{ACAD_REACTORS
330
1B395
102
}
330
1B395
100
AcDbVisualStyle
  2
FlatWithEdges
 70
     1
177
     3
291
     1
 70
    58
 90
        2
176
     1
 90
        1
176
     1
 90
        1
176
     1
 90
        2
176
     1
 40
0.6
176
     1
 40
30.0
176
     1
 62
     7
420
 16777215
176
     1
 90
        1
176
     1
 90
        0
176
     1
 62
     7
176
     1
 62
   257
176
     1
 90
        1
176
     1
 90
        1
176
     1
 40
1.0
176
     1
 90
        0
176
     1
 62
   257
176
     1
 40
1.0
176
     1
 90
        1
176
     1
 90
        6
176
     1
 90
        2
176
     1
 62
     7
176
     1
 90
        5
176
     1
 90
        0
176
     1
 90
        0
176
     1
290
     0
176
     1
 90
       13
176
     1
 40
0.0
176
     1
 90
        0
176
     1
290
     0
176
     1
290
     1
176
     1
290
     1
176
     1
290
     0
176
     1
290
     0
176
     1
290
     0
176
     1
290
     0
176
     1
290
     0
176
     1
290
     0
176
     1
 90
       50
176
     1
 40
0.0
176
     1
 40
1.0
176
     1
 90
        0
176
     1
 62
    18
176
     1
 90
       50
176
     1
 90
        3
176
     1
 62
     5
420
      255
176
     1
290
     0
176
     1
 90
       50
176
     1
 90
       50
176
     1
 90
       50
176
     1
290
     0
176
     1
 90
       50
176
     1
 62
   256
176
     0
 40
1.0
176
     0
 90
        2
176
     1
  1
strokes_ogs.tif
176
     1
290
     0
176
     1
 40
1.0
176
     1
 40
1.0
176
     1
1001
ACAD
1000
AcDbSavedByObjectVersion
1070
     0
  0
VISUALSTYLE
  5
1B398
102
{ACAD_REACTORS
330
1B395
102
}
330
1B395
100
AcDbVisualStyle
  2
Gouraud
 70
     2
177
     3
291
     1
 70
    58
 90
        2
176
     1
 90
        2
176
     1
 90
        1
176
     1
 90
        2
176
     1
 40
0.6
176
     1
 40
30.0
176
     1
 62
     7
420
 16777215
176
     1
 90
        0
176
     1
 90
        0
176
     1
 62
     7
176
     1
 62
   257
176
     1
 90
        1
176
     1
 90
        1
176
     1
 40
1.0
176
     1
 90
        0
176
     1
 62
     7
176
     1
 40
1.0
176
     1
 90
        1
176
     1
 90
        6
176
     1
 90
        2
176
     1
 62
     7
176
     1
 90
        5
176
     1
 90
        0
176
     1
 90
        0
176
     1
290
     0
176
     1
 90
       13
176
     1
 40
0.0
176
     1
 90
        0
176
     1
290
     0
176
     1
290
     1
176
     1
290
     1
176
     1
290
     0
176
     1
290
     0
176
     1
290
     0
176
     1
290
     0
176
     1
290
     0
176
     1
290
     0
176
     1
 90
       50
176
     1
 40
0.0
176
     1
 40
1.0
176
     1
 90
        0
176
     1
 62
    18
176
     1
 90
       50
176
     1
 90
        3
176
     1
 62
     5
420
      255
176
     1
290
     0
176
     1
 90
       50
176
     1
 90
       50
176
     1
 90
       50
176
     1
290
     0
176
     1
 90
       50
176
     1
 62
   256
176
     0
 40
1.0
176
     0
 90
        2
176
     1
  1
strokes_ogs.tif
176
     1
290
     0
176
     1
 40
1.0
176
     1
 40
1.0
176
     1
1001
ACAD
1000
AcDbSavedByObjectVersion
1070
     0
  0
VISUALSTYLE
  5
1B399
102
{ACAD_REACTORS
330
1B395
102
}
330
1B395
100
AcDbVisualStyle
  2
GouraudWithEdges
 70
     3
177
     3
291
     1
 70
    58
 90
        2
176
     1
 90
        2
176
     1
 90
        1
176
     1
 90
        2
176
     1
 40
0.6
176
     1
 40
30.0
176
     1
 62
     7
420
 16777215
176
     1
 90
        1
176
     1
 90
        0
176
     1
 62
     7
176
     1
 62
   257
176
     1
 90
        1
176
     1
 90
        1
176
     1
 40
1.0
176
     1
 90
        0
176
     1
 62
   257
176
     1
 40
1.0
176
     1
 90
        1
176
     1
 90
        6
176
     1
 90
        2
176
     1
 62
     7
176
     1
 90
        5
176
     1
 90
        0
176
     1
 90
        0
176
     1
290
     0
176
     1
 90
       13
176
     1
 40
0.0
176
     1
 90
        0
176
     1
290
     0
176
     1
290
     1
176
     1
290
     1
176
     1
290
     0
176
     1
290
     0
176
     1
290
     0
176
     1
290
     0
176
     1
290
     0
176
     1
290
     0
176
     1
 90
       50
176
     1
 40
0.0
176
     1
 40
1.0
176
     1
 90
        0
176
     1
 62
    18
176
     1
 90
       50
176
     1
 90
        3
176
     1
 62
     5
420
      255
176
     1
290
     0
176
     1
 90
       50
176
     1
 90
       50
176
     1
 90
       50
176
     1
290
     0
176
     1
 90
       50
176
     1
 62
   256
176
     0
 40
1.0
176
     0
 90
        2
176
     1
  1
strokes_ogs.tif
176
     1
290
     0
176
     1
 40
1.0
176
     1
 40
1.0
176
     1
1001
ACAD
1000
AcDbSavedByObjectVersion
1070
     0
  0
VISUALSTYLE
  5
1B39D
102
{ACAD_REACTORS
330
1B395
102
}
330
1B395
100
AcDbVisualStyle
  2
Hidden
 70
     6
177
     3
291
     0
 70
    58
 90
        1
176
     1
 90
        2
176
     1
 90
        2
176
     1
 90
        0
176
     1
 40
0.6
176
     1
 40
30.0
176
     1
 62
     7
420
 16777215
176
     1
 90
        2
176
     1
 90
        2
176
     1
 62
     7
176
     1
 62
   257
176
     1
 90
        2
176
     1
 90
        1
176
     1
 40
40.0
176
     1
 90
        0
176
     1
 62
   257
176
     1
 40
1.0
176
     1
 90
        1
176
     1
 90
        6
176
     1
 90
        2
176
     1
 62
     7
176
     1
 90
        3
176
     1
 90
        0
176
     1
 90
        0
176
     1
290
     0
176
     1
 90
        1
176
     1
 40
0.0
176
     1
 90
        0
176
     1
290
     0
176
     1
290
     1
176
     1
290
     1
176
     1
290
     0
176
     1
290
     0
176
     1
290
     0
176
     1
290
     0
176
     1
290
     0
176
     1
290
     0
176
     1
 90
       50
176
     1
 40
0.0
176
     1
 40
1.0
176
     1
 90
        0
176
     1
 62
    18
176
     1
 90
       50
176
     1
 90
        3
176
     1
 62
     5
420
      255
176
     1
290
     0
176
     1
 90
       50
176
     1
 90
       50
176
     1
 90
       50
176
     1
290
     0
176
     1
 90
       50
176
     1
 62
   256
176
     0
 40
1.0
176
     0
 90
        2
176
     1
  1
strokes_ogs.tif
176
     1
290
     0
176
     1
 40
1.0
176
     1
 40
1.0
176
     1
1001
ACAD
1000
AcDbSavedByObjectVersion
1070
     0
  0
VISUALSTYLE
  5
1B3AB
102
{ACAD_REACTORS
330
1B395
102
}
330
1B395
100
AcDbVisualStyle
  2
JitterOff
 70
    20
177
     3
291
     1
 70
    58
 90
        2
176
     0
 90
        2
176
     0
 90
        0
176
     0
 90
        0
176
     0
 40
0.6
176
     0
 40
30.0
176
     0
 62
     7
420
 16777215
176
     0
 90
        1
176
     0
 90
        4
176
     0
 62
     7
176
     0
 62
   257
176
     0
 90
        1
176
     0
 90
        1
176
     0
 40
1.0
176
     0
 90
       10
176
     2
 62
     7
176
     0
 40
1.0
176
     0
 90
        1
176
     0
 90
        6
176
     0
 90
        2
176
     0
 62
     7
176
     0
 90
        5
176
     0
 90
        0
176
     0
 90
        0
176
     0
290
     0
176
     0
 90
        1
176
     0
 40
0.0
176
     0
 90
        0
176
     0
290
     0
176
     1
290
     1
176
     1
290
     1
176
     1
290
     0
176
     1
290
     0
176
     1
290
     0
176
     1
290
     0
176
     1
290
     0
176
     1
290
     0
176
     1
 90
       50
176
     0
 40
0.0
176
     0
 40
1.0
176
     0
 90
        0
176
     0
 62
    18
176
     0
 90
       50
176
     0
 90
        3
176
     0
 62
     5
420
      255
176
     0
290
     0
176
     1
 90
       50
176
     0
 90
       50
176
     0
 90
       50
176
     0
290
     0
176
     1
 90
       50
176
     0
 62
   256
176
     0
 40
1.0
176
     0
 90
        2
176
     0
  1
strokes_ogs.tif
176
     0
290
     0
176
     1
 40
1.0
176
     0
 40
1.0
176
     0
1001
ACAD
1000
AcDbSavedByObjectVersion
1070
     0
  0
VISUALSTYLE
  5
1B3A3
102
{ACAD_REACTORS
330
1B395
102
}
330
1B395
100
AcDbVisualStyle
  2
Linepattern
 70
    14
177
     3
291
     1
 70
    58
 90
        2
176
     1
 90
        2
176
     1
 90
        0
176
     1
 90
        0
176
     1
 40
0.6
176
     1
 40
30.0
176
     1
 62
     7
420
 16777215
176
     1
 90
        1
176
     1
 90
        4
176
     1
 62
     7
176
     1
 62
   257
176
     1
 90
        7
176
     1
 90
        7
176
     1
 40
1.0
176
     1
 90
        8
176
     1
 62
     7
176
     1
 40
1.0
176
     1
 90
        1
176
     1
 90
        6
176
     1
 90
        2
176
     1
 62
     7
176
     1
 90
        5
176
     1
 90
        0
176
     1
 90
        0
176
     1
290
     0
176
     1
 90
        1
176
     1
 40
0.0
176
     1
 90
        0
176
     1
290
     0
176
     1
290
     1
176
     1
290
     1
176
     1
290
     0
176
     1
290
     0
176
     1
290
     0
176
     1
290
     0
176
     1
290
     0
176
     1
290
     0
176
     1
 90
       50
176
     1
 40
0.0
176
     1
 40
1.0
176
     1
 90
        0
176
     1
 62
    18
176
     1
 90
       50
176
     1
 90
        3
176
     1
 62
     5
420
      255
176
     1
290
     0
176
     1
 90
       50
176
     1
 90
       50
176
     1
 90
       50
176
     1
290
     0
176
     1
 90
       50
176
     1
 62
   256
176
     0
 40
1.0
176
     0
 90
        2
176
     1
  1
strokes_ogs.tif
176
     1
290
     0
176
     1
 40
1.0
176
     1
 40
1.0
176
     1
1001
ACAD
1000
AcDbSavedByObjectVersion
1070
     0
  0
VISUALSTYLE
  5
1B3AC
102
{ACAD_REACTORS
330
1B395
102
}
330
1B395
100
AcDbVisualStyle
  2
OverhangOff
 70
    21
177
     3
291
     1
 70
    58
 90
        2
176
     0
 90
        2
176
     0
 90
        0
176
     0
 90
        0
176
     0
 40
0.6
176
     0
 40
30.0
176
     0
 62
     7
420
 16777215
176
     0
 90
        1
176
     0
 90
        4
176
     0
 62
     7
176
     0
 62
   257
176
     0
 90
        1
176
     0
 90
        1
176
     0
 40
1.0
176
     0
 90
        9
176
     2
 62
     7
176
     0
 40
1.0
176
     0
 90
        1
176
     0
 90
        6
176
     0
 90
        2
176
     0
 62
     7
176
     0
 90
        5
176
     0
 90
        0
176
     0
 90
        0
176
     0
290
     0
176
     0
 90
        1
176
     0
 40
0.0
176
     0
 90
        0
176
     0
290
     0
176
     1
290
     1
176
     1
290
     1
176
     1
290
     0
176
     1
290
     0
176
     1
290
     0
176
     1
290
     0
176
     1
290
     0
176
     1
290
     0
176
     1
 90
       50
176
     0
 40
0.0
176
     0
 40
1.0
176
     0
 90
        0
176
     0
 62
    18
176
     0
 90
       50
176
     0
 90
        3
176
     0
 62
     5
420
      255
176
     0
290
     0
176
     1
 90
       50
176
     0
 90
       50
176
     0
 90
       50
176
     0
290
     0
176
     1
 90
       50
176
     0
 62
   256
176
     0
 40
1.0
176
     0
 90
        2
176
     0
  1
strokes_ogs.tif
176
     0
290
     0
176
     1
 40
1.0
176
     0
 40
1.0
176
     0
1001
ACAD
1000
AcDbSavedByObjectVersion
1070
     0
  0
VISUALSTYLE
  5
1B39F
102
{ACAD_REACTORS
330
1B395
102
}
330
1B395
100
AcDbVisualStyle
  2
Realistic
 70
     8
177
     3
291
     0
 70
    58
 90
        2
176
     1
 90
        3
176
     1
 90
        0
176
     1
 90
        2
176
     1
 40
0.6
176
     1
 40
30.0
176
     1
 62
     7
420
 16777215
176
     1
 90
        0
176
     1
 90
        0
176
     1
 62
     7
176
     1
 62
   257
176
     1
 90
        1
176
     1
 90
        1
176
     1
 40
1.0
176
     1
 90
        8
176
     1
 62
   257
176
     1
 40
1.0
176
     1
 90
        1
176
     1
 90
        6
176
     1
 90
        2
176
     1
 62
     7
176
     1
 90
        3
176
     1
 90
        0
176
     1
 90
        0
176
     1
290
     0
176
     1
 90
       13
176
     1
 40
0.0
176
     1
 90
        0
176
     1
290
     0
176
     1
290
     1
176
     1
290
     1
176
     1
290
     0
176
     1
290
     0
176
     1
290
     0
176
     1
290
     0
176
     1
290
     0
176
     1
290
     0
176
     1
 90
       50
176
     1
 40
0.0
176
     1
 40
1.0
176
     1
 90
        0
176
     1
 62
    18
176
     1
 90
       50
176
     1
 90
        3
176
     1
 62
     5
420
      255
176
     1
290
     0
176
     1
 90
       50
176
     1
 90
       50
176
     1
 90
       50
176
     1
290
     0
176
     1
 90
       50
176
     1
 62
   256
176
     0
 40
1.0
176
     0
 90
        2
176
     1
  1
strokes_ogs.tif
176
     1
290
     0
176
     1
 40
1.0
176
     1
 40
1.0
176
     1
1001
ACAD
1000
AcDbSavedByObjectVersion
1070
     0
  0
VISUALSTYLE
  5
1B3AA
102
{ACAD_REACTORS
330
1B395
102
}
330
1B395
100
AcDbVisualStyle
  2
Shaded
 70
    27
177
     3
291
     0
 70
    58
 90
        2
176
     1
 90
        2
176
     1
 90
        1
176
     1
 90
        2
176
     1
 40
0.6
176
     1
 40
30.0
176
     1
 62
     7
420
 16777215
176
     1
 90
        0
176
     1
 90
        4
176
     1
 62
     7
176
     1
 62
   257
176
     1
 90
        1
176
     1
 90
        1
176
     1
 40
1.0
176
     1
 90
        8
176
     1
 62
   257
176
     1
 40
1.0
176
     1
 90
        1
176
     1
 90
        6
176
     1
 90
        2
176
     1
 62
     8
420
  7895160
176
     1
 90
        3
176
     1
 90
        0
176
     1
 90
        0
176
     1
290
     0
176
     1
 90
        5
176
     1
 40
0.0
176
     1
 90
        0
176
     1
290
     0
176
     1
290
     1
176
     1
290
     1
176
     1
290
     0
176
     1
290
     0
176
     1
290
     0
176
     1
290
     0
176
     1
290
     0
176
     1
290
     0
176
     1
 90
       50
176
     1
 40
0.0
176
     1
 40
1.0
176
     1
 90
        0
176
     1
 62
    18
176
     1
 90
       50
176
     1
 90
        3
176
     1
 62
     5
420
      255
176
     1
290
     0
176
     1
 90
       50
176
     1
 90
       50
176
     1
 90
       50
176
     1
290
     0
176
     1
 90
       50
176
     1
 62
   256
176
     0
 40
1.0
176
     0
 90
        2
176
     1
  1
strokes_ogs.tif
176
     1
290
     0
176
     1
 40
1.0
176
     1
 40
1.0
176
     1
1001
ACAD
1000
AcDbSavedByObjectVersion
1070
     0
  0
VISUALSTYLE
  5
1B3A9
102
{ACAD_REACTORS
330
1B395
102
}
330
1B395
100
AcDbVisualStyle
  2
Shaded with edges
 70
    26
177
     3
291
     0
 70
    58
 90
        2
176
     1
 90
        2
176
     1
 90
        1
176
     1
 90
        2
176
     1
 40
0.6
176
     1
 40
30.0
176
     1
 62
     7
420
 16777215
176
     1
 90
        1
176
     1
 90
        2
176
     1
 62
     7
176
     1
 62
   257
176
     1
 90
        2
176
     1
 90
        1
176
     1
 40
1.0
176
     1
 90
        8
176
     1
 62
   257
176
     1
 40
1.0
176
     1
 90
        1
176
     1
 90
        6
176
     1
 90
        2
176
     1
 62
     7
176
     1
 90
        3
176
     1
 90
        0
176
     1
 90
        0
176
     1
290
     0
176
     1
 90
        5
176
     1
 40
0.0
176
     1
 90
        0
176
     1
290
     0
176
     1
290
     1
176
     1
290
     1
176
     1
290
     0
176
     1
290
     0
176
     1
290
     0
176
     1
290
     0
176
     1
290
     0
176
     1
290
     0
176
     1
 90
       50
176
     1
 40
0.0
176
     1
 40
1.0
176
     1
 90
        0
176
     1
 62
    18
176
     1
 90
       50
176
     1
 90
        3
176
     1
 62
     5
420
      255
176
     1
290
     0
176
     1
 90
       50
176
     1
 90
       50
176
     1
 90
       50
176
     1
290
     0
176
     1
 90
       50
176
     1
 62
   256
176
     0
 40
1.0
176
     0
 90
        2
176
     1
  1
strokes_ogs.tif
176
     1
290
     0
176
     1
 40
1.0
176
     1
 40
1.0
176
     1
1001
ACAD
1000
AcDbSavedByObjectVersion
1070
     0
  0
VISUALSTYLE
  5
1B3A6
102
{ACAD_REACTORS
330
1B395
102
}
330
1B395
100
AcDbVisualStyle
  2
Shades of Gray
 70
    23
177
     3
291
     0
 70
    58
 90
        2
176
     1
 90
        2
176
     1
 90
        3
176
     1
 90
        0
176
     1
 40
0.6
176
     1
 40
30.0
176
     1
 62
     7
420
 16777215
176
     1
 90
        2
176
     1
 90
        2
176
     1
 62
     7
176
     1
 62
     7
176
     1
 90
        1
176
     1
 90
        1
176
     1
 40
40.0
176
     1
 90
        8
176
     1
 62
     7
176
     1
 40
1.0
176
     1
 90
        1
176
     1
 90
        6
176
     1
 90
        2
176
     1
 62
     7
176
     1
 90
        3
176
     1
 90
        0
176
     1
 90
        0
176
     1
290
     0
176
     1
 90
        1
176
     1
 40
0.0
176
     1
 90
        0
176
     1
290
     0
176
     1
290
     1
176
     1
290
     1
176
     1
290
     0
176
     1
290
     0
176
     1
290
     0
176
     1
290
     0
176
     1
290
     0
176
     1
290
     0
176
     1
 90
       50
176
     1
 40
0.0
176
     1
 40
1.0
176
     1
 90
        0
176
     1
 62
    18
176
     1
 90
       50
176
     1
 90
        3
176
     1
 62
     5
420
      255
176
     1
290
     0
176
     1
 90
       50
176
     1
 90
       50
176
     1
 90
       50
176
     1
290
     0
176
     1
 90
       50
176
     1
 62
   256
176
     0
 40
1.0
176
     0
 90
        2
176
     1
  1
strokes_ogs.tif
176
     1
290
     0
176
     1
 40
1.0
176
     1
 40
1.0
176
     1
1001
ACAD
1000
AcDbSavedByObjectVersion
1070
     0
  0
VISUALSTYLE
  5
1B3A7
102
{ACAD_REACTORS
330
1B395
102
}
330
1B395
100
AcDbVisualStyle
  2
Sketchy
 70
    24
177
     3
291
     0
 70
    58
 90
        1
176
     1
 90
        2
176
     1
 90
        2
176
     1
 90
        0
176
     1
 40
0.6
176
     1
 40
30.0
176
     1
 62
     7
420
 16777215
176
     1
 90
        2
176
     1
 90
        2
176
     1
 62
     7
176
     1
 62
     7
176
     1
 90
        1
176
     1
 90
        1
176
     1
 40
40.0
176
     1
 90
       11
176
     1
 62
     7
176
     1
 40
1.0
176
     1
 90
        1
176
     1
 90
        6
176
     1
 90
        2
176
     1
 62
     7
176
     1
 90
        6
176
     1
 90
        0
176
     1
 90
        0
176
     1
290
     0
176
     1
 90
        1
176
     1
 40
0.0
176
     1
 90
        0
176
     1
290
     0
176
     1
290
     1
176
     1
290
     1
176
     1
290
     0
176
     1
290
     0
176
     1
290
     0
176
     1
290
     0
176
     1
290
     0
176
     1
290
     0
176
     1
 90
       50
176
     1
 40
0.0
176
     1
 40
1.0
176
     1
 90
        0
176
     1
 62
    18
176
     1
 90
       50
176
     1
 90
        3
176
     1
 62
     5
420
      255
176
     1
290
     0
176
     1
 90
       50
176
     1
 90
       50
176
     1
 90
       50
176
     1
290
     0
176
     1
 90
       50
176
     1
 62
   256
176
     0
 40
1.0
176
     0
 90
        2
176
     1
  1
strokes_ogs.tif
176
     1
290
     0
176
     1
 40
1.0
176
     1
 40
1.0
176
     1
1001
ACAD
1000
AcDbSavedByObjectVersion
1070
     0
  0
VISUALSTYLE
  5
1B3A2
102
{ACAD_REACTORS
330
1B395
102
}
330
1B395
100
AcDbVisualStyle
  2
Thicken
 70
    13
177
     3
291
     1
 70
    58
 90
        2
176
     1
 90
        2
176
     1
 90
        0
176
     1
 90
        0
176
     1
 40
0.6
176
     1
 40
30.0
176
     1
 62
     7
420
 16777215
176
     1
 90
        1
176
     1
 90
        4
176
     1
 62
     7
176
     1
 62
   257
176
     1
 90
        1
176
     1
 90
        1
176
     1
 40
1.0
176
     1
 90
       12
176
     1
 62
     7
176
     1
 40
1.0
176
     1
 90
        1
176
     1
 90
        6
176
     1
 90
        2
176
     1
 62
     7
176
     1
 90
        5
176
     1
 90
        0
176
     1
 90
        0
176
     1
290
     0
176
     1
 90
        1
176
     1
 40
0.0
176
     1
 90
        0
176
     1
290
     0
176
     1
290
     1
176
     1
290
     1
176
     1
290
     0
176
     1
290
     0
176
     1
290
     0
176
     1
290
     0
176
     1
290
     0
176
     1
290
     0
176
     1
 90
       50
176
     1
 40
0.0
176
     1
 40
1.0
176
     1
 90
        0
176
     1
 62
    18
176
     1
 90
       50
176
     1
 90
        3
176
     1
 62
     5
420
      255
176
     1
290
     0
176
     1
 90
       50
176
     1
 90
       50
176
     1
 90
       50
176
     1
290
     0
176
     1
 90
       50
176
     1
 62
   256
176
     0
 40
1.0
176
     0
 90
        2
176
     1
  1
strokes_ogs.tif
176
     1
290
     0
176
     1
 40
1.0
176
     1
 40
1.0
176
     1
1001
ACAD
1000
AcDbSavedByObjectVersion
1070
     0
  0
VISUALSTYLE
  5
1B39C
102
{ACAD_REACTORS
330
1B395
102
}
330
1B395
100
AcDbVisualStyle
  2
Wireframe
 70
     5
177
     3
291
     0
 70
    58
 90
        0
176
     1
 90
        2
176
     1
 90
        0
176
     1
 90
        0
176
     1
 40
0.6
176
     1
 40
30.0
176
     1
 62
     7
420
 16777215
176
     1
 90
        1
176
     1
 90
        4
176
     1
 62
     7
176
     1
 62
   257
176
     1
 90
        1
176
     1
 90
        1
176
     1
 40
1.0
176
     1
 90
        0
176
     1
 62
   257
176
     1
 40
1.0
176
     1
 90
        1
176
     1
 90
        6
176
     1
 90
        2
176
     1
 62
     7
176
     1
 90
        3
176
     1
 90
        0
176
     1
 90
        0
176
     1
290
     0
176
     1
 90
        1
176
     1
 40
0.0
176
     1
 90
        0
176
     1
290
     0
176
     1
290
     1
176
     1
290
     1
176
     1
290
     0
176
     1
290
     0
176
     1
290
     0
176
     1
290
     0
176
     1
290
     0
176
     1
290
     0
176
     1
 90
       50
176
     1
 40
0.0
176
     1
 40
1.0
176
     1
 90
        0
176
     1
 62
    18
176
     1
 90
       50
176
     1
 90
        3
176
     1
 62
     5
420
      255
176
     1
290
     0
176
     1
 90
       50
176
     1
 90
       50
176
     1
 90
       50
176
     1
290
     0
176
     1
 90
       50
176
     1
 62
   256
176
     0
 40
1.0
176
     0
 90
        2
176
     1
  1
strokes_ogs.tif
176
     1
290
     0
176
     1
 40
1.0
176
     1
 40
1.0
176
     1
1001
ACAD
1000
AcDbSavedByObjectVersion
1070
     0
  0
VISUALSTYLE
  5
1B3A8
102
{ACAD_REACTORS
330
1B395
102
}
330
1B395
100
AcDbVisualStyle
  2
X-Ray
 70
    25
177
     3
291
     0
 70
    58
 90
        2
176
     1
 90
        2
176
     1
 90
        1
176
     1
 90
        1
176
     1
 40
0.5
176
     1
 40
30.0
176
     1
 62
     7
420
 16777215
176
     1
 90
        1
176
     1
 90
        0
176
     1
 62
     7
176
     1
 62
   257
176
     1
 90
        1
176
     1
 90
        1
176
     1
 40
1.0
176
     1
 90
        8
176
     1
 62
     7
176
     1
 40
1.0
176
     1
 90
        1
176
     1
 90
        6
176
     1
 90
        2
176
     1
 62
     7
176
     1
 90
        3
176
     1
 90
        0
176
     1
 90
        0
176
     1
290
     0
176
     1
 90
       13
176
     1
 40
0.0
176
     1
 90
        0
176
     1
290
     0
176
     1
290
     1
176
     1
290
     1
176
     1
290
     0
176
     1
290
     0
176
     1
290
     0
176
     1
290
     0
176
     1
290
     0
176
     1
290
     0
176
     1
 90
       50
176
     1
 40
0.0
176
     1
 40
1.0
176
     1
 90
        0
176
     1
 62
    18
176
     1
 90
       50
176
     1
 90
        3
176
     1
 62
     5
420
      255
176
     1
290
     0
176
     1
 90
       50
176
     1
 90
       50
176
     1
 90
       50
176
     1
290
     0
176
     1
 90
       50
176
     1
 62
   256
176
     0
 40
1.0
176
     0
 90
        2
176
     1
  1
strokes_ogs.tif
176
     1
290
     0
176
     1
 40
1.0
176
     1
 40
1.0
176
     1
1001
ACAD
1000
AcDbSavedByObjectVersion
1070
     0
  0
DICTIONARYVAR
  5
1B3E6
102
{ACAD_REACTORS
330
1B3E0
102
}
330
1B3E0
100
DictionaryVariables
280
     0
  1
1:1
  0
DICTIONARYVAR
  5
1B3E2
102
{ACAD_REACTORS
330
1B3E0
102
}
330
1B3E0
100
DictionaryVariables
280
     0
  1
STANDARD
  0
DICTIONARYVAR
  5
1B3E1
102
{ACAD_REACTORS
330
1B3E0
102
}
330
1B3E0
100
DictionaryVariables
280
     0
  1
STANDARD
  0
DICTIONARYVAR
  5
1B3E3
102
{ACAD_REACTORS
330
1B3E0
102
}
330
1B3E0
100
DictionaryVariables
280
     0
  1
Imperial24
  0
DICTIONARYVAR
  5
1B3E4
102
{ACAD_REACTORS
330
1B3E0
102
}
330
1B3E0
100
DictionaryVariables
280
     0
  1
Imperial24
  0
DICTIONARYVAR
  5
1B3E8
102
{ACAD_REACTORS
330
1B3E0
102
}
330
1B3E0
100
DictionaryVariables
280
     0
  1
1
  0
DICTIONARYVAR
  5
1B3E9
102
{ACAD_REACTORS
330
1B3E0
102
}
330
1B3E0
100
DictionaryVariables
280
     0
  1
15
  0
DICTIONARYVAR
  5
1B3E7
102
{ACAD_REACTORS
330
1B3E0
102
}
330
1B3E0
100
DictionaryVariables
280
     0
  1
0
  0
DICTIONARYVAR
  5
1B3E5
102
{ACAD_REACTORS
330
1B3E0
102
}
330
1B3E0
100
DictionaryVariables
280
     0
  1
0
  0
DICTIONARY
  5
1C412
102
{ACAD_REACTORS
330
1C410
102
}
330
1C410
100
AcDbDictionary
281
     1
  0
DICTIONARY
  5
1C411
102
{ACAD_REACTORS
330
1C410
102
}
330
1C410
100
AcDbDictionary
281
     1
  3
2465177266224
350
1C40B
  3
2465177266240
350
1C40C
  3
2465177266256
350
1C40D
  3
2465177266272
350
1C40E
  3
2465177266288
350
1C40F
  0
DICTIONARY
  5
1C415
330
1B3C8
100
AcDbDictionary
280
     1
281
     1
  3
ACAD_XREC_ROUNDTRIP
360
1C416
  0
DICTIONARY
  5
1C419
330
1B569
100
AcDbDictionary
280
     1
281
     1
  3
ACAD_XREC_ROUNDTRIP
360
1C41A
  0
DICTIONARY
  5
1B386
330
1B385
100
AcDbDictionary
280
     1
281
     1
  3
BUMPTILE
360
1B388
  3
DIFFUSETILE
360
1B387
  3
OPACITYTILE
360
1B38B
  3
REFLECTIONTILE
360
1B38A
  3
REFRACTIONTILE
360
1B38C
  3
SPECULARTILE
360
1B389
  0
DICTIONARY
  5
1B37E
330
1B37D
100
AcDbDictionary
280
     1
281
     1
  3
BUMPTILE
360
1B380
  3
DIFFUSETILE
360
1B37F
  3
OPACITYTILE
360
1B383
  3
REFLECTIONTILE
360
1B382
  3
REFRACTIONTILE
360
1B384
  3
SPECULARTILE
360
1B381
  0
DICTIONARY
  5
1B38E
330
1B38D
100
AcDbDictionary
280
     1
281
     1
  3
BUMPTILE
360
1B390
  3
DIFFUSETILE
360
1B38F
  3
FBXASSET
360
1BC55
  3
OPACITYTILE
360
1B393
  3
REFLECTIONTILE
360
1B392
  3
REFRACTIONTILE
360
1B394
  3
SPECULARTILE
360
1B391
  0
DICTIONARY
  5
1C413
330
1B3C6
100
AcDbDictionary
280
     1
281
     1
  3
ACAD_XREC_ROUNDTRIP
360
1C414
  0
DICTIONARY
  5
1C417
330
1B568
100
AcDbDictionary
280
     1
281
     1
  3
ACAD_XREC_ROUNDTRIP
360
1C418
  0
DICTIONARY
  5
1B453
330
1B3B0
100
AcDbDictionary
280
     1
281
     1
  3
ACAD_ROUNDTRIP_2008_TABLESTYLE_CELLSTYLEMAP
360
1C409
  0
XRECORD
  5
1C40B
102
{ACAD_REACTORS
330
1C411
102
}
330
1C411
100
AcDbXrecord
280
     1
  1
AcDb_Thumbnail_Schema
102
{ATTRRECORD
341
1C40C
  2
AcDbDs::TreatedAsObjectData
280
     1
291
     1
102
ATTRRECORD}
102
{ATTRRECORD
341
1C40D
  2
AcDbDs::Legacy
280
     1
291
     1
102
ATTRRECORD}
  2
AcDbDs::ID
280
    10
 91
        8
102
{ATTRRECORD
341
1C40E
  2
AcDs:Indexable
280
     1
291
     1
102
ATTRRECORD}
102
{ATTRRECORD
341
1C40F
  2
AcDbDs::HandleAttribute
280
     7
282
     1
102
ATTRRECORD}
  2
Thumbnail_Data
280
    15
 91
        0
  0
XRECORD
  5
1C40C
102
{ACAD_REACTORS
330
1C411
102
}
330
1C411
100
AcDbXrecord
280
     1
  1
AcDbDs::TreatedAsObjectDataSchema
  2
AcDbDs::TreatedAsObjectData
280
     1
 91
        0
  0
XRECORD
  5
1C40D
102
{ACAD_REACTORS
330
1C411
102
}
330
1C411
100
AcDbXrecord
280
     1
  1
AcDbDs::LegacySchema
  2
AcDbDs::Legacy
280
     1
 91
        0
  0
XRECORD
  5
1C40E
102
{ACAD_REACTORS
330
1C411
102
}
330
1C411
100
AcDbXrecord
280
     1
  1
AcDbDs::IndexedPropertySchema
  2
AcDs:Indexable
280
     1
 91
        0
  0
XRECORD
  5
1C40F
102
{ACAD_REACTORS
330
1C411
102
}
330
1C411
100
AcDbXrecord
280
     1
  1
AcDbDs::HandleAttributeSchema
  2
AcDbDs::HandleAttribute
280
     7
 91
        1
284
     1
  0
XRECORD
  5
1C416
102
{ACAD_REACTORS
330
1C415
102
}
330
1C415
100
AcDbXrecord
280
     1
102
DISPLAYNAME
  1
Imperial24
102
FLAGS
 90
        0
  0
XRECORD
  5
1C41A
102
{ACAD_REACTORS
330
1C419
102
}
330
1C419
100
AcDbXrecord
280
     1
102
DISPLAYNAME
  1
Metric50
102
FLAGS
 90
        0
  0
XRECORD
  5
1B388
102
{ACAD_REACTORS
330
1B386
102
}
330
1B386
100
AcDbXrecord
280
     1
270
     1
271
     1
  0
XRECORD
  5
1B387
102
{ACAD_REACTORS
330
1B386
102
}
330
1B386
100
AcDbXrecord
280
     1
270
     1
271
     1
  0
XRECORD
  5
1B38B
102
{ACAD_REACTORS
330
1B386
102
}
330
1B386
100
AcDbXrecord
280
     1
270
     1
271
     1
  0
XRECORD
  5
1B38A
102
{ACAD_REACTORS
330
1B386
102
}
330
1B386
100
AcDbXrecord
280
     1
270
     1
271
     1
  0
XRECORD
  5
1B38C
102
{ACAD_REACTORS
330
1B386
102
}
330
1B386
100
AcDbXrecord
280
     1
270
     1
271
     1
  0
XRECORD
  5
1B389
102
{ACAD_REACTORS
330
1B386
102
}
330
1B386
100
AcDbXrecord
280
     1
270
     1
271
     1
  0
XRECORD
  5
1B380
102
{ACAD_REACTORS
330
1B37E
102
}
330
1B37E
100
AcDbXrecord
280
     1
270
     1
271
     1
  0
XRECORD
  5
1B37F
102
{ACAD_REACTORS
330
1B37E
102
}
330
1B37E
100
AcDbXrecord
280
     1
270
     1
271
     1
  0
XRECORD
  5
1B383
102
{ACAD_REACTORS
330
1B37E
102
}
330
1B37E
100
AcDbXrecord
280
     1
270
     1
271
     1
  0
XRECORD
  5
1B382
102
{ACAD_REACTORS
330
1B37E
102
}
330
1B37E
100
AcDbXrecord
280
     1
270
     1
271
     1
  0
XRECORD
  5
1B384
102
{ACAD_REACTORS
330
1B37E
102
}
330
1B37E
100
AcDbXrecord
280
     1
270
     1
271
     1
  0
XRECORD
  5
1B381
102
{ACAD_REACTORS
330
1B37E
102
}
330
1B37E
100
AcDbXrecord
280
     1
270
     1
271
     1
  0
XRECORD
  5
1B390
102
{ACAD_REACTORS
330
1B38E
102
}
330
1B38E
100
AcDbXrecord
280
     1
270
     1
271
     1
  0
XRECORD
  5
1B38F
102
{ACAD_REACTORS
330
1B38E
102
}
330
1B38E
100
AcDbXrecord
280
     1
270
     1
271
     1
  0
XRECORD
  5
1BC55
102
{ACAD_REACTORS
330
1B38E
102
}
330
1B38E
100
AcDbXrecord
280
     1
 70
     1
 90
652598616
 71
     1
  1
15894C27-0C97-4AA0-AE21-E4DDC2E17D5C
311
504B0304140006080800716F984F50F58DA540010000A80100004F00000032444638334236422D423832312D344543432D424334342D3336333434383142413532392F4173736574446174612F446566696E6974696F6E4974657261746F7250726F706572746965732E62696E3550B14EC33010B55309C4C08040D9901818
311
6B12A74E9A202194D8295316F800E406D35672D3AA4984D8BA546264E727F8807C055FC1077487BB526CBDBBF33DFBFCEEDE08213FFB0521A18035D863F077A632AB59F9504ECD5C9303CCD8C558DB4B888251249554214B78C4998812CE621FA26014073CC985522273E0DE21409967DDDA064B16B3BA34D6EACA2CDAFA04
311
12FB3F2EE6BA81BFB4BDC2474784A05B03C83F5163A5C99F2214F902D04FCBEB5B5DD7A6B9F102358A075994B10C0430914BC93229041B440321629EA5619078F7A65EB4ABD2D41E0FE344C860C87C990C9948539FA5393C44E532C8F95085D26BA62D8EE60C658C2B3DB39EEFED253C2EAB09DDD202B0A5DD0EEE2E76A90B
311
67977E39C8E0DEC046AEA31F4E077643DFE929E01C7ADC422B58A3EFBCF6F06E41BFC117F4B347481F67006C016CFF17504B0304140006080800716F984FD5D5A6FFEB000000300200004500000032444638334236422D423832312D344543432D424334342D3336333434383142413532392F4173736574446174612F496E
311
7374616E636550726F706572746965732E62696EEB606060F80F0540260323103700495E20ED9E9A975A94991C9C9C919A9BA802143034B5B034713632D73570B634D735717434D075743532D4753571717136723534773175664768046931363471713532B5D435353131D6353103AA76727372D13534373670367376B674
311
74B5042A03DBCBA019D37FE8ABC6157B20CD04146B0062181F4C03F940F0C11EA29A8141C08141002C0426541C106CAC2CA046088033B02A030AC2157C6006F21A8018AAF50194E6010A610250382264E08660284CD9E98021862280A91564B406929A0FF62C401E28B6F88038B83CB1243943D7A928312F25350524432B00
311
00504B0304140006080800716F984F88E57597CD3F0000904100006B00000032444638334236422D423832312D344543432D424334342D3336333434383142413532392F5265736F75726365732F31353839344332372D304339372D344141302D414532312D4534444443324531374435432F7468756D626E61696C2F302F
311
67656E657269635F706E67355B773CD4FF1FBF73E71C0E67EF7576C9DEF3EC995D46C6A1EC5046649CBDF79E192942562825CE965D8A868C2842C8DE9FDFD1F7E7F138F7078FCF6B3F5FCFD7EBFDFEC41B196891913091804020321D6D7513FC77D8C5070EC3FFEE51B21F068154CC75D455CC028A3EA68992803810109FDD
311
E5D5CEC5521B28A1B422BF80741695D5B529DA1C2D058AD2388BDA9F476F7C2CADC939304173DBF48A452BF8A700C0C70C3D121C1AA15A5270C22E2B9E28763651F7DA0D12CE11077B2ECD0D560B5E3DE2368B1E65C5E1C87384A4CC5F2D9FB8BE39E9B77C753783A37998F5CEF1B4FEE553463245C9712270880DF339E0B8
311
82A6BA713D865F6F384C842D440934EF264F4A304F8DE4EEFA1E2BF5E2D91F5ADD9613D6E31DDB33ED31DB1D7916CAF091286EA3D31B9CFECB78BB0060245B943C4C040119FF780A74DD308BA9D028678674EB5504ECF284EE814DAED07440BAF649BE4B55DA2890F4D73E2D489A59EE54FDB0A85B59F2F52C4858A02705C4
311
815A792B0C4A996A2023ECB195073E115E3E3647F64243A8338F2000BCB58DA5692C7E7C3D413F963FEDF3CF00FBB0F831A9D51360FECA43819F527B89FA260EB63C5DA676830AA3626A3693B23F1A17A0DFFCE3EE164E31B5365EDF0C89EF64D8E38AB0BA9A1117D7C3A0EC44F44F4023095E80BA610DE336D0F99593A88B
311
FC5306E72DF98F7FD132ED95878DF2964EA7E43071359FD83B2BDF9C6B5BDF768F0F3C0FC351199526F53D9460A34511F75D1B63E488178569472C91A94497807A3FD4A390C6558F26D416365C3656DE6E769DA9D8FC73774E1709812842DD8EF96AED1960F79D21B395CDDFE6F92CB4EB962A4668C76990E2EF29798C8941
311
D67DA50F4A5F947872460F1F6FDB794E8A29FD7AC0C0D6E0714339CE258FB17AE8535221E3464A10F29A0BE5EEECEFC5675926A89F49EB14E5711894F6586DB5754EB4D5DA9C6437EBA57DB97A24F8B8A8DB295FFD73266CF57E82694DF5166DDF93573AFE9C9C5EB05F8FEF8E89E0A8917B0B3724DB7BEBB53252581EFC3E
311
38166BA131A3A5B42FE2AD00A769BBFA4458D2DE7822F8C4F63D0B8E21B285AE13325F3410A435C648C9D91FDEB109E73CEDA7BC796961AF79175E1A3CE4C5E8B0D009B0C9E29EFD98BC8E97554E3D8D838424E270F7685226E5AC268E021EDE3522D583E8F20C0BDE2959EF5BBFEEDAB32FE9A3ED0E39F211A86AA9DEBFC6
311
8182EDED132AB8BB794442D2D7EA9F4D8BFF52BC4D55BB165124EE90A42D101E67BBBB292FFB4F66DE5BF2300E44546757DA7CEF8932BFC9F92A0707953491A55C5A5ACEDABD9FA1AEA01BAC3DC5A24E22E7C47213493996EFBC369D086ED9397C9BA6C7F9855C7BD5E15BFC8C53DB3D2A4C5901A57ACD2FBDF4D1676E9533
311
8B2C2BCE65FDA4C64F5FEFDC7D9CA5AA1FCF11E193F2FDABF0F4916BF13FB916A224380E6462A9815F2300DC49CC4DF8D055CEF76462F4B7A7ACA7365C2707891370BC1D0AA6203C44CCAB47084FEC057F27FFCD57F89B8B9852459798A675C66BD7CE572CAF71FF7E6D7ECF7BF62CAB7B3F1107DCD04DC55A3F9961700286
311
141C94A4F771FEB2BCDA2DDEE0CB0BAE402FF1DB0100F8E475DFFFC074DDB4498AB7D186A7654DDB1CB680D703D47CEB4E72F8CB13D86A4AA68116E26387B93FD6738779B34FEDB8E517EDF2BAF28D9BE93A1D3A164320E07D42E514725C29515FF361754213EDE06B079A2E99EB1CA82A02019EADEEB87B9AF005BD04BBCE
311
CB14AACD6B24EFBE482194A97DD32400685FF1FEF1544D1B14EFB1E7F08E6D2CD2AF52DE757F35F5E62332EE88EA26417AD5C3E0E319D68F25414E6D672BD4522B278C57D18F0113921C71D96527E091F00CEB15AE23D24667369BD3CEFA10C7549D930890BA4366F4EBC55F01F746109F98ABCDD5A3EE06619C6AD78AB33E
311
48E4C9BD21BF7478B385EC05C4F8987E2C1BFA0A60EBEDAA0AE0B015C2720ECE180FB6F2DEFBEB822D96338C9B63822183BBF52FB664A7AE57003AABCE512BF77E7E31BDA2E739AC4C131657DDFE5225E900FB56CC01CDE808FA4A9C9DA16AC679656BB64796283D89812B8F91136AE18EE5EBBAF47A73BE3C153EB5D4CD49
311
1B4BFB4FE690A4CF9ABA08C0D8AA64220C438C96EA6CA80B58FE5761E697B3A292EB9FBDA502FA863E49FE694ADDFFF9D62C520BDD1A22014147A0903A05B9B729F54272EF83931FEEC057BFF8C8055C279EAC5C0011804828734024F6CFA319C9CC6867C727184465CD9BB7ED386AFFD96B294A85E3802FAE47244602D827
311
3615952B98C4F23F7EAE4463D9D638EEE374A20959E0FE519C4CFB0FBFE5DD80C2AA3F9DB961D1BDE57E67C9BB47B77FDD74EE3094F5DBBE3EBC1FBDB7393F5116263009E2EFE1AF9A221B2AE234C902BF70E9F280ED23E73908361565964333A3F01D0B006AF32FB21AA1316744B489D5A198E85299241735BE5596751309
311
55C902A8ED761FC0DBE337A9F91919AF5CE32AF902ADF9AB2615E00E8A94586BA1A90839B61832FF1BFB76D2EFADE6DB1BA04CCAD3DA649E7E2A0219F592E22F2AD54847EEA8E42271011E9074F8F3DD9FBA6CDF88FFC9FC7E811AD1CA8F4557CE4AFC7BBEDCF0114A48689F20A584520C74DA8127124B767E2FB91A6B1862
311
46727BE63C9445BAE02088D58B8EFDC0F1072407CD9B89A13F6303B4A928F593AD489B58E6869325790ADC406036C591729FE14021F94B7796BB11848D463536A092A26F077F94639F7CEEE2A724C66EC885F4A24F8B8A0AC321F8FD149BA529460FAA34E4663C02D41FDF80BCA222D42F0ABFF8490F4FA74C673807C2051D
311
8E467B47B616072860069A9A303ABA9B319D58404461401B0A0F9BE5E1E151C14BC33B32ABE03DDE91708DFAEB15E7C0D593C86BB7D7EC17BE56E57975F077BFD5525F3A1A361D584A75E08CF29FC7B44B2B3085014F3A5A14517377C3F6B8F37E59514C3B12F8AACDEDDA4DFC49BE5710101534CD6FB6DE15B50F11A09472
311
AABA727F0C49D9CB906B158030065F48EB3625E010CEC1D511D0053474B11E6A4F01C0D6EF1BED3A944FDEC70E0DDCDC756C86545910E0DAE3BE3AA9A404574C2995CD5CAF9549226BC94B4F4F0F5F9086F418F6B32346464610D8BC7391D3C3A3CCF04CFC1FB2A3A3170E369511868F14EEA4E5E438CC73DB1F3248AA94B6
311
B2FF33B222FF3D1E7BF146CAD229770158063BCE4F5391964DF62F7E52A7BE0EEA829C9E13C4C147D6F93FE59E111DAB5E4594D6F3CD1AD375EE039930EFE5AF2BB2D41C83C7DABD8C659BAFBE8FAB392CA634F3D15C1D945DB4588D2B0824A4EC928AAC565557CA2F0DAA588CA5BE30B3A8004F7BF005E96CBF891D7F1811
311
2A3619FDF530DC8AA64954258E1811789B5189B49B4EB53F5F89F7D37523894F3EB57B373763C91E502F52CC99EB7BDDF933FC324C4FFC2561DFFA7339FAFDD0A4BFBE6D3A8FF9ED1FC49898139864602458968913181918F719CCF5A68B2EE9C1FF050E34E63107003B8120FA982C21B30A874E4F5E4B38D5A8290C4B8D9B
311
E48A0BE31EA995BDC37AC6DE90BA17D259DEF53605D55922FEB1855D915B659FBEB350EE0DFB2F9F766E1C84CC8964B75D08667445EAB966015F63A18A9E0A325C1B3DC628C0D3CB60F767FA93CC65F25458BD23C3B312716E5F40E5858AC06EBA9AB14F95DB99147B832069201541D09A0D856E12C629CF32683760EE8555
311
37D1901988D5EBC156676C7DD51D7207CF3267AF1D76C2AD867315E44618015313A98B19941C696FED3461CAA9B5415F918556D7802EDACEFD6B2E45853A9735DFC9DBF7E440F9319F8B6805A973BCCDC76C069A9144E51F187EDCC12FC31B5DEAAF0A76137199B106EC84ADA6B6EE697D4E6A96E007417F4E880E8B1E89B4
311
BCE9D81EF611E2ED8F0C1A6C25F620FAFAAB656A7C42D464880E8AFAB0E0FC8EA38CA9A8AEEAEE3E4648BA4680270A89743CDD3E6C6CBF34B7B640EFA285ABC7EA0A1E28F3CC963D114A80123EE66D0AF7D5380EB41909B605AB4765B709B808590458157E69BA1378FEC4B48CAF6A730E3BE3C5EF2DD1A5EAF94B1DDE50CE
311
B55DDFD7EE9A16747FA4B223359FB1FCC69E1194892BABB93A1D5C4E807AC0EA2E30180811E77A2291F6E7F7FAA5E0F60215BC6024E48DE436C511F0628B8CA189982D4D83CCA17D305A7E923C37941CFDFDCD93ACAF735EF5F0E61BBD3E6C41A59B242790D3A3BAC7064DCD89AA2E37214EC839820949D5CAA31E240D2948
311
E48F690298974A96BA9A8432BC90F5071D6537C9666EA4564796B7AFFFA548077BEEA75F63083435074BA182F3699557397F71548383FDA8CA34D99B981E72835ECDA5DDDC151315173D05A21F651AAF8524E88209E2E7A737ED1045800CE3390050BCFB8BE588DF111617874C62575039CA588EEFDEFEFE319B739DE2EDC1
311
47092A262611E159650E787917885EF08F1F51B8F2D8A71D60B58B190FEF9541A1BE94BC19FEA50784DA1419FE4B0FB51B8D36B5FF8E1286FD8AF42B91E59A5F1CC4D60174E764045FD8C57B18209B217F89A62252BD20BE0E63E12B8E8F029FE19E0E8D0870F58721A557082250D5424F7909369376E41666C0EE77CD87CB
311
283F661D5FB6D0DA023CB67320A20DC7BE661E9E1BFE5463085C557DA1FF9BE835733766C3D139F2CF9E2208873AD0EB4814DE9E6BF2CAF81614D4D43906ED1C05A3265CABBFE192770FC2F64F940CB6B17B5F166F133C9AEEAD2641807C3E69515171DD74C4A85311513D6EC9530B3B601B6BA3EBFF3B5C3D2F7D69765141
311
E345F75433953D013ADDF8F6AA7DC3F4A7563FE5C7D367937E2900D7EAD0F9FC9A4A1A9B5BDF1FEF08532660C01C5D6DE22199AA774383E306DAB87E301ABB7D213887F9869D4942D0D71E94B27EDF216A318BD488D45DF84529EF575AF3C3938C0AAA0215B01994153E2054A0B894DA5C784980633AAD48576957CF4AEAEA
311
FADC7C587368551C73DBE1E57C58AC713303A8BFC258BD04B51724459FF9E24C03A81E0E0679CEB9B348C0DC998FEB9C6D6EFA77D247CC8F92D3848599ED89A23218D0636465AD1CEEB7DC140D7426F83491C4E8E8281C2FB35240918FFECE880CA2A42D70E8B20B34DF5221C7DB0CF90ECCB9C745B37A47E9B716FF7A97B7
311
A252C1F3814DC7B1E1A7F72B8751D524EF7CAE45B0C73B3BE7D08ED39781B380DDFC9AA4A4749C9493DB5BAD07A6EA6C092FBD0E85DB004DF06B8C9D3089C5320187E4CE1846158C7EA7DDAE8AD9AFFF21AA3A1026BB06A259845E8232DEE62811A4DA9CEAB3A4887320B76E2AE5615EAB7BDF738CBDD01F1E64064BC13D9E
311
C53576751CA8CACD58B3CEB0E6CA585BD089B2A59B9FC101403387AADBDBE70586B93D64BF3AD4453EF9C3B6A93817E8346991798601344F79A83C51F3D50F7BF2683A3605F51A72449489E0EE6169C749C60B1035651103AEE24D24E51A759C840DD3FC6504DA6FE107510E447B43461C79D22970B75DE5E1BD3007D1AFC6
311
19A4A4A69B5626AF5E9B8374E20677F77E2F8E73DF868E8BEC7EBA7B6A75EEF7205E1AB9486CB642741D6E03FF13FCCEDB1C4AC129886268B01CDF4B124AF797CF784F3C6DEC97A17D4B558070A0F1C04DA4FF9BDBF34159AEFE958479824B3F58EBD1E19088A2AFDE501B6F2052368A3FD0E650A179EFAB1561E1D2752707
311
7136E652676C3670F42DCB3352F48F6BC86D2C3B0051727E41A0A4DC6CE2BE9D47F5CAA2935A3C0539AF080665997194ABECD723B08129CC5B6B21D2E7D54CD4D12610E7E9FB8306771A89576C7A982002775ED44F3F744CF21EEBB27A631671D921938AAEE3EB0D19CD1E083727F607823E817BF599DCED5394E37EEBC2E8
311
8782E638920CA641EF74D4CDFCDEF06F4278ECB18E31E7E9876F2D783C8BF429C75395F57E98C2B495A3DA077EB3AC3C158608B6B57FE3EA48484D9A480096FCEE0DE880950E7E5A5714131C5C41AAA29FD19AE81AC145FA1B9E85C7169A5AB837B213493DF7E9AA4B5FBF9CDEB36EBD21EF1181B7CF7366AB2A951D01E37A
311
F4EB835D1BE8C117CFBE7625D2EBCDB0B20C5A4B45CED0BCDE3EE8DA9DA78C2E21DEAAFFD1197E463C33CC6A80FB785669B856EFF7A8CCCA2841B5A5369173320B1170C368B2748D81062EA0296E5E2D95D7667A4A46D98A6FF475C76AAB0A8C8D45E226FAFC9FE0133EA9F60111F99CA81ACE03A1D14C89E8B0D69079C914
311
64FA1D99E651D0EAF606F345C42A8A1AA9BA391031582B96D5B4176A77AADB01F12FD298A75DEEBB2C82F0B8650E880722F8DDD90C56A7A058E5FDEF1AC93545BA27367C76F5D8F9690CB6F8DAE141EDD7971F0FB548A2AE435F224D6E5954CA155512F7332029D5A1230854B79F258EC5FFDB09F5F6343A8EB193229B7F7E
311
79B3E48F8E183860B38C8269D1B53738FF1E0BACF6AADA6D4869E9DE708E79B5DADCC09B1BC76F649731CFAF59A83FD8BAE4C749D66FA87A3810D4D62FFE826FA400C0F325D2BC0F3CA35F5847B82A2ACC7961745C823E4D863D54460AF792CE6F79B5C7A33B25C3AEA6CDE15A919B6367D781E9D44F61BF828672594A3E1D
311
9EDD6DF179A81F27EAC05B936575D73E05C209DDD2115CFB705DF9BBF3C911589B3640735E9E618FC9C36A7326C82B2205E244C55D56FDB9D5DC93CE958D4BF8174D2B3DA54CB3C09F2C2A6DFF73D23B2197355761AD421EC581284A7EF8DE2CE3497C0C804D49B41DFD6A7360844E5BEFFB495CFCDB97A4595911CDBA6232
311
74CE852B5E278AF0BEB1770E9D37CD977B2766A7DED0E94B840E1E95E8C77DE5CB6354AF7871427C28ADBEEF7BA0A28E19DE9ACD75F379FE373EAE6DDDAE3834692F9C2B03B4FCA8FCA9ABE8EEEBEBB725B88A7C90941E850682CA04061A7DF0CE82ED49BFAFFD42C309818FAE14755CAAE78B0F73243ECCCAD7DF58FCB9CD
311
FAE7A4D3E6671A613639130D056C8383C8F4FCF4808C331E544DD26E4755D09EA05253B3049A1E32587CC25D72E073E2CD96D04A71BBCB0038FEC3F53D254199C3CDC67CD66640269431860225392B2CB3ECD0B4498AAE78BA1994246AE1EE78F2EDFB79F6C6CB6B5E279C4D373FBC21CB2698C9ACBBEB6A4BB6B39E16AB0E
311
421CCBFC7654D81ED86022F9BB522146F9F4772E2D0E4FA70120C95A85A417BF5078B232F4754363EB1750B2AC2148EB46B1EA72AD9B4D23ADCBC589D70106C3EC2ABEEED84DFE28E718C6C83502C28E9FDD3B09DA0A6F6F7B72B706A31C9E2A331EE70DA56A083D2177BFD63C55B11D8D949FAFCF90B23A1E24B9B5018B9A
311
17E99F2890EC302F330FE7936E2C23F0D237EC8916F5166AB84B62A21BB0B950146962D754F92CC2C8877BED8FC7B7B25726DD19545392570B3A2C66B58F027BEF412E552D12A588C4A3CC5C3193FCB3485EFFF700D0B9EEC077754A33DC1FB9E25AF814628F91DDFECB667D3F7690803F38D13F8AE39353523BB08FC67601
311
44AFA2CE28236F65EDBB3D5F59A57D612B99E3D7E5F8A851666BF9B5A6658EFC96EEB37A378ABB0EB3FDDF1303AF32C41BD1C8560745D7BD81066B0D6313359CF488563D3BA3F8E2185D1FAA3EBA1397C9D0E3DD232180A4DCADB6AF25DB3AC3CC26589C8239E66E81547BC7E2F328F9884764CA37EB5DBE390DFC03A5246B
311
456A7C3684C4377D0EEF9A350680FA9A077E8B2957B489E09AB1AD41316944C2254B5984830F691C93CAA767EECF976FA5647538830B5E63236A6F0365C1E0F3E327F24FE35EDDBD7360B0F7374837409F7A6311BECC12B7026D4FA1AE204FA3F5FE904B1F420C7A9044AE58E403E7C4848E7DA25DC9EDAC79DD756FAA26B9
311
EA83ACE8A214A2612A22AFA19DAE7DBAC5F8CDE1292A485F98DAC731A29FE01A3966E96BCB9FB5A4C8830E1B9AF0C54B87FBE221A097036E5D28D1F869F810C06A9BB0AC0612F69AEBAF893C6E7AD59460208BAB3A6B09CA4F6BDDAB8CF0D1F84B72487498395A70DCD754796E271099A567A55CF242BBED64696378BB6CF2
311
5EF0FCDB589F3A82F1116D010A9AB9FA4358809EE0C973A2B4229BAA876A70B03AB49CBA7FBE71DB1832FFD32F9BF2C8E98075CACAFB36921235D0F552B6A67E94E094097A5D7DF681B40623DA535ADA7A9AD8E9A62407D7C9A5AE51D62A17A83A23728DE86BB56115804D3F2675F2C6B87541A0FC497BF0CA86420F558C98
311
59EBE9FAD62747E323E3AADC03FDCDDFE7407B09DA90B44E3185723C5381EAEF589765E2F7A099BA46695BAD60CEF3491B8A171F5F56444F7CE9455312C3498C74173AEA0214EC029833B34B650CBB5A5508D5091665309642791708ECF27CF11DB3D797D6CFE474453BD4BFADB768094B2147814D81C7CBAF8228DCAF5564
311
B5891F5EF6A860EB2E323CB82AB868D8EA048880D63B0DE5341F1B3D53297B928A11E15F25E5148990F710747C3509ED14909C552EBE3973246FCE55D00564D8310BC3EBC5085D08D806799B77D6C57FDF5E55837F9E934F09C03C729271B64F12D0A9F9E938107CAF7BF1EC8CF1BB9B42363D33070F4CACB425E605DDB0A3
311
4A12BB936DE286B9887A4E2E558F0886498BFF49C311D96C277CF6A9FC0D75AD0ECC5226D7E0E3572012E56D7FDE4410CEC7A6D0F997F225A2055B8B92E3956E875AE4993CB3D4C9063AF98FD45E1BAB165640A43439A2C9181A7C355B297C0A0CCFFAE19B6FA3C2BA238A885FBC98B8F6DAF4B94B97304878DF4D8BFF6A4A
311
EDF79E90ED4E68F00CD7299F4E0D83E35601AF0CBEF18C1E870E74758FA91F5131075004DB3CFCF09AE1DABC11957FD9808C92E8A678CE9DBE40DDA0E0D1D505AAFBCBA208232BFB6FB3704E8985E61ADE53DE74152F5C7DE74B1DEDCD37DC3E8FB30D7EBA8B9EFFC3606BF90B8D438279CB7709FC7C00D327F41817EEA71C
311
D9E49FE9C8C9A81C70915D9F0F15958EC5AA4C3BBFAF46986B90F188BDB24B89DE3C6F29EC3E6F66D84856EE96A35E657CA41B41EFD8DBFA16AD6E91439EA92B40B21C053249F51AE50EB0B24C770FFAF40DF12C8436366819C48E36547D4E7B72FE2BBF10828583057814A668BDF183F6B2E58DFB151103E56303E63D00F3
311
9C27C4661605DB644D19175D02E3F0241E8FC3458D17AAAADB117CE9EEA690D0DB01E634878C04C2C9310B69FCAB831151E3AD293BEF6E46B0ABCECB50F5939B39C613D41E81FAE8D34CAE3C4566B761D37185FE864AC32FCB71AEF39DAA5BAB88609BB980CD2F07A8F941653B529567726E2B2A58D079DD57E1E5E31426CF
311
184A04D7B03B985F276D47406AF276FE32E3328BA866EB1FD39BEF57863A317634AA5FE467409B3873F5069EF0D71AF00AD189D17BA1974ECDB2D623E9E14086386A6AAB5807825C37B015BFE892AFD154920EC437EB945D958E18622E1E0FE2FA06557CE4BB9BBD05A2D40E774DA2B65473791E314B7D6C886820B2FCFE4A
311
A272B3B8B15E7344A145E8AF919B5454D89D36D413E87211186BF6F645E5EC94DCCE8E1C799022E4EC9BC86D7A0F2AFB1FC4B2CE48F84B3F49ECE65BAD24CADCC07EFF39AB06BE9E6B27A059938EA7208838455383DDBCFCD967DDE4650EF92A14FF933C975DB20BD7FEEBC4487576485963D757D16340D9599FEB362F775F
311
38CA4185A86F74B629C81B133644A3B18FD056E997E0734F9BE26D11C0AAFC669E2AC9FC41D281F8B2E1C35AE27BCE05F3DA295488096688719D974DF1B5D182DB7792288697F8763CFB43562C1CDEE11C4AABD5C22B6E33F6F389CFC3477C5919DC0D533F8A7A1846B7ADB60ABDC26C43D0CFC8910B7C15EE22675BD02702
311
ED39DB77A87A192CA7A543E6205B979B9F5A6B512A3CA799E198B2D5797C0AF8D1D872CA455D4D431A7879D4DD76110B5FF7F4176B54477A9EB5E4A5D11214FDA585F0382751D8E2582BA5D2075053298FEB8F1537304E32CB22C2E2B693DC0A760B1DFCA751BDC445AFDCBB12820ED85F6D5298933C7EF1211E9E05768405
311
6CDA3FEF3BB6052355E162DF27C59E965A8DDB7F9437EB72CDDA3A090DE65A5B2F50326247B7EC67B73ACC7047FC9B353D6EE990F772207C6EC52B39DC2F3C0754821DAB559F7C1809C7D0DD5B0499D0442E0A6E391B3D5DB46D11E731E6794EC77523FBDAA242ED67F9FA1FB684255671F63C9BCFE6E7E896D51001A6113E
311
F2298BA494E0B0980D1FA5B9D60796554C02256B1E0345FB7C6186B6A19D2DCA270416262845FA4F42DB5D9B0A0B6F07FCA2E56C242522E001E0CEB734AF310FC8BFB57E38E03AACE93B3326A2197891E68452B26A6307FDABFEE0223D3C03C3C73D2D5BC054C8311F12004CAE488E5C29287F8156A2CAA4AD0D7BE6B97264
311
E4139F437CE73ADF52E5134C52B819777C18B323A5924E4F67AFD13B1CDC3A61793A79FAF5C0CEB718E441071E797C6DCCB9EFCF7E4A1E9F3DF3C2F9C9E8294E9586868788C972857FB0556D7A26941A7EEB9B580AD78EC40B85DC906B4120A563CA3B87797ED612D3B035962BB75F6515A393F4CB057F564CDF54F2E5A024
311
514E6A1F901DB80C7E70B1FC05E356A7E72FABF4775B3E3FB8F70A2A8E7B6A94542BB304157978CCC999E707A29CC795E67A59CC546A5D47B368954CA7B6E75EC9E1F6FC73CE3B4F71F8CB1A6B15923D61EAAEB14626AAA9D04A26EB9C66CD1BE86CA31A5D8703DE04CD1EBCE4F5CCB62F93909AD11E55799A781A956ED27D
311
3E738F4538CB04ADABC7DAEF20BC35BA6A90BCC1DC61BA05F20D8832FFB9BC9B15E2DB838A0AFBB7E0C82A562127E0446894F427794C3037186F622BF24DE1B00AA10A23BFA47B2A180D6DA5AD6F7326FEB8C100C2D7142EB2A0B2A9D1008A09BA343D70E054AB69E2A7EDB783CBD92537FAF4A44D1296AC2792729104B327
311
6C276C951D0CF3CF3F1E6B017720A7B8505A5FF9589365979678C36F1BAF759EAF57C60F1FF5FE9DCF5F8E764FF25A2D06CF25117A8FED51884C13B2B750DB0E4F5E3D64124FCF11F0AD8F1CC3B3DA4B38ED22BF1CB2585EE6BFEBBA63FBFD44F9537B9B37BDD6B358720F98A8125AED4349CCFEB0E135F19E208A04CA7E2B
311
10711185D72E381F448036EF57C9F874E54A971CA37A639E986AC0226DC5AA00D5B14FEA9192234B3DE617814FC221C92F33F1D392F297731B567FD98FD91D989379AF567A65B8ADF177591DB90FBEA99BF4ED11B16E50A0AB1DBF1156D034BBE04D69D08F939D8E92BF525A1DDAFF80ECBC95D8F45D3FDD289FD23F7D8B45
311
2F8EBB34EC082DEEE68E18EDDF072060FAD2AB1504DD4879BF67099FC58F6E9DEFBF645D16334A3E9A127C6F1AF6132CF287E433B43A0EE93812B4AA0B194E03EE3FF91EF9C6ED0074A2F6EB18A96A7C9890B1FCDA1F2095E944DB911ED54C60DF16FB74C8CE9BDC7C54C4F14078CF73C2FFF1F1BBCCD7CF64F71407EA1683
311
DBC410D226627F66E509060D5C0AFD611DE681D509DB8DD12FB1265B03C6F5C55FF4C30BD94187FF692B4F152982502F193098A789526A038AB529A52BC0DC4FB6285CBAC10A8B8DB75DCD9BDABBB221E27D1F8DA9F5EE5926A1C8AA9BA9BC09239C6A7F12914EA3B59EFF7AAEC3FFCCE56F1C5C2980AD072793527565E774
311
F4631DB178CEEC691B1F367BEA0CF2907E1D6B854D527065979DDEF002D8B2ACEA7CE21AE297737EDE1D45B31233B73FEA35BCFDD0B09721FDBAF6432681F2FD10C3E9EFB246FD6E854B344ACC9D8A0EEF876A7314B49B6A499FC650B099D650DBFEC7638ADFD245E2B7839DA5AC5F7D5623FC0ECEEC8653FC9B2BDD1AD4D0
311
0A566FBA7186DD3C9CD26512551637498CADB950FEC71ADB9A5524285DE328B8EC7EC75D2345AEC6A27C42AF6D9B92155315C80DBFCABBB7DA0FAE425C4FB896B15C9BFAC4FE67DF5A23D30C93DA4D8F36FB15D100050DA6062E22AEC5F4DAC4F6FEEF97AE05DE63C6D38F9E068A20BC5E3B6BCD75320C5090924E7F93640A
311
7735B1A43451C2D91EE62C6238B797349E59890AF3A520DF4A87095F3ABEC2E61F0593416CE46CDCBE0E00E2523FCCD04408588B5B6C9DB6459C786CE378770B54F51DA3A5E1DF2A3349BEAAC234A6CF8993B598B3B25B4B113E353A4D750FA7534749430F3EBF2512E7EA3FD43C6AB9A1F765A58463B306721A15D224FAFE
311
8C6F5E3432D57EE697DA0DD5A9D4866A8BCCAAA9DFF1F06047851408FEC060471D0E3EB86BFAF46E4B5E60311DC3E3CEA147C75CF971BE74689507154FF2D2E92F15CDB2B9182B11459FD8ACAC5A85F174BC94A7F4EE4C4F5CAFA7C02E37BF0BC77B7DCD0C047BC316F562A01A441AFA7931CC84A28CB9F4AA367EB515778F
311
29BFE61195FA671F4352E5E46E3A64773F1F76EE5EB36D7BCE9BCEAD837A4D77F8DB8C92AEEF6711920D7C7D0F76B0FD0EB7AB83724CD35BCA7D36DDDF5FBB7FF6F04A91F3E2BB3B8F1A43CD659639507FF6331C5F697BCC782AE57D757A27D97F1AB9E0AEDB43F92F1B2AACDF5FEC8ADBAF9F814E2027003BA2F9E144B193
311
8A7A04050AE5D953B82C45619165C813A10E76DD6906B3C16438064D14CDA713AEC420034613E1AC7241904A49FBF87409AFB1FCB9B72FE7933A87D8FBEDACECE4EDCF6A4FE9FB94D5DEB74FAB7CFEAE17EE965DF980DCCA2D04134994F9A2E94D2265DA4FE6AA7B7AC15FACAC2B5ABBCD7DFF542C5314FDAB2E1B9D8B6522
311
0B8E2B638BE008E8DCA22678C820C5053664D15E89F2D735B51A84955E81A443545E9FF787BE0FA700A76D136C27DA179A7C6E8939E01BE756E19CB292798063D8B97F44E8A27BCF3A614FEB8BE974A718E86F7EC99B53CA35FA24F61F2B07266684623A3D4CF073E511F3A10A8FDAFAF0078C577F4DF9D339FE7862E5FA47
311
CF4344209E5BF76D783B1B48E152AD281B15FCB934DCDA49CEC5706B1EE8B460F435324A5CAD154725E21AB8044B75A557A79F6C807B9340AA3D92503E866F4274412926C8C504E4D5EF8C0E68DD0B028781A6B4054F11CF18941F101C57CCC796773ABC8DED9CD91FE5788806C05E548895354AEAC96546D55B0E94A59F14
311
8D061F42AA398D822CDECA4CDE79E13469BDCC44FDC990F366BA5978C15F97ED80CBFD73B0CD9B8B83A4F6845BDFBFAF034019473FB9A63BD55D3A4A7284757071574029A4D016DCCBE95DD679EF3C4880BF169422F8C89B68A988D2B13793CAED4F74DE7486C72DC94DF46B8E93D8E02EFCB1FF9B3BA10C8AE7F653DF94F4
311
AF466CDDCEF5776687F7C4C14B63E4EED1719DC2EC482D7DBCC7AE518CDE3D5FF86D39000EC3673C0044E1D308BF05F74D1B5F033A7D1BE7F74BC55BBE3E4A20F920946CA0271EB17BD2B80E5660ACB8A29A79F5E4BBA49D4D945B6EEF4A7EFEAA65E5555BBB57A7E15D2F83C69F30BBB978D2B39F1F26FC097424D39BB33C
311
A3D87ABF64E307938B685BAD44F71556A30B7E712CA4FE600613C3E554B69ADE949A7CFE214DF1FFF05CB82151EC6FC31950239F94CF7AD39DC473F6EA356E5EC2C4EFA04383CEFE985A127484366FBEE3C0EC4FEA363E4F6632AE781392FD45D67B63FB8DF70E82734F431FD3443172A0E30A83D60982D55FA6A2CF86DBA8
311
382502ACC6CDEF3B907982EED1160E14863FA242F9757347E1544275CCDCF71ECD5F8621CBEA326B8BA884AD7F825781923E66971F04010D574C541D8427A438A37EEF8AF88240EED7362C953F5A81DE2D56109CDE2524EA0F5D2F87308C0C47BD97AD605878AB8589E17CA83930CB5E0DCCD75853D68B1AB136594926DE42
311
6C367428E9334AFAFF90ECE221BB5DC9E5BB53D2CDEF954EAA9CD814F0E5725F1965DD458E5F8487683AD86B9D0076BE3EE91EB1CECC5331A67A3F79D8B27587C12EC2A6A70474749F27B4C0BBAFB94B34189E88DC18964BE4121B9137FD516C7755356E50D6714E31ACD222621EBBCD1CFF81D87479056A9DA0E0B8EA19D2
311
4CF937DA89F78E8650CCBDC110AAB6C4E46DCBFD0446BA9E2060E81F314AC2031E88135E5476AC0160EF5C0DD2EEF1B8B5CB2D198BE9A554A9093B5F7D7E4B5407DDFCA1D9C152FD97F55BFFFDFE802954DFEC8995B983E28AC92F1971E28F531DC407A1280EB125F64A72E617EFB27DFBCEDCDA2D6F2BDADA36873EE46B9B
311
E1782998C63DA7182BC383FB6FD15DA472B175D7E8B4FC88F38D6E07FEAA3FA3CBB8F6B449ECF14D2175E5C5CCA3A42ABF24CA6C9395AF74535F4DDB38CB84F56614B0FD32D7E19CA5CF988DB4449C40E23DF2B16772594554579094450F56F253CD25EA7F77366FB1CFE79696C428BB64D5A41E986189427E5E4D7E2DAE3D
311
5BB4972B3DC44EAABDDDD63A2264ECFA5C786EB0EE1FDC5BE34FA0F08376869FD1E61EA06CAE15191135445EE8F0394161C3266A596AA035572BB0C8876180D8B9C77D307DF9DCDF7365ABDA6F3A2366436457A4DFC1F259666569A9E4A79C817BDD5610E5200FCE894A358EC72858D50EF67545DA81C6FACE3D457BAF7036
311
7E1E6BDD9A952FB4F56247F58F523B97E640246051A72F79BE42FFA0B3187F63097F91C48B868586F714B0EBD5A00A8412C1236E1298F60C72BE6C96B82B404CADAA304AE9F303176B14BA53FBC2D5E86377E35542019E24D97B96A49B2C0E5006E7795954DEAF5DA58958839043C6C70BD3B1B33B6DC5C31316D8A6923F14
311
2E26F6711A2258AF977DDF1F970ECC4F1F2B434B96D81BEB6E89BF3BBB3C7C8CC80505070723D6D7D7D3C8CA27CA164A26024FED94B12A86031867241DA53D929636DA600F050BC40CE48B8BA03D69224720DEE2ED2127390BDF5E6EA64527BBD4C4C63FA76BB801FEEC0E61218EC98A8A86CD8313781617877E66692839B9
311
468CF4DB8E50A73986E558E309C0D6F676F921BE02F1185454DC75B111572FF9D27D85EA14C05AD7271225B391C4275659CA4A43759D0BA44639BE4C30A84DB7F67A41399FB95CBF923B1B1672ABC807C1590557FB18D811983FA97F5E609516D62281D38B1281F68FC75528C35E4CD7DF0F7DBB5E5DD69C414EBEA2F4A5B2
311
41B996BA77AE6C772E367408C633EA3E438B68563EA8BE7667F3A4C4FDEEA52ABD78A2820F443B7914A15F180018D231E64519C56A12F6CA7C8DAE18F06F6B769DBF92329EF6A5D18FBCE600F36BD8E8198DE5CDAA96181F3A756EBA5501CEE58F497EA4F418A2B82565B9BCC611713C0B708CCA1F398B78C5F7D03B3437CC
311
18F13061F55C7BEDADD5ACB1DB0E36D3CE47FF6EA1A563A57E9649EA5D14D1A50EAA457463381C073777EF1600607BAF6428A7DDC079D47A204EF1E1F1F0589FB054D45E02CE623B3823C317C601E589E22B1E88B448524B86A82828E32345EC18AE17214B42F8C41C6D428016D9BA31DDCB47572561E5A402E5BA4FCE55F7
311
8AF7268524AA04130F3A20BA5D1E9F9948EA48FC8F5314FDB35E21898198060034ACE5E3E2BBCA34092518F275190AF65F45867FF0900AA4B81F25427414C372BF51DC29AA855C5428EE1EEDD6B849AD60F6E73475C2D2523F8A2772C840A478DED18A8C5C91B085F255DC4F54EA7AA8947354FD17ECF8FB3B4A0DE7B483CA
311
F3A1165EE05BBA413E5C1FEF3DE1D6B8F2F3F3251C17D9FCAB48A9AAF63AC773A0E413BBC46A9ADF84A566FC920E4D8C52C9769EE3301CADEEEDD92B312E02E2A7E35B7F1E7D203FE5A7D75578B06E99D0E46FFADB8FDA17ED8880390DA29094202D6F645F76F6F96409CDA05495A96E84B04A00D1A6C6C81D7F3DE9376E82
311
8CCF144EE50E364ACCE7237EA0BFB5607ED1AC3CFE73794E5B61739D14DF1743441B1AC98F00ECEDE9E7301FA29755FBEFA68C91EF2B314CF510537EF1ABFC9A762496280B546F5EDAAF8A5B387D469FC9A878A92828C88608453ACEC6094DCA54111E7AD5B2663DFE2DD151B7F123B9F4FEF8EE36AB125FD7AD52A59B1B76
311
5B3E3F73E3F73DEA93875004D2AFFE3CDE9493B87A9904DD052028949041A91DC0E1BA47BA714343FD5B25E0A6A09503AFC17C790058A836A324FE31D7893512E28230332F153181C1E018E1124EBE1BA262AA428A518237D1EA7275E48C5C561BD19ED6912EDD8367DA0F31E40EEAE9683DA9257525AEA7B632B97119E171
311
45A90231768A4F3B9120FF32E8319B015E3CBE26F1A754177D8185345817C096B0CE443A955D13AC15E1FB5DEEA0239EC32A3C92241A237B0B02FFCB4F93CF2B02570C8D192E2F2A68CEEB42F12E6F8CEEFF46C251E22B4341C56FB08CCE550E7A9D6F4D6564B9EA52A83D5BF2C6E03FA19D2775E15A8A7ACF30A13C259EE7
311
F5EF2AC3BA354F1500E1A07FC63FB4686E2F12EC69719F9ECF5FE3F35598DF2CE944008CE78F0911BA5BE5D0A34E0098FF038669C26030BA9B300303039852A8F6F496341737CA7E0D2E3AAA36DE0A70AA7D9CA0D54D9AD84B18A44C9E625475E1C97B93BEBB38DCE7D227E67A2D00F531436136355F243D1FC0D712C57657
311
54FA22FCFFAE97919161F46D6E61ACB37D83777B385889770B50765B127768443A5C4D3A4E35A3151111F146B7CA116F918A049F1C272F2CD7976C69A0068773451659A97E0F4A08FE604C3FF6CE7385DB19F4D3ABC8A0D80DA8A42096AC377DB49382B36E270B6FA7570188B4B7D1DDDDA82ACA487CCA5D38BD3BD039ADBA
311
FA4ACFF27809239B722081E2EB9F145320553D183F28471C388BC8814E5045676767AB58A8E72D1CED2CA731379515D2E533E4CF0B39DFC625F97AC4836831A4DE330E87A8126FA17EBE583D614E71E22A8DBF2825599743E0640037303E8E1B1E8EA4E1ABFA4F62907B5E4E0E5DCFDAB417C36C6848A2B8D15F1E505434C0
311
707E16B1CFC2A1C36A42BBF55734F8F4301DDC2A5110CEE8C0747F69519265012A2174BF4E955ECD4FDE095A3ABC70536B7AD0B9D7892F81287D667C108703C9B66A221E9A0929D030008F77FF6F5D2108EF5706FC87A3069B976F7C9FC3239D13D283CDEA83597461079FEEE049B0F392889898B7D87D31F8D60ED7B56B91
311
823A8E4EDDB36C6172ECEE42BD42B12CD67994FA0F0DFAE9389356F4CD4425A4B8AA55CBF7ECD585C6A2C2316791E43D5C06841ADBB226A87FD61515FFBB0167B74E56BD7F3E90A57A97FEDCBDF483A0D6699A8C0849CAEB4947FAA90D8E332D9DEBD9F4738C37DA0CAF9CF3DAA68BCB67C420459C7A64498D6E848E5CADE9
311
2BB6901F607AA331104A67F7CD650EE169B1DAE94D2C31C2F993632259B6957E246EFE4C5481107B07118607700040E5812A2A2A38DA0076875258C753F60E0F2662C748EDD5F3F3686B8FC3BD6FE631ECCAA1E8B1C1E565AD117E54893E79F4672E32F9E46B2A183DFDCF3EECB4D4D077DBEA0DA254D25604510967005012
311
9E9B9B1A9E4A11344D61497A992778095151510C4BB7EF2009B63AA4360635312E4CF668B7E0D3D85A8688E2BD83B569439892ADB63461930D428E0DE42E4AC57CE48DA5CC1449530D8BD3D6A0F08DF20C8E8F570F2CFFFCEA286E30969B4654D498A58D9DA782E19FE3F002181838925592C4A1EF0B332D88B61A92C64454
311
7BED490D3A42CFFAB70E36D961F694F6307F72FF15A1C79D5B1B5CEFD353D9E2B52566DEC8F8F09CB3E8359C0F68EBBB7898243E34E12A015B2685AB303C04D3A9E00671FF3DFF0A184E4A2ABEB2B666AF5B3A209C73D8EF29DCDB069C9F391EEE9DD0F74C7BCDE16F8F02E3B8816122BBEB50665775B600549D8BB33A54A6
311
BF940C028118BC6878C79958D6784F9DEAA6E26748386FFAF8D0D0101E2847B6563F5D8DC1D78F787BE00E2C941AE12148D4A81599FE8F68D4DA5CDED75530ADE138240300EE13B0FC13A1687FED6774662C05A2B7DFB186732F0D7A93545D8B0A6390AE5054D9CB582DA846D7A061B3358B45E2B52DDE63E114397EDB7E09
311
233A579155D795BE76102CF277F4DF8B188C4F2879BEAE3C08347124BF9ED23B128259FE107D31E34A652F090B30B39E0D9AF917B76A2806135621A8A60681F16AF216514BBD02711585B5B1AE823F4B2D0369EA5B6BCB863072727FFC871CA6C9AB79A814D989057E9470A3D238BC87CBB4A0EA49AFE2B86F22E499793CAA
311
9047080450166BDC357524561E258C77CB697F1ABB32562CF87C3B7AA12F911EF19FB3E5C02222E887D08202A60A17151F5E053A86B437771088B4FEE14D652C43E8D939995D34545E12E2FF93D4E366EAD25F10CB7DED141563C3D0C447AF06078A91135FD4B9611583CB4BF3BD167F2399CEAB0E0100F8FFC305F00F1711
311
717173138B4B48C83022295DE657EFEDD97F238ECA80F528AFB4F8D67AD4E2594B9A3AA86D7487EFC313BA95745C186F0CDD84CC12DC9CB0424B42203D351FD9C0A3AF10CC7F388E0329279087386421F194F4A29464C1DEF7EF8BE515E4A199DCD5B909342598D8FE6A231F71336248D5CEC5454455C7BE383B3BC7B260FE
311
D27F703FDC39A170F3827239102F59D4DEE7FEF82EAA1A5E4BA94DCC4CC44E7E2EDE20F24244E4454369D2E87C3F823F193FD4FD27E1C23984B01898D15ABC20711A8A558054951A6AE280096BA36CBA439603B7B0B4C45F248C14B2383B4B5CD8ECECE4FF859AD4A6CA2326D020EF090F4041D28DB66E5256B56232CC5282
311
9DE8060BAE6BBF37D4B7469B822454FE93210A3E8D15E69FFCF01123222611C51C4FD0A041A0CFA2471CF6BE38D2B20FA4C3525B5B8B586759475CF80ADFE67A284AC24651E52B8E683D24C2622642F27E7C3C22783BCF63648BC398BD6CD0D9C97E7E7E3EACB6126DB7A6C1FD9F1031302EE67ED96F22B77C7CA0239BB324
311
207559B105E4693EB26EC46182A92C9C0DBD24F29B31C5C5AC1F84300E0E17CEEAC15F5736FA4A98971E2F1423BFCD68D4BBD5F86E74B40A369F39507C88FCDB35D2DD8DEBEA4AF999E23CF2816D204200DF6E611781B9884C1AC8888B4DE397320472959434323A5A36B22A8E1F721A270DF3BD65E4A31C11FF048AFB0D8B
311
7B6881423793963A23CFCE935FC189ED36FAE35C46DA3574C979E4394BE52084F3081837BE033396D2EBD80F1F691B273F660D2B32FA27A33B1DE4ADA5F0FA4651511102DFA410DDA86E065272CA314D5249DF91B06BB92807B28EFD54F08F7B525252782CD276DD02E6B0319B13DF87B1F6361AD6B28FC0D711CF445429B9
311
E5A433CD493051C49A9E03DDB1B147D880253514A5DED88009018620EE229101C041950E2D8AA8E1F5F5438E0C0C0C60EEDEE9E3E0C051948C69F84BB7B2A48A1F3C8EB9E6864687F4F4F6F6E2FA87608ADAF9C5E117B7C1A737E710769DA1D15ECE6A84502AA855398712D5FB51BE92E4EF824969CE18278798AC303C2C79
311
80DD2500ADF8FB1E6D6C2FAAFF9987178923334A244758BAA01A9A1B70FA5097D01E1CC2A58DAD0EC94CE6430AA9B0C10D75E3C6BAC670EFBADEE1607739CE0FC18A2587E3EC3058562014C64219C69BC269082D5C2F4A659278D585755912176D78A1B641719C2A394CED495A1AC5D583FD2F5EDD93308EA7EAE8A6DD3965
311
98BDBD3D4CFED62D18A5BDFDE0DD5C80D1A89BA62697B131AE7CE9A6594138582F1B37D68F1749AC7CB67A70695D48A4A056AC1FBD4E82358CEAE38F54B95A9016F9000F9879C0D9D131768635CA798895F27D6F1614F11F2838A83611AA51C9A3DDB539D42979C29F10465655C17BEC3E2760B80DCBF609198C7B171A5319
311
05F3EC218D696025975E986C6B4C666666787271F202805577DD5A3EF0CAFAF91B62DC4B2DB4217A7606282F31D8DDBC290593BAA93EA6353AFA9939B877978481E15CFC9F2755CDC00C538F63A4BA3E80AE009B73CA0185687D339A507D165B74290D6EE46D5C58148F020C3668ABE9EF2F7549170DC80DB41FFC1D678FF1
311
9AEB10C7133832B104B80F691B3138F97A92D26E551F1F110400D45AC71A9B9AC41A1A1B1DAEED0B0810638EFFB511D46B121C6FEA0F38CD00E03CFFEB9713FE1F9C263E4DDEC160D0497FA9A132BA608584057FB15380825DE6C7FC3C667EE947D488A09898D8E939C4953BF4EC9836344D2CC6B2971B2A21A572B06096F4
311
982D2CC7232D46E8EA69DC83722E267754D777F97F96D5DA74E1E75178084D0E70F12AD33E5F71EF2AFA599B2BEBF60A5BE475F444F240CBFE8143C334E7ED9150FEEFEF7EB020C4DBED388DD1D6A167A76F3CBF119B578AE8CFA7736ACAFA4440A1C47185638A0D2F3EB5BDDEFDA958FB13CE4AA4923D5BF840392D455443
311
29525749734866684BF7F8D9D54D892E19BCA9F829A0F8BFCBEEA6CFDFC61D74EA1A645ED7A1FF241739F15694BD835B66FEC5677E40FE69BD3F91AE402F036537218A401CB0828604AD189E575015C6F3F6BBC8AC79CF6C70653847254B31551EFCBEB5978B9DB85D58D0FA41A9DFE9C624834AA04949D24B5AE6D299E072
311
D152D12097920F14AA92C31C3B97E28B6C2E6E9C23D63043ECBBC0A60FDF5BD0C33C127EA8A3308B8B6AFFEB28B4455BF6E7AF4FC6222728357EB8E46E85053E6A8843AB23295BF838ABDA94658FEF3F832F147046B4ACD6F7D48E8FCC9618582961C898D1C7A253C91BFECBDA6BA18A1FCF70755DCCEE2222F41B76D23CA9
311
8D0CB3D95F0CF66D57FFF65E2A90F5DF40FC3187621E981BD0BC1D992787212688976B94A8F0C6EF646624B570B78E068826F87CE27041A95C9A4871FF65CC17FCB1639629AD6A9517000D63AC231F3D741CB8430777E7ECF80CE7A3F73C0F162F7E56AA71F4DA80A33CD6ACEE78E2C11FAC03DAFCE929B106F8F6B3ED2DC7
311
1FF994BD9CEF4E9A94896EF1B6E2B7B4978168BCF0847A3D2A4F1B0500B926E634B174548E9FBAD27153FB5FC36799B1E6C7C38A94E1F9E996796D7B485E635D5287A2AE76FBD11A341DB3F8F810385BB7296391973DC6C37C452A9305AEBBE0CDB6C566DB59FE60C8E94B1FD090354BF51439FFD1B48D725228FFA88C84F6
311
86F547107A7A235665A4593B7C34D748C1AC8D56DD5DA861EEFBADDECBBD65117E65851F90351AEB65F0EFCFF4BCFEF24CB7A5879699FAC437A7AF9099186CF006BB923A59E37D7A36A29FD8D2CBB914A5E9D0A8FD212FBF796AE9A67958FF1D5D8B85F78F96219D4714EB919929241B6C018AAE0C02069F8D919961EC5DDF
311
BFB7573E3AC8E08BFB7C8534BE6DE045B3CD63DBD71F7638BA2309CAE398EA3A7D8F98BBBC7AEB367EFA5CFA27A9F8F2F52FE878058E6209C026453F8E7E8A237DFC389E9590F6059B397CFD65183BBF936E86896612A5B5FEE49DAC8455D026218AFEBEC12B3523A45B57B82C9C97E02ACFA1184DB18E48CF615DBF39C3CC
311
6F0B4AE6BBEEA2E39D944E290302FA3DE33FA7E40296E2EF7BF1CD855BBECFAD0FD622BEE9746FC4FDFDE545AE6E3BC234CADF83A0FB76DFB145BF3828AE3436368AC24989454F8FF70A177672C711CAA1A76107218CF948CA01F873520E7A2B118EBB161ABAD432932029628B6761590C98AB590C8C8C79798CE9F715BA69
311
6E839E9131A4BB68BE923F1747FBFF165331FFDD4D05997ACD168F12CA75348DAC04C7F509FE83898A8B421181AF492861CE81E4A2DD0A30850CFA95E05F097FF70F9E777310D584A75BA7018922E271DAB1D785671157685B7D383D3E074DDB4F1E44EF04B07BAAC75A062077C54B9752C738C9D804D402E02851F3F89605
311
AF189738C18C021D2139EAF72513824E10DDD3047BACC8521ED7E98B257D1166903B1B08FA6F918FD7E162913FEC7D0EF4787E29C35FBA8C6E2C9C20E9AB30AE42CA2A01A090E7D010C1B5BF9CEE2A304BF3A987FB40D836979B79E18D70F257DA61E808472DD85B82761825779D6B90CAEB0F23360C6F80A7D7D77545E95B
311
3DFF0CF96A827F9B5BCECD2C9698718417EF80FEEDEE938AFF55859D0D540B7FE09435583A6F04874A0C7E8CF234DF4879722000167F5872CEC6BF3EF7E5A8CC8121E6A359227C8A29C95212F9F735BC72A887D56B8F309FC525BFB4FD767AAEC4AEFF249CFBBD2DE1AB9969A6155C7D8DABC307E47324C1F916C7BCFF40AB
311
A5644E9FFB9238D19ADADA49D9610F01ABBA57E4DFCBDCCBB2B93C8953206C91DE01B0E2651A6D6C31721915B31F7B7CBCE55466F6D70402788FA91D73BE4ADCBA99A35F17D6B83383704917D6833F0FA3CD45C926ADB8BC17999A4A0AFBCE2541F7B8CF4C2F5FBA611B3E626D64407CB32C122DFF4EF8674D6EDBB86C8F7C
311
6A16D50FA685E2CCA34F8F7D1D8265BB0042E9D7F1F666F7BE5FAA5184DF58E12122A42EF02F461B3F369AC746F96528AD208512AB56844CF75B97F352DF7995024FB02855385854F3798670D01CAC771AC3E1889EC25F61A20C1F8CAB46898817F9C47E2CDA1F286BF2F358298709FE567C91133E2638C8B53975E753EA8B
311
FD3578B5F7186B7BF084EBA3F77BAC3132A5779902EC22AF2D2E79F42D324E083386DAEE9810D1B44A5DAA54513C7A71E52A4AB9257D975B621308FE4D2141CC3DCFE946C154A3C1DFCCA7629EC69ACFA831634ADDA93C0388D2A9A2DDAFCF957C6995BCE7FBB6DC4EBAE79E63EB08E9A25F52F67076F7093CA545CA3053B5
311
BF576DEAD4E0017143C5F759F32B2D6F145B52B67B48909B7C7FCA6586EE385A2189C16932CB6DDFD9152AE317C430492A578ED27B72D85D40C7C93C097939E1B50F4D67F05334FE9DC362C30B7FF561B95259138ECFD9274C8D695C31B14D4EAA9F3D7FA8DDF652F8C5DEFA23284C799B7D94416DEE81E05A866302DC7019
311
2A5368EA65E1CED8BF107A1E2D3119A71E85DC1A7B0C1E93274CE04DD0F2ABC8AC7C987FDB002B6F81757B43502EF7A0D92E416494FAEEA4C9C090CD9557AA4D532F4996A272B94355C5A0E4974EEA9627476F30809B94D8D8D860062E02204643BEC7D0438AF800FC7E2B26955D595421E83C69E1A07E0E3122285835F014
311
AD538188CF9737CE76D464A353FA55A001AB2526B84E985083693BC76FE211CA1D000679C889E3C009832C87E1AC2EDD05C302557422DF0800E316FCAC86978A371F025A6C7DAA9F333E7BD160403A1A06EA75AA9888FF01504B0304140006080800716F984F28BB58AF800100009E0500003D00000032444638334236422D
311
423832312D344543432D424334342D3336333434383142413532392F536368656D61732F436F6D6D6F6E536368656D612E786D6CBD544D4FC23018BEFB2B96DE15493C78601010A34B880709DEDFB52FD0D8B54BD70DF6EFED3AC0B12E6442E2716BFB3CEFF3D18E26FB440405EA8C2B1992E1C323095052C5B8DC842437EB
311
FB673219DF8DA659866649B798C078B48AE6410122242F2A4994AC7F93815DF85C049C8564CA0A901499DD886B2EB9B1E02448F358701A9235880C49A0119892A20C89D1B9FD768815CAD268CB5E0355B40B1E47F3E37A2020464BED06AA57CE8FCC20C3C3446D46761A2632A8C1283D07031EFF2AE7CCB1BFEEE916E406DF
311
AC8E36FFD99A9D60A6944090EEDC3B670C7DC13DE86B6B2C5C240D6E503BB85ACD579D513F1B9F9A69DC9CC22AFA80C426D40AF0B21EA168559156B6276F0F726A6BFF04DCD513A87A62CAD41FB24FCB2858B3952E3D852084DA25B9303C15687973CC8E8AAE11DF2836C38C6A9E765E8C1BA1BFB1DC29CDFE518C8B5A7655
311
A4ED7E77291ABEB80DBD82EC866ADE1B8D05AF9E35CF09D7A061F38A986D9EC412B8F0F65E5D81534D9B231D1E5A8FE577A241F3A5FD01504B0304140006080800716F984F670136ADA9040000B41400003E00000032444638334236422D423832312D344543432D424334342D3336333434383142413532392F536368656D
311
61732F47656E65726963536368656D612E786D6CDD586D6FE3360CFEBE5F21F87BD3245B0E2D90F4905CD12E1F8A0CCDF5BE0A8AAC24DAE417C872DAECD78FD48BE3D44EE3B5C3E16E010EE75A34C5877C48911A7F7E4914D9095DC82C9D44835E3F2222E5592CD3CD242ACDFAE22AFA7CF3CB785A14C22CF95624EC66FC34
311
BF253BA626D1BD488596DCBD8F2E6FC6335608B7F428D258E807664080A98384D9E75E22F16B2CCF05D32CE502359492C878124DE31DBE89612BB196A934605E44F272A5249F446BA60A11112D589CA56A3F898C2EE16F6B136C595C7AC3C2FF076D3D808BDBC824572211A961A8D96E393F7AF5806BEA91EDDFB1ABFB769E
311
B08DE8BCDFE27EF98E9DE0ABCE3BFCA1C54E8AE777ECE2BFFC92A94C87EDE6A9111BA1ADE75C74BF391275D33FAAC5FABF89F1D33C9836CB3225980B2A479BE96A4FB3D59F821BCF11CF1FC55602586C7191D99E2C9C0CF2B8A662E3484E59466361985485D7E248E7953C01F19DA23B9D256461B6E09C40FF02D1DEA98C19
311
EBAFBA4659184B7D47DEDF22E2F53DB017721B164F5B845961697F0C699AAC2410982C385725A6361A500F59CD848221F103A8C1A7CA84A55F407794695C905C688E69B111550ACA946B9B4785FC1BDE0E229240B62665328986D5B32C400CEDD88188F35AC25EBCD40836F47F35E5C0EA4B6F767B50568CFFB5665C505E2A
311
D5EA8A9997205F50A2350EAB32C9294B0024108429953DF32C4D812E226658F78A490408362A94987E6F787DFCBBBABAAEDC36758ADEE9B58B41BF0F35D87BB1E991E02BF0B513748E6C0AA2EB2CE56EC68E97585643D82DE284E51DE03E4E22B00738761F1E66E1616A03EE093B0327B6BB9797262B0DCD72C6A5817ADAC1
311
C3C0A3909CF6639B404D18B15CAF4B3C09CEAA4414BD5F0723F059ED37048E7A64271711EDC9C5230F58FBDA5DE00DA512CF04BA6671A0D201A83D2EC81D2EB552C7E5CD1BF9D6913567B2CD53A659AC362A2B200B440195E2ACBBD167A32A86F7874F7F00686DB55D163481DADE5E417E979BAD827FC6B2B0AD8A6AB15670
311
38E466EB4B10C4C2F3F71196A09260938125FDAB8662456EAD68AB2F7C1DFF709C874887B76A4355564F017256531BF73D7D754A40E23401DA38EFC907CF8D8E3C1E5E7505D8E432C60BE1EDA01E5166683F169B6EAC6EC046153F66C2BE0679FD3F407982ABFA28F92E0E457501938D96B12090869079360D3F947CA8BBC3
311
D9FCE1ECF3C676C9BE80EB67CABE004FC290F8E26BE6A0371AD6CE66781C408A1FAA8CFFA63DD93A94CD5E1F3BA6A3DFB05B34E1247BB3949E3C332105035203136EA14AE89FF99E3E0B3C4EFE65C581A3A3D2D0EE84EFDB22B49DA31A07059E69B81628A8ED1228B63E42C3D840C3C01F460D1F331FE199821B03F22CCDB6
311
DBF074B49566B12C3B3626074EA1B130B4596BDBFBB642A835954A9509E5769234228129889952870EEE13F494954AD7A27EAD09411BDEEC5B6B6AD752C11509F826EF4007E86281B1AE63750FD09DBA87A34EF4CE2A75F3E85960004EA6B519F4806609E8C91CD18380BD81691D9F2CB5730631E6DDBAFBC30E96D3E1D3D6
311
7EE8FB72BAD92AD4C1FD3CEDFBD2681858ED6583CA3853294B80AF67AECFAC6418D08164D5FD1E52E8B546BCC77B87C6E9D1655FFD384FB26A28AADD82E04B9C64EBF78FFF00504B0304140006080800716F984F8DFFFC99640100009B0300004500000032444638334236422D423832312D344543432D424334342D333633
311
3434383142413532392F536368656D61732F52656E6465724D6174657269616C536368656D612E786D6CA5535D6BC230147DDFAF08799F5FDB600FADA20EA430D968A7AF12D36B1B481349529DFF7EF9A85A718860DFDA73EFB987734EA3D16FC5D10E946652C4B8DFE9610482CA9C8922C6B5D93CBFE3D1F0291A6B0D26A3
311
255464182D920FB4233CC629881CD49C18508CF000E3EE309A100D61622AAB4A8A33B2483F11CB639C545B0E1508438C3D3C0361192846DB7ACD198DF186700D182920B914FC1063A36AFBEE8FBA03FFD3CC1D1F4FC9E151A2AF59F628C5B7821D83FDFD3489305080F2EE04BF962195FB285E9D2DD352320A9E827AE35759
311
4914E42B1F5FE35F83688F60C4C91A6C946ED0668E8F244BC2EB0BA6E3BCCFC0B6A4B507F9F9F8D51EB315D9BA9E08D308E89F96931666E577837E2B4172199C68C4FE306156D47DF51C698C7B9D97FE5BEFE2190C3C38BB054E6E8163FB039CB4B993C80BF18D969203116D6BBD26238B821F9BB909AD6D9C71B85BCD8C33
311
D66FEA3D31B4BC0AD45BEA46BBEDDFEC0F504B0304140006080800716F984F5467141451000000570000004700000032444638334236422D423832312D344543432D424334342D3336333434383142413532392F4173736574446174612F41737365745461626C654F66436F6E74656E74732E62696E536160603034B5B034
311
713632D73570B634D735717434D075743532D47535717171367235347731751602AACB4D2C492DCA4CCC492C28484D2C4ACC4B4E050A82012F90744FCD03CA26072767A4E6260200504B0304140006080800716F984FC55C663656000000680000004500000032444638334236422D423832312D344543432D424334342D33
311
36333434383142413532392F4173736574446174612F53747265616D56657273696F6E5461626C652E696E665D8CBD0A80300C06F73E4B29FE6CDD8A2E82A083B8B7F209014925C9FBA3AEAEC7DD2555D896CB85E51C2A1BD834F6A1F56EC4494C4695278364ABB24ABD2146F88CCEBB89D5321FF8F3F43D672A3B44DF3CB6
311
A1710F504B0304140006080800716F984FB4F252EF38010000A20400003600000032444638334236422D423832312D344543432D424334342D3336333434383142413532392F4173736574446174612F636E782E786D6CCD94314FC3301085FF4A64893176921689568E2B044B2790A818D8AECEA5584DECC8BE20F8F7D86D
311
0650115387ACA7EFEE9E9FFC4E6E3EFB2EFB401F8CB3352B79C132B4DA35C61E6A36529BDFB16CA3A4778E7E602CB3D063CD52992979F06E1CA652832D8C5DAA76C61EA7E27D08483BD877F8D43E384B6829B04C771042CD827EC71E388CE41A0C47DE00012FB9C7E046AF314E22D3E334497B04C286A9AA28577959E5D572
311
572ED6B7ABF562F926452295DC3BD74DBC89CBBC1B6EAA429FF7325548910025476F262ABD86A9BF54F2BDB1524452C9403EBA3275D0D7103B60183AA381A279C26942CA2384D04B71869514C9855F5E3C626BAC492DDB280DC8F9E728103D199CA127FFA9BDBE375B1B08ACC6393B72A9F1FA3EBC9C7ED1EB3996A7DCCC2F
311
2D971AB9B1ED15B2224EE72446275D17F50D504B0304140006080800716F984F7689FD12E8000000600100006700000032444638334236422D423832312D344543432D424334342D3336333434383142413532392F5265736F75726365732F31353839344332372D304339372D344141302D414532312D4534444443324531
311
374435432F7468756D626E61696C2F302F636E782E786D6C4D90C16EC32010447FC542EAD1C67652A989D6E4277AEAA5A278E3A26016C152357F1F6839E434ABD9A7D5CEC0E57777DD0FC664C92F621A46D1A137B45ABF2D22F3B57F13DD454124E2274C745EEFB8886A0B055BA41C9AB5E25567575D67FDAD991B7A8CD67C
311
06BF89CE389DD22292F9C65D0F3A33AD986EC3AA590FD31031518E06CB01B63BB60326A2665C859AC7E9D44F733F1FDFA7C3F9F5743E1C3F405652C117916BBCF58C91C2CB3C1A2AA32FFF8C202BA02047DBA81A42A8A7E74096A582C4B1E46F10DF43817408CE1ACDA526498691FB02A1DE41FEC30A64CD5BE4AF8CA2B51B
311
F500504B0304140006080800716F984FA233C2345D000000800000006500000032444638334236422D423832312D344543432D424334342D3336333434383142413532392F5265736F75726365732F31353839344332372D304339372D344141302D414532312D4534444443324531374435432F7468756D626E61696C2F63
311
6E782E786D6C4D8B490E80201004BF42E6EE76F3C0F216234B883063108CCF170C074F95AE5473F5C4C06E932E4F28601967600677D21E9D8092EDB002539227A2FCCB80E1168D80A6417297A89C5D6963B7129A0D1E8F2EE73AA7B62BBEB8B27DE50B504B0304140006080800716F984FBE89762363000000880000005B00
311
000032444638334236422D423832312D344543432D424334342D3336333434383142413532392F5265736F75726365732F31353839344332372D304339372D344141302D414532312D4534444443324531374435432F636E782E786D6C4DCC3B0E80201004D0AB90EDFD75167CCE820A4A845D83603CBE602CAC26799919AE
311
EEE0D965E2E908050C6D0FCCE04C8BC355404EB6198129C92351FAD580A10E464065907C8D948F8F166375F655BDC3FDC3B4E530A176BE7057BDC43B2A593FE403504B0304140006080800716F984FF9AD5DAC7D000000A30000003600000032444638334236422D423832312D344543432D424334342D3336333434383142
311
413532392F5265736F75726365732F636E782E786D6C4D8CD10A832018465F45FE7B370DC3022B447D90581632D37039F6F8D3D1C5AE3E387CE788E9B37BF4B6E9E5621880DE08201B1E7171611B209F2BEE004DA348319E7F374061DEED0015C328B614F371A1C5AE73F6957A179E17A46DD733D5704C54CF31939260691A
311
8A0DD35A358672DDAA62DCAB52E6D72B5BF3E317504B0304140006080800716F984F5AC30BFB0C010000550300003400000032444638334236422D423832312D344543432D424334342D3336333434383142413532392F536368656D61732F636E782E786D6CCD93CD4E032114855F6542E27260665A13DB3074E1C2951B75
311
E50EE1B6920277C28FD1B7172A8B3671A78BEEE0E4CBCD39072EDF7D3ADB7D408806FD4C463A900EBC426DFC612639EDFB3BD2ED040F88E90C239D970E66526522F821605E9AA4612FB3ADAA35FED8C47B740EFDB37A072749A7AC8C7126F174A53227D4108F54CB24E9480344CC414199908C8336410590093411D3306EFA
311
71EAA7F5CBB8DADE6EB6ABF52B679514FC0DD136DEF80401979B6950588EBE181A38AB80E0399846D514449CBBA3A50FCE0A21784CA1B4D0C8F4B514522E8B354AA652163B813F8CE0AC86BD88FC001E8251D79AF9C2DEBF857E02AF213C96970A46DA6BCDFE9BCBBF55C04E1B50BE415D08F10D504B030414000608080071
311
6F984FE3603EBE7A000000C20000002C00000032444638334236422D423832312D344543432D424334342D3336333434383142413532392F636E782E786D6C6DCD410EC2201085E1AB90D9DBEACE05D09878023D01A1D34A8419C380F1F82DA68B9AB8FDFEC93C3D7C52546FCC12980C9CBA232824CF63A0D9402DD3E10C6A
311
B03A3397DD192872090D3406ABE7CCF5B5D18893ABB1690CF4DCF02282E5EA8A5BB96FFE536F285CB347F95BEFFE81C9ED5AFF9D5B1FB575BB00504B0304140006080800716F984FFABB5AC97E000000A300000007000000636E782E786D6C4D8CDF0AC2201C465F457EF756FE6918A823ADDE63343724A761337AFC3476D1
311
D50787EF1CD97F9680DE2EBF7C8A0AC8EE00C8C57B1A7D9C159475C20250AF654E69FDBB018AC3E214340C5ACE3995E78646370D25341A7C7C6C905E6E8299CE602328C1FC6A2D369673CC3AC6B920E67CA4A76AEC9B52E7D7ABDBF2FA0B504B0304140006080800716F984FCA1DF9C9A900000073010000130000005B436F
311
6E74656E745F54797065735D2E786D6CA590410EC2300C04BF12E5DEBA70400835E500FC800F84E0B411AD13252E2ABF27A55740421CEDDDD9B55CEFA7A117778CC979527255565220197F75D42A39B22DB652EC9BFAFC089844F65252B2630E3B80643A1C742A7D40CA8AF571D09CC7D842D0E6A65B8475556DC07862242E
311
78CE904D7D44ABC79EC569CAEBA537E3521C16DF5CA5A40EA17746733E0B6615DE7217475F386F18B9481C510F1F021CD9FF027EA0E1F5C4E609504B0304140006080800716F984F3DEE336E64000000790000001B0000006175746F6465736B2D64657369676E2D7061636B6167652E786D6C35CBC10E83200C00D05F21DC
311
A56CA76D41FC96062B120735B69A7DBE268BB7777961F8D5AF396893C2ADB70FE7ADA196782C2DF776D7A97B5933C430F15651E5469C55D70F80A4992A3ADC954792C525AE70A1E4D6AD9816CC044FEFDF01FE3FDE907802504B0304140006080800716F984F09D82545F7000000960100003700000032444638334236422D
311
423832312D344543432D424334342D3336333434383142413532392F4173736574446174612F636F72652E786D6C8550CB6EC32010FC156BEFD8066C35893051DAC45FD0536F0888831283C5A3EAE71762576A4F3DED6A76667677D8F16B7E549FDA07E3EC00B86EA1D2563A65EC34408A57B483EAC899772EFEA24165C5AC
311
07283070367997960D92CE466D0B6A9DD21B2842D0112AF9C8CD0041DEF42C6A916266847BBD08791793AE71BDF2384BC9A84D6A54763357A33DF0F3B8A36D8F5B74A2ED0575AF98A23DBE8C08BF919EE091BC60825953C49C4533FF6C975E8BA81570D2E23DC20491EE1DD343BF3FD0EE833585C959883EFFBC2D2DDF013F
311
95ABCF220AD6ACD33FAE6951FFBB266323259BEBAA08C0CB91CF01674D4929976784B99644F937504B0304140006080800716F984F4E90BEBAF20000008E0100006800000032444638334236422D423832312D344543432D424334342D3336333434383142413532392F5265736F75726365732F31353839344332372D3043
311
39372D344141302D414532312D4534444443324531374435432F7468756D626E61696C2F302F636F72652E786D6C8550CB6E833010FC15B477831FA086C838EA237C414FBD59C62156828DFCA8FAF9B50395DA534FBB9A9D99DD1D7EFA5AEED5A7F6C1383B00A93154DA2A37193B0F90E2051DA03A09EE9D8BBF685059B9E8
311
010A0C82CFDEA5758794B351DB825A37E91D9421E80895BAE76680A0AE7A91B54C3133C2AD5EA5BAC959D7A4DE7882A764A65D6AA6EC662E467B106FE381E18E60F4CCF019B52F84A19E9C47445E6947C9489F0825BC2962C1A3597EB62BAF65D413088A498F0845B47D27ECD8F547D67EF0A630050FD1E79FF7A5E53B1098
311
371BFAC72DADD3FF6EC9D8C8E8EEB629028872DC63207853D2C9E5115DAE2549F10D504B0304140006080800716F984F69161447F8000000960100006600000032444638334236422D423832312D344543432D424334342D3336333434383142413532392F5265736F75726365732F31353839344332372D304339372D3441
311
41302D414532312D4534444443324531374435432F7468756D626E61696C2F636F72652E786D6C8550CB6E833010FC15B4770336A086C8384ADBF0053DF5E6DA0EB10236F2A3EAE7D70E546A4F3DED6A76667677E8E96B998B4FE5BCB666005CD6502823ACD4661A20862B3A407162D4591B7ED1A0307C51036418189D9C8D
311
EB0E096B8232193556AA1DE4DEAB0085985333801737B5F092C79018FE5EAE5CDCF9A44A5C6E3C4663D472976A99DCF4552B07EC753C3475876B746EEA0B6A9F71837A7C19117E211DC12379C204D32A8B190D7AF9D92E9CE2414960A4C63DC20491F60D37C7AE3F36ED3BAD3293511F5CFA795F9ABF03166E71F9305CCFB4
311
DAA67F5CE32AFF778DDA8486ECAE9BC203CB473E068C5639A5541E11A69A1365DF504B0304140006080800716F984F92AB91910B010000B10100005C00000032444638334236422D423832312D344543432D424334342D3336333434383142413532392F5265736F75726365732F31353839344332372D304339372D344141
311
302D414532312D4534444443324531374435432F636F72652E786D6C8590CD6E842014855FC5B047BDA85127C8C4FAF3045D75479471C88C60049A3E7E61B449BBEAEA92C3397CDC43AF5FEB33FA14BB915A3508E21445424D7A966A6990B3375CA1E8CAE8AEB5FD654391E2AB68509011A3CBAEDD764A935656A8A02A3D8B
311
53E4C6088BA2E9E90F0D32D35DAC3CE6CE7A8779C41B9F1E7C1131C4878F51E7E47C46E5EC5F93372976C4FAB1CAD20252DC66E980F337C8700DC388A1230581919440802621CCA895EB0F7DDA05B762468CA450632098E4EF905D8AFA92E51F34094E468DDDFDCE27346C871814559D77A4C4695797386F5B0F1E08E021EF
311
FB8E0C50F645479323F807E8B6F97FA093CA66E4041E09E399FEFFAF0B469350A01FAF76FD0C65B36F504B0304140006080800716F984F9D844218F8000000960100003700000032444638334236422D423832312D344543432D424334342D3336333434383142413532392F5265736F75726365732F636F72652E786D6C85
311
50CB6E833010FC15B47703B6410D9171D447F880AAA7DE2CB3A156828DFCA8FAF9C5814AEDA9A75DCDCECCEE8E387DCDB7E2137D30CEF640CB1A0AB4DA8DC64E3DA4782107284E5278E7E22F1A1456CDD84386418AC9BBB4EC907636A2CDA87523EEA00A012314FAB6363D04FD81B32A558A2B235CCB45E9AB9AB0A4E5C693
311
222533EE5233AE6EE662D0837C190EBC6E694D1E797D26CD13E5A4A3E781D067D6323AB007CAA8A8B2588A68E69FEDDAA38A38826435ED086584356F941FDBEEC89B775165A61421FAF5E77D69FE0EE42B0697BCC620AA6DFAC7352DE3FFAEC9D8C8D9EEBA2902C87CE47D204595535ACB3DC2B5E644E537504B0304140006
311
080800716F984FBD9528B7F6000000940100003500000032444638334236422D423832312D344543432D424334342D3336333434383142413532392F536368656D61732F636F72652E786D6C8550CB6EC32010FC156BEFD8066C358930511FF10FB4A7DE10101725068B47D5CF2FD8AED49E7ADAD5ECCCECEEB0F3D77CAF3E
311
B50FC6D90170DD42A5AD74CAD8698014AFE800D59933EF5CFC4583CA8A590F5060E06CF22E2D3B249D8DDA16D43AA5775084A02354F29E9B0182FCD0B3A8458A99116EF522E44D4CBAC6F5C6E32C25A376A951D9CD5C8DF6C05FC6036D7BDCA247DA5E50F784293AE2CB88F033E9091EC90326983545CC5934F3CF76E9B588
311
5A01272D3E224C10E9DE303DF5C713EDDE5953989C85E8F3CFFBD2F21DF0D7F5CEC09A6DF6C7332DEA7FCF646CA464F7DC14017839711D70D6948C725903CCB5E4C9BF01504B0304140006080800716F984F481766B600010000D80100002D00000032444638334236422D423832312D344543432D424334342D3336333434
311
383142413532392F636F72652E786D6C9551CD4EC420187C95863BEDF2D34DBBA16C6CD527F0E40DCBB795EC161AA0C6C7176C8D7AD3136498998F994F9CDFE75BF1063E18673B44CA032AC08E4E1B3B75688D17DCA0E22C85772EFEA0A1C2AA193A946124C5E4DDBAECD0E86C049B51EB34ECA00A01222AC65BBA74288CAF
311
30AB52AD3131C2B55CD478551394A4DC785244337F49470F2A8246921E488B09C5943F1176AADB13E3CFA2CA4C29566323A3FB30985F40176E892912923513D5F69C68ABD13BC9E8F4497331E093F3FD63C3FA638FFB8612CC1F8601F703E7981D19E70DE9EF6ADA2693249622449FAAD94D72097F956FC25FD1D645FF33DA
311
A6084892EF5055EE598AEA7309E9CC3B911F504B0304140006080800716F984F64E3194206010000B201000008000000636F72652E786D6C8D50CB6EC32010FC15B4776CC0B61A4798A88FF80B7AEA8D1AE2A2D8601988DABF2FC4AED4DE7A5A3433BB330C3F7DCE13BAE9D51B673BA00501A4EDE094B16307315CF001D049
311
F0D5B9F04B06C8CA59779061107C5C5D5C76687036689B51EB94DE41E9BD0E8086293D3AF0C3879E652163480A7F2D16395CE5A80B5A6C3AC183997F568755CBA0150846688B29C3AC7EA5D5B1698F55FDC6CBAC143C46A3762BA392BBB918BD8278E90F156928C18F1539E3FA8956B8A5E71ED367D630DAB307CA282FF3B2
311
E03EACE9CFFB919433202F6FD997971B25F8BB73D32E48A1147276FA02417899893FA1E3A2FE11DAD850B1FDE0B6E141E440772219E706D3B8D79B666E5B7C03504B01021400140006080800716F984F50F58DA540010000A80100004F000000000000000000000000000000000032444638334236422D423832312D344543
311
432D424334342D3336333434383142413532392F4173736574446174612F446566696E6974696F6E4974657261746F7250726F706572746965732E62696E504B01021400140006080800716F984FD5D5A6FFEB000000300200004500000000000000000000000000AD01000032444638334236422D423832312D344543432D
311
424334342D3336333434383142413532392F4173736574446174612F496E7374616E636550726F706572746965732E62696E504B01021400140006080800716F984F88E57597CD3F0000904100006B00000000000000000000000000FB02000032444638334236422D423832312D344543432D424334342D33363334343831
311
42413532392F5265736F75726365732F31353839344332372D304339372D344141302D414532312D4534444443324531374435432F7468756D626E61696C2F302F67656E657269635F706E67504B01021400140006080800716F984F28BB58AF800100009E0500003D00000000000000000000000000514300003244463833
311
4236422D423832312D344543432D424334342D3336333434383142413532392F536368656D61732F436F6D6D6F6E536368656D612E786D6C504B01021400140006080800716F984F670136ADA9040000B41400003E000000000000000000000000002C45000032444638334236422D423832312D344543432D424334342D33
311
36333434383142413532392F536368656D61732F47656E65726963536368656D612E786D6C504B01021400140006080800716F984F8DFFFC99640100009B0300004500000000000000000000000000314A000032444638334236422D423832312D344543432D424334342D3336333434383142413532392F536368656D6173
311
2F52656E6465724D6174657269616C536368656D612E786D6C504B01021400140006080800716F984F5467141451000000570000004700000000000000000000000000F84B000032444638334236422D423832312D344543432D424334342D3336333434383142413532392F4173736574446174612F41737365745461626C
311
654F66436F6E74656E74732E62696E504B01021400140006080800716F984FC55C663656000000680000004500000000000000000000000000AE4C000032444638334236422D423832312D344543432D424334342D3336333434383142413532392F4173736574446174612F53747265616D56657273696F6E5461626C652E
311
696E66504B01021400140006080800716F984FB4F252EF38010000A20400003600000000000000000000000000674D000032444638334236422D423832312D344543432D424334342D3336333434383142413532392F4173736574446174612F636E782E786D6C504B01021400140006080800716F984F7689FD12E8000000
311
600100006700000000000000000000000000F34E000032444638334236422D423832312D344543432D424334342D3336333434383142413532392F5265736F75726365732F31353839344332372D304339372D344141302D414532312D4534444443324531374435432F7468756D626E61696C2F302F636E782E786D6C504B
311
01021400140006080800716F984FA233C2345D0000008000000065000000000000000000000000006050000032444638334236422D423832312D344543432D424334342D3336333434383142413532392F5265736F75726365732F31353839344332372D304339372D344141302D414532312D453444444332453137443543
311
2F7468756D626E61696C2F636E782E786D6C504B01021400140006080800716F984FBE89762363000000880000005B000000000000000000000000004051000032444638334236422D423832312D344543432D424334342D3336333434383142413532392F5265736F75726365732F31353839344332372D304339372D3441
311
41302D414532312D4534444443324531374435432F636E782E786D6C504B01021400140006080800716F984FF9AD5DAC7D000000A300000036000000000000000000000000001C52000032444638334236422D423832312D344543432D424334342D3336333434383142413532392F5265736F75726365732F636E782E786D
311
6C504B01021400140006080800716F984F5AC30BFB0C010000550300003400000000000000000000000000ED52000032444638334236422D423832312D344543432D424334342D3336333434383142413532392F536368656D61732F636E782E786D6C504B01021400140006080800716F984FE3603EBE7A000000C2000000
311
2C000000000000000000000000004B54000032444638334236422D423832312D344543432D424334342D3336333434383142413532392F636E782E786D6C504B01021400140006080800716F984FFABB5AC97E000000A300000007000000000000000000000000000F550000636E782E786D6C504B01021400140006080800
311
716F984FCA1DF9C9A9000000730100001300000000000000000000000000B25500005B436F6E74656E745F54797065735D2E786D6C504B01021400140006080800716F984F3DEE336E64000000790000001B000000000000000000000000008C5600006175746F6465736B2D64657369676E2D7061636B6167652E786D6C50
311
4B01021400140006080800716F984F09D82545F70000009601000037000000000000000000000000002957000032444638334236422D423832312D344543432D424334342D3336333434383142413532392F4173736574446174612F636F72652E786D6C504B01021400140006080800716F984F4E90BEBAF20000008E0100
311
0068000000000000000000000000007558000032444638334236422D423832312D344543432D424334342D3336333434383142413532392F5265736F75726365732F31353839344332372D304339372D344141302D414532312D4534444443324531374435432F7468756D626E61696C2F302F636F72652E786D6C504B0102
311
1400140006080800716F984F69161447F8000000960100006600000000000000000000000000ED59000032444638334236422D423832312D344543432D424334342D3336333434383142413532392F5265736F75726365732F31353839344332372D304339372D344141302D414532312D4534444443324531374435432F74
311
68756D626E61696C2F636F72652E786D6C504B01021400140006080800716F984F92AB91910B010000B10100005C00000000000000000000000000695B000032444638334236422D423832312D344543432D424334342D3336333434383142413532392F5265736F75726365732F31353839344332372D304339372D344141
311
302D414532312D4534444443324531374435432F636F72652E786D6C504B01021400140006080800716F984F9D844218F8000000960100003700000000000000000000000000EE5C000032444638334236422D423832312D344543432D424334342D3336333434383142413532392F5265736F75726365732F636F72652E78
311
6D6C504B01021400140006080800716F984FBD9528B7F60000009401000035000000000000000000000000003B5E000032444638334236422D423832312D344543432D424334342D3336333434383142413532392F536368656D61732F636F72652E786D6C504B01021400140006080800716F984F481766B600010000D801
311
00002D00000000000000000000000000845F000032444638334236422D423832312D344543432D424334342D3336333434383142413532392F636F72652E786D6C504B01021400140006080800716F984F64E3194206010000B20100000800000000000000000000000000CF600000636F72652E786D6C504B050600000000
311
1A001A00210B0000FB6100000000
310
504B0304140006080800716F984F000000000000000000000000370000006662782F32434438444345432D374634462D344433332D413739342D3145443030323244344246392F617474726962757465732E62696E504B0304140006080800716F984F000000000000000000000000350000006662782F3243443844434543
310
2D374634462D344433332D413739342D3145443030323244344246392F76657274696365732E62696E504B0304140006080800716F984FF270F1330600000004000000360000006662782F32434438444345432D374634462D344433332D413739342D3145443030323244344246392F747269616E676C65732E62696E6366
310
60600000504B0304140006080800716F984F88E57597CD3F000090410000420000006662782F32434438444345432D374634462D344433332D413739342D3145443030323244344246392F7265736F75726365732F322F305F67656E657269632E706E67355B773CD4FF1FBF73E71C0E67EF7576C9DEF3EC995D46C6A1EC50
310
46649CBDF79E192942562825CE965D8A868C2842C8DE9FDFD1F7E7F138F7078FCF6B3F5FCFD7EBFDFEC41B196891913091804020321D6D7513FC77D8C5070EC3FFEE51B21F068154CC75D455CC028A3EA68992803810109FDDE5D5CEC5521B28A1B422BF80741695D5B529DA1C2D058AD2388BDA9F476F7C2CADC939304173
310
DBF48A452BF8A700C0C70C3D121C1AA15A5270C22E2B9E28763651F7DA0D12CE11077B2ECD0D560B5E3DE2368B1E65C5E1C87384A4CC5F2D9FB8BE39E9B77C753783A37998F5CEF1B4FEE553463245C9712270880DF339E0B882A6BA713D865F6F384C842D440934EF264F4A304F8DE4EEFA1E2BF5E2D91F5ADD9613D6E31D
310
DB33ED31DB1D7916CAF091286EA3D31B9CFECB78BB0060245B943C4C040119FF780A74DD308BA9D028678674EB5504ECF284EE814DAED07440BAF649BE4B55DA2890F4D73E2D489A59EE54FDB0A85B59F2F52C4858A02705C4815A792B0C4A996A2023ECB195073E115E3E3647F64243A8338F2000BCB58DA5692C7E7C3D41
310
3F963FEDF3CF00FBB0F831A9D51360FECA43819F527B89FA260EB63C5DA676830AA3626A3693B23F1A17A0DFFCE3EE164E31B5365EDF0C89EF64D8E38AB0BA9A1117D7C3A0EC44F44F4023095E80BA610DE336D0F99593A88BFC5306E72DF98F7FD132ED95878DF2964EA7E43071359FD83B2BDF9C6B5BDF768F0F3C0FC351
310
199526F53D9460A34511F75D1B63E488178569472C91A94497807A3FD4A390C6558F26D416365C3656DE6E769DA9D8FC73774E1709812842DD8EF96AED1960F79D21B395CDDFE6F92CB4EB962A4668C76990E2EF29798C8941D67DA50F4A5F947872460F1F6FDB794E8A29FD7AC0C0D6E0714339CE258FB17AE8535221E346
310
4A10F29A0BE5EEECEFC5675926A89F49EB14E5711894F6586DB5754EB4D5DA9C6437EBA57DB97A24F8B8A8DB295FFD73266CF57E82694DF5166DDF93573AFE9C9C5EB05F8FEF8E89E0A8917B0B3724DB7BEBB53252581EFC3E38166BA131A3A5B42FE2AD00A769BBFA4458D2DE7822F8C4F63D0B8E21B285AE13325F3410A4
310
35C648C9D91FDEB109E73CEDA7BC796961AF79175E1A3CE4C5E8B0D009B0C9E29EFD98BC8E97554E3D8D838424E270F7685226E5AC268E021EDE3522D583E8F20C0BDE2959EF5BBFEEDAB32FE9A3ED0E39F211A86AA9DEBFC68182EDED132AB8BB794442D2D7EA9F4D8BFF52BC4D55BB165124EE90A42D101E67BBBB292FFB
310
4F66DE5BF2300E44546757DA7CEF8932BFC9F92A0707953491A55C5A5ACEDABD9FA1AEA01BAC3DC5A24E22E7C47213493996EFBC369D086ED9397C9BA6C7F9855C7BD5E15BFC8C53DB3D2A4C5901A57ACD2FBDF4D1676E95338B2C2BCE65FDA4C64F5FEFDC7D9CA5AA1FCF11E193F2FDABF0F4916BF13FB916A224380E6462
310
A9815F2300DC49CC4DF8D055CEF76462F4B7A7ACA7365C2707891370BC1D0AA6203C44CCAB47084FEC057F27FFCD57F89B8B9852459798A675C66BD7CE572CAF71FF7E6D7ECF7BF62CAB7B3F1107DCD04DC55A3F9961700286141C94A4F771FEB2BCDA2DDEE0CB0BAE402FF1DB0100F8E475DFFFC074DDB4498AB7D186A765
310
4DDB1CB680D703D47CEB4E72F8CB13D86A4AA68116E26387B93FD6738779B34FEDB8E517EDF2BAF28D9BE93A1D3A164320E07D42E514725C29515FF361754213EDE06B079A2E99EB1CA82A02019EADEEB87B9AF005BD04BBCECB14AACD6B24EFBE482194A97DD32400685FF1FEF1544D1B14EFB1E7F08E6D2CD2AF52DE757F
310
35F5E62332EE88EA26417AD5C3E0E319D68F25414E6D672BD4522B278C57D18F0113921C71D96527E091F00CEB15AE23D24667369BD3CEFA10C7549D930890BA4366F4EBC55F01F746109F98ABCDD5A3EE06619C6AD78AB33E48E4C9BD21BF7478B385EC05C4F8987E2C1BFA0A60EBEDAA0AE0B015C2720ECE180FB6F2DEFB
310
EB822D96338C9B63822183BBF52FB664A7AE57003AABCE512BF77E7E31BDA2E739AC4C131657DDFE5225E900FB56CC01CDE808FA4A9C9DA16AC679656BB64796283D89812B8F91136AE18EE5EBBAF47A73BE3C153EB5D4CD491B4BFB4FE690A4CF9ABA08C0D8AA64220C438C96EA6CA80B58FE5761E697B3A292EB9FBDA502
310
FA863E49FE694ADDFFF9D62C520BDD1A22014147A0903A05B9B729F54272EF83931FEEC057BFF8C8055C279EAC5C0011804828734024F6CFA319C9CC6867C727184465CD9BB7ED386AFFD96B294A85E3802FAE47244602D8273615952B98C4F23F7EAE4463D9D638EEE374A20959E0FE519C4CFB0FBFE5DD80C2AA3F9DB961
310
D1BDE57E67C9BB47B77FDD74EE3094F5DBBE3EBC1FBDB7393F5116263009E2EFE1AF9A221B2AE234C902BF70E9F280ED23E73908361565964333A3F01D0B006AF32FB21AA1316744B489D5A198E85299241735BE559675130955C902A8ED761FC0DBE337A9F91919AF5CE32AF902ADF9AB2615E00E8A94586BA1A90839B618
310
32FF1BFB76D2EFADE6DB1BA04CCAD3DA649E7E2A0219F592E22F2AD54847EEA8E42271011E9074F8F3DD9FBA6CDF88FFC9FC7E811AD1CA8F4557CE4AFC7BBEDCF0114A48689F20A584520C74DA8127124B767E2FB91A6B186246727BE63C9445BAE02088D58B8EFDC0F1072407CD9B89A13F6303B4A928F593AD489B58E686
310
9325790ADC406036C591729FE14021F94B7796BB11848D463536A092A26F077F94639F7CEEE2A724C66EC885F4A24F8B8A0AC321F8FD149BA529460FAA34E4663C02D41FDF80BCA222D42F0ABFF8490F4FA74C673807C2051D8E467B47B616072860069A9A303ABA9B319D58404461401B0A0F9BE5E1E151C14BC33B32ABE0
310
3DDE91708DFAEB15E7C0D593C86BB7D7EC17BE56E57975F077BFD5525F3A1A361D584A75E08CF29FC7B44B2B3085014F3A5A14517377C3F6B8F37E59514C3B12F8AACDEDDA4DFC49BE5710101534CD6FB6DE15B50F11A09472AABA727F0C49D9CB906B158030065F48EB3625E010CEC1D511D0053474B11E6A4F01C0D6EF1B
310
ED3A944FDEC70E0DDCDC756C86545910E0DAE3BE3AA9A404574C2995CD5CAF9549226BC94B4F4F0F5F9086F418F6B32346464610D8BC7391D3C3A3CCF04CFC1FB2A3A3170E369511868F14EEA4E5E438CC73DB1F3248AA94B6B2FF33B222FF3D1E7BF146CAD229770158063BCE4F5391964DF62F7E52A7BE0EEA829C9E13C4
310
C147D6F93FE59E111DAB5E4594D6F3CD1AD375EE039930EFE5AF2BB2D41C83C7DABD8C659BAFBE8FAB392CA634F3D15C1D945DB4588D2B0824A4EC928AAC565557CA2F0DAA588CA5BE30B3A8004F7BF005E96CBF891D7F18112A3619FDF530DC8AA64954258E1811789B5189B49B4EB53F5F89F7D37523894F3EB57B373763
310
C91E502F52CC99EB7BDDF933FC324C4FFC2561DFFA7339FAFDD0A4BFBE6D3A8FF9ED1FC49898139864602458968913181918F719CCF5A68B2EE9C1FF050E34E63107003B8120FA982C21B30A874E4F5E4B38D5A8290C4B8D9BE48A0BE31EA995BDC37AC6DE90BA17D259DEF53605D55922FEB1855D915B659FBEB350EE0DFB
310
2F9F766E1C84CC8964B75D08667445EAB966015F63A18A9E0A325C1B3DC628C0D3CB60F767FA93CC65F25458BD23C3B312716E5F40E5858AC06EBA9AB14F95DB99147B832069201541D09A0D856E12C629CF32683760EE855537D1901988D5EBC156676C7DD51D7207CF3267AF1D76C2AD867315E44618015313A98B19941C
310
696FED3461CAA9B5415F918556D7802EDACEFD6B2E45853A9735DFC9DBF7E440F9319F8B6805A973BCCDC76C069A9144E51F187EDCC12FC31B5DEAAF0A76137199B106EC84ADA6B6EE697D4E6A96E007417F4E880E8B1E89B4BCE9D81EF611E2ED8F0C1A6C25F620FAFAAB656A7C42D464880E8AFAB0E0FC8EA38CA9A8AEEA
310
EE3E4648BA4680270A89743CDD3E6C6CBF34B7B640EFA285ABC7EA0A1E28F3CC963D114A80123EE66D0AF7D5380EB41909B605AB4765B709B808590458157E69BA1378FEC4B48CAF6A730E3BE3C5EF2DD1A5EAF94B1DDE50CEB55DDFD7EE9A16747FA4B223359FB1FCC69E1194892BABB93A1D5C4E807AC0EA2E30180811E7
310
7A2291F6E7F7FAA5E0F60215BC6024E48DE436C511F0628B8CA189982D4D83CCA17D305A7E923C37941CFDFDCD93ACAF735EF5F0E61BBD3E6C41A59B242790D3A3BAC7064DCD89AA2E37214EC839820949D5CAA31E240D2948E48F690298974A96BA9A8432BC90F5071D6537C9666EA4564796B7AFFFA548077BEEA75F6308
310
3435074BA182F3699557397F71548383FDA8CA34D99B981E72835ECDA5DDDC151315173D05A21F651AAF8524E88209E2E7A737ED1045800CE3390050BCFB8BE588DF111617874C62575039CA588EEFDEFEFE319B739DE2EDC147092A262611E159650E787917885EF08F1F51B8F2D8A71D60B58B190FEF9541A1BE94BC19FE
310
A50784DA1419FE4B0FB51B8D36B5FF8E1286FD8AF42B91E59A5F1CC4D60174E764045FD8C57B18209B217F89A62252BD20BE0E63E12B8E8F029FE19E0E8D0870F58721A557082250D5424F7909369376E41666C0EE77CD87CB283F661D5FB6D0DA023CB67320A20DC7BE661E9E1BFE5463085C557DA1FF9BE835733766C3D1
310
39F2CF9E2208873AD0EB4814DE9E6BF2CAF81614D4D43906ED1C05A3265CABBFE192770FC2F64F940CB6B17B5F166F133C9AEEAD2641807C3E69515171DD74C4A85311513D6EC9530B3B601B6BA3EBFF3B5C3D2F7D69765141E345F75433953D013ADDF8F6AA7DC3F4A7563FE5C7D367937E2900D7EAD0F9FC9A4A1A9B5BDF
310
1FEF08532660C01C5D6DE22199AA774383E306DAB87E301ABB7D213887F9869D4942D0D71E94B27EDF216A318BD488D45DF84529EF575AF3C3938C0AAA0215B01994153E2054A0B894DA5C784980633AAD48576957CF4AEAEAFADC7C587368551C73DBE1E57C58AC713303A8BFC258BD04B51724459FF9E24C03A81E0E0679
310
CEB9B348C0DC998FEB9C6D6EFA77D247CC8F92D3848599ED89A23218D0636465AD1CEEB7DC140D7426F83491C4E8E8281C2FB35240918FFECE880CA2A42D70E8B20B34DF5221C7DB0CF90ECCB9C745B37A47E9B716FF7A97B7A252C1F3814DC7B1E1A7F72B8751D524EF7CAE45B0C73B3BE7D08ED39781B380DDFC9AA4A474
310
9C9493DB5BAD07A6EA6C092FBD0E85DB004DF06B8C9D3089C5320187E4CE1846158C7EA7DDAE8AD9AFFF21AA3A1026BB06A259845E8232DEE62811A4DA9CEAB3A4887320B76E2AE5615EAB7BDF738CBDD01F1E64064BC13D9EC53576751CA8CACD58B3CEB0E6CA585BD089B2A59B9FC101403387AADBDBE70586B93D64BF3A
310
D4453EF9C3B6A93817E8346991798601344F79A83C51F3D50F7BF2683A3605F51A72449489E0EE6169C749C60B1035651103AEE24D24E51A759C840DD3FC6504DA6FE107510E447B43461C79D22970B75DE5E1BD3007D1AFC619A4A4A69B5626AF5E9B8374E20677F77E2F8E73DF868E8BEC7EBA7B6A75EEF7205E1AB9486C
310
B642741D6E03FF13FCCEDB1C4AC129886268B01CDF4B124AF797CF784F3C6DEC97A17D4B558070A0F1C04DA4FF9BDBF34159AEFE958479824B3F58EBD1E19088A2AFDE501B6F2052368A3FD0E650A179EFAB1561E1D27527077136E652676C3670F42DCB3352F48F6BC86D2C3B0051727E41A0A4DC6CE2BE9D47F5CAA2935A
310
3C0539AF080665997194ABECD723B08129CC5B6B21D2E7D54CD4D12610E7E9FB8306771A89576C7A982002775ED44F3F744CF21EEBB27A631671D921938AAEE3EB0D19CD1E083727F607823E817BF599DCED5394E37EEBC2E88782E638920CA641EF74D4CDFCDEF06F4278ECB18E31E7E9876F2D783C8BF429C75395F57E98
310
C2B495A3DA077EB3AC3C158608B6B57FE3EA48484D9A480096FCEE0DE880950E7E5A5714131C5C41AAA29FD19AE81AC145FA1B9E85C7169A5AB837B213493DF7E9AA4B5FBF9CDEB36EBD21EF1181B7CF7366AB2A951D01E37AF4EB835D1BE8C117CFBE7625D2EBCDB0B20C5A4B45CED0BCDE3EE8DA9DA78C2E21DEAAFFD119
310
7E463C33CC6A80FB785669B856EFF7A8CCCA2841B5A5369173320B1170C368B2748D81062EA0296E5E2D95D7667A4A46D98A6FF475C76AAB0A8C8D45E226FAFC9FE0133EA9F60111F99CA81ACE03A1D14C89E8B0D69079C91464FA1D99E651D0EAF606F345C42A8A1AA9BA391031582B96D5B4176A77AADB01F12FD298A75D
310
EEBB2C82F0B8650E880722F8DDD90C56A7A058E5FDEF1AC93545BA27367C76F5D8F9690CB6F8DAE141EDD7971F0FB548A2AE435F224D6E5954CA155512F7332029D5A1230854B79F258EC5FFDB09F5F6343A8EB193229B7F7E79B3E48F8E183860B38C8269D1B53738FF1E0BACF6AADA6D4869E9DE708E79B5DADCC09B1BC7
310
6F649731CFAF59A83FD8BAE4C749D66FA87A3810D4D62FFE826FA400C0F325D2BC0F3CA35F5847B82A2ACC7961745C823E4D863D54460AF792CE6F79B5C7A33B25C3AEA6CDE15A919B6367D781E9D44F61BF828672594A3E1D9EDD6DF179A81F27EAC05B936575D73E05C209DDD2115CFB705DF9BBF3C911589B3640735E9E
310
618FC9C36A7326C82B2205E244C55D56FDB9D5DC93CE958D4BF8174D2B3DA54CB3C09F2C2A6DFF73D23B2197355761AD421EC581284A7EF8DE2CE3497C0C804D49B41DFD6A7360844E5BEFFB495CFCDB97A4595911CDBA623274CE852B5E278AF0BEB1770E9D37CD977B2766A7DED0E94B840E1E95E8C77DE5CB6354AF7871
310
427C28ADBEEF7BA0A28E19DE9ACD75F379FE373EAE6DDDAE3834692F9C2B03B4FCA8FCA9ABE8EEEBEBB725B88A7C90941E850682CA04061A7DF0CE82ED49BFAFFD42C309818FAE14755CAAE78B0F73243ECCCAD7DF58FCB9CDFAE7A4D3E6671A613639130D056C8383C8F4FCF4808C331E544DD26E4755D09EA05253B3049A
310
1E32587CC25D72E073E2CD96D04A71BBCB0038FEC3F53D254199C3CDC67CD66640269431860225392B2CB3ECD0B4498AAE78BA1994246AE1EE78F2EDFB79F6C6CB6B5E279C4D373FBC21CB2698C9ACBBEB6A4BB6B39E16AB0E421CCBFC7654D81ED86022F9BB522146F9F4772E2D0E4FA70120C95A85A417BF5078B232F475
310
4363EB1750B2AC2148EB46B1EA72AD9B4D23ADCBC589D70106C3EC2ABEEED84DFE28E718C6C83502C28E9FDD3B09DA0A6F6F7B72B706A31C9E2A331EE70DA56A083D2177BFD63C55B11D8D949FAFCF90B23A1E24B9B5018B9A17E99F2890EC302F330FE7936E2C23F0D237EC8916F5166AB84B62A21BB0B950146962D754F9
310
2CC2C8877BED8FC7B7B25726DD19545392570B3A2C66B58F027BEF412E552D12A588C4A3CC5C3193FCB3485EFFF700D0B9EEC077754A33DC1FB9E25AF814628F91DDFECB667D3F7690803F38D13F8AE39353523BB08FC6760144AFA2CE28236F65EDBB3D5F59A57D612B99E3D7E5F8A851666BF9B5A6658EFC96EEB37A378A
310
BB0EB3FDDF1303AF32C41BD1C8560745D7BD81066B0D6313359CF488563D3BA3F8E2185D1FAA3EBA1397C9D0E3DD232180A4DCADB6AF25DB3AC3CC26589C8239E66E81547BC7E2F328F9884764CA37EB5DBE390DFC03A5246B456A7C3684C4377D0EEF9A350680FA9A077E8B2957B489E09AB1AD41316944C2254B5984830F
310
691C93CAA767EECF976FA5647538830B5E63236A6F0365C1E0F3E327F24FE35EDDBD7360B0F7374837409F7A6311BECC12B7026D4FA1AE204FA3F5FE904B1F420C7A9044AE58E403E7C4848E7DA25DC9EDAC79DD756FAA26B9EA83ACE8A214A2612A22AFA19DAE7DBAC5F8CDE1292A485F98DAC731A29FE01A3966E96BCB9F
310
B5A4C8830E1B9AF0C54B87FBE221A097036E5D28D1F869F810C06A9BB0AC0612F69AEBAF893C6E7AD59460208BAB3A6B09CA4F6BDDAB8CF0D1F84B72487498395A70DCD754796E271099A567A55CF242BBED64696378BB6CF25EF0FCDB589F3A82F1116D010A9AB9FA4358809EE0C973A2B4229BAA876A70B03AB49CBA7FBE
310
71DB1832FFD32F9BF2C8E98075CACAFB36921235D0F552B6A67E94E094097A5D7DF681B40623DA535ADA7A9AD8E9A62407D7C9A5AE51D62A17A83A23728DE86BB56115804D3F2675F2C6B87541A0FC497BF0CA86420F558C9859EBE9FAD62747E323E3AADC03FDCDDFE7407B09DA90B44E3185723C5381EAEF589765E2F7A0
310
99BA46695BAD60CEF3491B8A171F5F56444F7CE9455312C3498C74173AEA0214EC029833B34B650CBB5A5508D5091665309642791708ECF27CF11DB3D797D6CFE474453BD4BFADB768094B2147814D81C7CBAF8228DCAF5564B5891F5EF6A860EB2E323CB82AB868D8EA048880D63B0DE5341F1B3D53297B928A11E15F25E5
310
148990F710747C3509ED14909C552EBE3973246FCE55D00564D8310BC3EBC5085D08D806799B77D6C57FDF5E55837F9E934F09C03C729271B64F12D0A9F9E938107CAF7BF1EC8CF1BB9B42363D33070F4CACB425E605DDB0A34A12BB936DE286B9887A4E2E558F0886498BFF49C311D96C277CF6A9FC0D75AD0ECC5226D7E0
310
E3572012E56D7FDE4410CEC7A6D0F997F225A2055B8B92E3956E875AE4993CB3D4C9063AF98FD45E1BAB165640A43439A2C9181A7C355B297C0A0CCFFAE19B6FA3C2BA238A885FBC98B8F6DAF4B94B97304878DF4D8BFF6A4AEDF79E90ED4E68F00CD7299F4E0D83E35601AF0CBEF18C1E870E74758FA91F5131075004DB3C
310
FCF09AE1DABC11957FD9808C92E8A678CE9DBE40DDA0E0D1D505AAFBCBA208232BFB6FB3704E8985E61ADE53DE74152F5C7DE74B1DEDCD37DC3E8FB30D7EBA8B9EFFC3606BF90B8D438279CB7709FC7C00D327F41817EEA71CD9E49FE9C8C9A81C70915D9F0F15958EC5AA4C3BBFAF46986B90F188BDB24B89DE3C6F29EC3E
310
6F66D84856EE96A35E657CA41B41EFD8DBFA16AD6E91439EA92B40B21C053249F51AE50EB0B24C770FFAF40DF12C8436366819C48E36547D4E7B72FE2BBF10828583057814A668BDF183F6B2E58DFB151103E56303E63D00F39C27C4661605DB644D19175D02E3F0241E8FC3458D17AAAADB117CE9EEA690D0DB01E634878C
310
04C2C9310B69FCAB831151E3AD293BEF6E46B0ABCECB50F5939B39C613D41E81FAE8D34CAE3C4566B761D37185FE864AC32FCB71AEF39DAA5BAB88609BB980CD2F07A8F941653B529567726E2B2A58D079DD57E1E5E31426CF184A04D7B03B985F276D47406AF276FE32E3328BA866EB1FD39BEF57863A317634AA5FE46740
310
9B3873F5069EF0D71AF00AD189D17BA1974ECDB2D623E9E14086386A6AAB5807825C37B015BFE892AFD154920EC437EB945D958E18622E1E0FE2FA06557CE4BB9BBD05A2D40E774DA2B65473791E314B7D6C886820B2FCFE4AA272B3B8B15E7344A145E8AF919B5454D89D36D413E87211186BF6F645E5EC94DCCE8E1C7990
310
22E4EC9BC86D7A0F2AFB1FC4B2CE48F84B3F49ECE65BAD24CADCC07EFF39AB06BE9E6B27A059938EA7208838455383DDBCFCD967DDE4650EF92A14FF933C975DB20BD7FEEBC4487576485963D757D16340D9599FEB362F775F38CA4185A86F74B629C81B133644A3B18FD056E997E0734F9BE26D11C0AAFC669E2AC9FC41D2
310
81F8B2E1C35AE27BCE05F3DA295488096688719D974DF1B5D182DB7792288697F8763CFB43562C1CDEE11C4AABD5C22B6E33F6F389CFC3477C5919DC0D533F8A7A1846B7ADB60ABDC26C43D0CFC8910B7C15EE22675BD02702ED39DB77A87A192CA7A543E6205B979B9F5A6B512A3CA799E198B2D5797C0AF8D1D872CA455D
310
4D431A7879D4DD76110B5FF7F4176B54477A9EB5E4A5D11214FDA585F0382751D8E2582BA5D2075053298FEB8F1537304E32CB22C2E2B693DC0A760B1DFCA751BDC445AFDCBB12820ED85F6D5298933C7EF1211E9E057684056CDA3FEF3BB6052355E162DF27C59E965A8DDB7F9437EB72CDDA3A090DE65A5B2F50326247B7
310
EC67B73ACC7047FC9B353D6EE990F772207C6EC52B39DC2F3C0754821DAB559F7C1809C7D0DD5B0499D0442E0A6E391B3D5DB46D11E731E6794EC77523FBDAA242ED67F9FA1FB684255671F63C9BCFE6E7E896D51001A6113EF2298BA494E0B0980D1FA5B9D60796554C02256B1E0345FB7C6186B6A19D2DCA270416262845
310
FA4F42DB5D9B0A0B6F07FCA2E56C242522E001E0CEB734AF310FC8BFB57E38E03AACE93B3326A2197891E68452B26A6307FDABFEE0223D3C03C3C73D2D5BC054C8311F12004CAE488E5C29287F8156A2CAA4AD0D7BE6B97264E4139F437CE73ADF52E5134C52B819777C18B323A5924E4F67AFD13B1CDC3A61793A79FAF5C0
310
CEB718E441071E797C6DCCB9EFCF7E4A1E9F3DF3C2F9C9E8294E9586868788C972857FB0556D7A26941A7EEB9B580AD78EC40B85DC906B4120A563CA3B87797ED612D3B035962BB75F6515A393F4CB057F564CDF54F2E5A024514E6A1F901DB80C7E70B1FC05E356A7E72FABF4775B3E3FB8F70A2A8E7B6A94542BB3041579
310
78CCC999E707A29CC795E67A59CC546A5D47B368954CA7B6E75EC9E1F6FC73CE3B4F71F8CB1A6B15923D61EAAEB14626AAA9D04A26EB9C66CD1BE86CA31A5D8703DE04CD1EBCE4F5CCB62F93909AD11E55799A781A956ED27D3E738F4538CB04ADABC7DAEF20BC35BA6A90BCC1DC61BA05F20D8832FFB9BC9B15E2DB838A0A
310
FBB7E0C82A562127E0446894F427794C3037186F622BF24DE1B00AA10A23BFA47B2A180D6DA5AD6F7326FEB8C100C2D7142EB2A0B2A9D1008A09BA343D70E054AB69E2A7EDB783CBD92537FAF4A44D1296AC2792729104B3276C276C951D0CF3CF3F1E6B017720A7B8505A5FF9589365979678C36F1BAF759EAF57C60F1FF5
310
FE9DCF5F8E764FF25A2D06CF25117A8FED51884C13B2B750DB0E4F5E3D64124FCF11F0AD8F1CC3B3DA4B38ED22BF1CB2585EE6BFEBBA63FBFD44F9537B9B37BDD6B358720F98A8125AED4349CCFEB0E135F19E208A04CA7E2B10711185D72E381F448036EF57C9F874E54A971CA37A639E986AC0226DC5AA00D5B14FEA9192
310
234B3DE617814FC221C92F33F1D392F297731B567FD98FD91D989379AF567A65B8ADF177591DB90FBEA99BF4ED11B16E50A0AB1DBF1156D034BBE04D69D08F939D8E92BF525A1DDAFF80ECBC95D8F45D3FDD289FD23F7D8B452F8EBB34EC082DEEE68E18EDDF072060FAD2AB1504DD4879BF67099FC58F6E9DEFBF645D1633
310
4A3E9A127C6F1AF6132CF287E433B43A0EE93812B4AA0B194E03EE3FF91EF9C6ED0074A2F6EB18A96A7C9890B1FCDA1F2095E944DB911ED54C60DF16FB74C8CE9BDC7C54C4F14078CF73C2FFF1F1BBCCD7CF64F71407EA1683DBC410D226627F66E509060D5C0AFD611DE681D509DB8DD12FB1265B03C6F5C55FF4C30BD941
310
87FF692B4F152982502F193098A789526A038AB529A52BC0DC4FB6285CBAC10A8B8DB75DCD9BDABBB221E27D1F8DA9F5EE5926A1C8AA9BA9BC09239C6A7F12914EA3B59EFF7AAEC3FFCCE56F1C5C2980AD072793527565E774F4631DB178CEEC691B1F367BEA0CF2907E1D6B854D527065979DDEF002D8B2ACEA7CE21AE297
310
737EDE1D45B31233B73FEA35BCFDD0B09721FDBAF6432681F2FD10C3E9EFB246FD6E854B344ACC9D8A0EEF876A7314B49B6A499FC650B099D650DBFEC7638ADFD245E2B7839DA5AC5F7D5623FC0ECEEC8653FC9B2BDD1AD4D00A566FBA7186DD3C9CD26512551637498CADB950FEC71ADB9A5524285DE328B8EC7EC75D2345
310
AEC6A27C42AF6D9B92155315C80DBFCABBB7DA0FAE425C4FB896B15C9BFAC4FE67DF5A23D30C93DA4D8F36FB15D100050DA6062E22AEC5F4DAC4F6FEEF97AE05DE63C6D38F9E068A20BC5E3B6BCD75320C5090924E7F93640A7735B1A43451C2D91EE62C6238B797349E59890AF3A520DF4A87095F3ABEC2E61F0593416CE4
310
6CDCBE0E00E2523FCCD04408588B5B6C9DB6459C786CE378770B54F51DA3A5E1DF2A3349BEAAC234A6CF8993B598B3B25B4B113E353A4D750FA7534749430F3EBF2512E7EA3FD43C6AB9A1F765A58463B306721A15D224FAFE8C6F5E3432D57EE697DA0DD5A9D4866A8BCCAAA9DFF1F06047851408FEC060471D0E3EB86BFA
310
F46E4B5E60311DC3E3CEA147C75CF971BE74689507154FF2D2E92F15CDB2B9182B11459FD8ACAC5A85F174BC94A7F4EE4C4F5CAFA7C02E37BF0BC77B7DCD0C047BC316F562A01A441AFA7931CC84A28CB9F4AA367EB515778F29BFE61195FA671F4352E5E46E3A64773F1F76EE5EB36D7BCE9BCEAD837A4D77F8DB8C92AEEF
310
6711920D7C7D0F76B0FD0EB7AB83724CD35BCA7D36DDDF5FBB7FF6F04A91F3E2BB3B8F1A43CD659639507FF6331C5F697BCC782AE57D757A27D97F1AB9E0AEDB43F92F1B2AACDF5FEC8ADBAF9F814E2027003BA2F9E144B1938A7A04050AE5D953B82C45619165C813A10E76DD6906B3C16438064D14CDA713AEC420034613
310
E1AC7241904A49FBF87409AFB1FCB9B72FE7933A87D8FBEDACECE4EDCF6A4FE9FB94D5DEB74FAB7CFEAE17EE965DF980DCCA2D04134994F9A2E94D2265DA4FE6AA7B7AC15FACAC2B5ABBCD7DFF542C5314FDAB2E1B9D8B65220B8E2B638BE008E8DCA22678C820C5053664D15E89F2D735B51A84955E81A443545E9FF787BE
310
0FA700A76D136C27DA179A7C6E8939E01BE756E19CB292798063D8B97F44E8A27BCF3A614FEB8BE974A718E86F7EC99B53CA35FA24F61F2B07266684623A3D4CF073E511F3A10A8FDAFAF0078C577F4DF9D339FE7862E5FA47CF4344209E5BF76D783B1B48E152AD281B15FCB934DCDA49CEC5706B1EE8B460F435324A5CAD
310
154725E21AB8044B75A557A79F6C807B9340AA3D92503E866F4274412926C8C504E4D5EF8C0E68DD0B028781A6B4054F11CF18941F101C57CCC796773ABC8DED9CD91FE5788806C05E548895354AEAC96546D55B0E94A59F148D061F42AA398D822CDECA4CDE79E13469BDCC44FDC990F366BA5978C15F97ED80CBFD73B0CD
310
9B8B83A4F6845BDFBFAF034019473FB9A63BD55D3A4A7284757071574029A4D016DCCBE95DD679EF3C4880BF169422F8C89B68A988D2B13793CAED4F74DE7486C72DC94DF46B8E93D8E02EFCB1FF9B3BA10C8AE7F653DF94F4AF466CDDCEF5776687F7C4C14B63E4EED1719DC2EC482D7DBCC7AE518CDE3D5FF86D39000EC3
310
673C0044E1D308BF05F74D1B5F033A7D1BE7F74BC55BBE3E4A20F920946CA0271EB17BD2B80E5660ACB8A29A79F5E4BBA49D4D945B6EEF4A7EFEAA65E5555BBB57A7E15D2F83C69F30BBB978D2B39F1F26FC097424D39BB33CA3D87ABF64E307938B685BAD44F71556A30B7E712CA4FE600613C3E554B69ADE949A7CFE214D
310
F1FFF05CB82151EC6FC31950239F94CF7AD39DC473F6EA356E5EC2C4EFA04383CEFE985A127484366FBEE3C0EC4FEA363E4F6632AE781392FD45D67B63FB8DF70E82734F431FD3443172A0E30A83D60982D55FA6A2CF86DBA8382502ACC6CDEF3B907982EED1160E14863FA242F9757347E1544275CCDCF71ECD5F8621CBEA
310
326B8BA884AD7F825781923E66971F04010D574C541D8427A438A37EEF8AF88240EED7362C953F5A81DE2D56109CDE2524EA0F5D2F87308C0C47BD97AD605878AB8589E17CA83930CB5E0DCCD75853D68B1AB136594926DE426C367428E9334AFAFF90ECE221BB5DC9E5BB53D2CDEF954EAA9CD814F0E5725F1965DD458E5F
310
8487683AD86B9D0076BE3EE91EB1CECC5331A67A3F79D8B27587C12EC2A6A70474749F27B4C0BBAFB94B34189E88DC18964BE4121B9137FD516C7755356E50D6714E31ACD222621EBBCD1CFF81D87479056A9DA0E0B8EA19D24CF937DA89F78E8650CCBDC110AAB6C4E46DCBFD0446BA9E2060E81F314AC2031E88135E5476
310
AC0160EF5C0DD2EEF1B8B5CB2D198BE9A554A9093B5F7D7E4B5407DDFCA1D9C152FD97F55BFFFDFE802954DFEC8995B983E28AC92F1971E28F531DC407A1280EB125F64A72E617EFB27DFBCEDCDA2D6F2BDADA36873EE46B9BE1782998C63DA7182BC383FB6FD15DA472B175D7E8B4FC88F38D6E07FEAA3FA3CBB8F6B449EC
310
F14D2175E5C5CCA3A42ABF24CA6C9395AF74535F4DDB38CB84F56614B0FD32D7E19CA5CF988DB4449C40E23DF2B16772594554579094450F56F253CD25EA7F77366FB1CFE79696C428BB64D5A41E986189427E5E4D7E2DAE3D5BB4972B3DC44EAABDDDD63A2264ECFA5C786EB0EE1FDC5BE34FA0F08376869FD1E61EA06CAE
310
15191135445EE8F0394161C3266A596AA035572BB0C8876180D8B9C77D307DF9DCDF7365ABDA6F3A2366436457A4DFC1F259666569A9E4A79C817BDD5610E5200FCE894A358EC72858D50EF67545DA81C6FACE3D457BAF70367E1E6BDD9A952FB4F56247F58F523B97E640246051A72F79BE42FFA0B3187F63097F91C48B86
310
8586F714B0EBD5A00A8412C1236E1298F60C72BE6C96B82B404CADAA304AE9F303176B14BA53FBC2D5E86377E35542019E24D97B96A49B2C0E5006E7795954DEAF5DA58958839043C6C70BD3B1B33B6DC5C31316D8A6923F142E26F6711A2258AF977DDF1F970ECC4F1F2B434B96D81BEB6E89BF3BBB3C7C8CC80505070723
310
D6D7D7D3C8CA27CA164A26024FED94B12A86031867241DA53D929636DA600F050BC40CE48B8BA03D69224720DEE2ED2127390BDF5E6EA64527BBD4C4C63FA76BB801FEEC0E61218EC98A8A86CD8313781617877E66692839B9468CF4DB8E50A73986E558E309C0D6F676F921BE02F1185454DC75B111572FF9D27D85EA14C0
310
5AD7271225B391C4275659CA4A43759D0BA44639BE4C30A84DB7F67A41399FB95CBF923B1B1672ABC807C1590557FB18D811983FA97F5E609516D62281D38B1281F68FC75528C35E4CD7DF0F7DBB5E5DD69C414EBEA2F4A5B241B996BA77AE6C772E367408C633EA3E438B68563EA8BE7667F3A4C4FDEEA52ABD78A2820F44
310
3B7914A15F180018D231E64519C56A12F6CA7C8DAE18F06F6B769DBF92329EF6A5D18FBCE600F36BD8E8198DE5CDAA96181F3A756EBA5501CEE58F497EA4F418A2B82565B9BCC611713C0B708CCA1F398B78C5F7D03B3437CC18F13061F55C7BEDADD5ACB1DB0E36D3CE47FF6EA1A563A57E9649EA5D14D1A50EAA45746338
310
1C073777EF1600607BAF6428A7DDC079D47A204EF1E1F1F0589FB054D45E02CE623B3823C317C601E589E22B1E88B448524B86A82828E32345EC18AE17214B42F8C41C6D428016D9BA31DDCB47572561E5A402E5BA4FCE55F78AF7268524AA04130F3A20BA5D1E9F9948EA48FC8F5314FDB35E21898198060034ACE5E3E2BB
310
CA34092518F275190AF65F45867FF0900AA4B81F25427414C372BF51DC29AA855C5428EE1EEDD6B849AD60F6E73475C2D2523F8A2772C840A478DED18A8C5C91B085F255DC4F54EA7AA8947354FD17ECF8FB3B4A0DE7B483CAF3A1165EE05BBA413E5C1FEF3DE1D6B8F2F3F3251C17D9FCAB48A9AAF63AC773A0E413BBC46A
310
9ADF84A566FC920E4D8C52C9769EE3301CADEEEDD92B312E02E2A7E35B7F1E7D203FE5A7D75578B06E99D0E46FFADB8FDA17ED8880390DA29094202D6F645F76F6F96409CDA05495A96E84B04A00D1A6C6C81D7F3DE9376E828CCF144EE50E364ACCE7237EA0BFB5607ED1AC3CFE73794E5B61739D14DF1743441B1AC98F00
310
ECEDE9E7301FA29755FBEFA68C91EF2B314CF510537EF1ABFC9A762496280B546F5EDAAF8A5B387D469FC9A878A92828C88608453ACEC6094DCA54111E7AD5B2663DFE2DD151B7F123B9F4FEF8EE36AB125FD7AD52A59B1B765B3E3F73E3F73DEA93875004D2AFFE3CDE9493B87A9904DD052028949041A91DC0E1BA47BA71
310
4343FD5B25E0A6A09503AFC17C790058A836A324FE31D7893512E28230332F153181C1E018E1124EBE1BA262AA428A518237D1EA7275E48C5C561BD19ED6912EDD8367DA0F31E40EEAE9683DA9257525AEA7B632B97119E17145A90231768A4F3B9120FF32E8319B015E3CBE26F1A754177D8185345817C096B0CE443A955D
310
13AC15E1FB5DEEA0239EC32A3C92241A237B0B02FFCB4F93CF2B02570C8D192E2F2A68CEEB42F12E6F8CEEFF46C251E22B4341C56FB08CCE550E7A9D6F4D6564B9EA52A83D5BF2C6E03FA19D2775E15A8A7ACF30A13C259EE7F5EF2AC3BA354F1500E1A07FC63FB4686E2F12EC69719F9ECF5FE3F35598DF2CE944008CE78F
310
0911BA5BE5D0A34E0098FF038669C26030BA9B300303039852A8F6F496341737CA7E0D2E3AAA36DE0A70AA7D9CA0D54D9AD84B18A44C9E625475E1C97B93BEBB38DCE7D227E67A2D00F531436136355F243D1FC0D712C5765754FA22FCFFAE97919161F46D6E61ACB37D83777B385889770B50765B127768443A5C4D3A4E35
310
A3151111F146B7CA116F918A049F1C272F2CD7976C69A0068773451659A97E0F4A08FE604C3FF6CE7385DB19F4D3ABC8A0D80DA8A42096AC377DB49382B36E270B6FA7570188B4B7D1DDDDA82ACA487CCA5D38BD3BD039ADBAFA4ACFF27809239B722081E2EB9F145320553D183F28471C388BC8814E5045676767AB58A8E7
310
2D1CED2CA731379515D2E533E4CF0B39DFC625F97AC4836831A4DE330E87A8126FA17EBE583D614E71E22A8DBF2825599743E0640037303E8E1B1E8EA4E1ABFA4F62907B5E4E0E5DCFDAB417C36C6848A2B8D15F1E505434C0707E16B1CFC2A1C36A42BBF55734F8F4301DDC2A5110CEE8C0747F69519265012A2174BF4E95
310
5ECD4FDE095A3ABC70536B7AD0B9D7892F81287D667C108703C9B66A221E9A0929D030008F77FF6F5D2108EF5706FC87A3069B976F7C9FC3239D13D283CDEA83597461079FEEE049B0F392889898B7D87D31F8D60ED7B56B91823A8E4EDDB36C6172ECEE42BD42B12CD67994FA0F0DFAE9389356F4CD4425A4B8AA55CBF7EC
310
D585C6A2C2316791E43D5C06841ADBB226A87FD61515FFBB0167B74E56BD7F3E90A57A97FEDCBDF483A0D6699A8C0849CAEB4947FAA90D8E332D9DEBD9F4738C37DA0CAF9CF3DAA68BCB67C420459C7A64498D6E848E5CADE92BB6901F607AA331104A67F7CD650EE169B1DAE94D2C31C2F993632259B6957E246EFE4C5481
310
107B07118607700040E5812A2A2A38DA0076875258C753F60E0F2662C748EDD5F3F3686B8FC3BD6FE631ECCAA1E8B1C1E565AD117E54893E79F4672E32F9E46B2A183DFDCF3EECB4D4D077DBEA0DA254D256045109670050129E9B9B1A9E4A11344D61497A992778095151510C4BB7EF2009B63AA4360635312E4CF668B7E0
310
D3D85A8688E2BD83B569439892ADB63461930D428E0DE42E4AC57CE48DA5CC1449530D8BD3D6A0F08DF20C8E8F570F2CFFFCEA286E30969B4654D498A58D9DA782E19FE3F002181838925592C4A1EF0B332D88B61A92C644547BED490D3A42CFFAB70E36D961F694F6307F72FF15A1C79D5B1B5CEFD353D9E2B52566DEC8F8
310
F09CB3E8359C0F68EBBB7898243E34E12A015B2685AB303C04D3A9E00671FF3DFF0A184E4A2ABEB2B666AF5B3A209C73D8EF29DCDB069C9F391EEE9DD0F74C7BCDE16F8F02E3B8816122BBEB50665775B600549D8BB33A54A6BF940C028118BC6878C79958D6784F9DEAA6E26748386FFAF8D0D0101E2847B6563F5D8DC1D7
310
8F787BE00E2C941AE12148D4A81599FE8F68D4DA5CDED75530ADE138240300EE13B0FC13A1687FED6774662C05A2B7DFB186732F0D7A93545D8B0A6390AE5054D9CB582DA846D7A061B3358B45E2B52DDE63E114397EDB7E09233A579155D795BE76102CF277F4DF8B188C4F2879BEAE3C08347124BF9ED23B128259FE107D
310
31E34A652F090B30B39E0D9AF917B76A2806135621A8A60681F16AF216514BBD02711585B5B1AE823F4B2D0369EA5B6BCB863072727FFC871CA6C9AB79A814D989057E9470A3D238BC87CBB4A0EA49AFE2B86F22E499793CAA9047080450166BDC357524561E258C77CB697F1ABB32562CF87C3B7AA12F911EF19FB3E5C022
310
22E887D08202A60A17151F5E053A86B437771088B4FEE14D652C43E8D939995D34545E12E2FF93D4E366EAD25F10CB7DED141563C3D0C447AF06078A91135FD4B9611583CB4BF3BD167F2399CEAB0E0100F8FFC305F00F1711717173138B4B48C83022295DE657EFEDD97F238ECA80F528AFB4F8D67AD4E2594B9A3AA86D74
310
87EFC313BA95745C186F0CDD84CC12DC9CB0424B42203D351FD9C0A3AF10CC7F388E0329279087386421F194F4A29464C1DEF7EF8BE515E4A199DCD5B909342598D8FE6A231F71336248D5CEC5454455C7BE383B3BC7B260FED27F703FDC39A170F3827239102F59D4DEE7FEF82EAA1A5E4BA94DCC4CC44E7E2EDE20F24244
310
E4454369D2E87C3F823F193FD4FD27E1C23984B01898D15ABC20711A8A558054951A6AE280096BA36CBA439603B7B0B4C45F248C14B2383B4B5CD8ECECE4FF859AD4A6CA2326D020EF090F4041D28DB66E5256B56232CC52829DE8060BAE6BBF37D4B7469B822454FE93210A3E8D15E69FFCF01123222611C51C4FD0A041A0
310
CFA2471CF6BE38D2B20FA4C3525B5B8B586759475CF80ADFE67A284AC24651E52B8E683D24C2622642F27E7C3C22783BCF63648BC398BD6CD0D9C97E7E7E3EACB6126DB7A6C1FD9F1031302EE67ED96F22B77C7CA0239BB324207559B105E4693EB26EC46182A92C9C0DBD24F29B31C5C5AC1F84300E0E17CEEAC15F5736FA
310
4A98971E2F1423BFCD68D4BBD5F86E74B40A369F39507C88FCDB35D2DD8DEBEA4AF999E23CF2816D204200DF6E611781B9884C1AC8888B4DE397320472959434323A5A36B22A8E1F721A270DF3BD65E4A31C11FF048AFB0D8B7B6881423793963A23CFCE935FC189ED36FAE35C46DA3574C979E4394BE52084F3081837BE03
310
3396D2EBD80F1F691B273F660D2B32FA27A33B1DE4ADA5F0FA4651511102DFA410DDA86E065272CA314D5249DF91B06BB92807B28EFD54F08F7B525252782CD276DD02E6B0319B13DF87B1F6361AD6B28FC0D711CF445429B9E5A433CD493051C49A9E03DDB1B147D880253514A5DED88009018620EE229101C041950E2D8A
310
A8E1F5F5438E0C0C0C60EEDEE9E3E0C051948C69F84BB7B2A48A1F3C8EB9E6864687F4F4F6F6E2FA87608ADAF9C5E117B7C1A737E710769DA1D15ECE6A84502AA855398712D5FB51BE92E4EF824969CE18278798AC303C2C7980DD2500ADF8FB1E6D6C2FAAFF9987178923334A244758BAA01A9A1B70FA5097D01E1CC2A58D
310
AD0EC94CE6430AA9B0C10D75E3C6BAC670EFBADEE1607739CE0FC18A2587E3EC3058562014C64219C69BC269082D5C2F4A659278D585755912176D78A1B641719C2A394CED495A1AC5D583FD2F5EDD93308EA7EAE8A6DD396598BDBD3D4CFED62D18A5BDFDE0DD5C80D1A89BA62697B131AE7CE9A6594138582F1B37D68F17
310
49AC7CB67A70695D48A4A056AC1FBD4E82358CEAE38F54B95A9016F9000F9879C0D9D131768635CA798895F27D6F1614F11F2838A83611AA51C9A3DDB539D42979C29F10465655C17BEC3E2760B80DCBF609198C7B171A531905F3EC218D696025975E986C6B4C666666787271F202805577DD5A3EF0CAFAF91B62DC4B2DB4
310
217A7606282F31D8DDBC290593BAA93EA6353AFA9939B877978481E15CFC9F2755CDC00C538F63A4BA3E80AE009B73CA0185687D339A507D165B74290D6EE46D5C58148F020C3668ABE9EF2F7549170DC80DB41FFC1D678FF19AEB10C7133832B104B80F691B3138F97A92D26E551F1F110400D45AC71A9B9AC41A1A1B1DAE
310
ED0B0810638EFFB511D46B121C6FEA0F38CD00E03CFFEB9713FE1F9C263E4DDEC160D0497FA9A132BA608584057FB15380825DE6C7FC3C667EE947D488A09898D8E939C4953BF4EC9836344D2CC6B2971B2A21A572B06096F4982D2CC7232D46E8EA69DC83722E267754D777F97F96D5DA74E1E75178084D0E70F12AD33E5F
310
71EF2AFA599B2BEBF60A5BE475F444F240CBFE8143C334E7ED9150FEEFEF7EB020C4DBED388DD1D6A167A76F3CBF119B578AE8CFA7736ACAFA4440A1C47185638A0D2F3EB5BDDEFDA958FB13CE4AA4923D5BF840392D45544329525749734866684BF7F8D9D54D892E19BCA9F829A0F8BFCBEEA6CFDFC61D74EA1A645ED7A1
310
FF241739F15694BD835B66FEC5677E40FE69BD3F91AE402F036537218A401CB0828604AD189E575015C6F3F6BBC8AC79CF6C70653847254B31551EFCBEB5978B9DB85D58D0FA41A9DFE9C624834AA04949D24B5AE6D299E072D152D12097920F14AA92C31C3B97E28B6C2E6E9C23D63043ECBBC0A60FDF5BD0C33C127EA8A3
310
308B8B6AFFEB28B4455BF6E7AF4FC6222728357EB8E46E85053E6A8843AB23295BF838ABDA94658FEF3F832F147046B4ACD6F7D48E8FCC9618582961C898D1C7A253C91BFECBDA6BA18A1FCF70755DCCEE2222F41B76D23CA98D0CB3D95F0CF66D57FFF65E2A90F5DF40FC3187621E981BD0BC1D992787212688976B94A8F0
310
C6EF646624B570B78E068826F87CE27041A95C9A4871FF65CC17FCB1639629AD6A9517000D63AC231F3D741CB8430777E7ECF80CE7A3F73C0F162F7E56AA71F4DA80A33CD6ACEE78E2C11FAC03DAFCE929B106F8F6B3ED2DC71FF994BD9CEF4E9A94896EF1B6E2B7B4978168BCF0847A3D2A4F1B0500B926E634B174548E9F
310
BAD27153FB5FC36799B1E6C7C38A94E1F9E996796D7B485E635D5287A2AE76FBD11A341DB3F8F810385BB7296391973DC6C37C452A9305AEBBE0CDB6C566DB59FE60C8E94B1FD090354BF51439FFD1B48D725228FFA88C84F686F547107A7A235665A4593B7C34D748C1AC8D56DD5DA861EEFBADDECBBD65117E65851F9035
310
1AEB65F0EFCFF4BCFEF24CB7A5879699FAC437A7AF9099186CF006BB923A59E37D7A36A29FD8D2CBB914A5E9D0A8FD212FBF796AE9A67958FF1D5D8B85F78F96219D4714EB919929241B6C018AAE0C02069F8D919961EC5DDFBFB7573E3AC8E08BFB7C8534BE6DE045B3CD63DBD71F7638BA2309CAE398EA3A7D8F98BBBC7A
310
EB367EFA5CFA27A9F8F2F52FE878058E6209C026453F8E7E8A237DFC389E9590F6059B397CFD65183BBF936E86896612A5B5FEE49DAC8455D026218AFEBEC12B3523A45B57B82C9C97E02ACFA1184DB18E48CF615DBF39C3CC6F0B4AE6BBEEA2E39D944E290302FA3DE33FA7E40296E2EF7BF1CD855BBECFAD0FD622BEE974
310
6FC4FDFDE545AE6E3BC234CADF83A0FB76DFB145BF3828AE3436368AC24989454F8FF70A177672C711CAA1A76107218CF948CA01F873520E7A2B118EBB161ABAD432932029628B6761590C98AB590C8C8C79798CE9F715BA696E839E9131A4BB68BE923F1747FBFF165331FFDD4D05997ACD168F12CA75348DAC04C7F509FE
310
83898A8B421181AF492861CE81E4A2DD0A30850CFA95E05F097FF70F9E777310D584A75BA7018922E271DAB1D785671157685B7D383D3E074DDB4F1E44EF04B07BAAC75A062077C54B9752C738C9D804D402E02851F3F89605AF189738C18C021D2139EAF72513824E10DDD3047BACC8521ED7E98B257D1166903B1B08FA6F
310
918FD7E162913FEC7D0EF4787E29C35FBA8C6E2C9C20E9AB30AE42CA2A01A090E7D010C1B5BF9CEE2A304BF3A987FB40D836979B79E18D70F257DA61E808472DD85B82761825779D6B90CAEB0F23360C6F80A7D7D77545E95B3DFF0CF96A827F9B5BCECD2C9698718417EF80FEEDEE938AFF55859D0D540B7FE09435583A6F
310
04874A0C7E8CF234DF4879722000167F5872CEC6BF3EF7E5A8CC8121E6A359227C8A29C95212F9F735BC72A887D56B8F309FC525BFB4FD767AAEC4AEFF249CFBBD2DE1AB9969A6155C7D8DABC307E47324C1F916C7BCFF40ABA5644E9FFB9238D19ADADA49D9610F01ABBA57E4DFCBDCCBB2B93C8953206C91DE01B0E2651A
310
6D6C31721915B31F7B7CBCE55466F6D70402788FA91D73BE4ADCBA99A35F17D6B83383704917D6833F0FA3CD45C926ADB8BC17999A4A0AFBCE2541F7B8CF4C2F5FBA611B3E626D64407CB32C122DFF4EF8674D6EDBB86C8F7C6A16D50FA685E2CCA34F8F7D1D8265BB0042E9D7F1F666F7BE5FAA5184DF58E12122A42EF02F
310
461B3F369AC746F96528AD208512AB56844CF75B97F352DF7995024FB02855385854F3798670D01CAC771AC3E1889EC25F61A20C1F8CAB46898817F9C47E2CDA1F286BF2F358298709FE567C91133E2638C8B53975E753EA8BFD3578B5F7186B7BF084EBA3F77BAC3132A5779902EC22AF2D2E79F42D324E083386DAEE9810
310
D1B44A5DAA54513C7A71E52A4AB9257D975B621308FE4D2141CC3DCFE946C154A3C1DFCCA7629EC69ACFA831634ADDA93C0388D2A9A2DDAFCF957C6995BCE7FBB6DC4EBAE79E63EB08E9A25F52F67076F7093CA545CA3053B5BF576DEAD4E0017143C5F759F32B2D6F145B52B67B48909B7C7FCA6586EE385A2189C16932CB
310
6DDFD9152AE317C430492A578ED27B72D85D40C7C93C097939E1B50F4D67F05334FE9DC362C30B7FF561B95259138ECFD9274C8D695C31B14D4EAA9F3D7FA8DDF652F8C5DEFA23284C799B7D94416DEE81E05A866302DC70192A5368EA65E1CED8BF107A1E2D3119A71E85DC1A7B0C1E93274CE04DD0F2ABC8AC7C987FDB00
310
2B6F81757B43502EF7A0D92E416494FAEEA4C9C090CD9557AA4D532F4996A272B94355C5A0E4974EEA9627476F30809B94D8D8D860062E02204643BEC7D0438AF800FC7E2B26955D595421E83C69E1A07E0E3122285835F014AD538188CF9737CE76D464A353FA55A001AB2526B84E985083693BC76FE211CA1D000679C889
310
E3C009832C87E1AC2EDD05C302557422DF0800E316FCAC86978A371F025A6C7DAA9F333E7BD160403A1A06EA75AA9888FF01504B0304140006080800716F984F51464CB48900000043010000360000006662782F32434438444345432D374634462D344433332D413739342D3145443030323244344246392F646972656374
310
6F72792E786D6C9D8F310EC2300C45AF127987122606C71DD918B841D4B851A43646695A717C52A85029031293A5A76FBF6FACEF7DA7264E43906840EF0FA03836E242F406C6DCEE4EA06AC22492573150D1F66C60C640E8938CB705396EEDD86DE9B5042FE27813D640EA63BB001C722AF6E55CB61E4863F58284D5D3F53D
310
D715CE1C3985E63FD7F1B7EBDD617E9F1E504B0304140006080800716F984FE0B94BE849070000541C0000340000006662782F32434438444345432D374634462D344433332D413739342D3145443030323244344246392F6F626A656374732E786D6CDD595B6FE23814FE2B56F665F72157A02D23CA88423B42A3CE8C06CD
310
6ADF22130CF5D6B9C8495ABABF7E8F1D3BC46980742ED26AA904A9E31C9FF39DFBC9E4FD3E66E889F09CA6C9B5E53B9E854812A51B9AECAEADB2D8DA57167A3F45139EA645639F85121C936B4B2C5BD3C98EA765A69636648B4BD65EBDBBF90BE5114988852286F3FCDACAA3071263079745BA21F9A3B3C1057676DBBDE33B
310
D54693EC8EE3ECA175548639490A6015D613A0A238F0CD7F4124773A71C50663DBA0DFB6E0C436570A6E324A93BCC049F48AABD671C111AE5AC70DFCE1E236188DEDD17038B08717816FDFDCDD2C6CFF72E0CD2FE6F3F1EC766CA1E9649DA6AC564046920D68F1C59AFA1357DCA9C5572874F11DA54942228566D7860D5174
310
29C9DB9818C0FA52B486422A591B0B839EC21FD9D60B148325036D2D9CFE6D5A6FBAFE1B40C8FB5829CF89B0F2BCE0A06B857DE50FDEC4AD560DBDD01CC5B8209C6286185D73CC4141B0B552904146788B20850466528B9A5E935730ECF3BED4C5E5B6644CF8AF35959E16823F9222979CD17F083F70DF3C0D7802694B9A14
310
574AD8E2250312E3892B17AB7B8340DDAC80445B8677602D20A6D834085A78CD452C582EACE9C7BBF57E25E243F7E1194F33C20B6179D29995DF690D364C0B8CAF072815AEA6EE0EA87C05E83F01F2352F68029AE3743FDC0FB5EC1C27F936E531680779C8F6E0CB43E2F2D5D5C4AD1F9E2264C4CA639882DBFE244C0D318C
310
B31B904E274F60F4291F28E156116660D3F734117E0E8682580A4B10EFB7EBBD355D42308545780A33901EFE26AEB844F053D18178D3D25057F8EDA128ED306D3F3BE8EA03D80CA751AD2A43C663F88E7E0ABEB3C5EAE3AAE45B1C917BE5D80BB2A5092D2099763364806EB8FCB7E527E9911F58BAC6ECF0B4B129826376A9
310
881B1D6A5929B520A917E044A4E14A3372E59E82B73386139296B95AEF8A5351CA521EAE5FC2CA853BCFFA53DB4075983280CE5806C93DE23413985853A5AD3A103A0D41C1C2305716B8ABB41AAECB380B719C968908B5AF4DB1CD07C4196189405552D386ADBD5693DDD0EDB6CC217875929C1B402A7FD6842B0B1F421CEB
310
E297932DC79044D324A49083C1593A4F300EA8C13BCD734ED836A48C9571B8A50CF24818E3EC08FD9E123433D72379794EF9A693A06959DA27B50D09C015B01A249DADAA98AF74CAC9131565A6CC673A1B183B541D6A4D8747D285C8141D806A63AC02D2E86A3C9C0797B6371F5FDAC3D9CCB367B75036DD0E178B7970EB5F
310
2E46008FB21289C0215A35F31DA852943986FF150F65BC4E3065704350C09BECDD7B993DAF5D088D6E305F5C2DE6B773FBF26E78670F1783813DBB1C0F6DFF76E17941B018DEDC8D5D4EF2B4E411C9DDC0F5426D9259B23BC6551D4B45D602F9E15B410A65CDF964A7F5D516E67F1C43DB39C150E27F3588D6B1ABA320EC1B
310
44C5A3ED108AA34791A2C208AABE4EF76905D1361F5D71EE8D71D973069EFCF8FE38F0C6C1D57834EA19F6E4493F1CE9BA6488A0F32C8B30CD70448BEE94DA42A627CB6FCA2ECEC01F55D8E8EF20408057EFD59AA9D399493115D218EF48B8C5A2AFE808A5E724EECC7A3B96E6394D482EFBC257F5628BA6E740F96566E90E
310
B3A5791893027F8FC5CA46A3E50510CD59081D6C21660867EB88DA0554CF728CA2E89721D54BF95FC21CC719AB7AE37318F881864077455D162A9816473C817D86B808BD0D91A38E73D46BF67545D1A9B536F5F177933F028FAE847E213CFA88FEC59633F2C7E2730561E862E40F2E2E6B559C434B1F5688DE8F95D0AD462F
310
E133A1BB875EC5693FAD34CABCAA102F480CAD2F2E4ADECB632F209A68DBD202A9C8D07289C6496F2C2865CFA7BB3E384C367DC74AE2C63150BBD2046663BD04792545A7114B5DC839A01877BDC1B3353667A9FE70C4FCE55576D3FD62280EFBE0001576158255FC31EAF0CE4ADDA8A1F2675C44104A57F2D7BE018FD890CD
310
A19933C87595F5BAA63D57712F45488D61CA8B45A4BD1717EC2B065543C79DBB1FAA42CFADD69722B53930D03EF061306DD2FAFC61D5A2022BBD9FFE223022CF2D0A6A752E3AE813A4BE2D0F7382160525D1B7E589C7FF135D885660A31B8109729E320A837CB2413B9242FE8651458F0E85C7249779F9D0D9E8B7083D9E7E
310
AAE6B0055E33DD17450F1886D94CF56F65048354C899D7965A47BFC1E8544C2FE540CB7984D64DC5300B959C5E5B60B105850ECD59C3084C0E1C25F5D688131C1B273B91F1ABA7EAFF0F8FBDEAD8EA3D7D70519219CE04A57026DF2D40DD57DD984EBE5F74CD0EC2055CAECBA216E6B070904681A05F2254C2C1A4F051C1BB
310
8792E2B45CBE23F7184D6CAF69FE493BA8A8DA05E63B39926FD8E46CF1C515D3F4E56794B17227D479AA633628D9A253676535B99A80612831332CAAC8F93BF70B4FE1B5548CEE281801FA7D7F75F1873B4FE3384DAA2577A65E6EA1D503BCAADAB87A4C08ADBFE78F5D393950AF02C235CE898337F9232C806A3915F3D40A
310
62C300EA68DA3000AD11A10B78CCD8BF5C20551D35A62ACDB02BE091EF0110389278FF23DCA6B9A131B4045F00AEE4CDC3855E98B81C06E7D37F01504B0304140006080800716F984F4F7E2D36E3000000550100003C0000006662782F32434438444345432D374634462D344433332D413739342D31454430303232443442
310
46392F7265736F75726365732F322F636E782E786D6C4D90CD6AC33010845FC5087AB46439293461ADBC444FBD0455DAB82296D6E8A7B46F5F2955A1A75D663E96D981CB97DF864F8CC9515898E4131B3018B22EAC0B2BF936BEB0E1A22012E57F181B82F6B8B02633056BA4B277C9E24D97ADA99B0BF72E4ED715034667AE
310
7B58D960369DD2C292F940AFB92E992CA63BB73A6B2E79C444251AAC27B2F3D84F98883AA3656A9EE46994F3381F5FE5E1FC7C3A1F8E6F201AA9E09D68EBBC0B1923ED4FF364A8AEA1269A4034404189AE53ED8D6AFCC5E3351E886A2B4839D60E3A96BFF78A39AF57140FE4D75520DA93753C1AA8B315A27E00504B030414
310
0006080800716F984FFF15A4A45D000000800000003A0000006662782F32434438444345432D374634462D344433332D413739342D3145443030323244344246392F7265736F75726365732F636E782E786D6C4D8B3B0E80201005AF42B6F75B59F0390B113044D83508C6E30BC6C26AF226F3B8BA6360974DA7271430F523
310
308B2B198F9B80925DB700539227A2FCCB80A18E5640D320F996A81C9F32D6E9129A0D1EF74FCE750E6D57BC7165FBCA07504B0304140006080800716F984FF38DB0844401000056050000300000006662782F32434438444345432D374634462D344433332D413739342D3145443030323244344246392F636E782E786D6C
310
CD94416AC3301045AF62045DDAB29D149A202BD0454FD045E94E96278E1A5932D2A834B7AF943A494B09ED2290ECC4E809FE9FF91AB6FA1874F60ECE2B6B1A521525C9C048DB29D33724E03A7F20D98A33672D7EC34866C4000D4965C259EF6C18A752076B1174AA6A65B65351203AD506044F32A985F70DF1720383284440
310
DB81DF169D40515485036F839310DFA31A607A2F1D08848EF0BAAC167955E7F5FCB99A2DEF17CBD9FC95D14472D65AAB275E190467C7BBBA94361E4D9453329A00CE825313953C107ED256B4CA301AEF39F351AFE9270E7763E2C6512B2930368A5A89807984400C8C7EC19CD1E4F887EFA7C797938678EA940389D6EDAED6
310
86EA5C1B8ED28A9888FF75610FFE65DEB66FD1F2F5E67ED6F024EC62760FC9F531BABF9310F3244CAF6FF1031CA55D3EFF71B1A092B768FAA0EC429EE97E05C6C1A78DC83F01504B0304140006080800716F984F650A58A57E000000A30000000B0000006662782F636E782E786D6C4D8CD10A832018465F45FE7B3733A102
310
3536CDF78865212B0D97638F3F1D5DECEA83C3770EEF3FDB8ADE36BE5CF002AA0B0164FD234CCE2F02D231E316502F790CE1F8BB01F2E36605140C922F31A4FD44939DC7B416BA3AFF3C2155BAD56A50B831CC60A6EB1ADF9A8EE16AD08450AAD9DD74D9B81625CFAF97B7E4E517504B0304140006080800716F984FA6D797
310
065F0000008200000007000000636E782E786D6C4DCB3B0E80201045D1AD90E9FD7516806B51190811670C8A61F982B1B0BAC9C97B72CA7B1037C6D3332918DA1E04D2CAC69353902EDB8C20262D23F3F59B81A079470595414B17391D1F19B4730A5583A7ED43BBE4025D9592775E5ADFFA01504B0304140006080800716F
310
984FECFD112DA800000026010000130000005B436F6E74656E745F54797065735D2E786D6C7D4F4B0EC22010BD0A61DF525D18634ABB506FE00510A79458060253536F2FD89D5197F3FED3F68B9BD80362B21E25DFD40D6780DADF2C1AC9671AAA3D677DD75E9E0112CB5A4C928F44E12044D22338956A1F003333F8E814E5
310
331A1194BE2B0362DB343BA13D122055543278D79E6050F344ECBC6478EDCD76CE8EABAE5449AE4298AC56946789C28AAFBEABC53F3EAF09A84A1441B91F0101CD4780756578C173A578FFDDBD00504B0304140006080800716F984F3DEE336E64000000790000001B0000006175746F6465736B2D64657369676E2D706163
310
6B6167652E786D6C35CBC10E83200C00D05F21DCA56CA76D41FC96062B120735B69A7DBE268BB7777961F8D5AF396893C2ADB70FE7ADA196782C2DF776D7A97B5933C430F15651E5469C55D70F80A4992A3ADC954792C525AE70A1E4D6AD9816CC044FEFDF01FE3FDE907802504B0304140006080800716F984FE2223075F4
310
0000008E0100003D0000006662782F32434438444345432D374634462D344433332D413739342D3145443030323244344246392F7265736F75726365732F322F636F72652E786D6C8550CB6E833010FC15B4770306A785C8380A0AFD829E7AB36C87580936F2A3EAE7D70E546A4F3DED6A76667677E8E96B79149FCA796DCD
310
00B8ACA1504658A9CD3C400C57D4417162D4591B7ED1A0307C51036418189D9D8DEB0E096B8232193556AA1DE4DEAB008578A466002F6E6AE1258F2131FCBD5CB9B8F35995B8DC788CC6A8E52ED532B9E9AB560E583DBD76E378E9D15B4F2644CEF880BAB1C5681AC905372FDD84C9995659CC68D0CBCF76E1140F4A026B6A
310
DC23DCA086BCE3F678E88F2DF9A0556632EA834B3FEF4BF377894EAB0DFDE31657F9BF5BD426B4CDEEB6293C309C8E7B0E18AD723AA93CA34B3527C9BE01504B0304140006080800716F984FB4206E36F9000000960100003B0000006662782F32434438444345432D374634462D344433332D413739342D31454430303232
310
44344246392F7265736F75726365732F636F72652E786D6C8550CB6E833010FC15B4770306D242641C05857E414FBD596643AC041BF951F5F36B072AB5A79E76353B33BB3BECF4B53CB24FB44E19DD03CD4BC8504B33293DF710FC95B4909D38B3C6F85F34C8B458B087040367B33561DD2169B4479D506D26DC41E11C7AC8
310
E423363D3879C345E422F8C870F77C15F22E66CC69BEF1380B414DBB544DD14D5D155AE0E5F8DA0EC3A5236F5D3392E64C0FA41D6A4AC6A1B9D0EAA51D697366451273E6D5F2B35D5A141E27E055493B422B5235EFB43E1EBA63DD7CB022313973DEC69FF7A5E93BE0169D0956A263C536FDE31AD6E97FD7A0B4AFABDD7553
310
38E0341EF91C7056A494627946186B4A947F03504B0304140006080800716F984F4CC1FC25F2000000B1010000310000006662782F32434438444345432D374634462D344433332D413739342D3145443030323244344246392F636F72652E786D6C8D504B6EC32014BC8AC51E6C3055E20813B5767C82AEBA43405C94182C
310
3E558F5F885DA9DD65F5D0BC1966DEB0F3F772AFBEB40FC6D91E60D4804A5BE994B1730F52BCC223A8CE9C79E7E21F1AA8AC58740F0A0C389BBD4BEB0E4967A3B605B54EE91D1421E8082A79CF8F1E04F9A91781448A99116E6815F226668D30DA789C45B3FC4AA5D7226A0538697007318184BEE3F6F4D29D5AFAC1EAC2E4
310
2C25A3762BA3B2BBB91AEDB364188FE37019E061A213A463DBC2D7434721BE8C4D43C848DFA68ED545CC59883EDFBC7F52AE7B56BE09FF654EAB7A22B3B1B125BBE1A60880E39CE7B1E0AC2E05E6F16837CF5236FF01504B0304140006080800716F984F2925449854010000DD0200000C0000006662782F636F72652E786D
310
6C8D52DB8E832014FC15C33B2A6A77B5419A9ABA5FB04FFB4691BAA40A06C1F4F317BCC4EDC35E628264CE39336726E0D3A3EF8289EB5128590214C620E092A946C8B604D6DC600E8213C15A29F3AD0D0492F6BC041E0604B75AD961859892864B8F4AD5F015A4E3C80D0858E72E2518D927EF6948AD711DE33D1C28BBD396
310
87285CFA08B65634EBA8681C9BB809AE0189EBD7BCAA2E057C2BB21A666774807995225857D905252F798DB2338EFC30C146F49B3AD39C1ADE0092C4A880288149F68ED2E3A138A6D9078E7C27C1A3D1CEF32AEADD0172BB3E70B4E04F7C7668FEE6B3429A3459F996891110E4D69B0B04473E1FF79BC37BCED009BBFC0CBD
310
769B85BB8326CE8CD299AB34CAEEA58976963BEA38983F1C2D55C73C13FCC493FCC2F33B870B8ACAD6AD468DBB5EADF1EACF3B0D5CC3C93C02A9744FBB7DB965C5FDDC859E2C6DE34C754AFF677AB3BA8519F98749BE00504B0304140006080800716F984FF313F92907010000B201000008000000636F72652E786D6C8D50
310
4B6EC32014BC0A628F6D6CD2DA11268A15F7045D754781B82836587CA2F6F685D895DA5D570FCDCC7B330C3D7D2E33B82BE7B5353DC445058132C24A6DA61EC670452D0427469DB5E1970C02C317D5C30C43462767E3BA43C29AA04C468D956A07B9F72A4020E6F4E8A1171F6AE1058F2129FCAD58B9B8F14915B8D8748C06
310
BDFCAC0AA7785012B2BAC21DC235AAC92B6E8E87EED890375A6625A3316AB95B6999DCF5552B0759353EB7C370E9D04B474644CEF880DAA1C1681CC805D74FED88C999967999511F5CFAF37E24E50CC0F37BF6A5E54631FA6EEDBC0B522809AC99BF92092D33F127745CE53F426B139A7A3FB86D78C8700AF42092716E308D
310
47BD69E6B6D937504B01021400140006080800716F984F0000000000000000000000003700000000000000000000000000000000006662782F32434438444345432D374634462D344433332D413739342D3145443030323244344246392F617474726962757465732E62696E504B01021400140006080800716F984F000000
310
0000000000000000003500000000000000000000000000550000006662782F32434438444345432D374634462D344433332D413739342D3145443030323244344246392F76657274696365732E62696E504B01021400140006080800716F984FF270F13306000000040000003600000000000000000000000000A800000066
310
62782F32434438444345432D374634462D344433332D413739342D3145443030323244344246392F747269616E676C65732E62696E504B01021400140006080800716F984F88E57597CD3F0000904100004200000000000000000000000000020100006662782F32434438444345432D374634462D344433332D413739342D
310
3145443030323244344246392F7265736F75726365732F322F305F67656E657269632E706E67504B01021400140006080800716F984F51464CB4890000004301000036000000000000000000000000002F4100006662782F32434438444345432D374634462D344433332D413739342D3145443030323244344246392F6469
310
726563746F72792E786D6C504B01021400140006080800716F984FE0B94BE849070000541C000034000000000000000000000000000C4200006662782F32434438444345432D374634462D344433332D413739342D3145443030323244344246392F6F626A656374732E786D6C504B01021400140006080800716F984F4F7E
310
2D36E3000000550100003C00000000000000000000000000A74900006662782F32434438444345432D374634462D344433332D413739342D3145443030323244344246392F7265736F75726365732F322F636E782E786D6C504B01021400140006080800716F984FFF15A4A45D000000800000003A00000000000000000000
310
000000E44A00006662782F32434438444345432D374634462D344433332D413739342D3145443030323244344246392F7265736F75726365732F636E782E786D6C504B01021400140006080800716F984FF38DB08444010000560500003000000000000000000000000000994B00006662782F32434438444345432D374634
310
462D344433332D413739342D3145443030323244344246392F636E782E786D6C504B01021400140006080800716F984F650A58A57E000000A30000000B000000000000000000000000002B4D00006662782F636E782E786D6C504B01021400140006080800716F984FA6D797065F0000008200000007000000000000000000
310
00000000D24D0000636E782E786D6C504B01021400140006080800716F984FECFD112DA8000000260100001300000000000000000000000000564E00005B436F6E74656E745F54797065735D2E786D6C504B01021400140006080800716F984F3DEE336E64000000790000001B000000000000000000000000002F4F000061
310
75746F6465736B2D64657369676E2D7061636B6167652E786D6C504B01021400140006080800716F984FE2223075F40000008E0100003D00000000000000000000000000CC4F00006662782F32434438444345432D374634462D344433332D413739342D3145443030323244344246392F7265736F75726365732F322F636F
310
72652E786D6C504B01021400140006080800716F984FB4206E36F9000000960100003B000000000000000000000000001B5100006662782F32434438444345432D374634462D344433332D413739342D3145443030323244344246392F7265736F75726365732F636F72652E786D6C504B01021400140006080800716F984F
310
4CC1FC25F2000000B101000031000000000000000000000000006D5200006662782F32434438444345432D374634462D344433332D413739342D3145443030323244344246392F636F72652E786D6C504B01021400140006080800716F984F2925449854010000DD0200000C00000000000000000000000000AE5300006662
310
782F636F72652E786D6C504B01021400140006080800716F984FF313F92907010000B201000008000000000000000000000000002C550000636F72652E786D6C504B050600000000120012002D060000595600000000
  0
XRECORD
  5
1B393
102
{ACAD_REACTORS
330
1B38E
102
}
330
1B38E
100
AcDbXrecord
280
     1
270
     1
271
     1
  0
XRECORD
  5
1B392
102
{ACAD_REACTORS
330
1B38E
102
}
330
1B38E
100
AcDbXrecord
280
     1
270
     1
271
     1
  0
XRECORD
  5
1B394
102
{ACAD_REACTORS
330
1B38E
102
}
330
1B38E
100
AcDbXrecord
280
     1
270
     1
271
     1
  0
XRECORD
  5
1B391
102
{ACAD_REACTORS
330
1B38E
102
}
330
1B38E
100
AcDbXrecord
280
     1
270
     1
271
     1
  0
XRECORD
  5
1C414
102
{ACAD_REACTORS
330
1C413
102
}
330
1C413
100
AcDbXrecord
280
     1
102
DISPLAYNAME
  1
Imperial24
102
FLAGS
 90
        0
  0
XRECORD
  5
1C418
102
{ACAD_REACTORS
330
1C417
102
}
330
1C417
100
AcDbXrecord
280
     1
102
DISPLAYNAME
  1
Metric50
102
FLAGS
 90
        0
  0
CELLSTYLEMAP
  5
1C409
102
{ACAD_REACTORS
330
1B453
102
}
330
1B453
100
AcDbCellStyleMap
 90
        3
300
CELLSTYLE
  1
TABLEFORMAT_BEGIN
 90
        5
170
     1
 91
        0
 92
    32768
 62
   257
 93
        1
300
CONTENTFORMAT
  1
CONTENTFORMAT_BEGIN
 90
        0
 91
        0
 92
      512
 93
        0
300

 40
0.0
140
1.0
 94
        5
 62
     0
340
11
144
0.25
309
CONTENTFORMAT_END
171
     1
301
MARGIN
  1
CELLMARGIN_BEGIN
 40
0.06
 40
0.06
 40
0.06
 40
0.06
 40
0.18
 40
0.18
309
CELLMARGIN_END
 94
        6
 95
        1
302
GRIDFORMAT
  1
GRIDFORMAT_BEGIN
 90
        0
 91
        1
 62
     0
 92
       -2
340
0
 93
        0
 40
0.045
309
GRIDFORMAT_END
 95
        2
302
GRIDFORMAT
  1
GRIDFORMAT_BEGIN
 90
        0
 91
        1
 62
     0
 92
       -2
340
0
 93
        0
 40
0.045
309
GRIDFORMAT_END
 95
        4
302
GRIDFORMAT
  1
GRIDFORMAT_BEGIN
 90
        0
 91
        1
 62
     0
 92
       -2
340
0
 93
        0
 40
0.045
309
GRIDFORMAT_END
 95
        8
302
GRIDFORMAT
  1
GRIDFORMAT_BEGIN
 90
        0
 91
        1
 62
     0
 92
       -2
340
0
 93
        0
 40
0.045
309
GRIDFORMAT_END
 95
       16
302
GRIDFORMAT
  1
GRIDFORMAT_BEGIN
 90
        0
 91
        1
 62
     0
 92
       -2
340
0
 93
        0
 40
0.045
309
GRIDFORMAT_END
 95
       32
302
GRIDFORMAT
  1
GRIDFORMAT_BEGIN
 90
        0
 91
        1
 62
     0
 92
       -2
340
0
 93
        0
 40
0.045
309
GRIDFORMAT_END
309
TABLEFORMAT_END
  1
CELLSTYLE_BEGIN
 90
        1
 91
        1
300
_TITLE
309
CELLSTYLE_END
300
CELLSTYLE
  1
TABLEFORMAT_BEGIN
 90
        5
170
     1
 91
        0
 92
        0
 62
   257
 93
        1
300
CONTENTFORMAT
  1
CONTENTFORMAT_BEGIN
 90
        0
 91
        0
 92
      512
 93
        0
300

 40
0.0
140
1.0
 94
        5
 62
     0
340
11
144
0.18
309
CONTENTFORMAT_END
171
     1
301
MARGIN
  1
CELLMARGIN_BEGIN
 40
0.06
 40
0.06
 40
0.06
 40
0.06
 40
0.18
 40
0.18
309
CELLMARGIN_END
 94
        6
 95
        1
302
GRIDFORMAT
  1
GRIDFORMAT_BEGIN
 90
        0
 91
        1
 62
     0
 92
       -2
340
0
 93
        0
 40
0.045
309
GRIDFORMAT_END
 95
        2
302
GRIDFORMAT
  1
GRIDFORMAT_BEGIN
 90
        0
 91
        1
 62
     0
 92
       -2
340
0
 93
        0
 40
0.045
309
GRIDFORMAT_END
 95
        4
302
GRIDFORMAT
  1
GRIDFORMAT_BEGIN
 90
        0
 91
        1
 62
     0
 92
       -2
340
0
 93
        0
 40
0.045
309
GRIDFORMAT_END
 95
        8
302
GRIDFORMAT
  1
GRIDFORMAT_BEGIN
 90
        0
 91
        1
 62
     0
 92
       -2
340
0
 93
        0
 40
0.045
309
GRIDFORMAT_END
 95
       16
302
GRIDFORMAT
  1
GRIDFORMAT_BEGIN
 90
        0
 91
        1
 62
     0
 92
       -2
340
0
 93
        0
 40
0.045
309
GRIDFORMAT_END
 95
       32
302
GRIDFORMAT
  1
GRIDFORMAT_BEGIN
 90
        0
 91
        1
 62
     0
 92
       -2
340
0
 93
        0
 40
0.045
309
GRIDFORMAT_END
309
TABLEFORMAT_END
  1
CELLSTYLE_BEGIN
 90
        2
 91
        1
300
_HEADER
309
CELLSTYLE_END
300
CELLSTYLE
  1
TABLEFORMAT_BEGIN
 90
        5
170
     1
 91
        0
 92
        0
 62
   257
 93
        1
300
CONTENTFORMAT
  1
CONTENTFORMAT_BEGIN
 90
        0
 91
        0
 92
      512
 93
        0
300

 40
0.0
140
1.0
 94
        2
 62
     0
340
11
144
0.18
309
CONTENTFORMAT_END
171
     1
301
MARGIN
  1
CELLMARGIN_BEGIN
 40
0.06
 40
0.06
 40
0.06
 40
0.06
 40
0.18
 40
0.18
309
CELLMARGIN_END
 94
        6
 95
        1
302
GRIDFORMAT
  1
GRIDFORMAT_BEGIN
 90
        0
 91
        1
 62
     0
 92
       -2
340
0
 93
        0
 40
0.045
309
GRIDFORMAT_END
 95
        2
302
GRIDFORMAT
  1
GRIDFORMAT_BEGIN
 90
        0
 91
        1
 62
     0
 92
       -2
340
0
 93
        0
 40
0.045
309
GRIDFORMAT_END
 95
        4
302
GRIDFORMAT
  1
GRIDFORMAT_BEGIN
 90
        0
 91
        1
 62
     0
 92
       -2
340
0
 93
        0
 40
0.045
309
GRIDFORMAT_END
 95
        8
302
GRIDFORMAT
  1
GRIDFORMAT_BEGIN
 90
        0
 91
        1
 62
     0
 92
       -2
340
0
 93
        0
 40
0.045
309
GRIDFORMAT_END
 95
       16
302
GRIDFORMAT
  1
GRIDFORMAT_BEGIN
 90
        0
 91
        1
 62
     0
 92
       -2
340
0
 93
        0
 40
0.045
309
GRIDFORMAT_END
 95
       32
302
GRIDFORMAT
  1
GRIDFORMAT_BEGIN
 90
        0
 91
        1
 62
     0
 92
       -2
340
0
 93
        0
 40
0.045
309
GRIDFORMAT_END
309
TABLEFORMAT_END
  1
CELLSTYLE_BEGIN
 90
        3
 91
        2
300
_DATA
309
CELLSTYLE_END
  0
ENDSEC
  0
SECTION
  2
ACDSDATA
 70
     2
 71
     8
  0
ACDSSCHEMA
 90
        0
  1
AcDb_Thumbnail_Schema
  2
AcDbDs::ID
280
    10
 91
        8
  2
Thumbnail_Data
280
    15
 91
        0
101
ACDSRECORD
 95
        0
 90
        1
  2
AcDbDs::TreatedAsObjectData
280
     1
291
     1
101
ACDSRECORD
 95
        0
 90
        2
  2
AcDbDs::Legacy
280
     1
291
     1
101
ACDSRECORD
  1
AcDbDs::ID
 90
        3
  2
AcDs:Indexable
280
     1
291
     1
101
ACDSRECORD
  1
AcDbDs::ID
 90
        4
  2
AcDbDs::HandleAttribute
280
     7
282
     1
  0
ACDSSCHEMA
 90
        1
  1
AcDbDs::TreatedAsObjectDataSchema
  2
AcDbDs::TreatedAsObjectData
280
     1
 91
        0
  0
ACDSSCHEMA
 90
        2
  1
AcDbDs::LegacySchema
  2
AcDbDs::Legacy
280
     1
 91
        0
  0
ACDSSCHEMA
 90
        3
  1
AcDbDs::IndexedPropertySchema
  2
AcDs:Indexable
280
     1
 91
        0
  0
ACDSSCHEMA
 90
        4
  1
AcDbDs::HandleAttributeSchema
  2
AcDbDs::HandleAttribute
280
     7
 91
        1
284
     1
  0
ACDSRECORD
 90
        0
  2
AcDbDs::ID
280
    10
320
1B3C9
  2
Thumbnail_Data
280
    15
 94
     2071
310
89504E470D0A1A0A0000000D49484452000001000000008608030000000532A42500000300504C5445212830FFFFFF2128300000000000000000000000000000000000000000000000000000330000660000990000CC0000FF0033000033330033660033990033CC0033FF0066000066330066660066990066CC0066FF0099
310
000099330099660099990099CC0099FF00CC0000CC3300CC6600CC9900CCCC00CCFF00FF0000FF3300FF6600FF9900FFCC00FFFF3300003300333300663300993300CC3300FF3333003333333333663333993333CC3333FF3366003366333366663366993366CC3366FF3399003399333399663399993399CC3399FF33CC00
310
33CC3333CC6633CC9933CCCC33CCFF33FF0033FF3333FF6633FF9933FFCC33FFFF6600006600336600666600996600CC6600FF6633006633336633666633996633CC6633FF6666006666336666666666996666CC6666FF6699006699336699666699996699CC6699FF66CC0066CC3366CC6666CC9966CCCC66CCFF66FF0066
310
FF3366FF6666FF9966FFCC66FFFF9900009900339900669900999900CC9900FF9933009933339933669933999933CC9933FF9966009966339966669966999966CC9966FF9999009999339999669999999999CC9999FF99CC0099CC3399CC6699CC9999CCCC99CCFF99FF0099FF3399FF6699FF9999FFCC99FFFFCC0000CC00
310
33CC0066CC0099CC00CCCC00FFCC3300CC3333CC3366CC3399CC33CCCC33FFCC6600CC6633CC6666CC6699CC66CCCC66FFCC9900CC9933CC9966CC9999CC99CCCC99FFCCCC00CCCC33CCCC66CCCC99CCCCCCCCCCFFCCFF00CCFF33CCFF66CCFF99CCFFCCCCFFFFFF0000FF0033FF0066FF0099FF00CCFF00FFFF3300FF3333
310
FF3366FF3399FF33CCFF33FFFF6600FF6633FF6666FF6699FF66CCFF66FFFF9900FF9933FF9966FF9999FF99CCFF99FFFFCC00FFCC33FFCC66FFCC99FFCCCCFFCCFFFFFF00FFFF33FFFF66FFFF99FFFFCCFFFFFF0000000D0D0D1A1A1A2828283535354343435050505D5D5D6B6B6B787878868686939393A1A1A1AEAEAEBB
310
BBBBC9C9C9D6D6D6E4E4E4F1F1F1FFFFFF0000000000000000000000000000000000000000000000000000000000002E4550F1000003B84944415478DAED9B499283300C457503AEC146F7AF62910D3B9DAA018F804CC0812E1BFF9F89C10ED2B33C919808822008828AD630697A5F36CCCE600E3503207E7A00AD45807950
310
0883B622C0FA3D7F98A7A5D10E80A502843680DAAA0310BAC161DF15DA9AD1425518B65DA1F77C680300456D9F6DFC8DF3E402A109045157687B043B286AA40D88BB423B32F03503822008822008BA533C3F98CDE6BCB5BC9B3DFB16923E6583BD3EBBAB0603BC59CF02F02E1B1BDC2350589BF4C519B63EB0DF77D9C3F6D6
310
06F6A6D80B9A6D0EA63C0BC05DD80360724743789C03E092F28A9E739E7400A93C3E24F9510221F4DC052900A03C007104840D56CBD3E789AA003B6BF8F4A57F07109540A802EC43F287080868B5AFD1F2F8F2673DCFBD005C84B12B3D561AA27346F852B6E6336DC25FAB02BC7639E47171F164157806AA772D23CFFF9A7A
310
4DB77D6186056515ED0F297ECDF040109C37915FE8BF1F00B237887D53B86B81F99D00C8F7730EC56A08C8CF0128C8FF08C066447621046A0E80301C89E700F47E00C4A1D2AF77D74CCE985CA5FF575BF6654F9C3629EDC1EDF1547AAAA373E7FDAE900E80C49EA13D81E55C89FE67F112521C3268EC734BC030A81C8038B3
310
E39096E8C436D4255105A44E009250F2C481EAAC016AC1F908E064867428350DA0C22650B4C6CB01606A07C0CAF65C0035F68100A0F5E0160013005C0250E52850B4411C002C2FA66B00EA9C0688368E0780F9C5D41C00EF8201703102F8650046DD9F8F7C3EEA89916BF478A3BE9B5E870E7D669D062015CC7F474D7D6F3F
310
14897AD42657A7C8654740BF8E80AE9F0E74F36BECAE694ABFF9B63223E0180077EC0064A80200FBA8DC0298A2790A832E53FDEA5AE50110A24300D41BD76F00506613205F22C00098D2757955A093C2017C6B03A234796D80ACBFA58A08E894E1C002C06CEF3E463A3829C557817D042401FC180152622FA0FC92F31400F5
310
F7C4227B81A70050E3554014D865F6023702E83AA97028DCDF08806A04D0ED08CC33BECC81600500F63F039F9EF27E9754381D8EEF07F99B5AD2A7F38F4737546AA80207E233868FB9B79B2AF23FDF0F7987FF6D02606A1B0053DB0098DA06C004004D03E0E319E376929F1EE049391E2517E6F9B5739C6E00E4A088977B2A
310
523C00E6DD52197B3CACF9E564FCBF0100AD178D9A65AB7697FDEA01ADFC8F7ED0107B53492AA902F112615EF3A07849159D6C039CFB35B40114AF12096BF9C3A2F66809F9D17439E71FD315F77FEFE806EF5D380B4110044110044110044110044110044110044110044110044110044110F4EFFA03FE70FE631E0FD74300
310
00000049454E44AE42608200008062F8030BCC66D85A155EAE0000000049454E44AE4260820E8595E03F23A03600E2C265931180E9B940D300CC59A702F502407A3AEC2E11E7E8937700B1C0D408008B66E55DE9365FFA07B27AFC2F1B974FD191EA8C00D05500EAF4BF3500A0B601801E0660722F777A7BA4B89778DDFFBB
310
03903F14E0EFA081FCD100C8DF81A0C70290831D7FF580C48F0B7C0700559A02E1C62920898564C3CA3F6EDC1D407072E67408026CDEDE7F6F00FF5C008A2E54B95B890A0A5A3E7D02F8F7CDF30500FC371B05DF705459094E9D2A8B80703BDD330030B50EA03C028AAEEE72FDFE9F2DBA819A5906552A954AA552A9542A95
310
4AA552A9542A954AA552A9542A954A7523FD013A5B0AAFEBCFCBAB0000000049454E44AE426082
  0
ENDSEC
  0
EOF
