  0
SECTION
  2
HEADER
  9
$ACADVER
  1
AC1018
  9
$ACADMAINTVER
 70
   104
  9
$DWGCODEPAGE
  3
ANSI_932
  9
$LASTSAVEDBY
  1
SERIZAH
  9
$INSBASE
 10
0.0
 20
0.0
 30
0.0
  9
$EXTMIN
 10
-1056.118431913463
 20
-2050.248054902294
 30
-0.0015258207003583
  9
$EXTMAX
 10
1564.157822620174
 20
1241.327961344137
 30
0.0000000349246037
  9
$LIMMIN
 10
-1672.421617542575
 20
-946.0350137806818
  9
$LIMMAX
 10
2080.253747481718
 20
1869.230997808418
  9
$ORTHOMODE
 70
     0
  9
$REGENMODE
 70
     0
  9
$FILLMODE
 70
     1
  9
$QTEXTMODE
 70
     0
  9
$MIRRTEXT
 70
     0
  9
$LTSCALE
 40
20.0
  9
$ATTMODE
 70
     1
  9
$TEXTSIZE
 40
64.0
  9
$TRACEWID
 40
0.05
  9
$TEXTSTYLE
  7
ME08
  9
$CLAYER
  8
SIZE
  9
$CELTYPE
  6
BYLAYER
  9
$CECOLOR
 62
   256
  9
$CELTSCALE
 40
1.0
  9
$DISPSILH
 70
     0
  9
$DIMSCALE
 40
1.0
  9
$DIMASZ
 40
10.0
  9
$DIMEXO
 40
10.0
  9
$DIMDLI
 40
100.0
  9
$DIMRND
 40
0.0
  9
$DIMDLE
 40
0.0
  9
$DIMEXE
 40
10.0
  9
$DIMTP
 40
0.0
  9
$DIMTM
 40
0.0
  9
$DIMTXT
 40
45.0
  9
$DIMCEN
 40
0.09
  9
$DIMTSZ
 40
0.0
  9
$DIMTOL
 70
     0
  9
$DIMLIM
 70
     0
  9
$DIMTIH
 70
     0
  9
$DIMTOH
 70
     0
  9
$DIMSE1
 70
     0
  9
$DIMSE2
 70
     0
  9
$DIMTAD
 70
     1
  9
$DIMZIN
 70
     8
  9
$DIMBLK
  1
Origin
  9
$DIMASO
 70
     1
  9
$DIMSHO
 70
     0
  9
$DIMPOST
  1

  9
$DIMAPOST
  1

  9
$DIMALT
 70
     0
  9
$DIMALTD
 70
     2
  9
$DIMALTF
 40
25.4
  9
$DIMLFAC
 40
1.0
  9
$DIMTOFL
 70
     1
  9
$DIMTVP
 40
0.0
  9
$DIMTIX
 70
     0
  9
$DIMSOXD
 70
     0
  9
$DIMSAH
 70
     0
  9
$DIMBLK1
  1

  9
$DIMBLK2
  1

  9
$DIMSTYLE
  2
STANDARD_ME08
  9
$DIMCLRD
 70
     0
  9
$DIMCLRE
 70
     0
  9
$DIMCLRT
 70
     0
  9
$DIMTFAC
 40
1.0
  9
$DIMGAP
 40
10.0
  9
$DIMJUST
 70
     0
  9
$DIMSD1
 70
     0
  9
$DIMSD2
 70
     0
  9
$DIMTOLJ
 70
     1
  9
$DIMTZIN
 70
     0
  9
$DIMALTZ
 70
     0
  9
$DIMALTTZ
 70
     0
  9
$DIMUPT
 70
     0
  9
$DIMDEC
 70
     2
  9
$DIMTDEC
 70
     2
  9
$DIMALTU
 70
     2
  9
$DIMALTTD
 70
     2
  9
$DIMTXSTY
  7
ME08
  9
$DIMAUNIT
 70
     0
  9
$DIMADEC
 70
     0
  9
$DIMALTRND
 40
0.0
  9
$DIMAZIN
 70
     0
  9
$DIMDSEP
 70
    46
  9
$DIMATFIT
 70
     3
  9
$DIMFRAC
 70
     0
  9
$DIMLDRBLK
  1
Open90
  9
$DIMLUNIT
 70
     2
  9
$DIMLWD
 70
    -2
  9
$DIMLWE
 70
    -2
  9
$DIMTMOVE
 70
     0
  9
$LUNITS
 70
     2
  9
$LUPREC
 70
     4
  9
$SKETCHINC
 40
0.1
  9
$FILLETRAD
 40
20.0
  9
$AUNITS
 70
     1
  9
$AUPREC
 70
     3
  9
$MENU
  1
ACAD
  9
$ELEVATION
 40
0.0
  9
$PELEVATION
 40
0.0
  9
$THICKNESS
 40
0.0
  9
$LIMCHECK
 70
     0
  9
$CHAMFERA
 40
0.0
  9
$CHAMFERB
 40
0.0
  9
$CHAMFERC
 40
0.0
  9
$CHAMFERD
 40
0.0
  9
$SKPOLY
 70
     0
  9
$TDCREATE
 40
2450332.775879629
  9
$TDUCREATE
 40
2450332.400879629
  9
$TDUPDATE
 40
2459874.470393518
  9
$TDUUPDATE
 40
2459874.095393518
  9
$TDINDWG
 40
1.4158992708
  9
$TDUSRTIMER
 40
1.4158757639
  9
$USRTIMER
 70
     1
  9
$ANGBASE
 50
0.0
  9
$ANGDIR
 70
     0
  9
$PDMODE
 70
     3
  9
$PDSIZE
 40
-2.0
  9
$PLINEWID
 40
0.0
  9
$SPLFRAME
 70
     0
  9
$SPLINETYPE
 70
     6
  9
$SPLINESEGS
 70
     8
  9
$HANDSEED
  5
1CEF
  9
$SURFTAB1
 70
     6
  9
$SURFTAB2
 70
     6
  9
$SURFTYPE
 70
     6
  9
$SURFU
 70
     6
  9
$SURFV
 70
     6
  9
$UCSBASE
  2

  9
$UCSNAME
  2

  9
$UCSORG
 10
0.0
 20
0.0
 30
0.0
  9
$UCSXDIR
 10
1.0
 20
0.0
 30
0.0
  9
$UCSYDIR
 10
0.0
 20
1.0
 30
0.0
  9
$UCSORTHOREF
  2

  9
$UCSORTHOVIEW
 70
     0
  9
$UCSORGTOP
 10
0.0
 20
0.0
 30
0.0
  9
$UCSORGBOTTOM
 10
0.0
 20
0.0
 30
0.0
  9
$UCSORGLEFT
 10
0.0
 20
0.0
 30
0.0
  9
$UCSORGRIGHT
 10
0.0
 20
0.0
 30
0.0
  9
$UCSORGFRONT
 10
0.0
 20
0.0
 30
0.0
  9
$UCSORGBACK
 10
0.0
 20
0.0
 30
0.0
  9
$PUCSBASE
  2

  9
$PUCSNAME
  2

  9
$PUCSORG
 10
0.0
 20
0.0
 30
0.0
  9
$PUCSXDIR
 10
1.0
 20
0.0
 30
0.0
  9
$PUCSYDIR
 10
0.0
 20
1.0
 30
0.0
  9
$PUCSORTHOREF
  2

  9
$PUCSORTHOVIEW
 70
     0
  9
$PUCSORGTOP
 10
0.0
 20
0.0
 30
0.0
  9
$PUCSORGBOTTOM
 10
0.0
 20
0.0
 30
0.0
  9
$PUCSORGLEFT
 10
0.0
 20
0.0
 30
0.0
  9
$PUCSORGRIGHT
 10
0.0
 20
0.0
 30
0.0
  9
$PUCSORGFRONT
 10
0.0
 20
0.0
 30
0.0
  9
$PUCSORGBACK
 10
0.0
 20
0.0
 30
0.0
  9
$USERI1
 70
     0
  9
$USERI2
 70
     0
  9
$USERI3
 70
     0
  9
$USERI4
 70
     0
  9
$USERI5
 70
     0
  9
$USERR1
 40
20.0
  9
$USERR2
 40
0.0
  9
$USERR3
 40
0.0
  9
$USERR4
 40
0.0
  9
$USERR5
 40
0.0
  9
$WORLDVIEW
 70
     1
  9
$SHADEDGE
 70
     3
  9
$SHADEDIF
 70
    70
  9
$TILEMODE
 70
     1
  9
$MAXACTVP
 70
    64
  9
$PINSBASE
 10
0.0
 20
0.0
 30
0.0
  9
$PLIMCHECK
 70
     0
  9
$PEXTMIN
 10
1.000000000000000E+20
 20
1.000000000000000E+20
 30
1.000000000000000E+20
  9
$PEXTMAX
 10
-1.000000000000000E+20
 20
-1.000000000000000E+20
 30
-1.000000000000000E+20
  9
$PLIMMIN
 10
0.0
 20
0.0
  9
$PLIMMAX
 10
12.0
 20
9.0
  9
$UNITMODE
 70
     0
  9
$VISRETAIN
 70
     1
  9
$PLINEGEN
 70
     0
  9
$PSLTSCALE
 70
     1
  9
$TREEDEPTH
 70
  3020
  9
$CMLSTYLE
  2
STANDARD
  9
$CMLJUST
 70
     0
  9
$CMLSCALE
 40
1.0
  9
$PROXYGRAPHICS
 70
     1
  9
$MEASUREMENT
 70
     0
  9
$CELWEIGHT
370
    -1
  9
$ENDCAPS
280
     0
  9
$JOINSTYLE
280
     0
  9
$LWDISPLAY
290
     0
  9
$INSUNITS
 70
     0
  9
$HYPERLINKBASE
  1

  9
$STYLESHEET
  1
MONOCHROME.STB
  9
$XEDIT
290
     1
  9
$CEPSNTYPE
380
     0
  9
$PSTYLEMODE
290
     0
  9
$FINGERPRINTGUID
  2
{8E873859-7981-469D-9774-FECD588D52BD}
  9
$VERSIONGUID
  2
{45816F74-3266-4547-AEF5-23B766EE6CE0}
  9
$EXTNAMES
290
     1
  9
$PSVPSCALE
 40
0.0
  9
$OLESTARTUP
290
     0
  9
$SORTENTS
280
   127
  9
$INDEXCTL
280
     0
  9
$HIDETEXT
280
     0
  9
$XCLIPFRAME
290
     0
  9
$HALOGAP
280
     0
  9
$OBSCOLOR
 70
   257
  9
$OBSLTYPE
280
     0
  9
$INTERSECTIONDISPLAY
280
     0
  9
$INTERSECTIONCOLOR
 70
   257
  9
$DIMASSOC
280
     1
  9
$PROJECTNAME
  1

  0
ENDSEC
  0
SECTION
  2
CLASSES
  0
CLASS
  1
ACDBDICTIONARYWDFLT
  2
AcDbDictionaryWithDefault
  3
ObjectDBX Classes
 90
        0
 91
        1
280
     0
281
     0
  0
CLASS
  1
MATERIAL
  2
AcDbMaterial
  3
ObjectDBX Classes
 90
     1153
 91
        3
280
     0
281
     0
  0
CLASS
  1
VISUALSTYLE
  2
AcDbVisualStyle
  3
ObjectDBX Classes
 90
     4095
 91
       24
280
     0
281
     0
  0
CLASS
  1
TABLESTYLE
  2
AcDbTableStyle
  3
ObjectDBX Classes
 90
     4095
 91
        1
280
     0
281
     0
  0
CLASS
  1
SCALE
  2
AcDbScale
  3
ObjectDBX Classes
 90
     1153
 91
       17
280
     0
281
     0
  0
CLASS
  1
MLEADERSTYLE
  2
AcDbMLeaderStyle
  3
ACDB_MLEADERSTYLE_CLASS
 90
     4095
 91
        1
280
     0
281
     0
  0
CLASS
  1
ACDBSECTIONVIEWSTYLE
  2
AcDbSectionViewStyle
  3
ObjectDBX Classes
 90
     1025
 91
        2
280
     0
281
     0
  0
CLASS
  1
ACDBDETAILVIEWSTYLE
  2
AcDbDetailViewStyle
  3
ObjectDBX Classes
 90
     1025
 91
        2
280
     0
281
     0
  0
CLASS
  1
DICTIONARYVAR
  2
AcDbDictionaryVar
  3
ObjectDBX Classes
 90
        0
 91
       15
280
     0
281
     0
  0
CLASS
  1
CELLSTYLEMAP
  2
AcDbCellStyleMap
  3
ObjectDBX Classes
 90
     1152
 91
        2
280
     0
281
     0
  0
CLASS
  1
SORTENTSTABLE
  2
AcDbSortentsTable
  3
ObjectDBX Classes
 90
        0
 91
        1
280
     0
281
     0
  0
CLASS
  1
DIMASSOC
  2
AcDbDimAssoc
  3
"AcDbDimAssoc|Product Desc:     AcDim ARX App For Dimension|Company:          Autodesk, Inc.|WEB Address:      www.autodesk.com"
 90
        0
 91
        1
280
     0
281
     0
  0
ENDSEC
  0
SECTION
  2
TABLES
  0
TABLE
  2
VPORT
  5
8
330
0
100
AcDbSymbolTable
 70
     1
1001
ACAD
1000
DbSaveVer
1071
      226
  0
VPORT
  5
E6A
330
8
100
AcDbSymbolTableRecord
100
AcDbViewportTableRecord
  2
*ACTIVE
 70
     0
 10
0.0
 20
0.0
 11
1.0
 21
1.0
 12
254.0196953533557
 22
-404.4600467790782
 13
0.0
 23
0.0
 14
400.0
 24
400.0
 15
400.0
 25
400.0
 16
0.0
 26
0.0
 36
1.0
 17
0.0
 27
0.0
 37
0.0
 40
3315.143386291155
 41
1.887694145758661
 42
50.0
 43
0.0
 44
0.0
 50
0.0
 51
0.0
 71
     0
 72
   500
 73
     1
 74
     0
 75
     0
 76
     0
 77
     0
 78
     1
281
     0
 65
     1
110
0.0
120
0.0
130
0.0
111
1.0
121
0.0
131
0.0
112
0.0
122
1.0
132
0.0
 79
     0
146
0.0
1001
ACAD_NAV_VCDISPLAY
1070
     3
  0
ENDTAB
  0
TABLE
  2
LTYPE
  5
5
330
0
100
AcDbSymbolTable
 70
     4
  0
LTYPE
  5
13
330
5
100
AcDbSymbolTableRecord
100
AcDbLinetypeTableRecord
  2
BYBLOCK
 70
     0
  3

 72
    65
 73
     0
 40
0.0
  0
LTYPE
  5
14
330
5
100
AcDbSymbolTableRecord
100
AcDbLinetypeTableRecord
  2
BYLAYER
 70
     0
  3

 72
    65
 73
     0
 40
0.0
  0
LTYPE
  5
15
330
5
100
AcDbSymbolTableRecord
100
AcDbLinetypeTableRecord
  2
CONTINUOUS
 70
     0
  3
実線
 72
    65
 73
     0
 40
0.0
  0
LTYPE
  5
FCC
330
5
100
AcDbSymbolTableRecord
100
AcDbLinetypeTableRecord
  2
CENTER
 70
     0
  3
Center ____ _ ____ _ ____ _ ____ _ ____ _ ____
 72
    65
 73
     4
 40
2.0
 49
1.25
 74
     0
 49
-0.25
 74
     0
 49
0.25
 74
     0
 49
-0.25
 74
     0
  0
LTYPE
  5
106A
330
5
100
AcDbSymbolTableRecord
100
AcDbLinetypeTableRecord
  2
PHANTOM
 70
     0
  3
Phantom ______  __  __  ______  __  __  ______
 72
    65
 73
     6
 40
2.5
 49
1.25
 74
     0
 49
-0.25
 74
     0
 49
0.25
 74
     0
 49
-0.25
 74
     0
 49
0.25
 74
     0
 49
-0.25
 74
     0
  0
ENDTAB
  0
TABLE
  2
LAYER
  5
2
102
{ACAD_XDICTIONARY
360
FF2
102
}
330
0
100
AcDbSymbolTable
 70
    11
  0
LAYER
  5
10
102
{ACAD_XDICTIONARY
360
EE1
102
}
330
2
100
AcDbSymbolTableRecord
100
AcDbLayerTableRecord
  2
0
 70
     0
 62
     7
  6
CONTINUOUS
370
    -3
390
F
  0
LAYER
  5
22
102
{ACAD_XDICTIONARY
360
EE3
102
}
330
2
100
AcDbSymbolTableRecord
100
AcDbLayerTableRecord
  2
BASIS
 70
     0
 62
     6
  6
CENTER
370
    -3
390
F
  0
LAYER
  5
29
102
{ACAD_XDICTIONARY
360
EE5
102
}
330
2
100
AcDbSymbolTableRecord
100
AcDbLayerTableRecord
  2
OUTLINE
 70
     0
 62
     3
  6
CONTINUOUS
370
    -3
390
F
  0
LAYER
  5
2A
102
{ACAD_XDICTIONARY
360
EE7
102
}
330
2
100
AcDbSymbolTableRecord
100
AcDbLayerTableRecord
  2
DETAIL
 70
     0
 62
     5
  6
CONTINUOUS
370
    -3
390
F
  0
LAYER
  5
2B
102
{ACAD_XDICTIONARY
360
EE9
102
}
330
2
100
AcDbSymbolTableRecord
100
AcDbLayerTableRecord
  2
SIZE
 70
     0
 62
    30
  6
CONTINUOUS
370
    -3
390
F
  0
LAYER
  5
2C
102
{ACAD_XDICTIONARY
360
EEB
102
}
330
2
100
AcDbSymbolTableRecord
100
AcDbLayerTableRecord
  2
NOTE
 70
     0
 62
     4
  6
CONTINUOUS
370
    -3
390
F
  0
LAYER
  5
2D
102
{ACAD_XDICTIONARY
360
EED
102
}
330
2
100
AcDbSymbolTableRecord
100
AcDbLayerTableRecord
  2
ARRANGE
 70
     0
 62
     1
  6
CONTINUOUS
370
    -3
390
F
  0
LAYER
  5
2E
330
2
100
AcDbSymbolTableRecord
100
AcDbLayerTableRecord
  2
DEFPOINTS
 70
     0
 62
     7
  6
CONTINUOUS
290
     0
370
    -3
390
F
  0
LAYER
  5
2F
102
{ACAD_XDICTIONARY
360
EEF
102
}
330
2
100
AcDbSymbolTableRecord
100
AcDbLayerTableRecord
  2
FIX
 70
     0
 62
    11
  6
CONTINUOUS
370
    -3
390
F
  0
LAYER
  5
31
102
{ACAD_XDICTIONARY
360
EF3
102
}
330
2
100
AcDbSymbolTableRecord
100
AcDbLayerTableRecord
  2
ETC
 70
     0
 62
    61
  6
CONTINUOUS
370
    -3
390
F
  0
LAYER
  5
1021
102
{ACAD_XDICTIONARY
360
1022
102
}
330
2
100
AcDbSymbolTableRecord
100
AcDbLayerTableRecord
  2
SERVICESPACE
 70
     0
 62
     2
  6
PHANTOM
370
    18
390
F
  0
ENDTAB
  0
TABLE
  2
STYLE
  5
3
330
0
100
AcDbSymbolTable
 70
     2
  0
STYLE
  5
11
330
3
100
AcDbSymbolTableRecord
100
AcDbTextStyleTableRecord
  2
STANDARD
 70
     0
 40
0.0
 41
1.0
 50
0.0
 71
     0
 42
64.0
  3
SIMPLEX.shx
  4
BIGFONT.shx
  0
STYLE
  5
197D
330
3
100
AcDbSymbolTableRecord
100
AcDbTextStyleTableRecord
  2
ME08
 70
     0
 40
0.0
 41
0.8
 50
0.0
 71
     0
 42
64.0
  3
SIMPLEX.shx
  4
BIGFONT.shx
  0
ENDTAB
  0
TABLE
  2
VIEW
  5
6
330
0
100
AcDbSymbolTable
 70
     1
  0
VIEW
  5
35
330
6
100
AcDbSymbolTableRecord
100
AcDbViewTableRecord
  2
ALL
 70
     0
 40
4508.021
 10
0.0
 20
41.30990399999999
 41
6252.632
 11
0.0
 21
0.0
 31
1.0
 12
0.0
 22
0.0
 32
0.0
 42
50.0
 43
0.0
 44
0.0
 50
0.0
 71
     0
281
     0
 72
     0
  0
ENDTAB
  0
TABLE
  2
UCS
  5
7
330
0
100
AcDbSymbolTable
 70
     0
  0
ENDTAB
  0
TABLE
  2
APPID
  5
9
330
0
100
AcDbSymbolTable
 70
    10
  0
APPID
  5
12
330
9
100
AcDbSymbolTableRecord
100
AcDbRegAppTableRecord
  2
ACAD
 70
     0
  0
APPID
  5
F00
330
9
100
AcDbSymbolTableRecord
100
AcDbRegAppTableRecord
  2
ACAD_NAV_VCDISPLAY
 70
     0
  0
APPID
  5
F34
330
9
100
AcDbSymbolTableRecord
100
AcDbRegAppTableRecord
  2
ACAD_MLEADERVER
 70
     0
  0
APPID
  5
F3E
330
9
100
AcDbSymbolTableRecord
100
AcDbRegAppTableRecord
  2
AcadAnnoPO
 70
     0
  0
APPID
  5
F3F
330
9
100
AcDbSymbolTableRecord
100
AcDbRegAppTableRecord
  2
ACAD_DSTYLE_DIMJAG
 70
     0
  0
APPID
  5
F40
330
9
100
AcDbSymbolTableRecord
100
AcDbRegAppTableRecord
  2
ACAD_DSTYLE_DIMTALN
 70
     0
  0
APPID
  5
F41
330
9
100
AcDbSymbolTableRecord
100
AcDbRegAppTableRecord
  2
ACAD_EXEMPT_FROM_CAD_STANDARDS
 70
     0
  0
APPID
  5
1023
330
9
100
AcDbSymbolTableRecord
100
AcDbRegAppTableRecord
  2
ACAD_PSEXT
 70
     0
  0
APPID
  5
197C
330
9
100
AcDbSymbolTableRecord
100
AcDbRegAppTableRecord
  2
ACAD_DSTYLE_DIMBREAK
 70
     0
  0
APPID
  5
1C9C
330
9
100
AcDbSymbolTableRecord
100
AcDbRegAppTableRecord
  2
AcadAnnoMonitorAlertIconDisabled
 70
     0
  0
ENDTAB
  0
TABLE
  2
DIMSTYLE
  5
A
330
0
100
AcDbSymbolTable
 70
     2
100
AcDbDimStyleTable
 71
     2
340
197E
340
18F
  0
DIMSTYLE
105
18F
330
A
100
AcDbSymbolTableRecord
100
AcDbDimStyleTableRecord
  2
STANDARD
 70
     0
 41
10.0
 42
10.0
 43
100.0
 44
10.0
 73
     0
 74
     0
 77
     1
 78
     8
140
45.0
147
10.0
172
     1
271
     2
272
     2
340
11
341
FE3
342
FDE
1001
ACAD_DSTYLE_DIMJAG
1070
   388
1040
1.5
1001
ACAD_DSTYLE_DIMTALN
1070
   392
1070
     0
  0
DIMSTYLE
105
197E
102
{ACAD_REACTORS
330
1269
330
126C
330
126D
330
126E
330
126F
330
1270
330
1271
330
1272
330
1366
330
1373
330
138D
330
139A
330
13A8
330
13B5
330
13C2
330
13D0
330
13DE
330
13EC
330
13FA
330
1467
330
1719
330
1731
330
17A8
330
1858
330
1C8F
102
}
330
A
100
AcDbSymbolTableRecord
100
AcDbDimStyleTableRecord
  2
STANDARD_ME08
 70
     0
 41
10.0
 42
10.0
 43
100.0
 44
10.0
 73
     0
 74
     0
 77
     1
 78
     8
140
45.0
147
10.0
172
     1
271
     2
272
     2
340
197D
341
FE3
342
FDE
1001
ACAD_DSTYLE_DIMBREAK
1070
   391
1040
0.125
1001
ACAD_DSTYLE_DIMJAG
1070
   388
1040
1.5
1001
ACAD_DSTYLE_DIMTALN
1070
   392
1070
     0
  0
ENDTAB
  0
TABLE
  2
BLOCK_RECORD
  5
1
330
0
100
AcDbSymbolTable
 70
    28
  0
BLOCK_RECORD
  5
1E
102
{ACAD_XDICTIONARY
360
9D1
102
}
330
1
100
AcDbSymbolTableRecord
100
AcDbBlockTableRecord
  2
*MODEL_SPACE
340
EDE
  0
BLOCK_RECORD
  5
1A
102
{ACAD_XDICTIONARY
360
9CF
102
}
330
1
100
AcDbSymbolTableRecord
100
AcDbBlockTableRecord
  2
*PAPER_SPACE
340
EDF
  0
BLOCK_RECORD
  5
FDE
330
1
100
AcDbSymbolTableRecord
100
AcDbBlockTableRecord
  2
_Origin
340
0
102
{BLKREFS
331
1CAA
331
1CAB
331
1AC1
331
1AC2
331
1ACA
331
1ACB
331
1AD3
331
1AD4
331
1ADE
331
1ADF
331
1AF0
331
1AF1
331
1AF9
331
1AFA
331
1B0B
331
1B0C
331
1B14
331
1B15
331
1B1D
331
1B1E
331
1B27
331
1B28
331
1B31
331
1B32
331
1B3A
331
1B3B
331
1B43
331
1B44
331
1B4C
331
1B4D
331
1B55
331
1B56
331
1B5E
331
1B5F
331
1B67
331
1B68
331
1B71
331
1B72
331
1B7B
331
1B7C
331
1B84
331
1B85
331
1B8E
331
1B8F
331
1B97
331
1B98
331
1BEA
331
1BEB
331
1AB6
331
1AB7
331
1C89
331
1C8A
102
}
  0
BLOCK_RECORD
  5
FE3
330
1
100
AcDbSymbolTableRecord
100
AcDbBlockTableRecord
  2
_Open90
340
0
  0
BLOCK_RECORD
  5
1278
330
1
100
AcDbSymbolTableRecord
100
AcDbBlockTableRecord
  2
*D2
340
0
  0
BLOCK_RECORD
  5
129D
330
1
100
AcDbSymbolTableRecord
100
AcDbBlockTableRecord
  2
*D3
340
0
  0
BLOCK_RECORD
  5
12AB
330
1
100
AcDbSymbolTableRecord
100
AcDbBlockTableRecord
  2
*D4
340
0
  0
BLOCK_RECORD
  5
12B7
330
1
100
AcDbSymbolTableRecord
100
AcDbBlockTableRecord
  2
*D5
340
0
  0
BLOCK_RECORD
  5
12C3
330
1
100
AcDbSymbolTableRecord
100
AcDbBlockTableRecord
  2
*D6
340
0
  0
BLOCK_RECORD
  5
12D1
330
1
100
AcDbSymbolTableRecord
100
AcDbBlockTableRecord
  2
*D7
340
0
  0
BLOCK_RECORD
  5
12DD
330
1
100
AcDbSymbolTableRecord
100
AcDbBlockTableRecord
  2
*D8
340
0
  0
BLOCK_RECORD
  5
12E9
330
1
100
AcDbSymbolTableRecord
100
AcDbBlockTableRecord
  2
*D9
340
0
  0
BLOCK_RECORD
  5
1354
330
1
100
AcDbSymbolTableRecord
100
AcDbBlockTableRecord
  2
*D10
340
0
  0
BLOCK_RECORD
  5
1367
330
1
100
AcDbSymbolTableRecord
100
AcDbBlockTableRecord
  2
*D11
340
0
  0
BLOCK_RECORD
  5
1374
330
1
100
AcDbSymbolTableRecord
100
AcDbBlockTableRecord
  2
*D12
340
0
  0
BLOCK_RECORD
  5
138E
330
1
100
AcDbSymbolTableRecord
100
AcDbBlockTableRecord
  2
*D13
340
0
  0
BLOCK_RECORD
  5
139B
330
1
100
AcDbSymbolTableRecord
100
AcDbBlockTableRecord
  2
*D14
340
0
  0
BLOCK_RECORD
  5
13A9
330
1
100
AcDbSymbolTableRecord
100
AcDbBlockTableRecord
  2
*D15
340
0
  0
BLOCK_RECORD
  5
13B6
330
1
100
AcDbSymbolTableRecord
100
AcDbBlockTableRecord
  2
*D16
340
0
  0
BLOCK_RECORD
  5
13C3
330
1
100
AcDbSymbolTableRecord
100
AcDbBlockTableRecord
  2
*D17
340
0
  0
BLOCK_RECORD
  5
13D1
330
1
100
AcDbSymbolTableRecord
100
AcDbBlockTableRecord
  2
*D18
340
0
  0
BLOCK_RECORD
  5
13DF
330
1
100
AcDbSymbolTableRecord
100
AcDbBlockTableRecord
  2
*D19
340
0
  0
BLOCK_RECORD
  5
13ED
330
1
100
AcDbSymbolTableRecord
100
AcDbBlockTableRecord
  2
*D20
340
0
  0
BLOCK_RECORD
  5
13FB
330
1
100
AcDbSymbolTableRecord
100
AcDbBlockTableRecord
  2
*D21
340
0
  0
BLOCK_RECORD
  5
1468
330
1
100
AcDbSymbolTableRecord
100
AcDbBlockTableRecord
  2
*D22
340
0
  0
BLOCK_RECORD
  5
171A
330
1
100
AcDbSymbolTableRecord
100
AcDbBlockTableRecord
  2
*D23
340
0
  0
BLOCK_RECORD
  5
1732
330
1
100
AcDbSymbolTableRecord
100
AcDbBlockTableRecord
  2
*D24
340
0
  0
BLOCK_RECORD
  5
17A9
330
1
100
AcDbSymbolTableRecord
100
AcDbBlockTableRecord
  2
*D25
340
0
  0
BLOCK_RECORD
  5
1859
330
1
100
AcDbSymbolTableRecord
100
AcDbBlockTableRecord
  2
*D26
340
0
  0
BLOCK_RECORD
  5
1C90
330
1
100
AcDbSymbolTableRecord
100
AcDbBlockTableRecord
  2
*D27
340
0
  0
ENDTAB
  0
ENDSEC
  0
SECTION
  2
BLOCKS
  0
BLOCK
  5
1F
330
1E
100
AcDbEntity
  8
0
100
AcDbBlockBegin
  2
*MODEL_SPACE
 70
     0
 10
0.0
 20
0.0
 30
0.0
  3
*MODEL_SPACE
  1

  0
ENDBLK
  5
20
330
1E
100
AcDbEntity
  8
0
100
AcDbBlockEnd
  0
BLOCK
  5
1B
330
1A
100
AcDbEntity
 67
     1
  8
0
100
AcDbBlockBegin
  2
*PAPER_SPACE
 70
     0
 10
0.0
 20
0.0
 30
0.0
  3
*PAPER_SPACE
  1

  0
ENDBLK
  5
1C
330
1A
100
AcDbEntity
 67
     1
  8
0
100
AcDbBlockEnd
  0
BLOCK
  5
FE1
330
FDE
100
AcDbEntity
  8
0
100
AcDbBlockBegin
  2
_Origin
 70
     0
 10
0.0
 20
0.0
 30
0.0
  3
_Origin
  1

  0
CIRCLE
  5
FDF
330
FDE
100
AcDbEntity
  8
0
  6
ByBlock
 62
     0
370
    -2
100
AcDbCircle
 10
0.0
 20
0.0
 30
0.0
 40
0.5
  0
LINE
  5
FE0
330
FDE
100
AcDbEntity
  8
0
  6
ByBlock
 62
     0
370
    -2
100
AcDbLine
 10
0.0
 20
0.0
 30
0.0
 11
-1.0
 21
0.0
 31
0.0
  0
ENDBLK
  5
FE2
330
FDE
100
AcDbEntity
  8
0
100
AcDbBlockEnd
  0
BLOCK
  5
FE7
330
FE3
100
AcDbEntity
  8
0
100
AcDbBlockBegin
  2
_Open90
 70
     0
 10
0.0
 20
0.0
 30
0.0
  3
_Open90
  1

  0
LINE
  5
FE4
330
FE3
100
AcDbEntity
  8
0
  6
ByBlock
 62
     0
370
    -2
100
AcDbLine
 10
-0.5
 20
0.5
 30
0.0
 11
0.0
 21
0.0
 31
0.0
  0
LINE
  5
FE5
330
FE3
100
AcDbEntity
  8
0
  6
ByBlock
 62
     0
370
    -2
100
AcDbLine
 10
0.0
 20
0.0
 30
0.0
 11
-0.5
 21
-0.5
 31
0.0
  0
LINE
  5
FE6
330
FE3
100
AcDbEntity
  8
0
  6
ByBlock
 62
     0
370
    -2
100
AcDbLine
 10
0.0
 20
0.0
 30
0.0
 11
-1.0
 21
0.0
 31
0.0
  0
ENDBLK
  5
FE8
330
FE3
100
AcDbEntity
  8
0
100
AcDbBlockEnd
  0
BLOCK
  5
1279
330
1278
100
AcDbEntity
  8
0
100
AcDbBlockBegin
  2
*D2
 70
     1
 10
0.0
 20
0.0
 30
0.0
  3
*D2
  1

  0
LINE
  5
1AB3
330
1278
100
AcDbEntity
  8
SIZE
 62
     0
440
 16777216
370
    -2
100
AcDbLine
 10
-420.0
 20
268.0
 30
0.0
 11
-419.9999999999998
 21
973.6171559802375
 31
0.0
  0
LINE
  5
1AB4
330
1278
100
AcDbEntity
  8
SIZE
 62
     0
440
 16777216
370
    -2
100
AcDbLine
 10
420.0
 20
268.0
 30
0.0
 11
420.0000000000001
 21
973.6171559802375
 31
0.0
  0
LINE
  5
1AB5
330
1278
100
AcDbEntity
  8
SIZE
 62
     0
440
 16777216
370
    -2
100
AcDbLine
 10
-409.9999999999998
 20
963.6171559802376
 30
0.0
 11
410.0
 21
963.6171559802376
 31
0.0
  0
INSERT
  5
1AB6
330
1278
100
AcDbEntity
  8
SIZE
 62
     0
440
 16777216
370
    -2
100
AcDbBlockReference
  2
_Origin
 10
-419.9999999999998
 20
963.6171559802376
 30
0.0
 41
10.0
 42
10.0
 43
10.0
 50
180.0
  0
INSERT
  5
1AB7
330
1278
100
AcDbEntity
  8
SIZE
 62
     0
440
 16777216
370
    -2
100
AcDbBlockReference
  2
_Origin
 10
420.0000000000001
 20
963.6171559802376
 30
0.0
 41
10.0
 42
10.0
 43
10.0
  0
MTEXT
  5
1AB8
330
1278
100
AcDbEntity
  8
SIZE
 62
     0
440
 16777216
100
AcDbMText
 10
-0.000000000000007
 20
996.1171559802377
 30
0.0
 40
45.0
 41
0.0
 71
     5
 72
     1
  1
\A1;840
  7
ME08
 73
     1
 44
1.0
  0
POINT
  5
1AB9
330
1278
100
AcDbEntity
  8
DEFPOINTS
 62
     0
440
 16777216
100
AcDbPoint
 10
-420.0
 20
258.0
 30
0.0
  0
POINT
  5
1ABA
330
1278
100
AcDbEntity
  8
DEFPOINTS
 62
     0
440
 16777216
100
AcDbPoint
 10
420.0
 20
258.0
 30
0.0
  0
POINT
  5
1ABB
330
1278
100
AcDbEntity
  8
DEFPOINTS
 62
     0
440
 16777216
100
AcDbPoint
 10
420.0000000000001
 20
963.6171559802376
 30
0.0
  0
ENDBLK
  5
127A
330
1278
100
AcDbEntity
  8
0
100
AcDbBlockEnd
  0
BLOCK
  5
129E
330
129D
100
AcDbEntity
  8
0
100
AcDbBlockBegin
  2
*D3
 70
     1
 10
0.0
 20
0.0
 30
0.0
  3
*D3
  1

  0
LINE
  5
1ABC
330
129D
100
AcDbEntity
  8
SIZE
 62
     0
440
 16777216
370
    -2
100
AcDbLine
 10
430.0000000000001
 20
17.00000000000001
 30
0.0
 11
1200.742381993079
 21
17.00000000000013
 31
0.0
  0
LINE
  5
1ABD
330
129D
100
AcDbEntity
  8
SIZE
 62
     0
440
 16777216
370
    -2
100
AcDbLine
 10
485.0000000000001
 20
0.0000000000000016
 30
0.0
 11
1200.742381993079
 21
0.0000000000001167
 31
0.0
  0
LINE
  5
1ABE
330
129D
100
AcDbEntity
  8
SIZE
 62
     0
440
 16777216
370
    -2
100
AcDbLine
 10
1190.742381993079
 20
27.00000000000013
 30
0.0
 11
1190.742381993079
 21
37.00000000000013
 31
0.0
  0
LINE
  5
1ABF
330
129D
100
AcDbEntity
  8
SIZE
 62
     0
440
 16777216
370
    -2
100
AcDbLine
 10
1190.742381993079
 20
-9.999999999999886
 30
0.0
 11
1190.742381993079
 21
-145.7601972067434
 31
0.0
  0
LINE
  5
1AC0
330
129D
100
AcDbEntity
  8
SIZE
 62
     0
440
 16777216
370
    -2
100
AcDbLine
 10
1190.742381993079
 20
17.00000000000013
 30
0.0
 11
1190.742381993079
 21
0.0000000000001151
 31
0.0
  0
INSERT
  5
1AC1
330
129D
100
AcDbEntity
  8
SIZE
 62
     0
440
 16777216
370
    -2
100
AcDbBlockReference
  2
_Origin
 10
1190.742381993079
 20
17.00000000000013
 30
0.0
 41
10.0
 42
10.0
 43
10.0
 50
270.0
  0
INSERT
  5
1AC2
330
129D
100
AcDbEntity
  8
SIZE
 62
     0
440
 16777216
370
    -2
100
AcDbBlockReference
  2
_Origin
 10
1190.742381993079
 20
0.0000000000001151
 30
0.0
 41
10.0
 42
10.0
 43
10.0
 50
90.0
  0
MTEXT
  5
1AC3
330
129D
100
AcDbEntity
  8
SIZE
 62
     0
440
 16777216
100
AcDbMText
 10
1158.242381993079
 20
-110.045911492458
 30
0.0
 40
45.0
 41
0.0
 71
     5
 72
     1
  1
\A1;17
  7
ME08
 11
0.0000000000000001
 21
1.0
 31
0.0
 73
     1
 44
1.0
  0
POINT
  5
1AC4
330
129D
100
AcDbEntity
  8
DEFPOINTS
 62
     0
440
 16777216
100
AcDbPoint
 10
420.0000000000001
 20
17.00000000000001
 30
0.0
  0
POINT
  5
1AC5
330
129D
100
AcDbEntity
  8
DEFPOINTS
 62
     0
440
 16777216
100
AcDbPoint
 10
475.0000000000001
 20
0.0
 30
0.0
  0
POINT
  5
1AC6
330
129D
100
AcDbEntity
  8
DEFPOINTS
 62
     0
440
 16777216
100
AcDbPoint
 10
1190.742381993079
 20
0.0000000000001151
 30
0.0
  0
ENDBLK
  5
129F
330
129D
100
AcDbEntity
  8
0
100
AcDbBlockEnd
  0
BLOCK
  5
12AC
330
12AB
100
AcDbEntity
  8
0
100
AcDbBlockBegin
  2
*D4
 70
     1
 10
0.0
 20
0.0
 30
0.0
  3
*D4
  1

  0
LINE
  5
1AC7
330
12AB
100
AcDbEntity
  8
SIZE
 62
     0
440
 16777216
370
    -2
100
AcDbLine
 10
430.0000000000001
 20
17.00000000000001
 30
0.0
 11
1200.742381993079
 21
17.00000000000013
 31
0.0
  0
LINE
  5
1AC8
330
12AB
100
AcDbEntity
  8
SIZE
 62
     0
440
 16777216
370
    -2
100
AcDbLine
 10
430.0000000000001
 20
258.0
 30
0.0
 11
1200.742381993079
 21
258.0000000000002
 31
0.0
  0
LINE
  5
1AC9
330
12AB
100
AcDbEntity
  8
SIZE
 62
     0
440
 16777216
370
    -2
100
AcDbLine
 10
1190.742381993079
 20
27.00000000000013
 30
0.0
 11
1190.742381993079
 21
248.0000000000002
 31
0.0
  0
INSERT
  5
1ACA
330
12AB
100
AcDbEntity
  8
SIZE
 62
     0
440
 16777216
370
    -2
100
AcDbBlockReference
  2
_Origin
 10
1190.742381993079
 20
17.00000000000013
 30
0.0
 41
10.0
 42
10.0
 43
10.0
 50
270.0
  0
INSERT
  5
1ACB
330
12AB
100
AcDbEntity
  8
SIZE
 62
     0
440
 16777216
370
    -2
100
AcDbBlockReference
  2
_Origin
 10
1190.742381993079
 20
258.0000000000002
 30
0.0
 41
10.0
 42
10.0
 43
10.0
 50
90.0
  0
MTEXT
  5
1ACC
330
12AB
100
AcDbEntity
  8
SIZE
 62
     0
440
 16777216
100
AcDbMText
 10
1158.242381993079
 20
137.4999999999998
 30
0.0
 40
45.0
 41
0.0
 71
     5
 72
     1
  1
\A1;241
  7
ME08
 11
0.0000000000000001
 21
1.0
 31
0.0
 73
     1
 44
1.0
  0
POINT
  5
1ACD
330
12AB
100
AcDbEntity
  8
DEFPOINTS
 62
     0
440
 16777216
100
AcDbPoint
 10
420.0000000000001
 20
17.00000000000001
 30
0.0
  0
POINT
  5
1ACE
330
12AB
100
AcDbEntity
  8
DEFPOINTS
 62
     0
440
 16777216
100
AcDbPoint
 10
420.0000000000001
 20
258.0
 30
0.0
  0
POINT
  5
1ACF
330
12AB
100
AcDbEntity
  8
DEFPOINTS
 62
     0
440
 16777216
100
AcDbPoint
 10
1190.742381993079
 20
258.0000000000002
 30
0.0
  0
ENDBLK
  5
12AD
330
12AB
100
AcDbEntity
  8
0
100
AcDbBlockEnd
  0
BLOCK
  5
12B8
330
12B7
100
AcDbEntity
  8
0
100
AcDbBlockBegin
  2
*D5
 70
     1
 10
0.0
 20
0.0
 30
0.0
  3
*D5
  1

  0
LINE
  5
1AD0
330
12B7
100
AcDbEntity
  8
SIZE
 62
     0
440
 16777216
370
    -2
100
AcDbLine
 10
430.0000000000001
 20
258.0
 30
0.0
 11
1351.55320536623
 21
258.0000000000002
 31
0.0
  0
LINE
  5
1AD1
330
12B7
100
AcDbEntity
  8
SIZE
 62
     0
440
 16777216
370
    -2
100
AcDbLine
 10
485.0000000000001
 20
0.0000000000000016
 30
0.0
 11
1351.55320536623
 21
0.000000000000141
 31
0.0
  0
LINE
  5
1AD2
330
12B7
100
AcDbEntity
  8
SIZE
 62
     0
440
 16777216
370
    -2
100
AcDbLine
 10
1341.55320536623
 20
248.0000000000002
 30
0.0
 11
1341.55320536623
 21
10.00000000000014
 31
0.0
  0
INSERT
  5
1AD3
330
12B7
100
AcDbEntity
  8
SIZE
 62
     0
440
 16777216
370
    -2
100
AcDbBlockReference
  2
_Origin
 10
1341.55320536623
 20
258.0000000000002
 30
0.0
 41
10.0
 42
10.0
 43
10.0
 50
90.0
  0
INSERT
  5
1AD4
330
12B7
100
AcDbEntity
  8
SIZE
 62
     0
440
 16777216
370
    -2
100
AcDbBlockReference
  2
_Origin
 10
1341.55320536623
 20
0.0000000000001394
 30
0.0
 41
10.0
 42
10.0
 43
10.0
 50
270.0
  0
MTEXT
  5
1AD5
330
12B7
100
AcDbEntity
  8
SIZE
 62
     0
440
 16777216
100
AcDbMText
 10
1309.05320536623
 20
128.9999999999998
 30
0.0
 40
45.0
 41
0.0
 71
     5
 72
     1
  1
\A1;258
  7
ME08
 11
0.0000000000000001
 21
1.0
 31
0.0
 73
     1
 44
1.0
  0
POINT
  5
1AD6
330
12B7
100
AcDbEntity
  8
DEFPOINTS
 62
     0
440
 16777216
100
AcDbPoint
 10
420.0000000000001
 20
258.0
 30
0.0
  0
POINT
  5
1AD7
330
12B7
100
AcDbEntity
  8
DEFPOINTS
 62
     0
440
 16777216
100
AcDbPoint
 10
475.0000000000001
 20
0.0
 30
0.0
  0
POINT
  5
1AD8
330
12B7
100
AcDbEntity
  8
DEFPOINTS
 62
     0
440
 16777216
100
AcDbPoint
 10
1341.55320536623
 20
0.0000000000001394
 30
0.0
  0
ENDBLK
  5
12B9
330
12B7
100
AcDbEntity
  8
0
100
AcDbBlockEnd
  0
BLOCK
  5
12C4
330
12C3
100
AcDbEntity
  8
0
100
AcDbBlockBegin
  2
*D6
 70
     1
 10
0.0
 20
0.0
 30
0.0
  3
*D6
  1

  0
LINE
  5
1AD9
330
12C3
100
AcDbEntity
  8
SIZE
 62
     0
440
 16777216
370
    -2
100
AcDbLine
 10
485.0000000000001
 20
0.0000000000000016
 30
0.0
 11
1351.553205366231
 21
0.000000000000141
 31
0.0
  0
LINE
  5
1ADA
330
12C3
100
AcDbEntity
  8
SIZE
 62
     0
440
 16777216
370
    -2
100
AcDbLine
 10
458.0000000000001
 20
-35.00000000000002
 30
0.0
 11
1351.553205366231
 21
-34.99999999999988
 31
0.0
  0
LINE
  5
1ADB
330
12C3
100
AcDbEntity
  8
SIZE
 62
     0
440
 16777216
370
    -2
100
AcDbLine
 10
1341.553205366231
 20
10.00000000000014
 30
0.0
 11
1341.553205366231
 21
20.00000000000014
 31
0.0
  0
LINE
  5
1ADC
330
12C3
100
AcDbEntity
  8
SIZE
 62
     0
440
 16777216
370
    -2
100
AcDbLine
 10
1341.553205366231
 20
-44.99999999999985
 30
0.0
 11
1341.553205366231
 21
-133.2857142857142
 31
0.0
  0
LINE
  5
1ADD
330
12C3
100
AcDbEntity
  8
SIZE
 62
     0
440
 16777216
370
    -2
100
AcDbLine
 10
1341.553205366231
 20
0.0000000000001394
 30
0.0
 11
1341.553205366231
 21
-34.99999999999988
 31
0.0
  0
INSERT
  5
1ADE
330
12C3
100
AcDbEntity
  8
SIZE
 62
     0
440
 16777216
370
    -2
100
AcDbBlockReference
  2
_Origin
 10
1341.553205366231
 20
0.0000000000001394
 30
0.0
 41
10.0
 42
10.0
 43
10.0
 50
270.0
  0
INSERT
  5
1ADF
330
12C3
100
AcDbEntity
  8
SIZE
 62
     0
440
 16777216
370
    -2
100
AcDbBlockReference
  2
_Origin
 10
1341.553205366231
 20
-34.99999999999988
 30
0.0
 41
10.0
 42
10.0
 43
10.0
 50
90.0
  0
MTEXT
  5
1AE0
330
12C3
100
AcDbEntity
  8
SIZE
 62
     0
440
 16777216
100
AcDbMText
 10
1309.053205366231
 20
-94.14285714285739
 30
0.0
 40
45.0
 41
0.0
 71
     5
 72
     1
  1
\A1;35
  7
ME08
 11
0.0000000000000001
 21
1.0
 31
0.0
 73
     1
 44
1.0
  0
POINT
  5
1AE1
330
12C3
100
AcDbEntity
  8
DEFPOINTS
 62
     0
440
 16777216
100
AcDbPoint
 10
475.0000000000001
 20
0.0
 30
0.0
  0
POINT
  5
1AE2
330
12C3
100
AcDbEntity
  8
DEFPOINTS
 62
     0
440
 16777216
100
AcDbPoint
 10
448.0000000000002
 20
-35.00000000000002
 30
0.0
  0
POINT
  5
1AE3
330
12C3
100
AcDbEntity
  8
DEFPOINTS
 62
     0
440
 16777216
100
AcDbPoint
 10
1341.553205366231
 20
-34.99999999999988
 30
0.0
  0
ENDBLK
  5
12C5
330
12C3
100
AcDbEntity
  8
0
100
AcDbBlockEnd
  0
BLOCK
  5
12D2
330
12D1
100
AcDbEntity
  8
0
100
AcDbBlockBegin
  2
*D7
 70
     1
 10
0.0
 20
0.0
 30
0.0
  3
*D7
  1

  0
LINE
  5
1BE7
330
12D1
100
AcDbEntity
  8
SIZE
 62
     0
440
 16777216
370
    -2
100
AcDbLine
 10
485.0000000000001
 20
0.0000000000000112
 30
0.0
 11
1506.491264963829
 21
0.0000000000001755
 31
0.0
  0
LINE
  5
1BE8
330
12D1
100
AcDbEntity
  8
SIZE
 62
     0
440
 16777216
370
    -2
100
AcDbLine
 10
574.3863861514515
 20
275.0
 30
0.0
 11
1506.491264963829
 21
275.0000000000003
 31
0.0
  0
LINE
  5
1BE9
330
12D1
100
AcDbEntity
  8
SIZE
 62
     0
440
 16777216
370
    -2
100
AcDbLine
 10
1496.491264963829
 20
10.00000000000017
 30
0.0
 11
1496.491264963829
 21
265.0000000000003
 31
0.0
  0
INSERT
  5
1BEA
330
12D1
100
AcDbEntity
  8
SIZE
 62
     0
440
 16777216
370
    -2
100
AcDbBlockReference
  2
_Origin
 10
1496.491264963829
 20
0.0000000000001739
 30
0.0
 41
10.0
 42
10.0
 43
10.0
 50
270.0
  0
INSERT
  5
1BEB
330
12D1
100
AcDbEntity
  8
SIZE
 62
     0
440
 16777216
370
    -2
100
AcDbBlockReference
  2
_Origin
 10
1496.491264963829
 20
275.0000000000003
 30
0.0
 41
10.0
 42
10.0
 43
10.0
 50
90.0
  0
MTEXT
  5
1BEC
330
12D1
100
AcDbEntity
  8
SIZE
 62
     0
440
 16777216
100
AcDbMText
 10
1463.991264963829
 20
137.4999999999998
 30
0.0
 40
45.0
 41
0.0
 71
     5
 72
     1
  1
\A1;275以上
  7
ME08
 11
0.0000000000000001
 21
1.0
 31
0.0
 73
     1
 44
1.0
  0
POINT
  5
1BED
330
12D1
100
AcDbEntity
  8
DEFPOINTS
 62
     0
440
 16777216
100
AcDbPoint
 10
475.0000000000001
 20
0.0000000000000096
 30
0.0
  0
POINT
  5
1BEE
330
12D1
100
AcDbEntity
  8
DEFPOINTS
 62
     0
440
 16777216
100
AcDbPoint
 10
564.3863861514512
 20
275.0
 30
0.0
  0
POINT
  5
1BEF
330
12D1
100
AcDbEntity
  8
DEFPOINTS
 62
     0
440
 16777216
100
AcDbPoint
 10
1496.491264963829
 20
275.0000000000003
 30
0.0
  0
ENDBLK
  5
12D3
330
12D1
100
AcDbEntity
  8
0
100
AcDbBlockEnd
  0
BLOCK
  5
12DE
330
12DD
100
AcDbEntity
  8
0
100
AcDbBlockBegin
  2
*D8
 70
     1
 10
0.0
 20
0.0
 30
0.0
  3
*D8
  1

  0
LINE
  5
1AED
330
12DD
100
AcDbEntity
  8
SIZE
 62
     0
440
 16777216
370
    -2
100
AcDbLine
 10
-475.0
 20
-18.0
 30
0.0
 11
-475.0
 21
-530.9386137434485
 31
0.0
  0
LINE
  5
1AEE
330
12DD
100
AcDbEntity
  8
SIZE
 62
     0
440
 16777216
370
    -2
100
AcDbLine
 10
475.0
 20
-18.0
 30
0.0
 11
474.9999999999998
 21
-530.9386137434485
 31
0.0
  0
LINE
  5
1AEF
330
12DD
100
AcDbEntity
  8
SIZE
 62
     0
440
 16777216
370
    -2
100
AcDbLine
 10
-465.0
 20
-520.9386137434485
 30
0.0
 11
464.9999999999998
 21
-520.9386137434485
 31
0.0
  0
INSERT
  5
1AF0
330
12DD
100
AcDbEntity
  8
SIZE
 62
     0
440
 16777216
370
    -2
100
AcDbBlockReference
  2
_Origin
 10
-475.0
 20
-520.9386137434485
 30
0.0
 41
10.0
 42
10.0
 43
10.0
 50
180.0
  0
INSERT
  5
1AF1
330
12DD
100
AcDbEntity
  8
SIZE
 62
     0
440
 16777216
370
    -2
100
AcDbBlockReference
  2
_Origin
 10
474.9999999999998
 20
-520.9386137434485
 30
0.0
 41
10.0
 42
10.0
 43
10.0
  0
MTEXT
  5
1AF2
330
12DD
100
AcDbEntity
  8
SIZE
 62
     0
440
 16777216
100
AcDbMText
 10
-0.0000000000000151
 20
-488.4386137434485
 30
0.0
 40
45.0
 41
0.0
 71
     5
 72
     1
  1
\A1;950
  7
ME08
 73
     1
 44
1.0
  0
POINT
  5
1AF3
330
12DD
100
AcDbEntity
  8
DEFPOINTS
 62
     0
440
 16777216
100
AcDbPoint
 10
-475.0
 20
-8.0
 30
0.0
  0
POINT
  5
1AF4
330
12DD
100
AcDbEntity
  8
DEFPOINTS
 62
     0
440
 16777216
100
AcDbPoint
 10
475.0
 20
-8.0
 30
0.0
  0
POINT
  5
1AF5
330
12DD
100
AcDbEntity
  8
DEFPOINTS
 62
     0
440
 16777216
100
AcDbPoint
 10
474.9999999999998
 20
-520.9386137434485
 30
0.0
  0
ENDBLK
  5
12DF
330
12DD
100
AcDbEntity
  8
0
100
AcDbBlockEnd
  0
BLOCK
  5
12EA
330
12E9
100
AcDbEntity
  8
0
100
AcDbBlockBegin
  2
*D9
 70
     1
 10
0.0
 20
0.0
 30
0.0
  3
*D9
  1

  0
LINE
  5
1AF6
330
12E9
100
AcDbEntity
  8
SIZE
 62
     0
440
 16777216
370
    -2
100
AcDbLine
 10
-430.0
 20
30.00000000000005
 30
0.0
 11
-429.9999999999998
 21
1112.419675609067
 31
0.0
  0
LINE
  5
1AF7
330
12E9
100
AcDbEntity
  8
SIZE
 62
     0
440
 16777216
370
    -2
100
AcDbLine
 10
430.0
 20
30.00000000000005
 30
0.0
 11
430.0
 21
1112.419675609067
 31
0.0
  0
LINE
  5
1AF8
330
12E9
100
AcDbEntity
  8
SIZE
 62
     0
440
 16777216
370
    -2
100
AcDbLine
 10
-419.9999999999998
 20
1102.419675609067
 30
0.0
 11
420.0000000000001
 21
1102.419675609067
 31
0.0
  0
INSERT
  5
1AF9
330
12E9
100
AcDbEntity
  8
SIZE
 62
     0
440
 16777216
370
    -2
100
AcDbBlockReference
  2
_Origin
 10
-429.9999999999998
 20
1102.419675609067
 30
0.0
 41
10.0
 42
10.0
 43
10.0
 50
180.0
  0
INSERT
  5
1AFA
330
12E9
100
AcDbEntity
  8
SIZE
 62
     0
440
 16777216
370
    -2
100
AcDbBlockReference
  2
_Origin
 10
430.0
 20
1102.419675609067
 30
0.0
 41
10.0
 42
10.0
 43
10.0
  0
MTEXT
  5
1AFB
330
12E9
100
AcDbEntity
  8
SIZE
 62
     0
440
 16777216
100
AcDbMText
 10
0.0000000000000126
 20
1134.919675609067
 30
0.0
 40
45.0
 41
0.0
 71
     5
 72
     1
  1
\A1;860～910
  7
ME08
 73
     1
 44
1.0
  0
POINT
  5
1AFC
330
12E9
100
AcDbEntity
  8
DEFPOINTS
 62
     0
440
 16777216
100
AcDbPoint
 10
-430.0
 20
20.00000000000005
 30
0.0
  0
POINT
  5
1AFD
330
12E9
100
AcDbEntity
  8
DEFPOINTS
 62
     0
440
 16777216
100
AcDbPoint
 10
430.0
 20
20.00000000000005
 30
0.0
  0
POINT
  5
1AFE
330
12E9
100
AcDbEntity
  8
DEFPOINTS
 62
     0
440
 16777216
100
AcDbPoint
 10
430.0
 20
1102.419675609067
 30
0.0
  0
ENDBLK
  5
12EB
330
12E9
100
AcDbEntity
  8
0
100
AcDbBlockEnd
  0
BLOCK
  5
1355
330
1354
100
AcDbEntity
  8
0
100
AcDbBlockBegin
  2
*D10
 70
     1
 10
0.0
 20
0.0
 30
0.0
  3
*D10
  1

  0
LINE
  5
1C86
330
1354
100
AcDbEntity
  8
SIZE
 62
     0
440
 16777216
370
    -2
100
AcDbLine
 10
634.3879370000002
 20
-2000.000000000001
 30
0.0
 11
1506.49126496383
 21
-2000.000000000001
 31
0.0
  0
LINE
  5
1C87
330
1354
100
AcDbEntity
  8
SIZE
 62
     0
440
 16777216
370
    -2
100
AcDbLine
 10
458.0000000000002
 20
-35.00000000000002
 30
0.0
 11
1506.491264963829
 21
-34.99999999999984
 31
0.0
  0
LINE
  5
1C88
330
1354
100
AcDbEntity
  8
SIZE
 62
     0
440
 16777216
370
    -2
100
AcDbLine
 10
1496.49126496383
 20
-1990.000000000001
 30
0.0
 11
1496.491264963829
 21
-44.99999999999984
 31
0.0
  0
INSERT
  5
1C89
330
1354
100
AcDbEntity
  8
SIZE
 62
     0
440
 16777216
370
    -2
100
AcDbBlockReference
  2
_Origin
 10
1496.49126496383
 20
-2000.000000000001
 30
0.0
 41
10.0
 42
10.0
 43
10.0
 50
270.0
  0
INSERT
  5
1C8A
330
1354
100
AcDbEntity
  8
SIZE
 62
     0
440
 16777216
370
    -2
100
AcDbBlockReference
  2
_Origin
 10
1496.491264963829
 20
-34.99999999999984
 30
0.0
 41
10.0
 42
10.0
 43
10.0
 50
90.0
  0
MTEXT
  5
1C8B
330
1354
100
AcDbEntity
  8
SIZE
 62
     0
440
 16777216
100
AcDbMText
 10
1463.991264963829
 20
-1017.5
 30
0.0
 40
45.0
 41
0.0
 71
     5
 72
     1
  1
\A1;床面より1965以上
  7
ME08
 11
0.0000000000000001
 21
1.0
 31
0.0
 73
     1
 44
1.0
  0
POINT
  5
1C8C
330
1354
100
AcDbEntity
  8
DEFPOINTS
 62
     0
440
 16777216
100
AcDbPoint
 10
624.3879370000001
 20
-2000.000000000001
 30
0.0
  0
POINT
  5
1C8D
330
1354
100
AcDbEntity
  8
DEFPOINTS
 62
     0
440
 16777216
100
AcDbPoint
 10
448.0000000000002
 20
-35.00000000000002
 30
0.0
  0
POINT
  5
1C8E
330
1354
100
AcDbEntity
  8
DEFPOINTS
 62
     0
440
 16777216
100
AcDbPoint
 10
1496.491264963829
 20
-34.99999999999984
 30
0.0
  0
ENDBLK
  5
1356
330
1354
100
AcDbEntity
  8
0
100
AcDbBlockEnd
  0
BLOCK
  5
1368
330
1367
100
AcDbEntity
  8
0
100
AcDbBlockBegin
  2
*D11
 70
     1
 10
0.0
 20
0.0
 30
0.0
  3
*D11
  1

  0
LINE
  5
1B08
330
1367
100
AcDbEntity
  8
SIZE
 62
     0
440
 16777216
370
    -2
100
AcDbLine
 10
-485.0000000000001
 20
0.0000000000000566
 30
0.0
 11
-1010.951190046839
 21
-0.000000000000028
 31
0.0
  0
LINE
  5
1B09
330
1367
100
AcDbEntity
  8
SIZE
 62
     0
440
 16777216
370
    -2
100
AcDbLine
 10
-67.49999999999996
 20
167.0
 30
0.0
 11
-1010.951190046839
 21
166.9999999999999
 31
0.0
  0
LINE
  5
1B0A
330
1367
100
AcDbEntity
  8
SIZE
 62
     0
440
 16777216
370
    -2
100
AcDbLine
 10
-1000.951190046839
 20
9.999999999999976
 30
0.0
 11
-1000.951190046839
 21
156.9999999999999
 31
0.0
  0
INSERT
  5
1B0B
330
1367
100
AcDbEntity
  8
SIZE
 62
     0
440
 16777216
370
    -2
100
AcDbBlockReference
  2
_Origin
 10
-1000.951190046839
 20
-0.0000000000000264
 30
0.0
 41
10.0
 42
10.0
 43
10.0
 50
270.0
  0
INSERT
  5
1B0C
330
1367
100
AcDbEntity
  8
SIZE
 62
     0
440
 16777216
370
    -2
100
AcDbBlockReference
  2
_Origin
 10
-1000.951190046839
 20
166.9999999999999
 30
0.0
 41
10.0
 42
10.0
 43
10.0
 50
90.0
  0
MTEXT
  5
1B0D
330
1367
100
AcDbEntity
  8
SIZE
 62
     0
440
 16777216
100
AcDbMText
 10
-1033.451190046839
 20
83.5000000000002
 30
0.0
 40
45.0
 41
0.0
 71
     5
 72
     1
  1
\A1;167
  7
ME08
 11
0.0000000000000001
 21
1.0
 31
0.0
 73
     1
 44
1.0
  0
POINT
  5
1B0E
330
1367
100
AcDbEntity
  8
DEFPOINTS
 62
     0
440
 16777216
100
AcDbPoint
 10
-475.0000000000001
 20
0.0000000000000582
 30
0.0
  0
POINT
  5
1B0F
330
1367
100
AcDbEntity
  8
DEFPOINTS
 62
     0
440
 16777216
100
AcDbPoint
 10
-57.49999999999995
 20
167.0
 30
0.0
  0
POINT
  5
1B10
330
1367
100
AcDbEntity
  8
DEFPOINTS
 62
     0
440
 16777216
100
AcDbPoint
 10
-1000.951190046839
 20
166.9999999999999
 30
0.0
  0
ENDBLK
  5
1369
330
1367
100
AcDbEntity
  8
0
100
AcDbBlockEnd
  0
BLOCK
  5
1375
330
1374
100
AcDbEntity
  8
0
100
AcDbBlockBegin
  2
*D12
 70
     1
 10
0.0
 20
0.0
 30
0.0
  3
*D12
  1

  0
LINE
  5
1B11
330
1374
100
AcDbEntity
  8
SIZE
 62
     0
440
 16777216
370
    -2
100
AcDbLine
 10
485.0000000000001
 20
0.0000000000000016
 30
0.0
 11
907.6907059976766
 21
0.0000000000000696
 31
0.0
  0
LINE
  5
1B12
330
1374
100
AcDbEntity
  8
SIZE
 62
     0
440
 16777216
370
    -2
100
AcDbLine
 10
446.5000000000001
 20
140.0
 30
0.0
 11
907.6907059976766
 21
140.0000000000001
 31
0.0
  0
LINE
  5
1B13
330
1374
100
AcDbEntity
  8
SIZE
 62
     0
440
 16777216
370
    -2
100
AcDbLine
 10
897.6907059976767
 20
10.00000000000007
 30
0.0
 11
897.6907059976767
 21
130.0000000000001
 31
0.0
  0
INSERT
  5
1B14
330
1374
100
AcDbEntity
  8
SIZE
 62
     0
440
 16777216
370
    -2
100
AcDbBlockReference
  2
_Origin
 10
897.6907059976767
 20
0.000000000000068
 30
0.0
 41
10.0
 42
10.0
 43
10.0
 50
270.0
  0
INSERT
  5
1B15
330
1374
100
AcDbEntity
  8
SIZE
 62
     0
440
 16777216
370
    -2
100
AcDbBlockReference
  2
_Origin
 10
897.6907059976767
 20
140.0000000000001
 30
0.0
 41
10.0
 42
10.0
 43
10.0
 50
90.0
  0
MTEXT
  5
1B16
330
1374
100
AcDbEntity
  8
SIZE
 62
     0
440
 16777216
100
AcDbMText
 10
865.1907059976766
 20
77.95810249040278
 30
0.0
 40
45.0
 41
0.0
 71
     5
 72
     1
  1
\A1;140
  7
ME08
 11
0.0000000000000001
 21
1.0
 31
0.0
 73
     1
 44
1.0
  0
POINT
  5
1B17
330
1374
100
AcDbEntity
  8
DEFPOINTS
 62
     0
440
 16777216
100
AcDbPoint
 10
475.0000000000001
 20
0.0
 30
0.0
  0
POINT
  5
1B18
330
1374
100
AcDbEntity
  8
DEFPOINTS
 62
     0
440
 16777216
100
AcDbPoint
 10
436.5000000000001
 20
140.0
 30
0.0
  0
POINT
  5
1B19
330
1374
100
AcDbEntity
  8
DEFPOINTS
 62
     0
440
 16777216
100
AcDbPoint
 10
897.6907059976767
 20
140.0000000000001
 30
0.0
  0
ENDBLK
  5
1376
330
1374
100
AcDbEntity
  8
0
100
AcDbBlockEnd
  0
BLOCK
  5
138F
330
138E
100
AcDbEntity
  8
0
100
AcDbBlockBegin
  2
*D13
 70
     1
 10
0.0
 20
0.0
 30
0.0
  3
*D13
  1

  0
LINE
  5
1B1A
330
138E
100
AcDbEntity
  8
SIZE
 62
     0
440
 16777216
370
    -2
100
AcDbLine
 10
-485.0000000000001
 20
0.0000000000000566
 30
0.0
 11
-914.9291967910983
 21
-0.0000000000000125
 31
0.0
  0
LINE
  5
1B1B
330
138E
100
AcDbEntity
  8
SIZE
 62
     0
440
 16777216
370
    -2
100
AcDbLine
 10
-170.0
 20
155.0
 30
0.0
 11
-914.9291967910983
 21
154.9999999999999
 31
0.0
  0
LINE
  5
1B1C
330
138E
100
AcDbEntity
  8
SIZE
 62
     0
440
 16777216
370
    -2
100
AcDbLine
 10
-904.9291967910983
 20
9.999999999999991
 30
0.0
 11
-904.9291967910983
 21
144.9999999999999
 31
0.0
  0
INSERT
  5
1B1D
330
138E
100
AcDbEntity
  8
SIZE
 62
     0
440
 16777216
370
    -2
100
AcDbBlockReference
  2
_Origin
 10
-904.9291967910983
 20
-0.0000000000000109
 30
0.0
 41
10.0
 42
10.0
 43
10.0
 50
270.0
  0
INSERT
  5
1B1E
330
138E
100
AcDbEntity
  8
SIZE
 62
     0
440
 16777216
370
    -2
100
AcDbBlockReference
  2
_Origin
 10
-904.9291967910983
 20
154.9999999999999
 30
0.0
 41
10.0
 42
10.0
 43
10.0
 50
90.0
  0
MTEXT
  5
1B1F
330
138E
100
AcDbEntity
  8
SIZE
 62
     0
440
 16777216
100
AcDbMText
 10
-937.4291967910982
 20
77.5000000000002
 30
0.0
 40
45.0
 41
0.0
 71
     5
 72
     1
  1
\A1;155
  7
ME08
 11
0.0000000000000001
 21
1.0
 31
0.0
 73
     1
 44
1.0
  0
POINT
  5
1B20
330
138E
100
AcDbEntity
  8
DEFPOINTS
 62
     0
440
 16777216
100
AcDbPoint
 10
-475.0000000000001
 20
0.0000000000000582
 30
0.0
  0
POINT
  5
1B21
330
138E
100
AcDbEntity
  8
DEFPOINTS
 62
     0
440
 16777216
100
AcDbPoint
 10
-159.9999999999999
 20
155.0
 30
0.0
  0
POINT
  5
1B22
330
138E
100
AcDbEntity
  8
DEFPOINTS
 62
     0
440
 16777216
100
AcDbPoint
 10
-904.9291967910983
 20
154.9999999999999
 30
0.0
  0
ENDBLK
  5
1390
330
138E
100
AcDbEntity
  8
0
100
AcDbBlockEnd
  0
BLOCK
  5
139C
330
139B
100
AcDbEntity
  8
0
100
AcDbBlockBegin
  2
*D14
 70
     1
 10
0.0
 20
0.0
 30
0.0
  3
*D14
  1

  0
LINE
  5
1B23
330
139B
100
AcDbEntity
  8
SIZE
 62
     0
440
 16777216
370
    -2
100
AcDbLine
 10
-155.0
 20
105.0
 30
0.0
 11
-709.5115327228905
 21
104.9999999999999
 31
0.0
  0
LINE
  5
1B24
330
139B
100
AcDbEntity
  8
SIZE
 62
     0
440
 16777216
370
    -2
100
AcDbLine
 10
-155.0
 20
205.0000000000001
 30
0.0
 11
-709.5115327228905
 21
205.0
 31
0.0
  0
LINE
  5
1B25
330
139B
100
AcDbEntity
  8
SIZE
 62
     0
440
 16777216
370
    -2
100
AcDbLine
 10
-699.5115327228903
 20
114.9999999999999
 30
0.0
 11
-699.5115327228903
 21
195.0
 31
0.0
  0
LINE
  5
1B26
330
139B
100
AcDbEntity
  8
SIZE
 62
     0
440
 16777216
370
    -2
100
AcDbLine
 10
-699.5115327228903
 20
205.0
 30
0.0
 11
-699.5115327228906
 21
355.0863374903852
 31
0.0
  0
INSERT
  5
1B27
330
139B
100
AcDbEntity
  8
SIZE
 62
     0
440
 16777216
370
    -2
100
AcDbBlockReference
  2
_Origin
 10
-699.5115327228903
 20
104.9999999999999
 30
0.0
 41
10.0
 42
10.0
 43
10.0
 50
270.0
  0
INSERT
  5
1B28
330
139B
100
AcDbEntity
  8
SIZE
 62
     0
440
 16777216
370
    -2
100
AcDbBlockReference
  2
_Origin
 10
-699.5115327228903
 20
205.0
 30
0.0
 41
10.0
 42
10.0
 43
10.0
 50
90.0
  0
MTEXT
  5
1B29
330
139B
100
AcDbEntity
  8
SIZE
 62
     0
440
 16777216
100
AcDbMText
 10
-732.0115327228903
 20
302.2291946332425
 30
0.0
 40
45.0
 41
0.0
 71
     5
 72
     1
  1
\A1;100
  7
ME08
 11
0.0000000000000001
 21
1.0
 31
0.0
 73
     1
 44
1.0
  0
POINT
  5
1B2A
330
139B
100
AcDbEntity
  8
DEFPOINTS
 62
     0
440
 16777216
100
AcDbPoint
 10
-145.0
 20
105.0
 30
0.0
  0
POINT
  5
1B2B
330
139B
100
AcDbEntity
  8
DEFPOINTS
 62
     0
440
 16777216
100
AcDbPoint
 10
-145.0
 20
205.0000000000001
 30
0.0
  0
POINT
  5
1B2C
330
139B
100
AcDbEntity
  8
DEFPOINTS
 62
     0
440
 16777216
100
AcDbPoint
 10
-699.5115327228903
 20
205.0
 30
0.0
  0
ENDBLK
  5
139D
330
139B
100
AcDbEntity
  8
0
100
AcDbBlockEnd
  0
BLOCK
  5
13AA
330
13A9
100
AcDbEntity
  8
0
100
AcDbBlockBegin
  2
*D15
 70
     1
 10
0.0
 20
0.0
 30
0.0
  3
*D15
  1

  0
LINE
  5
1B2D
330
13A9
100
AcDbEntity
  8
SIZE
 62
     0
440
 16777216
370
    -2
100
AcDbLine
 10
-171.4
 20
90.00000000000005
 30
0.0
 11
-816.1268043728108
 21
89.99999999999998
 31
0.0
  0
LINE
  5
1B2E
330
13A9
100
AcDbEntity
  8
SIZE
 62
     0
440
 16777216
370
    -2
100
AcDbLine
 10
-171.4
 20
220.0000000000001
 30
0.0
 11
-816.1268043728108
 21
220.0
 31
0.0
  0
LINE
  5
1B2F
330
13A9
100
AcDbEntity
  8
SIZE
 62
     0
440
 16777216
370
    -2
100
AcDbLine
 10
-806.1268043728109
 20
100.0
 30
0.0
 11
-806.1268043728109
 21
210.0
 31
0.0
  0
LINE
  5
1B30
330
13A9
100
AcDbEntity
  8
SIZE
 62
     0
440
 16777216
370
    -2
100
AcDbLine
 10
-806.1268043728109
 20
220.0
 30
0.0
 11
-806.1268043728109
 21
346.4285714285713
 31
0.0
  0
INSERT
  5
1B31
330
13A9
100
AcDbEntity
  8
SIZE
 62
     0
440
 16777216
370
    -2
100
AcDbBlockReference
  2
_Origin
 10
-806.1268043728109
 20
89.99999999999998
 30
0.0
 41
10.0
 42
10.0
 43
10.0
 50
270.0
  0
INSERT
  5
1B32
330
13A9
100
AcDbEntity
  8
SIZE
 62
     0
440
 16777216
370
    -2
100
AcDbBlockReference
  2
_Origin
 10
-806.1268043728109
 20
220.0
 30
0.0
 41
10.0
 42
10.0
 43
10.0
 50
90.0
  0
MTEXT
  5
1B33
330
13A9
100
AcDbEntity
  8
SIZE
 62
     0
440
 16777216
100
AcDbMText
 10
-838.6268043728104
 20
293.5714285714287
 30
0.0
 40
45.0
 41
0.0
 71
     5
 72
     1
  1
\A1;130
  7
ME08
 11
0.0000000000000001
 21
1.0
 31
0.0
 73
     1
 44
1.0
  0
POINT
  5
1B34
330
13A9
100
AcDbEntity
  8
DEFPOINTS
 62
     0
440
 16777216
100
AcDbPoint
 10
-161.4
 20
90.00000000000005
 30
0.0
  0
POINT
  5
1B35
330
13A9
100
AcDbEntity
  8
DEFPOINTS
 62
     0
440
 16777216
100
AcDbPoint
 10
-161.4
 20
220.0000000000001
 30
0.0
  0
POINT
  5
1B36
330
13A9
100
AcDbEntity
  8
DEFPOINTS
 62
     0
440
 16777216
100
AcDbPoint
 10
-806.1268043728109
 20
220.0
 30
0.0
  0
ENDBLK
  5
13AB
330
13A9
100
AcDbEntity
  8
0
100
AcDbBlockEnd
  0
BLOCK
  5
13B7
330
13B6
100
AcDbEntity
  8
0
100
AcDbBlockBegin
  2
*D16
 70
     1
 10
0.0
 20
0.0
 30
0.0
  3
*D16
  1

  0
LINE
  5
1B37
330
13B6
100
AcDbEntity
  8
SIZE
 62
     0
440
 16777216
370
    -2
100
AcDbLine
 10
-420.0
 20
268.0
 30
0.0
 11
-420.0
 21
706.3705142619283
 31
0.0
  0
LINE
  5
1B38
330
13B6
100
AcDbEntity
  8
SIZE
 62
     0
440
 16777216
370
    -2
100
AcDbLine
 10
30.00000000000007
 20
264.5
 30
0.0
 11
30.0000000000001
 21
706.3705142619283
 31
0.0
  0
LINE
  5
1B39
330
13B6
100
AcDbEntity
  8
SIZE
 62
     0
440
 16777216
370
    -2
100
AcDbLine
 10
-410.0
 20
696.3705142619282
 30
0.0
 11
20.0000000000001
 21
696.3705142619282
 31
0.0
  0
INSERT
  5
1B3A
330
13B6
100
AcDbEntity
  8
SIZE
 62
     0
440
 16777216
370
    -2
100
AcDbBlockReference
  2
_Origin
 10
-420.0
 20
696.3705142619282
 30
0.0
 41
10.0
 42
10.0
 43
10.0
 50
180.0
  0
INSERT
  5
1B3B
330
13B6
100
AcDbEntity
  8
SIZE
 62
     0
440
 16777216
370
    -2
100
AcDbBlockReference
  2
_Origin
 10
30.0000000000001
 20
696.3705142619282
 30
0.0
 41
10.0
 42
10.0
 43
10.0
  0
MTEXT
  5
1B3C
330
13B6
100
AcDbEntity
  8
SIZE
 62
     0
440
 16777216
100
AcDbMText
 10
-195.0
 20
728.8705142619282
 30
0.0
 40
45.0
 41
0.0
 71
     5
 72
     1
  1
\A1;450
  7
ME08
 73
     1
 44
1.0
  0
POINT
  5
1B3D
330
13B6
100
AcDbEntity
  8
DEFPOINTS
 62
     0
440
 16777216
100
AcDbPoint
 10
-420.0
 20
258.0
 30
0.0
  0
POINT
  5
1B3E
330
13B6
100
AcDbEntity
  8
DEFPOINTS
 62
     0
440
 16777216
100
AcDbPoint
 10
30.00000000000007
 20
254.5
 30
0.0
  0
POINT
  5
1B3F
330
13B6
100
AcDbEntity
  8
DEFPOINTS
 62
     0
440
 16777216
100
AcDbPoint
 10
30.0000000000001
 20
696.3705142619282
 30
0.0
  0
ENDBLK
  5
13B8
330
13B6
100
AcDbEntity
  8
0
100
AcDbBlockEnd
  0
BLOCK
  5
13C4
330
13C3
100
AcDbEntity
  8
0
100
AcDbBlockBegin
  2
*D17
 70
     1
 10
0.0
 20
0.0
 30
0.0
  3
*D17
  1

  0
LINE
  5
1B40
330
13C3
100
AcDbEntity
  8
SIZE
 62
     0
440
 16777216
370
    -2
100
AcDbLine
 10
30.0
 20
275.0
 30
0.0
 11
30.00000000000002
 21
572.0054957880221
 31
0.0
  0
LINE
  5
1B41
330
13C3
100
AcDbEntity
  8
SIZE
 62
     0
440
 16777216
370
    -2
100
AcDbLine
 10
-70.0
 20
231.4
 30
0.0
 11
-69.99999999999997
 21
572.0054957880221
 31
0.0
  0
LINE
  5
1B42
330
13C3
100
AcDbEntity
  8
SIZE
 62
     0
440
 16777216
370
    -2
100
AcDbLine
 10
20.00000000000002
 20
562.0054957880221
 30
0.0
 11
-60.0
 21
562.0054957880221
 31
0.0
  0
INSERT
  5
1B43
330
13C3
100
AcDbEntity
  8
SIZE
 62
     0
440
 16777216
370
    -2
100
AcDbBlockReference
  2
_Origin
 10
30.00000000000002
 20
562.0054957880221
 30
0.0
 41
10.0
 42
10.0
 43
10.0
  0
INSERT
  5
1B44
330
13C3
100
AcDbEntity
  8
SIZE
 62
     0
440
 16777216
370
    -2
100
AcDbBlockReference
  2
_Origin
 10
-69.99999999999999
 20
562.0054957880221
 30
0.0
 41
10.0
 42
10.0
 43
10.0
 50
180.0
  0
MTEXT
  5
1B45
330
13C3
100
AcDbEntity
  8
SIZE
 62
     0
440
 16777216
100
AcDbMText
 10
-50.92530802931285
 20
594.5054957880221
 30
0.0
 40
45.0
 41
0.0
 71
     5
 72
     1
  1
\A1;100
  7
ME08
 73
     1
 44
1.0
  0
POINT
  5
1B46
330
13C3
100
AcDbEntity
  8
DEFPOINTS
 62
     0
440
 16777216
100
AcDbPoint
 10
30.0
 20
265.0
 30
0.0
  0
POINT
  5
1B47
330
13C3
100
AcDbEntity
  8
DEFPOINTS
 62
     0
440
 16777216
100
AcDbPoint
 10
-70.0
 20
221.4
 30
0.0
  0
POINT
  5
1B48
330
13C3
100
AcDbEntity
  8
DEFPOINTS
 62
     0
440
 16777216
100
AcDbPoint
 10
-69.99999999999999
 20
562.0054957880221
 30
0.0
  0
ENDBLK
  5
13C5
330
13C3
100
AcDbEntity
  8
0
100
AcDbBlockEnd
  0
BLOCK
  5
13D2
330
13D1
100
AcDbEntity
  8
0
100
AcDbBlockBegin
  2
*D18
 70
     1
 10
0.0
 20
0.0
 30
0.0
  3
*D18
  1

  0
LINE
  5
1B49
330
13D1
100
AcDbEntity
  8
SIZE
 62
     0
440
 16777216
370
    -2
100
AcDbLine
 10
-69.99999999999992
 20
231.4
 30
0.0
 11
-69.99999999999992
 21
454.2452886958431
 31
0.0
  0
LINE
  5
1B4A
330
13D1
100
AcDbEntity
  8
SIZE
 62
     0
440
 16777216
370
    -2
100
AcDbLine
 10
-159.9999999999999
 20
231.4
 30
0.0
 11
-159.9999999999999
 21
454.2452886958431
 31
0.0
  0
LINE
  5
1B4B
330
13D1
100
AcDbEntity
  8
SIZE
 62
     0
440
 16777216
370
    -2
100
AcDbLine
 10
-79.99999999999992
 20
444.2452886958432
 30
0.0
 11
-149.9999999999999
 21
444.2452886958432
 31
0.0
  0
INSERT
  5
1B4C
330
13D1
100
AcDbEntity
  8
SIZE
 62
     0
440
 16777216
370
    -2
100
AcDbBlockReference
  2
_Origin
 10
-69.99999999999992
 20
444.2452886958432
 30
0.0
 41
10.0
 42
10.0
 43
10.0
  0
INSERT
  5
1B4D
330
13D1
100
AcDbEntity
  8
SIZE
 62
     0
440
 16777216
370
    -2
100
AcDbBlockReference
  2
_Origin
 10
-159.9999999999999
 20
444.2452886958432
 30
0.0
 41
10.0
 42
10.0
 43
10.0
 50
180.0
  0
MTEXT
  5
1B4E
330
13D1
100
AcDbEntity
  8
SIZE
 62
     0
440
 16777216
100
AcDbMText
 10
-131.232059138465
 20
476.7452886958432
 30
0.0
 40
45.0
 41
0.0
 71
     5
 72
     1
  1
\A1;90
  7
ME08
 73
     1
 44
1.0
  0
POINT
  5
1B4F
330
13D1
100
AcDbEntity
  8
DEFPOINTS
 62
     0
440
 16777216
100
AcDbPoint
 10
-69.99999999999992
 20
221.4
 30
0.0
  0
POINT
  5
1B50
330
13D1
100
AcDbEntity
  8
DEFPOINTS
 62
     0
440
 16777216
100
AcDbPoint
 10
-159.9999999999999
 20
221.4
 30
0.0
  0
POINT
  5
1B51
330
13D1
100
AcDbEntity
  8
DEFPOINTS
 62
     0
440
 16777216
100
AcDbPoint
 10
-159.9999999999999
 20
444.2452886958432
 30
0.0
  0
ENDBLK
  5
13D3
330
13D1
100
AcDbEntity
  8
0
100
AcDbBlockEnd
  0
BLOCK
  5
13E0
330
13DF
100
AcDbEntity
  8
0
100
AcDbBlockBegin
  2
*D19
 70
     1
 10
0.0
 20
0.0
 30
0.0
  3
*D19
  1

  0
LINE
  5
1B52
330
13DF
100
AcDbEntity
  8
SIZE
 62
     0
440
 16777216
370
    -2
100
AcDbLine
 10
30.0
 20
230.0
 30
0.0
 11
30.00000000000002
 21
572.0054957880221
 31
0.0
  0
LINE
  5
1B53
330
13DF
100
AcDbEntity
  8
SIZE
 62
     0
440
 16777216
370
    -2
100
AcDbLine
 10
130.0
 20
230.0
 30
0.0
 11
130.0
 21
572.0054957880221
 31
0.0
  0
LINE
  5
1B54
330
13DF
100
AcDbEntity
  8
SIZE
 62
     0
440
 16777216
370
    -2
100
AcDbLine
 10
40.00000000000002
 20
562.0054957880221
 30
0.0
 11
120.0
 21
562.0054957880221
 31
0.0
  0
INSERT
  5
1B55
330
13DF
100
AcDbEntity
  8
SIZE
 62
     0
440
 16777216
370
    -2
100
AcDbBlockReference
  2
_Origin
 10
30.00000000000002
 20
562.0054957880221
 30
0.0
 41
10.0
 42
10.0
 43
10.0
 50
180.0
  0
INSERT
  5
1B56
330
13DF
100
AcDbEntity
  8
SIZE
 62
     0
440
 16777216
370
    -2
100
AcDbBlockReference
  2
_Origin
 10
130.0
 20
562.0054957880221
 30
0.0
 41
10.0
 42
10.0
 43
10.0
  0
MTEXT
  5
1B57
330
13DF
100
AcDbEntity
  8
SIZE
 62
     0
440
 16777216
100
AcDbMText
 10
101.2034284605015
 20
594.5054957880221
 30
0.0
 40
45.0
 41
0.0
 71
     5
 72
     1
  1
\A1;100
  7
ME08
 73
     1
 44
1.0
  0
POINT
  5
1B58
330
13DF
100
AcDbEntity
  8
DEFPOINTS
 62
     0
440
 16777216
100
AcDbPoint
 10
30.0
 20
220.0
 30
0.0
  0
POINT
  5
1B59
330
13DF
100
AcDbEntity
  8
DEFPOINTS
 62
     0
440
 16777216
100
AcDbPoint
 10
130.0
 20
220.0
 30
0.0
  0
POINT
  5
1B5A
330
13DF
100
AcDbEntity
  8
DEFPOINTS
 62
     0
440
 16777216
100
AcDbPoint
 10
130.0
 20
562.0054957880221
 30
0.0
  0
ENDBLK
  5
13E1
330
13DF
100
AcDbEntity
  8
0
100
AcDbBlockEnd
  0
BLOCK
  5
13EE
330
13ED
100
AcDbEntity
  8
0
100
AcDbBlockBegin
  2
*D20
 70
     1
 10
0.0
 20
0.0
 30
0.0
  3
*D20
  1

  0
LINE
  5
1B5B
330
13ED
100
AcDbEntity
  8
SIZE
 62
     0
440
 16777216
370
    -2
100
AcDbLine
 10
130.0
 20
231.4
 30
0.0
 11
130.0
 21
454.2452886958431
 31
0.0
  0
LINE
  5
1B5C
330
13ED
100
AcDbEntity
  8
SIZE
 62
     0
440
 16777216
370
    -2
100
AcDbLine
 10
220.0
 20
231.4
 30
0.0
 11
220.0
 21
454.2452886958431
 31
0.0
  0
LINE
  5
1B5D
330
13ED
100
AcDbEntity
  8
SIZE
 62
     0
440
 16777216
370
    -2
100
AcDbLine
 10
140.0
 20
444.2452886958432
 30
0.0
 11
210.0
 21
444.2452886958432
 31
0.0
  0
INSERT
  5
1B5E
330
13ED
100
AcDbEntity
  8
SIZE
 62
     0
440
 16777216
370
    -2
100
AcDbBlockReference
  2
_Origin
 10
130.0
 20
444.2452886958432
 30
0.0
 41
10.0
 42
10.0
 43
10.0
 50
180.0
  0
INSERT
  5
1B5F
330
13ED
100
AcDbEntity
  8
SIZE
 62
     0
440
 16777216
370
    -2
100
AcDbBlockReference
  2
_Origin
 10
220.0
 20
444.2452886958432
 30
0.0
 41
10.0
 42
10.0
 43
10.0
  0
MTEXT
  5
1B60
330
13ED
100
AcDbEntity
  8
SIZE
 62
     0
440
 16777216
100
AcDbMText
 10
193.1559289212091
 20
476.7452886958432
 30
0.0
 40
45.0
 41
0.0
 71
     5
 72
     1
  1
\A1;90
  7
ME08
 73
     1
 44
1.0
  0
POINT
  5
1B61
330
13ED
100
AcDbEntity
  8
DEFPOINTS
 62
     0
440
 16777216
100
AcDbPoint
 10
130.0
 20
221.4
 30
0.0
  0
POINT
  5
1B62
330
13ED
100
AcDbEntity
  8
DEFPOINTS
 62
     0
440
 16777216
100
AcDbPoint
 10
220.0
 20
221.4
 30
0.0
  0
POINT
  5
1B63
330
13ED
100
AcDbEntity
  8
DEFPOINTS
 62
     0
440
 16777216
100
AcDbPoint
 10
220.0
 20
444.2452886958432
 30
0.0
  0
ENDBLK
  5
13EF
330
13ED
100
AcDbEntity
  8
0
100
AcDbBlockEnd
  0
BLOCK
  5
13FC
330
13FB
100
AcDbEntity
  8
0
100
AcDbBlockBegin
  2
*D21
 70
     1
 10
0.0
 20
0.0
 30
0.0
  3
*D21
  1

  0
LINE
  5
1B64
330
13FB
100
AcDbEntity
  8
SIZE
 62
     0
440
 16777216
370
    -2
100
AcDbLine
 10
-330.0
 20
135.0
 30
0.0
 11
-329.9999999999999
 21
836.8863183254269
 31
0.0
  0
LINE
  5
1B65
330
13FB
100
AcDbEntity
  8
SIZE
 62
     0
440
 16777216
370
    -2
100
AcDbLine
 10
329.9999999999997
 20
135.0
 30
0.0
 11
329.9999999999998
 21
836.8863183254269
 31
0.0
  0
LINE
  5
1B66
330
13FB
100
AcDbEntity
  8
SIZE
 62
     0
440
 16777216
370
    -2
100
AcDbLine
 10
-319.9999999999999
 20
826.886318325427
 30
0.0
 11
319.9999999999998
 21
826.886318325427
 31
0.0
  0
INSERT
  5
1B67
330
13FB
100
AcDbEntity
  8
SIZE
 62
     0
440
 16777216
370
    -2
100
AcDbBlockReference
  2
_Origin
 10
-329.9999999999999
 20
826.886318325427
 30
0.0
 41
10.0
 42
10.0
 43
10.0
 50
180.0
  0
INSERT
  5
1B68
330
13FB
100
AcDbEntity
  8
SIZE
 62
     0
440
 16777216
370
    -2
100
AcDbBlockReference
  2
_Origin
 10
329.9999999999998
 20
826.886318325427
 30
0.0
 41
10.0
 42
10.0
 43
10.0
  0
MTEXT
  5
1B69
330
13FB
100
AcDbEntity
  8
SIZE
 62
     0
440
 16777216
100
AcDbMText
 10
-0.0000000000001446
 20
859.3863183254269
 30
0.0
 40
45.0
 41
0.0
 71
     5
 72
     1
  1
\A1;660
  7
ME08
 73
     1
 44
1.0
  0
POINT
  5
1B6A
330
13FB
100
AcDbEntity
  8
DEFPOINTS
 62
     0
440
 16777216
100
AcDbPoint
 10
-330.0
 20
125.0
 30
0.0
  0
POINT
  5
1B6B
330
13FB
100
AcDbEntity
  8
DEFPOINTS
 62
     0
440
 16777216
100
AcDbPoint
 10
329.9999999999997
 20
125.0
 30
0.0
  0
POINT
  5
1B6C
330
13FB
100
AcDbEntity
  8
DEFPOINTS
 62
     0
440
 16777216
100
AcDbPoint
 10
329.9999999999998
 20
826.886318325427
 30
0.0
  0
ENDBLK
  5
13FD
330
13FB
100
AcDbEntity
  8
0
100
AcDbBlockEnd
  0
BLOCK
  5
1469
330
1468
100
AcDbEntity
  8
0
100
AcDbBlockBegin
  2
*D22
 70
     1
 10
0.0
 20
0.0
 30
0.0
  3
*D22
  1

  0
LINE
  5
1B6D
330
1468
100
AcDbEntity
  8
SIZE
 62
     0
440
 16777216
370
    -2
100
AcDbLine
 10
485.0000000000001
 20
0.0000000000000016
 30
0.0
 11
771.9178115217145
 21
0.0000000000000477
 31
0.0
  0
LINE
  5
1B6E
330
1468
100
AcDbEntity
  8
SIZE
 62
     0
440
 16777216
370
    -2
100
AcDbLine
 10
359.9999999999998
 20
105.0
 30
0.0
 11
771.9178115217145
 21
105.0000000000001
 31
0.0
  0
LINE
  5
1B6F
330
1468
100
AcDbEntity
  8
SIZE
 62
     0
440
 16777216
370
    -2
100
AcDbLine
 10
761.9178115217143
 20
95.00000000000012
 30
0.0
 11
761.9178115217143
 21
10.00000000000005
 31
0.0
  0
LINE
  5
1B70
330
1468
100
AcDbEntity
  8
SIZE
 62
     0
440
 16777216
370
    -2
100
AcDbLine
 10
761.9178115217143
 20
0.0000000000000461
 30
0.0
 11
761.9178115217143
 21
-168.9980681738084
 31
0.0
  0
INSERT
  5
1B71
330
1468
100
AcDbEntity
  8
SIZE
 62
     0
440
 16777216
370
    -2
100
AcDbBlockReference
  2
_Origin
 10
761.9178115217143
 20
105.0000000000001
 30
0.0
 41
10.0
 42
10.0
 43
10.0
 50
90.0
  0
INSERT
  5
1B72
330
1468
100
AcDbEntity
  8
SIZE
 62
     0
440
 16777216
370
    -2
100
AcDbBlockReference
  2
_Origin
 10
761.9178115217143
 20
0.0000000000000461
 30
0.0
 41
10.0
 42
10.0
 43
10.0
 50
270.0
  0
MTEXT
  5
1B73
330
1468
100
AcDbEntity
  8
SIZE
 62
     0
440
 16777216
100
AcDbMText
 10
729.4178115217142
 20
-116.1409253166657
 30
0.0
 40
45.0
 41
0.0
 71
     5
 72
     1
  1
\A1;105
  7
ME08
 11
0.0000000000000001
 21
1.0
 31
0.0
 73
     1
 44
1.0
  0
POINT
  5
1B74
330
1468
100
AcDbEntity
  8
DEFPOINTS
 62
     0
440
 16777216
100
AcDbPoint
 10
475.0000000000001
 20
0.0
 30
0.0
  0
POINT
  5
1B75
330
1468
100
AcDbEntity
  8
DEFPOINTS
 62
     0
440
 16777216
100
AcDbPoint
 10
349.9999999999998
 20
105.0
 30
0.0
  0
POINT
  5
1B76
330
1468
100
AcDbEntity
  8
DEFPOINTS
 62
     0
440
 16777216
100
AcDbPoint
 10
761.9178115217143
 20
105.0000000000001
 30
0.0
  0
ENDBLK
  5
146A
330
1468
100
AcDbEntity
  8
0
100
AcDbBlockEnd
  0
BLOCK
  5
171B
330
171A
100
AcDbEntity
  8
0
100
AcDbBlockBegin
  2
*D23
 70
     1
 10
0.0
 20
0.0
 30
0.0
  3
*D23
  1

  0
LINE
  5
1B77
330
171A
100
AcDbEntity
  8
SIZE
 62
     0
440
 16777216
370
    -2
100
AcDbLine
 10
420.0
 20
268.0
 30
0.0
 11
420.0
 21
572.0054957880221
 31
0.0
  0
LINE
  5
1B78
330
171A
100
AcDbEntity
  8
SIZE
 62
     0
440
 16777216
370
    -2
100
AcDbLine
 10
340.4999999999999
 20
268.0
 30
0.0
 11
340.4999999999999
 21
572.0054957880221
 31
0.0
  0
LINE
  5
1B79
330
171A
100
AcDbEntity
  8
SIZE
 62
     0
440
 16777216
370
    -2
100
AcDbLine
 10
350.4999999999999
 20
562.0054957880221
 30
0.0
 11
410.0
 21
562.0054957880221
 31
0.0
  0
LINE
  5
1B7A
330
171A
100
AcDbEntity
  8
SIZE
 62
     0
440
 16777216
370
    -2
100
AcDbLine
 10
420.0
 20
562.0054957880221
 30
0.0
 11
583.1469556639526
 21
562.0054957880221
 31
0.0
  0
INSERT
  5
1B7B
330
171A
100
AcDbEntity
  8
SIZE
 62
     0
440
 16777216
370
    -2
100
AcDbBlockReference
  2
_Origin
 10
340.4999999999999
 20
562.0054957880221
 30
0.0
 41
10.0
 42
10.0
 43
10.0
 50
180.0
  0
INSERT
  5
1B7C
330
171A
100
AcDbEntity
  8
SIZE
 62
     0
440
 16777216
370
    -2
100
AcDbBlockReference
  2
_Origin
 10
420.0
 20
562.0054957880221
 30
0.0
 41
10.0
 42
10.0
 43
10.0
  0
MTEXT
  5
1B7D
330
171A
100
AcDbEntity
  8
SIZE
 62
     0
440
 16777216
100
AcDbMText
 10
518.2898128068099
 20
594.5054957880221
 30
0.0
 40
45.0
 41
0.0
 71
     5
 72
     1
  1
\A1;79.5
  7
ME08
 73
     1
 44
1.0
  0
POINT
  5
1B7E
330
171A
100
AcDbEntity
  8
DEFPOINTS
 62
     0
440
 16777216
100
AcDbPoint
 10
420.0
 20
258.0
 30
0.0
  0
POINT
  5
1B7F
330
171A
100
AcDbEntity
  8
DEFPOINTS
 62
     0
440
 16777216
100
AcDbPoint
 10
340.4999999999999
 20
258.0
 30
0.0
  0
POINT
  5
1B80
330
171A
100
AcDbEntity
  8
DEFPOINTS
 62
     0
440
 16777216
100
AcDbPoint
 10
340.4999999999999
 20
562.0054957880221
 30
0.0
  0
ENDBLK
  5
171C
330
171A
100
AcDbEntity
  8
0
100
AcDbBlockEnd
  0
BLOCK
  5
1733
330
1732
100
AcDbEntity
  8
0
100
AcDbBlockBegin
  2
*D24
 70
     1
 10
0.0
 20
0.0
 30
0.0
  3
*D24
  1

  0
LINE
  5
1B81
330
1732
100
AcDbEntity
  8
SIZE
 62
     0
440
 16777216
370
    -2
100
AcDbLine
 10
-145.0
 20
95.0
 30
0.0
 11
-145.0
 21
-187.453418066575
 31
0.0
  0
LINE
  5
1B82
330
1732
100
AcDbEntity
  8
SIZE
 62
     0
440
 16777216
370
    -2
100
AcDbLine
 10
205.0
 20
95.0
 30
0.0
 11
205.0
 21
-187.453418066575
 31
0.0
  0
LINE
  5
1B83
330
1732
100
AcDbEntity
  8
SIZE
 62
     0
440
 16777216
370
    -2
100
AcDbLine
 10
-135.0
 20
-177.453418066575
 30
0.0
 11
195.0
 21
-177.453418066575
 31
0.0
  0
INSERT
  5
1B84
330
1732
100
AcDbEntity
  8
SIZE
 62
     0
440
 16777216
370
    -2
100
AcDbBlockReference
  2
_Origin
 10
-145.0
 20
-177.453418066575
 30
0.0
 41
10.0
 42
10.0
 43
10.0
 50
180.0
  0
INSERT
  5
1B85
330
1732
100
AcDbEntity
  8
SIZE
 62
     0
440
 16777216
370
    -2
100
AcDbBlockReference
  2
_Origin
 10
205.0
 20
-177.453418066575
 30
0.0
 41
10.0
 42
10.0
 43
10.0
  0
MTEXT
  5
1B86
330
1732
100
AcDbEntity
  8
SIZE
 62
     0
440
 16777216
100
AcDbMText
 10
29.99999999999998
 20
-144.9534180665749
 30
0.0
 40
45.0
 41
0.0
 71
     5
 72
     1
  1
\A1;350
  7
ME08
 73
     1
 44
1.0
  0
POINT
  5
1B87
330
1732
100
AcDbEntity
  8
DEFPOINTS
 62
     0
440
 16777216
100
AcDbPoint
 10
-145.0
 20
105.0
 30
0.0
  0
POINT
  5
1B88
330
1732
100
AcDbEntity
  8
DEFPOINTS
 62
     0
440
 16777216
100
AcDbPoint
 10
205.0
 20
105.0
 30
0.0
  0
POINT
  5
1B89
330
1732
100
AcDbEntity
  8
DEFPOINTS
 62
     0
440
 16777216
100
AcDbPoint
 10
205.0
 20
-177.453418066575
 30
0.0
  0
ENDBLK
  5
1734
330
1732
100
AcDbEntity
  8
0
100
AcDbBlockEnd
  0
BLOCK
  5
17AA
330
17A9
100
AcDbEntity
  8
0
100
AcDbBlockBegin
  2
*D25
 70
     1
 10
0.0
 20
0.0
 30
0.0
  3
*D25
  1

  0
LINE
  5
1B8A
330
17A9
100
AcDbEntity
  8
SIZE
 62
     0
440
 16777216
370
    -2
100
AcDbLine
 10
340.4999999999988
 20
7.0
 30
0.0
 11
340.4999999999988
 21
-289.4435771021035
 31
0.0
  0
LINE
  5
1B8B
330
17A9
100
AcDbEntity
  8
SIZE
 62
     0
440
 16777216
370
    -2
100
AcDbLine
 10
417.0
 20
110.0
 30
0.0
 11
417.0
 21
-289.4435771021035
 31
0.0
  0
LINE
  5
1B8C
330
17A9
100
AcDbEntity
  8
SIZE
 62
     0
440
 16777216
370
    -2
100
AcDbLine
 10
407.0
 20
-279.4435771021035
 30
0.0
 11
350.4999999999988
 21
-279.4435771021035
 31
0.0
  0
LINE
  5
1B8D
330
17A9
100
AcDbEntity
  8
SIZE
 62
     0
440
 16777216
370
    -2
100
AcDbLine
 10
340.4999999999988
 20
-279.4435771021035
 30
0.0
 11
181.3412015554843
 21
-279.4435771021035
 31
0.0
  0
INSERT
  5
1B8E
330
17A9
100
AcDbEntity
  8
SIZE
 62
     0
440
 16777216
370
    -2
100
AcDbBlockReference
  2
_Origin
 10
417.0
 20
-279.4435771021035
 30
0.0
 41
10.0
 42
10.0
 43
10.0
  0
INSERT
  5
1B8F
330
17A9
100
AcDbEntity
  8
SIZE
 62
     0
440
 16777216
370
    -2
100
AcDbBlockReference
  2
_Origin
 10
340.4999999999988
 20
-279.4435771021035
 30
0.0
 41
10.0
 42
10.0
 43
10.0
 50
180.0
  0
MTEXT
  5
1B90
330
17A9
100
AcDbEntity
  8
SIZE
 62
     0
440
 16777216
100
AcDbMText
 10
246.1983444126272
 20
-246.9435771021035
 30
0.0
 40
45.0
 41
0.0
 71
     5
 72
     1
  1
\A1;76.5
  7
ME08
 73
     1
 44
1.0
  0
POINT
  5
1B91
330
17A9
100
AcDbEntity
  8
DEFPOINTS
 62
     0
440
 16777216
100
AcDbPoint
 10
340.4999999999988
 20
17.0
 30
0.0
  0
POINT
  5
1B92
330
17A9
100
AcDbEntity
  8
DEFPOINTS
 62
     0
440
 16777216
100
AcDbPoint
 10
417.0
 20
120.0
 30
0.0
  0
POINT
  5
1B93
330
17A9
100
AcDbEntity
  8
DEFPOINTS
 62
     0
440
 16777216
100
AcDbPoint
 10
417.0
 20
-279.4435771021035
 30
0.0
  0
ENDBLK
  5
17AB
330
17A9
100
AcDbEntity
  8
0
100
AcDbBlockEnd
  0
BLOCK
  5
185A
330
1859
100
AcDbEntity
  8
0
100
AcDbBlockBegin
  2
*D26
 70
     1
 10
0.0
 20
0.0
 30
0.0
  3
*D26
  1

  0
LINE
  5
1B94
330
1859
100
AcDbEntity
  8
SIZE
 62
     0
440
 16777216
370
    -2
100
AcDbLine
 10
485.0000000000001
 20
0.0000000000000016
 30
0.0
 11
1053.44838247048
 21
0.000000000000093
 31
0.0
  0
LINE
  5
1B95
330
1859
100
AcDbEntity
  8
SIZE
 62
     0
440
 16777216
370
    -2
100
AcDbLine
 10
450.0000000000004
 20
169.9999999999997
 30
0.0
 11
1053.44838247048
 21
169.9999999999998
 31
0.0
  0
LINE
  5
1B96
330
1859
100
AcDbEntity
  8
SIZE
 62
     0
440
 16777216
370
    -2
100
AcDbLine
 10
1043.44838247048
 20
10.00000000000009
 30
0.0
 11
1043.44838247048
 21
159.9999999999998
 31
0.0
  0
INSERT
  5
1B97
330
1859
100
AcDbEntity
  8
SIZE
 62
     0
440
 16777216
370
    -2
100
AcDbBlockReference
  2
_Origin
 10
1043.44838247048
 20
0.0000000000000914
 30
0.0
 41
10.0
 42
10.0
 43
10.0
 50
270.0
  0
INSERT
  5
1B98
330
1859
100
AcDbEntity
  8
SIZE
 62
     0
440
 16777216
370
    -2
100
AcDbBlockReference
  2
_Origin
 10
1043.44838247048
 20
169.9999999999998
 30
0.0
 41
10.0
 42
10.0
 43
10.0
 50
90.0
  0
MTEXT
  5
1B99
330
1859
100
AcDbEntity
  8
SIZE
 62
     0
440
 16777216
100
AcDbMText
 10
1010.94838247048
 20
84.99999999999969
 30
0.0
 40
45.0
 41
0.0
 71
     5
 72
     1
  1
\A1;170
  7
ME08
 11
0.0000000000000001
 21
1.0
 31
0.0
 73
     1
 44
1.0
  0
POINT
  5
1B9A
330
1859
100
AcDbEntity
  8
DEFPOINTS
 62
     0
440
 16777216
100
AcDbPoint
 10
475.0000000000001
 20
0.0
 30
0.0
  0
POINT
  5
1B9B
330
1859
100
AcDbEntity
  8
DEFPOINTS
 62
     0
440
 16777216
100
AcDbPoint
 10
440.0000000000003
 20
169.9999999999997
 30
0.0
  0
POINT
  5
1B9C
330
1859
100
AcDbEntity
  8
DEFPOINTS
 62
     0
440
 16777216
100
AcDbPoint
 10
1043.44838247048
 20
169.9999999999998
 30
0.0
  0
ENDBLK
  5
185B
330
1859
100
AcDbEntity
  8
0
100
AcDbBlockEnd
  0
BLOCK
  5
1C91
330
1C90
100
AcDbEntity
  8
0
100
AcDbBlockBegin
  2
*D27
 70
     1
 10
0.0
 20
0.0
 30
0.0
  3
*D27
  1

  0
LINE
  5
1CA7
330
1C90
100
AcDbEntity
  8
SIZE
 62
     0
440
 16777216
370
    -2
100
AcDbLine
 10
485.0000000000002
 20
0.0000000000000016
 30
0.0
 11
1506.49126496383
 21
0.0000000000001659
 31
0.0
  0
LINE
  5
1CA8
330
1C90
100
AcDbEntity
  8
SIZE
 62
     0
440
 16777216
370
    -2
100
AcDbLine
 10
634.3879370000002
 20
-2000.000000000001
 30
0.0
 11
1506.491264963831
 21
-2000.000000000001
 31
0.0
  0
LINE
  5
1CA9
330
1C90
100
AcDbEntity
  8
SIZE
 62
     0
440
 16777216
370
    -2
100
AcDbLine
 10
1496.49126496383
 20
-9.999999999999838
 30
0.0
 11
1496.491264963831
 21
-1990.000000000001
 31
0.0
  0
INSERT
  5
1CAA
330
1C90
100
AcDbEntity
  8
SIZE
 62
     0
440
 16777216
370
    -2
100
AcDbBlockReference
  2
_Origin
 10
1496.49126496383
 20
0.0000000000001643
 30
0.0
 41
10.0
 42
10.0
 43
10.0
 50
90.0
  0
INSERT
  5
1CAB
330
1C90
100
AcDbEntity
  8
SIZE
 62
     0
440
 16777216
370
    -2
100
AcDbBlockReference
  2
_Origin
 10
1496.491264963831
 20
-2000.000000000001
 30
0.0
 41
10.0
 42
10.0
 43
10.0
 50
270.0
  0
MTEXT
  5
1CAC
330
1C90
100
AcDbEntity
  8
SIZE
 62
     0
440
 16777216
100
AcDbMText
 10
1463.99126496383
 20
-1000.0
 30
0.0
 40
45.0
 41
0.0
 71
     5
 72
     1
  1
\A1;3500以下
  7
ME08
 11
0.0000000000000001
 21
1.0
 31
0.0
 73
     1
 44
1.0
  0
POINT
  5
1CAD
330
1C90
100
AcDbEntity
  8
DEFPOINTS
 62
     0
440
 16777216
100
AcDbPoint
 10
475.0000000000002
 20
0.0
 30
0.0
  0
POINT
  5
1CAE
330
1C90
100
AcDbEntity
  8
DEFPOINTS
 62
     0
440
 16777216
100
AcDbPoint
 10
624.3879370000001
 20
-2000.000000000001
 30
0.0
  0
POINT
  5
1CAF
330
1C90
100
AcDbEntity
  8
DEFPOINTS
 62
     0
440
 16777216
100
AcDbPoint
 10
1496.491264963831
 20
-2000.000000000001
 30
0.0
  0
ENDBLK
  5
1C92
330
1C90
100
AcDbEntity
  8
0
100
AcDbBlockEnd
  0
ENDSEC
  0
SECTION
  2
ENTITIES
  0
ARC
  5
756
330
1E
100
AcDbEntity
  8
DETAIL
100
AcDbCircle
 10
30.0
 20
167.0
 30
0.0
 40
75.0
100
AcDbArc
 50
123.2547749999974
 51
56.74522500000254
  0
LINE
  5
757
330
1E
100
AcDbEntity
  8
DETAIL
100
AcDbLine
 10
-11.12721999999985
 20
229.7180339999993
 30
0.0
 11
71.12721999999985
 21
229.7180339999993
 31
0.0
  0
CIRCLE
  5
767
330
1E
100
AcDbEntity
  8
DETAIL
100
AcDbCircle
 10
30.0
 20
90.0
 30
0.0
 40
1.399999999999999
  0
CIRCLE
  5
768
330
1E
100
AcDbEntity
  8
DETAIL
100
AcDbCircle
 10
30.0
 20
220.0
 30
0.0
 40
1.399999999999999
  0
LINE
  5
769
330
1E
100
AcDbEntity
  8
DETAIL
100
AcDbLine
 10
-420.0
 20
17.0
 30
0.0
 11
420.0
 21
17.0
 31
0.0
  0
LINE
  5
76D
330
1E
100
AcDbEntity
  8
DETAIL
100
AcDbLine
 10
-145.0
 20
105.0
 30
0.0
 11
205.0
 21
105.0
 31
0.0
  0
LINE
  5
76E
330
1E
100
AcDbEntity
  8
DETAIL
100
AcDbLine
 10
-145.0
 20
205.0
 30
0.0
 11
205.0
 21
205.0
 31
0.0
  0
LINE
  5
76F
330
1E
100
AcDbEntity
  8
DETAIL
100
AcDbLine
 10
-260.0
 20
258.0
 30
0.0
 11
-260.0
 21
17.0
 31
0.0
  0
LINE
  5
777
330
1E
100
AcDbEntity
  8
DETAIL
100
AcDbLine
 10
-420.0
 20
258.0
 30
0.0
 11
-420.0
 21
0.0
 31
0.0
  0
LINE
  5
794
330
1E
100
AcDbEntity
  8
NOTE
100
AcDbLine
 10
-330.0
 20
105.0
 30
0.0
 11
-569.3560114255961
 21
-177.6778280814925
 31
0.0
  0
LINE
  5
796
330
1E
100
AcDbEntity
  8
NOTE
100
AcDbLine
 10
-569.3560114255961
 20
-177.6778280814925
 30
0.0
 11
-679.7228352780742
 21
-177.6778280814925
 31
0.0
  0
TEXT
  5
7A1
330
1E
100
AcDbEntity
  8
NOTE
100
AcDbText
 10
-653.3586362780742
 20
-168.6160940814926
 30
0.0
 40
45.0
  1
AH
 41
0.8
  7
ME08
100
AcDbText
  0
LWPOLYLINE
  5
7AD
330
1E
100
AcDbEntity
  8
NOTE
100
AcDbPolyline
 90
        3
 70
     0
 43
0.0
 10
-347.2871642771754
 20
68.92848842581734
 10
-330.0
 20
105.0
 10
-363.0068796037984
 20
82.40473715400165
  0
CIRCLE
  5
7AE
330
1E
100
AcDbEntity
  8
FIX
100
AcDbCircle
 10
-330.0
 20
105.0
 30
0.0
 40
40.0
  0
LINE
  5
7AF
330
1E
100
AcDbEntity
  8
BASIS
100
AcDbLine
 10
-350.0
 20
105.0
 30
0.0
 11
-310.0
 21
105.0
 31
0.0
  0
LINE
  5
7B2
330
1E
100
AcDbEntity
  8
DETAIL
100
AcDbLine
 10
-145.0
 20
205.0
 30
0.0
 11
-145.0
 21
105.0
 31
0.0
  0
CIRCLE
  5
7B6
330
1E
100
AcDbEntity
  8
DETAIL
100
AcDbCircle
 10
-160.0
 20
90.0
 30
0.0
 40
1.399999999999999
  0
CIRCLE
  5
7BD
330
1E
100
AcDbEntity
  8
DETAIL
100
AcDbCircle
 10
-160.0
 20
220.0
 30
0.0
 40
1.399999999999999
  0
CIRCLE
  5
7BF
330
1E
100
AcDbEntity
  8
DETAIL
100
AcDbCircle
 10
-70.0
 20
90.0
 30
0.0
 40
1.399999999999999
  0
LINE
  5
7C9
330
1E
100
AcDbEntity
  8
DETAIL
100
AcDbLine
 10
340.4999999999988
 20
17.0
 30
0.0
 11
340.4999999999998
 21
258.0
 31
0.0
  0
LINE
  5
7CA
330
1E
100
AcDbEntity
  8
DETAIL
100
AcDbLine
 10
270.0
 20
258.0
 30
0.0
 11
270.0
 21
17.0
 31
0.0
  0
LINE
  5
7CD
330
1E
100
AcDbEntity
  8
NOTE
100
AcDbLine
 10
-7.06713268206866
 20
87.73917944703127
 30
0.0
 11
-211.9182972851384
 21
-177.453418066575
 31
0.0
  0
LINE
  5
7D3
330
1E
100
AcDbEntity
  8
NOTE
100
AcDbLine
 10
420.0000000000001
 20
170.0
 30
0.0
 11
552.9136434281171
 21
444.2452886958432
 31
0.0
  0
LINE
  5
7D4
330
1E
100
AcDbEntity
  8
DETAIL
100
AcDbLine
 10
420.0
 20
258.0
 30
0.0
 11
420.0
 21
0.0
 31
0.0
  0
TEXT
  5
7D7
330
1E
100
AcDbEntity
  8
NOTE
100
AcDbText
 10
560.8793474918707
 20
454.9724750673624
 30
0.0
 40
45.0
  1
RG%%C15.88
 41
0.8
  7
ME08
100
AcDbText
  0
LINE
  5
7D8
330
1E
100
AcDbEntity
  8
NOTE
100
AcDbLine
 10
817.7251536674612
 20
444.2452886958432
 30
0.0
 11
552.9136434281171
 21
444.2452886958432
 31
0.0
  0
TEXT
  5
7DA
330
1E
100
AcDbEntity
  8
NOTE
100
AcDbText
 10
-367.6380200208555
 20
-167.1918336621224
 30
0.0
 40
45.0
  1
%%c150
 41
0.8
  7
ME08
100
AcDbText
  0
LINE
  5
7DB
330
1E
100
AcDbEntity
  8
NOTE
100
AcDbLine
 10
-211.9182972851384
 20
-177.453418066575
 30
0.0
 11
-368.7942009282104
 21
-177.5519094190094
 31
0.0
  0
TEXT
  5
7E6
330
1E
100
AcDbEntity
  8
NOTE
100
AcDbText
 10
598.3378291366691
 20
-263.6925416972945
 30
0.0
 40
45.0
  1
RL%%C9.52
 41
0.8
  7
ME08
100
AcDbText
  0
LINE
  5
7E7
330
1E
100
AcDbEntity
  8
NOTE
100
AcDbLine
 10
587.3493134066811
 20
-279.4435771021035
 30
0.0
 11
817.7251536674612
 21
-279.4435771021035
 31
0.0
  0
LINE
  5
7F1
330
1E
100
AcDbEntity
  8
NOTE
100
AcDbLine
 10
417.0
 20
139.9999999999998
 30
0.0
 11
587.3493134066811
 21
-279.4435771021035
 31
0.0
  0
LINE
  5
7F5
330
1E
100
AcDbEntity
  8
DETAIL
100
AcDbLine
 10
205.0
 20
205.0
 30
0.0
 11
205.0
 21
105.0
 31
0.0
  0
LWPOLYLINE
  5
7F7
330
1E
100
AcDbEntity
  8
NOTE
100
AcDbPolyline
 90
        3
 70
     0
 43
0.0
 10
-38.54958176993547
 20
63.06418383437872
 10
-7.067132682068659
 20
87.73917944703127
 10
-21.99423469774513
 20
50.62878174132253
  0
CIRCLE
  5
7F9
330
1E
100
AcDbEntity
  8
DETAIL
100
AcDbCircle
 10
130.0
 20
90.0
 30
0.0
 40
1.399999999999999
  0
CIRCLE
  5
7FC
330
1E
100
AcDbEntity
  8
DETAIL
100
AcDbCircle
 10
220.0
 20
90.0
 30
0.0
 40
1.399999999999999
  0
CIRCLE
  5
7FF
330
1E
100
AcDbEntity
  8
DETAIL
100
AcDbCircle
 10
130.0
 20
220.0
 30
0.0
 40
1.399999999999999
  0
CIRCLE
  5
802
330
1E
100
AcDbEntity
  8
DETAIL
100
AcDbCircle
 10
220.0
 20
220.0
 30
0.0
 40
1.399999999999999
  0
LINE
  5
803
330
1E
100
AcDbEntity
  8
BASIS
100
AcDbLine
 10
417.0
 20
120.0
 30
0.0
 11
417.0
 21
160.0
 31
0.0
  0
CIRCLE
  5
804
330
1E
100
AcDbEntity
  8
FIX
100
AcDbCircle
 10
329.9999999999997
 20
105.0
 30
0.0
 40
40.0
  0
LINE
  5
805
330
1E
100
AcDbEntity
  8
DETAIL
100
AcDbLine
 10
340.5
 20
162.0599999999998
 30
0.0
 11
420.0
 21
162.0599999999998
 31
0.0
  0
LINE
  5
806
330
1E
100
AcDbEntity
  8
DETAIL
100
AcDbLine
 10
340.5
 20
177.9399999999999
 30
0.0
 11
420.0
 21
177.9399999999999
 31
0.0
  0
LINE
  5
808
330
1E
100
AcDbEntity
  8
BASIS
100
AcDbLine
 10
309.9999999999997
 20
105.0
 30
0.0
 11
349.9999999999997
 21
105.0
 31
0.0
  0
LWPOLYLINE
  5
80A
330
1E
100
AcDbEntity
  8
NOTE
100
AcDbPolyline
 90
        3
 70
     0
 43
0.0
 10
427.0441103931672
 20
204.0305467819075
 10
420.0000000000007
 20
169.9999999999996
 10
440.7202387153526
 20
196.115876956944
  0
LINE
  5
80B
330
1E
100
AcDbEntity
  8
BASIS
100
AcDbLine
 10
400.0000000000004
 20
169.9999999999997
 30
0.0
 11
440.0000000000002
 21
169.9999999999997
 31
0.0
  0
LINE
  5
80C
330
1E
100
AcDbEntity
  8
DETAIL
100
AcDbLine
 10
420.0000000000001
 20
177.9399999999999
 30
0.0
 11
420.0000000000001
 21
162.0599999999998
 31
0.0
  0
LINE
  5
80D
330
1E
100
AcDbEntity
  8
BASIS
100
AcDbLine
 10
420.0000000000001
 20
150.0
 30
0.0
 11
420.0000000000001
 21
190.0
 31
0.0
  0
LINE
  5
80E
330
1E
100
AcDbEntity
  8
DETAIL
100
AcDbLine
 10
340.4999999999989
 20
135.2400000000002
 30
0.0
 11
416.9999999999998
 21
135.2399999999996
 31
0.0
  0
LINE
  5
80F
330
1E
100
AcDbEntity
  8
DETAIL
100
AcDbLine
 10
340.4999999999994
 20
144.76
 30
0.0
 11
417.0
 21
144.76
 31
0.0
  0
LINE
  5
810
330
1E
100
AcDbEntity
  8
BASIS
100
AcDbLine
 10
397.0
 20
140.0
 30
0.0
 11
437.0
 21
140.0
 31
0.0
  0
LINE
  5
811
330
1E
100
AcDbEntity
  8
DETAIL
100
AcDbLine
 10
417.0
 20
144.76
 30
0.0
 11
417.0
 21
135.2399999999997
 31
0.0
  0
LWPOLYLINE
  5
812
330
1E
100
AcDbEntity
  8
NOTE
100
AcDbPolyline
 90
        3
 70
     0
 43
0.0
 10
436.4450061376806
 20
115.0969345565698
 10
417.0
 20
140.0
 10
421.8388893295922
 20
108.6044728113808
  0
LINE
  5
940
330
1E
100
AcDbEntity
  8
DETAIL
100
AcDbLine
 10
-420.0
 20
258.0
 30
0.0
 11
420.0
 21
258.0
 31
0.0
  0
CIRCLE
  5
942
330
1E
100
AcDbEntity
  8
DETAIL
100
AcDbCircle
 10
-70.0
 20
220.0
 30
0.0
 40
1.399999999999999
  0
LINE
  5
9E1
330
1E
100
AcDbEntity
  8
BASIS
100
AcDbLine
 10
329.9999999999997
 20
85.0
 30
0.0
 11
329.9999999999997
 21
125.0
 31
0.0
  0
LINE
  5
9E2
330
1E
100
AcDbEntity
  8
BASIS
100
AcDbLine
 10
-330.0
 20
85.0
 30
0.0
 11
-330.0
 21
125.0
 31
0.0
  0
LINE
  5
BD9
330
1E
100
AcDbEntity
  8
OUTLINE
100
AcDbLine
 10
-420.0
 20
258.0
 30
0.0
 11
420.0
 21
258.0
 31
0.0
  0
LINE
  5
BDC
330
1E
100
AcDbEntity
  8
OUTLINE
100
AcDbLine
 10
-420.0
 20
258.0
 30
0.0
 11
-420.0
 21
0.0
 31
0.0
  0
LINE
  5
BEA
330
1E
100
AcDbEntity
  8
OUTLINE
100
AcDbLine
 10
420.0
 20
258.0
 30
0.0
 11
420.0
 21
0.0
 31
0.0
  0
CIRCLE
  5
DD4
330
1E
100
AcDbEntity
  8
DETAIL
100
AcDbCircle
 10
-41.67580387528682
 20
217.1879381807164
 30
0.0
 40
1.399999999999999
  0
CIRCLE
  5
DD5
330
1E
100
AcDbEntity
  8
DETAIL
100
AcDbCircle
 10
-41.67580387528679
 20
116.8120618192834
 30
0.0
 40
1.399999999999999
  0
CIRCLE
  5
DD9
330
1E
100
AcDbEntity
  8
DETAIL
100
AcDbCircle
 10
101.6758038752867
 20
217.1879381807165
 30
0.0
 40
1.399999999999999
  0
CIRCLE
  5
DDC
330
1E
100
AcDbEntity
  8
DETAIL
100
AcDbCircle
 10
101.6758038752868
 20
116.8120618192835
 30
0.0
 40
1.399999999999999
  0
CIRCLE
  5
FD5
330
1E
100
AcDbEntity
  8
ARRANGE
100
AcDbCircle
 10
0.0
 20
0.0
 30
0.0
 40
40.0
  0
POINT
  5
FD6
330
1E
100
AcDbEntity
  8
ARRANGE
100
AcDbPoint
 10
0.0
 20
0.0
 30
0.0
  0
LINE
  5
FD7
330
1E
100
AcDbEntity
  8
BASIS
100
AcDbLine
 10
0.0
 20
300.0
 30
0.0
 11
0.0
 21
-50.0
 31
0.0
  0
LINE
  5
1047
330
1E
100
AcDbEntity
  8
BASIS
100
AcDbLine
 10
-57.49999999999993
 20
167.0
 30
0.0
 11
117.5
 21
167.0
 31
0.0
  0
LINE
  5
1048
330
1E
100
AcDbEntity
  8
BASIS
100
AcDbLine
 10
-159.9999999999999
 20
155.0
 30
0.0
 11
220.0000000000001
 21
155.0
 31
0.0
  0
LINE
  5
1049
330
1E
100
AcDbEntity
  8
BASIS
100
AcDbLine
 10
30.00000000000007
 20
88.60000000000002
 30
0.0
 11
30.00000000000007
 21
254.5
 31
0.0
  0
LINE
  5
104A
330
1E
100
AcDbEntity
  8
BASIS
100
AcDbLine
 10
221.4000000000001
 20
220.0
 30
0.0
 11
-161.3999999999999
 21
220.0
 31
0.0
  0
LINE
  5
104B
330
1E
100
AcDbEntity
  8
BASIS
100
AcDbLine
 10
-69.99999999999992
 20
91.40000000000004
 30
0.0
 11
-69.99999999999992
 21
88.60000000000002
 31
0.0
  0
LINE
  5
104C
330
1E
100
AcDbEntity
  8
BASIS
100
AcDbLine
 10
-159.9999999999999
 20
221.4
 30
0.0
 11
-159.9999999999999
 21
88.60000000000002
 31
0.0
  0
LINE
  5
104D
330
1E
100
AcDbEntity
  8
BASIS
100
AcDbLine
 10
-69.99999999999992
 20
221.4
 30
0.0
 11
-69.99999999999992
 21
218.6
 31
0.0
  0
LINE
  5
104E
330
1E
100
AcDbEntity
  8
BASIS
100
AcDbLine
 10
130.0
 20
91.40000000000004
 30
0.0
 11
130.0
 21
88.60000000000002
 31
0.0
  0
LINE
  5
104F
330
1E
100
AcDbEntity
  8
BASIS
100
AcDbLine
 10
221.4000000000001
 20
90.00000000000005
 30
0.0
 11
-161.3999999999999
 21
90.00000000000005
 31
0.0
  0
LINE
  5
1050
330
1E
100
AcDbEntity
  8
BASIS
100
AcDbLine
 10
130.0
 20
221.4
 30
0.0
 11
130.0
 21
218.6
 31
0.0
  0
LINE
  5
1051
330
1E
100
AcDbEntity
  8
BASIS
100
AcDbLine
 10
220.0000000000001
 20
221.4
 30
0.0
 11
220.0000000000001
 21
88.60000000000002
 31
0.0
  0
CIRCLE
  5
1052
330
1E
100
AcDbEntity
  8
BASIS
100
AcDbCircle
 10
30.00000000000007
 20
167.0
 30
0.0
 40
87.5
  0
LINE
  5
1053
330
1E
100
AcDbEntity
  8
BASIS
100
AcDbLine
 10
102.8226167372914
 20
116.009054808392
 30
0.0
 11
-42.82261673729131
 21
217.990945191608
 31
0.0
  0
LINE
  5
1054
330
1E
100
AcDbEntity
  8
BASIS
100
AcDbLine
 10
102.8226167372912
 20
217.9909451916081
 30
0.0
 11
-42.82261673729124
 21
116.0090548083919
 31
0.0
  0
LINE
  5
109F
330
1E
100
AcDbEntity
  8
OUTLINE
100
AcDbLine
 10
-475.0
 20
0.0
 30
0.0
 11
475.0
 21
0.0
 31
0.0
  0
LINE
  5
10A0
330
1E
100
AcDbEntity
  8
DETAIL
100
AcDbLine
 10
-448.0
 20
-35.0
 30
0.0
 11
448.0
 21
-35.0
 31
0.0
  0
LINE
  5
10A1
330
1E
100
AcDbEntity
  8
DETAIL
100
AcDbLine
 10
-475.0
 20
0.0
 30
0.0
 11
475.0
 21
0.0
 31
0.0
  0
LINE
  5
10A2
330
1E
100
AcDbEntity
  8
DETAIL
100
AcDbLine
 10
-475.0
 20
0.0
 30
0.0
 11
-475.0
 21
-8.0
 31
0.0
  0
LINE
  5
10A3
330
1E
100
AcDbEntity
  8
DETAIL
100
AcDbLine
 10
475.0
 20
0.0
 30
0.0
 11
475.0
 21
-8.0
 31
0.0
  0
LINE
  5
10A4
330
1E
100
AcDbEntity
  8
DETAIL
100
AcDbLine
 10
-475.0
 20
-8.0
 30
0.0
 11
475.0
 21
-8.0
 31
0.0
  0
LINE
  5
10A5
330
1E
100
AcDbEntity
  8
DETAIL
100
AcDbLine
 10
475.0
 20
-8.0
 30
0.0
 11
448.0
 21
-35.0
 31
0.0
  0
LINE
  5
10A6
330
1E
100
AcDbEntity
  8
DETAIL
100
AcDbLine
 10
-475.0
 20
-8.0
 30
0.0
 11
-448.0
 21
-35.0
 31
0.0
  0
LINE
  5
10A7
330
1E
100
AcDbEntity
  8
OUTLINE
100
AcDbLine
 10
475.0
 20
0.0
 30
0.0
 11
475.0
 21
-8.0
 31
0.0
  0
LINE
  5
10A8
330
1E
100
AcDbEntity
  8
OUTLINE
100
AcDbLine
 10
475.0
 20
-8.0
 30
0.0
 11
448.0
 21
-35.0
 31
0.0
  0
LINE
  5
10A9
330
1E
100
AcDbEntity
  8
OUTLINE
100
AcDbLine
 10
448.0
 20
-35.0
 30
0.0
 11
-448.0
 21
-35.0
 31
0.0
  0
LINE
  5
10AA
330
1E
100
AcDbEntity
  8
OUTLINE
100
AcDbLine
 10
-448.0
 20
-35.0
 30
0.0
 11
-475.0
 21
-8.0
 31
0.0
  0
LINE
  5
10AB
330
1E
100
AcDbEntity
  8
OUTLINE
100
AcDbLine
 10
-475.0
 20
-8.0
 30
0.0
 11
-475.0
 21
0.0
 31
0.0
  0
LINE
  5
10DD
330
1E
100
AcDbEntity
  8
DETAIL
100
AcDbLine
 10
347.9999999992281
 20
107.5
 30
0.0
 11
281.4999999981294
 21
107.5
 31
0.0
  0
LINE
  5
10DE
330
1E
100
AcDbEntity
  8
DETAIL
100
AcDbLine
 10
347.9999999992281
 20
105.0
 30
0.0
 11
283.1999999986784
 21
105.0
 31
0.0
  0
ARC
  5
10DF
330
1E
100
AcDbEntity
  8
DETAIL
100
AcDbCircle
 10
347.9999999992281
 20
102.5
 30
0.0
 40
5.0
100
AcDbArc
 50
0.0000000125846152
 51
90.0
  0
ARC
  5
10E0
330
1E
100
AcDbEntity
  8
DETAIL
100
AcDbCircle
 10
347.9999999992281
 20
102.5
 30
0.0
 40
2.5
100
AcDbArc
 50
0.0000000125846152
 51
90.0
  0
LINE
  5
10E1
330
1E
100
AcDbEntity
  8
DETAIL
100
AcDbLine
 10
353.0000000003258
 20
97.5
 30
0.0
 11
352.9999999992281
 21
102.5000000010984
 31
0.0
  0
LINE
  5
10E2
330
1E
100
AcDbEntity
  8
DETAIL
100
AcDbLine
 10
350.5000000003258
 20
97.5
 30
0.0
 11
350.4999999992281
 21
102.5000000005493
 31
0.0
  0
LINE
  5
10E3
330
1E
100
AcDbEntity
  8
DETAIL
100
AcDbLine
 10
281.5000000180106
 20
17.0
 30
0.0
 11
281.4999999981294
 21
107.5
 31
0.0
  0
LINE
  5
10E4
330
1E
100
AcDbEntity
  8
DETAIL
100
AcDbLine
 10
353.0000000003258
 20
97.5
 30
0.0
 11
350.5000000003258
 21
97.5
 31
0.0
  0
LINE
  5
10E5
330
1E
100
AcDbEntity
  8
DETAIL
100
AcDbLine
 10
283.2000000180105
 20
17.0
 30
0.0
 11
283.1999999986784
 21
105.0
 31
0.0
  0
LINE
  5
10E6
330
1E
100
AcDbEntity
  8
DETAIL
100
AcDbLine
 10
331.5000000180108
 20
17.0
 30
0.0
 11
331.4999999986785
 21
105.0
 31
0.0
  0
LINE
  5
10E7
330
1E
100
AcDbEntity
  8
DETAIL
100
AcDbLine
 10
-347.9999999992281
 20
107.5
 30
0.0
 11
-281.4999999981294
 21
107.5
 31
0.0
  0
LINE
  5
10E8
330
1E
100
AcDbEntity
  8
DETAIL
100
AcDbLine
 10
-347.9999999992281
 20
105.0
 30
0.0
 11
-283.1999999986784
 21
105.0
 31
0.0
  0
ARC
  5
10E9
330
1E
100
AcDbEntity
  8
DETAIL
100
AcDbCircle
 10
-347.9999999992281
 20
102.5
 30
0.0
 40
5.0
100
AcDbArc
 50
90.0
 51
179.9999999874153
  0
ARC
  5
10EA
330
1E
100
AcDbEntity
  8
DETAIL
100
AcDbCircle
 10
-347.9999999992281
 20
102.5
 30
0.0
 40
2.5
100
AcDbArc
 50
90.0
 51
179.9999999874153
  0
LINE
  5
10EB
330
1E
100
AcDbEntity
  8
DETAIL
100
AcDbLine
 10
-353.0000000003258
 20
97.50000000000007
 30
0.0
 11
-352.9999999992281
 21
102.5000000010985
 31
0.0
  0
LINE
  5
10EC
330
1E
100
AcDbEntity
  8
DETAIL
100
AcDbLine
 10
-350.5000000003258
 20
97.50000000000007
 30
0.0
 11
-350.4999999992281
 21
102.5000000005494
 31
0.0
  0
LINE
  5
10ED
330
1E
100
AcDbEntity
  8
DETAIL
100
AcDbLine
 10
-281.5000000180106
 20
17.00000000000004
 30
0.0
 11
-281.4999999981294
 21
107.5
 31
0.0
  0
LINE
  5
10EE
330
1E
100
AcDbEntity
  8
DETAIL
100
AcDbLine
 10
-353.0000000003258
 20
97.50000000000007
 30
0.0
 11
-350.5000000003258
 21
97.50000000000007
 31
0.0
  0
LINE
  5
10EF
330
1E
100
AcDbEntity
  8
DETAIL
100
AcDbLine
 10
-283.2000000180105
 20
17.00000000000004
 30
0.0
 11
-283.1999999986784
 21
105.0
 31
0.0
  0
LINE
  5
10F0
330
1E
100
AcDbEntity
  8
DETAIL
100
AcDbLine
 10
-331.5000000180108
 20
17.00000000000005
 30
0.0
 11
-331.4999999986785
 21
105.0
 31
0.0
  0
LINE
  5
113F
330
1E
100
AcDbEntity
  8
SERVICESPACE
100
AcDbLine
 10
430.0
 20
20.0
 30
0.0
 11
603.7758739999998
 21
20.0
 31
0.0
  0
LINE
  5
1140
330
1E
100
AcDbEntity
  8
SERVICESPACE
100
AcDbLine
 10
430.0
 20
0.0
 30
0.0
 11
603.7758739999998
 21
0.0
 31
0.0
  0
LINE
  5
1141
330
1E
100
AcDbEntity
  8
SERVICESPACE
100
AcDbLine
 10
430.0
 20
20.0
 30
0.0
 11
430.0
 21
0.0
 31
0.0
  0
LINE
  5
1142
330
1E
100
AcDbEntity
  8
SERVICESPACE
100
AcDbLine
 10
550.0
 20
0.0
 30
0.0
 11
530.0
 21
20.0
 31
0.0
  0
LINE
  5
1143
330
1E
100
AcDbEntity
  8
SERVICESPACE
100
AcDbLine
 10
466.0
 20
0.0
 30
0.0
 11
446.0
 21
20.0
 31
0.0
  0
LINE
  5
1144
330
1E
100
AcDbEntity
  8
SERVICESPACE
100
AcDbLine
 10
522.0
 20
0.0
 30
0.0
 11
502.0
 21
20.0
 31
0.0
  0
LINE
  5
1145
330
1E
100
AcDbEntity
  8
SERVICESPACE
100
AcDbLine
 10
494.0
 20
0.0
 30
0.0
 11
474.0
 21
20.0
 31
0.0
  0
LINE
  5
1146
330
1E
100
AcDbEntity
  8
SERVICESPACE
100
AcDbLine
 10
437.0
 20
0.0
 30
0.0
 11
430.0
 21
7.0
 31
0.0
  0
LINE
  5
1147
330
1E
100
AcDbEntity
  8
SERVICESPACE
100
AcDbLine
 10
579.0
 20
0.0
 30
0.0
 11
559.0
 21
20.0
 31
0.0
  0
LINE
  5
1148
330
1E
100
AcDbEntity
  8
SERVICESPACE
100
AcDbLine
 10
603.7758739999998
 20
3.224125999999955
 30
0.0
 11
587.0
 21
20.0
 31
0.0
  0
LINE
  5
115B
330
1E
100
AcDbEntity
  8
SERVICESPACE
100
AcDbLine
 10
624.3879369999997
 20
275.0
 30
0.0
 11
-624.3879370000001
 21
275.0
 31
0.0
  0
LINE
  5
115C
330
1E
100
AcDbEntity
  8
SERVICESPACE
100
AcDbLine
 10
-494.1898850000002
 20
325.0
 30
0.0
 11
-444.1898850000002
 21
275.0
 31
0.0
  0
LINE
  5
115D
330
1E
100
AcDbEntity
  8
SERVICESPACE
100
AcDbLine
 10
-335.0908600000003
 20
325.0
 30
0.0
 11
-285.0908600000003
 21
275.0
 31
0.0
  0
LINE
  5
115E
330
1E
100
AcDbEntity
  8
SERVICESPACE
100
AcDbLine
 10
-414.6403730000001
 20
325.0
 30
0.0
 11
-364.6403730000001
 21
275.0
 31
0.0
  0
LINE
  5
115F
330
1E
100
AcDbEntity
  8
SERVICESPACE
100
AcDbLine
 10
-255.5413470000001
 20
325.0
 30
0.0
 11
-205.5413470000001
 21
275.0
 31
0.0
  0
LINE
  5
1160
330
1E
100
AcDbEntity
  8
SERVICESPACE
100
AcDbLine
 10
-175.991834
 20
325.0
 30
0.0
 11
-125.9918340000001
 21
275.0
 31
0.0
  0
LINE
  5
1161
330
1E
100
AcDbEntity
  8
SERVICESPACE
100
AcDbLine
 10
62.65670499999965
 20
325.0
 30
0.0
 11
112.6567049999996
 21
275.0
 31
0.0
  0
LINE
  5
1162
330
1E
100
AcDbEntity
  8
SERVICESPACE
100
AcDbLine
 10
-16.89280800000027
 20
325.0
 30
0.0
 11
33.10719199999973
 21
275.0
 31
0.0
  0
LINE
  5
1163
330
1E
100
AcDbEntity
  8
SERVICESPACE
100
AcDbLine
 10
-96.44232100000021
 20
325.0
 30
0.0
 11
-46.4423210000002
 21
275.0
 31
0.0
  0
LINE
  5
1164
330
1E
100
AcDbEntity
  8
SERVICESPACE
100
AcDbLine
 10
142.2062179999995
 20
325.0
 30
0.0
 11
192.2062179999996
 21
275.0
 31
0.0
  0
LINE
  5
1165
330
1E
100
AcDbEntity
  8
SERVICESPACE
100
AcDbLine
 10
221.7557300000001
 20
325.0
 30
0.0
 11
271.7557300000001
 21
275.0
 31
0.0
  0
LINE
  5
1166
330
1E
100
AcDbEntity
  8
SERVICESPACE
100
AcDbLine
 10
380.854756
 20
325.0
 30
0.0
 11
430.854756
 21
275.0
 31
0.0
  0
LINE
  5
1167
330
1E
100
AcDbEntity
  8
SERVICESPACE
100
AcDbLine
 10
301.305243
 20
325.0
 30
0.0
 11
351.305243
 21
275.0
 31
0.0
  0
LINE
  5
1168
330
1E
100
AcDbEntity
  8
SERVICESPACE
100
AcDbLine
 10
460.4042689999998
 20
325.0
 30
0.0
 11
510.4042689999998
 21
275.0
 31
0.0
  0
LINE
  5
1169
330
1E
100
AcDbEntity
  8
SERVICESPACE
100
AcDbLine
 10
619.5032949999998
 20
325.0
 30
0.0
 11
624.3879369999997
 21
320.115358
 31
0.0
  0
LINE
  5
116A
330
1E
100
AcDbEntity
  8
SERVICESPACE
100
AcDbLine
 10
539.9537819999998
 20
325.0
 30
0.0
 11
589.9537819999998
 21
275.0
 31
0.0
  0
LINE
  5
116B
330
1E
100
AcDbEntity
  8
SERVICESPACE
100
AcDbLine
 10
-624.3879370000001
 20
296.0990259999999
 30
0.0
 11
-603.2889110000001
 21
275.0
 31
0.0
  0
LINE
  5
116C
330
1E
100
AcDbEntity
  8
SERVICESPACE
100
AcDbLine
 10
-573.7393980000002
 20
325.0
 30
0.0
 11
-523.7393980000002
 21
275.0
 31
0.0
  0
LINE
  5
116D
330
1E
100
AcDbEntity
  8
SERVICESPACE
100
AcDbLine
 10
-430.0
 20
20.00000000000005
 30
0.0
 11
-603.7758739999998
 21
20.00000000000007
 31
0.0
  0
LINE
  5
116E
330
1E
100
AcDbEntity
  8
SERVICESPACE
100
AcDbLine
 10
-430.0
 20
0.0000000000000527
 30
0.0
 11
-603.7758739999998
 21
0.0000000000000739
 31
0.0
  0
LINE
  5
116F
330
1E
100
AcDbEntity
  8
SERVICESPACE
100
AcDbLine
 10
-430.0
 20
20.00000000000005
 30
0.0
 11
-430.0
 21
0.0000000000000527
 31
0.0
  0
LINE
  5
1170
330
1E
100
AcDbEntity
  8
SERVICESPACE
100
AcDbLine
 10
-550.0
 20
0.0000000000000674
 30
0.0
 11
-530.0
 21
20.00000000000007
 31
0.0
  0
LINE
  5
1171
330
1E
100
AcDbEntity
  8
SERVICESPACE
100
AcDbLine
 10
-466.0
 20
0.0000000000000571
 30
0.0
 11
-446.0
 21
20.00000000000005
 31
0.0
  0
LINE
  5
1172
330
1E
100
AcDbEntity
  8
SERVICESPACE
100
AcDbLine
 10
-522.0
 20
0.0000000000000639
 30
0.0
 11
-502.0
 21
20.00000000000006
 31
0.0
  0
LINE
  5
1173
330
1E
100
AcDbEntity
  8
SERVICESPACE
100
AcDbLine
 10
-494.0
 20
0.0000000000000605
 30
0.0
 11
-474.0
 21
20.00000000000006
 31
0.0
  0
LINE
  5
1174
330
1E
100
AcDbEntity
  8
SERVICESPACE
100
AcDbLine
 10
-437.0
 20
0.0000000000000535
 30
0.0
 11
-430.0
 21
7.000000000000052
 31
0.0
  0
LINE
  5
1175
330
1E
100
AcDbEntity
  8
SERVICESPACE
100
AcDbLine
 10
-579.0
 20
0.0000000000000709
 30
0.0
 11
-559.0
 21
20.00000000000007
 31
0.0
  0
LINE
  5
1176
330
1E
100
AcDbEntity
  8
SERVICESPACE
100
AcDbLine
 10
-603.7758739999998
 20
3.224126000000028
 30
0.0
 11
-587.0
 21
20.00000000000007
 31
0.0
  0
LINE
  5
1257
330
1E
100
AcDbEntity
  8
SERVICESPACE
100
AcDbLine
 10
624.387937
 20
-2000.0
 30
0.0
 11
-624.387937
 21
-2000.0
 31
0.0
  0
LINE
  5
1258
330
1E
100
AcDbEntity
  8
SERVICESPACE
100
AcDbLine
 10
-494.1898849999998
 20
-2050.0
 30
0.0
 11
-444.1898849999998
 21
-2000.0
 31
0.0
  0
LINE
  5
1259
330
1E
100
AcDbEntity
  8
SERVICESPACE
100
AcDbLine
 10
-335.09086
 20
-2050.0
 30
0.0
 11
-285.09086
 21
-2000.0
 31
0.0
  0
LINE
  5
125A
330
1E
100
AcDbEntity
  8
SERVICESPACE
100
AcDbLine
 10
-414.6403729999998
 20
-2050.0
 30
0.0
 11
-364.6403729999998
 21
-2000.0
 31
0.0
  0
LINE
  5
125B
330
1E
100
AcDbEntity
  8
SERVICESPACE
100
AcDbLine
 10
-255.5413469999999
 20
-2050.0
 30
0.0
 11
-205.5413469999999
 21
-2000.0
 31
0.0
  0
LINE
  5
125C
330
1E
100
AcDbEntity
  8
SERVICESPACE
100
AcDbLine
 10
-175.9918339999999
 20
-2050.0
 30
0.0
 11
-125.9918339999999
 21
-2000.0
 31
0.0
  0
LINE
  5
125D
330
1E
100
AcDbEntity
  8
SERVICESPACE
100
AcDbLine
 10
62.65670499999989
 20
-2050.0
 30
0.0
 11
112.6567049999998
 21
-2000.0
 31
0.0
  0
LINE
  5
125E
330
1E
100
AcDbEntity
  8
SERVICESPACE
100
AcDbLine
 10
-16.89280800000006
 20
-2050.0
 30
0.0
 11
33.10719199999994
 21
-2000.0
 31
0.0
  0
LINE
  5
125F
330
1E
100
AcDbEntity
  8
SERVICESPACE
100
AcDbLine
 10
-96.44232100000001
 20
-2050.0
 30
0.0
 11
-46.44232099999999
 21
-2000.0
 31
0.0
  0
LINE
  5
1260
330
1E
100
AcDbEntity
  8
SERVICESPACE
100
AcDbLine
 10
142.2062179999998
 20
-2050.0
 30
0.0
 11
192.2062179999998
 21
-2000.0
 31
0.0
  0
LINE
  5
1261
330
1E
100
AcDbEntity
  8
SERVICESPACE
100
AcDbLine
 10
221.7557300000003
 20
-2050.0
 30
0.0
 11
271.7557300000003
 21
-2000.0
 31
0.0
  0
LINE
  5
1262
330
1E
100
AcDbEntity
  8
SERVICESPACE
100
AcDbLine
 10
380.8547560000002
 20
-2050.0
 30
0.0
 11
430.8547560000001
 21
-2000.0
 31
0.0
  0
LINE
  5
1263
330
1E
100
AcDbEntity
  8
SERVICESPACE
100
AcDbLine
 10
301.3052430000002
 20
-2050.0
 30
0.0
 11
351.3052430000001
 21
-2000.0
 31
0.0
  0
LINE
  5
1264
330
1E
100
AcDbEntity
  8
SERVICESPACE
100
AcDbLine
 10
460.404269
 20
-2050.0
 30
0.0
 11
510.404269
 21
-2000.0
 31
0.0
  0
LINE
  5
1265
330
1E
100
AcDbEntity
  8
SERVICESPACE
100
AcDbLine
 10
619.5032949999998
 20
-2050.0
 30
0.0
 11
624.387937
 21
-2045.115358
 31
0.0
  0
LINE
  5
1266
330
1E
100
AcDbEntity
  8
SERVICESPACE
100
AcDbLine
 10
539.953782
 20
-2050.0
 30
0.0
 11
589.953782
 21
-2000.0
 31
0.0
  0
LINE
  5
1267
330
1E
100
AcDbEntity
  8
SERVICESPACE
100
AcDbLine
 10
-624.387937
 20
-2021.099026
 30
0.0
 11
-603.2889110000001
 21
-2000.0
 31
0.0
  0
LINE
  5
1268
330
1E
100
AcDbEntity
  8
SERVICESPACE
100
AcDbLine
 10
-573.7393980000002
 20
-2050.0
 30
0.0
 11
-523.7393980000002
 21
-2000.0
 31
0.0
  0
DIMENSION
  5
1269
330
1E
100
AcDbEntity
  8
SIZE
100
AcDbDimension
  2
*D2
 10
420.0000000000001
 20
963.6171559802376
 30
0.0
 11
-0.000000000000009
 21
963.6171559802376
 31
0.0
 70
   160
 71
     5
 42
840.0
  3
STANDARD_ME08
100
AcDbAlignedDimension
 13
-420.0
 23
258.0
 33
0.0
 14
420.0
 24
258.0
 34
0.0
100
AcDbRotatedDimension
  0
DIMENSION
  5
126C
330
1E
100
AcDbEntity
  8
SIZE
100
AcDbDimension
  2
*D3
 10
1190.742381993079
 20
0.0000000000001151
 30
0.0
 11
1190.742381993079
 21
-110.045911492458
 31
0.0
 70
   160
 71
     5
 42
17.00000000000002
  3
STANDARD_ME08
100
AcDbAlignedDimension
 13
420.0
 23
17.0
 33
0.0
 14
475.0
 24
0.0
 34
0.0
 50
90.0
100
AcDbRotatedDimension
  0
DIMENSION
  5
126D
330
1E
100
AcDbEntity
  8
SIZE
100
AcDbDimension
  2
*D4
 10
1190.742381993079
 20
258.0000000000002
 30
0.0
 11
1190.742381993079
 21
137.4999999999998
 31
0.0
 70
   160
 71
     5
 42
241.0
  3
STANDARD_ME08
100
AcDbAlignedDimension
 13
420.0
 23
17.0
 33
0.0
 14
420.0
 24
258.0
 34
0.0
 50
90.0
100
AcDbRotatedDimension
  0
DIMENSION
  5
126E
330
1E
100
AcDbEntity
  8
SIZE
100
AcDbDimension
  2
*D5
 10
1341.55320536623
 20
0.0000000000001394
 30
0.0
 11
1309.05320536623
 21
128.9999999999998
 31
0.0
 70
    32
 71
     5
 42
258.0
  3
STANDARD_ME08
100
AcDbAlignedDimension
 13
420.0
 23
258.0
 33
0.0
 14
475.0
 24
0.0
 34
0.0
 50
90.0
100
AcDbRotatedDimension
  0
DIMENSION
  5
126F
330
1E
100
AcDbEntity
  8
SIZE
100
AcDbDimension
  2
*D6
 10
1341.553205366231
 20
-34.99999999999988
 30
0.0
 11
1309.053205366231
 21
-94.14285714285739
 31
0.0
 70
    32
 71
     5
 42
35.0
  3
STANDARD_ME08
100
AcDbAlignedDimension
 13
475.0
 23
0.0
 33
0.0
 14
448.0
 24
-35.0
 34
0.0
 50
90.0
100
AcDbRotatedDimension
  0
DIMENSION
  5
1270
330
1E
100
AcDbEntity
  8
SIZE
100
AcDbDimension
  2
*D7
 10
1496.491264963829
 20
275.0000000000003
 30
0.0
 11
1463.991264963829
 21
137.4999999999998
 31
0.0
 70
    32
  1
<>以上
 71
     5
 42
275.0
  3
STANDARD_ME08
100
AcDbAlignedDimension
 13
475.0
 23
0.0000000000000096
 33
0.0
 14
564.3863861514512
 24
275.0
 34
0.0
 50
90.0
100
AcDbRotatedDimension
  0
DIMENSION
  5
1271
330
1E
100
AcDbEntity
  8
SIZE
100
AcDbDimension
  2
*D8
 10
474.9999999999998
 20
-520.9386137434485
 30
0.0
 11
-0.0000000000000171
 21
-520.9386137434485
 31
0.0
 70
   160
 71
     5
 42
950.0
  3
STANDARD_ME08
100
AcDbAlignedDimension
 13
-475.0
 23
-8.0
 33
0.0
 14
475.0
 24
-8.0
 34
0.0
100
AcDbRotatedDimension
  0
DIMENSION
  5
1272
330
1E
100
AcDbEntity
  8
SIZE
100
AcDbDimension
  2
*D9
 10
430.0
 20
1102.419675609067
 30
0.0
 11
0.0000000000000106
 21
1102.419675609067
 31
0.0
 70
   160
  1
<>～910
 71
     5
 42
860.0
  3
STANDARD_ME08
100
AcDbAlignedDimension
 13
-430.0
 23
20.00000000000005
 33
0.0
 14
430.0
 24
20.00000000000005
 34
0.0
100
AcDbRotatedDimension
  0
TEXT
  5
1273
330
1E
100
AcDbEntity
  8
SIZE
100
AcDbText
 10
1563.947310170548
 20
-54.15901299921632
 30
0.0
 40
45.0
  1
（天井ふところ高さ）
 50
90.0
 41
0.8
  7
ME08
 11
1569.947310170548
 21
-54.15901299921632
 31
0.0
100
AcDbText
 73
     1
  0
TEXT
  5
1277
330
1E
100
AcDbEntity
  8
SIZE
100
AcDbText
 10
-165.1948442239918
 20
1187.66049313362
 30
0.0
 40
45.0
  1
(天井開口穴)
 41
0.8
  7
ME08
100
AcDbText
  0
DIMENSION
  5
1366
330
1E
100
AcDbEntity
  8
SIZE
100
AcDbDimension
  2
*D11
 10
-1000.951190046839
 20
166.9999999999999
 30
0.0
 11
-1000.951190046839
 21
83.5000000000002
 31
0.0
 70
   160
 71
     5
 42
166.9999999999998
  3
STANDARD_ME08
100
AcDbAlignedDimension
 13
-475.0
 23
0.0000000000000582
 33
0.0
 14
-57.49999999999992
 24
167.0
 34
0.0
 50
90.0
100
AcDbRotatedDimension
  0
DIMENSION
  5
1373
330
1E
100
AcDbEntity
  8
SIZE
100
AcDbDimension
  2
*D12
 10
897.6907059976767
 20
140.0000000000001
 30
0.0
 11
897.6907059976765
 21
77.95810249040278
 31
0.0
 70
   160
 71
     5
 42
140.0
  3
STANDARD_ME08
100
AcDbAlignedDimension
 13
475.0
 23
0.0
 33
0.0
 14
436.5
 24
140.0
 34
0.0
 50
90.0
100
AcDbRotatedDimension
  0
DIMENSION
  5
138D
330
1E
100
AcDbEntity
  8
SIZE
100
AcDbDimension
  2
*D13
 10
-904.9291967910983
 20
154.9999999999999
 30
0.0
 11
-937.4291967910982
 21
77.5000000000002
 31
0.0
 70
    32
 71
     5
 42
154.9999999999999
  3
STANDARD_ME08
100
AcDbAlignedDimension
 13
-475.0
 23
0.0000000000000582
 33
0.0
 14
-159.9999999999999
 24
155.0
 34
0.0
 50
90.0
100
AcDbRotatedDimension
  0
DIMENSION
  5
139A
330
1E
100
AcDbEntity
  8
SIZE
100
AcDbDimension
  2
*D14
 10
-699.5115327228903
 20
205.0
 30
0.0
 11
-699.5115327228903
 21
302.2291946332425
 31
0.0
 70
   160
 71
     5
 42
100.0
  3
STANDARD_ME08
100
AcDbAlignedDimension
 13
-145.0
 23
105.0
 33
0.0
 14
-145.0
 24
205.0
 34
0.0
 50
90.0
100
AcDbRotatedDimension
  0
DIMENSION
  5
13A8
330
1E
100
AcDbEntity
  8
SIZE
100
AcDbDimension
  2
*D15
 10
-806.1268043728109
 20
220.0
 30
0.0
 11
-806.1268043728105
 21
293.5714285714287
 31
0.0
 70
   160
 71
     5
 42
130.0
  3
STANDARD_ME08
100
AcDbAlignedDimension
 13
-161.4
 23
90.00000000000005
 33
0.0
 14
-161.4
 24
220.0
 34
0.0
 50
90.0
100
AcDbRotatedDimension
  0
DIMENSION
  5
13B5
330
1E
100
AcDbEntity
  8
SIZE
100
AcDbDimension
  2
*D16
 10
30.0000000000001
 20
696.3705142619282
 30
0.0
 11
-195.0
 21
696.3705142619282
 31
0.0
 70
   160
 71
     5
 42
450.0
  3
STANDARD_ME08
100
AcDbAlignedDimension
 13
-420.0
 23
258.0
 33
0.0
 14
30.00000000000007
 24
254.5
 34
0.0
100
AcDbRotatedDimension
  0
DIMENSION
  5
13C2
330
1E
100
AcDbEntity
  8
SIZE
100
AcDbDimension
  2
*D17
 10
-69.99999999999999
 20
562.0054957880221
 30
0.0
 11
-50.92530802931285
 21
562.0054957880221
 31
0.0
 70
   160
 71
     5
 42
100.0
  3
STANDARD_ME08
100
AcDbAlignedDimension
 13
30.0
 23
265.0
 33
0.0
 14
-70.0
 24
221.4
 34
0.0
100
AcDbRotatedDimension
  0
DIMENSION
  5
13D0
330
1E
100
AcDbEntity
  8
SIZE
100
AcDbDimension
  2
*D18
 10
-159.9999999999999
 20
444.2452886958432
 30
0.0
 11
-131.232059138465
 21
444.2452886958432
 31
0.0
 70
   160
 71
     5
 42
89.99999999999998
  3
STANDARD_ME08
100
AcDbAlignedDimension
 13
-69.99999999999992
 23
221.4
 33
0.0
 14
-159.9999999999999
 24
221.4
 34
0.0
100
AcDbRotatedDimension
  0
DIMENSION
  5
13DE
330
1E
100
AcDbEntity
  8
SIZE
100
AcDbDimension
  2
*D19
 10
130.0
 20
562.0054957880221
 30
0.0
 11
101.2034284605015
 21
562.0054957880221
 31
0.0
 70
   160
 71
     5
 42
100.0
  3
STANDARD_ME08
100
AcDbAlignedDimension
 13
30.0
 23
220.0
 33
0.0
 14
130.0
 24
220.0
 34
0.0
100
AcDbRotatedDimension
  0
DIMENSION
  5
13EC
330
1E
100
AcDbEntity
  8
SIZE
100
AcDbDimension
  2
*D20
 10
220.0
 20
444.2452886958432
 30
0.0
 11
193.1559289212091
 21
444.2452886958432
 31
0.0
 70
   160
 71
     5
 42
90.0
  3
STANDARD_ME08
100
AcDbAlignedDimension
 13
130.0
 23
221.4
 33
0.0
 14
220.0
 24
221.4
 34
0.0
100
AcDbRotatedDimension
  0
DIMENSION
  5
13FA
330
1E
100
AcDbEntity
  8
SIZE
100
AcDbDimension
  2
*D21
 10
329.9999999999998
 20
826.886318325427
 30
0.0
 11
-0.0000000000001466
 21
826.886318325427
 31
0.0
 70
   160
 71
     5
 42
659.9999999999997
  3
STANDARD_ME08
100
AcDbAlignedDimension
 13
-330.0
 23
125.0
 33
0.0
 14
329.9999999999997
 24
125.0
 34
0.0
100
AcDbRotatedDimension
  0
DIMENSION
  5
1467
330
1E
100
AcDbEntity
  8
SIZE
100
AcDbDimension
  2
*D22
 10
761.9178115217143
 20
105.0000000000001
 30
0.0
 11
761.9178115217143
 21
-116.1409253166657
 31
0.0
 70
   160
 71
     5
 42
105.0
  3
STANDARD_ME08
100
AcDbAlignedDimension
 13
475.0
 23
0.0
 33
0.0
 14
349.9999999999997
 24
105.0
 34
0.0
 50
90.0
100
AcDbRotatedDimension
  0
DIMENSION
  5
1719
330
1E
100
AcDbEntity
  8
SIZE
100
AcDbDimension
  2
*D23
 10
340.4999999999999
 20
562.0054957880221
 30
0.0
 11
518.2898128068099
 21
562.0054957880221
 31
0.0
 70
   160
 71
     5
 42
79.50000000000009
  3
STANDARD_ME08
100
AcDbAlignedDimension
 13
420.0
 23
258.0
 33
0.0
 14
340.4999999999999
 24
258.0
 34
0.0
100
AcDbRotatedDimension
  0
DIMENSION
  5
1731
330
1E
100
AcDbEntity
  8
SIZE
100
AcDbDimension
  2
*D24
 10
205.0
 20
-177.453418066575
 30
0.0
 11
29.99999999999998
 21
-144.9534180665749
 31
0.0
 70
    32
 71
     5
 42
350.0
  3
STANDARD_ME08
100
AcDbAlignedDimension
 13
-145.0
 23
105.0
 33
0.0
 14
205.0
 24
105.0
 34
0.0
100
AcDbRotatedDimension
  0
DIMENSION
  5
17A8
330
1E
100
AcDbEntity
  8
SIZE
100
AcDbDimension
  2
*D25
 10
417.0
 20
-279.4435771021035
 30
0.0
 11
246.1983444126272
 21
-279.4435771021035
 31
0.0
 70
   160
 71
     5
 42
76.50000000000119
  3
STANDARD_ME08
100
AcDbAlignedDimension
 13
340.4999999999988
 23
17.0
 33
0.0
 14
417.0
 24
120.0
 34
0.0
100
AcDbRotatedDimension
  0
DIMENSION
  5
1858
330
1E
100
AcDbEntity
  8
SIZE
100
AcDbDimension
  2
*D26
 10
1043.44838247048
 20
169.9999999999998
 30
0.0
 11
1010.94838247048
 21
84.99999999999969
 31
0.0
 70
    32
 71
     5
 42
169.9999999999997
  3
STANDARD_ME08
100
AcDbAlignedDimension
 13
475.0
 23
0.0
 33
0.0
 14
440.0000000000002
 24
169.9999999999997
 34
0.0
 50
90.0
100
AcDbRotatedDimension
  0
TEXT
  5
193B
330
1E
100
AcDbEntity
  8
ETC
100
AcDbText
 10
1211.976481537124
 20
1145.964229483725
 30
0.0
 40
45.0
  1
PAC加湿器
  7
ME08
100
AcDbText
  0
TEXT
  5
193C
330
1E
100
AcDbEntity
  8
ETC
100
AcDbText
 10
1207.645902899343
 20
1046.660924479843
 30
0.0
 40
45.0
  1
SPAC7835
  7
ME08
100
AcDbText
  0
DIMENSION
  5
1C8F
330
1E
100
AcDbEntity
  8
SIZE
100
AcDbDimension
  2
*D27
 10
1496.491264963831
 20
-2000.000000000001
 30
0.0
 11
1463.99126496383
 21
-1000.0
 31
0.0
 70
    32
  1
3500以下
 71
     5
 42
2000.000000000001
  3
STANDARD_ME08
100
AcDbAlignedDimension
 13
475.0
 23
0.0
 33
0.0
 14
624.387937
 24
-2000.0
 34
0.0
 50
90.0
100
AcDbRotatedDimension
  0
TEXT
  5
1CB0
330
1E
100
AcDbEntity
  8
SIZE
100
AcDbText
 10
1563.947310170548
 20
-1126.239995193244
 30
0.0
 40
45.0
  1
（天井高さ）
 50
90.0
 41
0.8
  7
ME08
 11
1569.947310170548
 21
-1126.239995193244
 31
0.0
100
AcDbText
 73
     1
  0
ENDSEC
  0
SECTION
  2
OBJECTS
  0
DICTIONARY
  5
C
330
0
100
AcDbDictionary
281
     1
  3
ACAD_CIP_PREVIOUS_PRODUCT_INFO
350
EE0
  3
ACAD_COLOR
350
EC3
  3
ACAD_DETAILVIEWSTYLE
350
EDC
  3
ACAD_GROUP
350
D
  3
ACAD_LAYOUT
350
19
  3
ACAD_MATERIAL
350
E91
  3
ACAD_MLEADERSTYLE
350
ED8
  3
ACAD_MLINESTYLE
350
16
  3
ACAD_PLOTSETTINGS
350
18
  3
ACAD_PLOTSTYLENAME
350
E
  3
ACAD_SCALELIST
350
EC6
  3
ACAD_SECTIONVIEWSTYLE
350
EDA
  3
ACAD_TABLESTYLE
350
EC4
  3
ACAD_VISUALSTYLE
350
EAA
  3
ACDB_RECOMPOSE_DATA
350
1CB5
  3
AcDbVariableDictionary
350
EF5
  0
DICTIONARY
  5
FF2
330
2
100
AcDbDictionary
280
     1
281
     1
  3
ACAD_LAYERSTATES
360
FF3
  0
DICTIONARY
  5
EE1
330
10
100
AcDbDictionary
280
     1
281
     1
  3
ADSK_XREC_LAYER_RECONCILED
360
EE2
  0
DICTIONARY
  5
EE3
330
22
100
AcDbDictionary
280
     1
281
     1
  3
ADSK_XREC_LAYER_RECONCILED
360
EE4
  0
DICTIONARY
  5
EE5
330
29
100
AcDbDictionary
280
     1
281
     1
  3
ADSK_XREC_LAYER_RECONCILED
360
EE6
  0
DICTIONARY
  5
EE7
330
2A
100
AcDbDictionary
280
     1
281
     1
  3
ADSK_XREC_LAYER_RECONCILED
360
EE8
  0
DICTIONARY
  5
EE9
330
2B
100
AcDbDictionary
280
     1
281
     1
  3
ADSK_XREC_LAYER_RECONCILED
360
EEA
  0
DICTIONARY
  5
EEB
330
2C
100
AcDbDictionary
280
     1
281
     1
  3
ADSK_XREC_LAYER_RECONCILED
360
EEC
  0
DICTIONARY
  5
EED
330
2D
100
AcDbDictionary
280
     1
281
     1
  3
ADSK_XREC_LAYER_RECONCILED
360
EEE
  0
DICTIONARY
  5
EEF
330
2F
100
AcDbDictionary
280
     1
281
     1
  3
ADSK_XREC_LAYER_RECONCILED
360
EF0
  0
DICTIONARY
  5
EF3
330
31
100
AcDbDictionary
280
     1
281
     1
  3
ADSK_XREC_LAYER_RECONCILED
360
EF4
  0
DICTIONARY
  5
1022
330
1021
100
AcDbDictionary
280
     1
281
     1
  0
DICTIONARY
  5
9D1
330
1E
100
AcDbDictionary
280
     1
281
     1
  3
ACAD_LAYOUTSELFREF
360
E8C
  3
ACAD_SORTENTS
360
1594
  0
DICTIONARY
  5
9CF
330
1A
100
AcDbDictionary
280
     1
281
     1
  3
ACAD_LAYOUTSELFREF
360
E8B
  0
XRECORD
  5
EE0
102
{ACAD_REACTORS
330
C
102
}
330
C
100
AcDbXrecord
280
     1
300
ACDLT
300
2021
300
87396ACDLT_2021_0F
  0
DICTIONARY
  5
EC3
102
{ACAD_REACTORS
330
C
102
}
330
C
100
AcDbDictionary
281
     1
  0
DICTIONARY
  5
EDC
102
{ACAD_REACTORS
330
C
102
}
330
C
100
AcDbDictionary
281
     1
  3
Imperial24
350
EDD
  3
Metric50
350
108D
  0
DICTIONARY
  5
D
102
{ACAD_REACTORS
330
C
102
}
330
C
100
AcDbDictionary
281
     1
  0
DICTIONARY
  5
19
102
{ACAD_REACTORS
330
C
102
}
330
C
100
AcDbDictionary
281
     1
  3
Model
350
EDE
  3
レイアウト1
350
EDF
  0
DICTIONARY
  5
E91
102
{ACAD_REACTORS
330
C
102
}
330
C
100
AcDbDictionary
281
     1
  3
ByBlock
350
E9A
  3
ByLayer
350
E92
  3
Global
350
EA2
  0
DICTIONARY
  5
ED8
102
{ACAD_REACTORS
330
C
102
}
330
C
100
AcDbDictionary
281
     1
  3
Standard
350
ED9
  0
DICTIONARY
  5
16
102
{ACAD_REACTORS
330
C
102
}
330
C
100
AcDbDictionary
281
     1
  3
STANDARD
350
17
  0
DICTIONARY
  5
18
102
{ACAD_REACTORS
330
C
102
}
330
C
100
AcDbDictionary
281
     1
  0
ACDBDICTIONARYWDFLT
  5
E
102
{ACAD_REACTORS
330
C
102
}
330
C
100
AcDbDictionary
281
     1
  3
Normal
350
F
100
AcDbDictionaryWithDefault
340
F
  0
DICTIONARY
  5
EC6
102
{ACAD_REACTORS
330
C
102
}
330
C
100
AcDbDictionary
281
     1
  3
A0
350
EC7
  3
A1
350
EC8
  3
A2
350
EC9
  3
A3
350
ECA
  3
A4
350
ECB
  3
A5
350
ECC
  3
A6
350
ECD
  3
A7
350
ECE
  3
A8
350
ECF
  3
A9
350
ED0
  3
B0
350
ED1
  3
B1
350
ED2
  3
B2
350
ED3
  3
B3
350
ED4
  3
B4
350
ED5
  3
B5
350
ED6
  3
B6
350
ED7
  0
DICTIONARY
  5
EDA
102
{ACAD_REACTORS
330
C
102
}
330
C
100
AcDbDictionary
281
     1
  3
Imperial24
350
EDB
  3
Metric50
350
108C
  0
DICTIONARY
  5
EC4
102
{ACAD_REACTORS
330
C
102
}
330
C
100
AcDbDictionary
281
     1
  3
Standard
350
EC5
  0
DICTIONARY
  5
EAA
102
{ACAD_REACTORS
330
C
102
}
330
C
100
AcDbDictionary
281
     1
  3
2dWireframe
350
EB0
  3
Basic
350
EAF
  3
Brighten
350
EB6
  3
ColorChange
350
EBA
  3
Conceptual
350
EB3
  3
Dim
350
EB5
  3
EdgeColorOff
350
EC2
  3
Facepattern
350
EB9
  3
Flat
350
EAB
  3
FlatWithEdges
350
EAC
  3
Gouraud
350
EAD
  3
GouraudWithEdges
350
EAE
  3
Hidden
350
EB2
  3
JitterOff
350
EC0
  3
Linepattern
350
EB8
  3
OverhangOff
350
EC1
  3
Realistic
350
EB4
  3
Shaded
350
EBF
  3
Shaded with edges
350
EBE
  3
Shades of Gray
350
EBB
  3
Sketchy
350
EBC
  3
Thicken
350
EB7
  3
Wireframe
350
EB1
  3
X-Ray
350
EBD
  0
XRECORD
  5
1CB5
102
{ACAD_REACTORS
330
C
102
}
330
C
100
AcDbXrecord
280
     1
 90
        1
330
EC5
  0
DICTIONARY
  5
EF5
102
{ACAD_REACTORS
330
C
102
}
330
C
100
AcDbDictionary
281
     1
  3
CANNOSCALE
350
EFB
  3
CMLEADERSTYLE
350
EF7
  3
CTABLESTYLE
350
EF6
  3
CVIEWDETAILSTYLE
350
EF8
  3
CVIEWSECTIONSTYLE
350
EF9
  3
LAYEREVAL
350
EFD
  3
LAYERNOTIFY
350
EFE
  3
LIGHTINGUNITS
350
EFC
  3
LOFTANG1
350
1CB1
  3
LOFTANG2
350
1CB2
  3
MSLTSCALE
350
EFA
  3
XCLIPFRAME
350
1CB3
  0
DICTIONARY
  5
FF3
102
{ACAD_REACTORS
330
FF2
102
}
330
FF2
100
AcDbDictionary
281
     1
  0
XRECORD
  5
EE2
102
{ACAD_REACTORS
330
EE1
102
}
330
EE1
100
AcDbXrecord
280
     1
290
     1
  0
XRECORD
  5
EE4
102
{ACAD_REACTORS
330
EE3
102
}
330
EE3
100
AcDbXrecord
280
     1
290
     1
  0
XRECORD
  5
EE6
102
{ACAD_REACTORS
330
EE5
102
}
330
EE5
100
AcDbXrecord
280
     1
290
     1
  0
XRECORD
  5
EE8
102
{ACAD_REACTORS
330
EE7
102
}
330
EE7
100
AcDbXrecord
280
     1
290
     1
  0
XRECORD
  5
EEA
102
{ACAD_REACTORS
330
EE9
102
}
330
EE9
100
AcDbXrecord
280
     1
290
     1
  0
XRECORD
  5
EEC
102
{ACAD_REACTORS
330
EEB
102
}
330
EEB
100
AcDbXrecord
280
     1
290
     1
  0
XRECORD
  5
EEE
102
{ACAD_REACTORS
330
EED
102
}
330
EED
100
AcDbXrecord
280
     1
290
     1
  0
XRECORD
  5
EF0
102
{ACAD_REACTORS
330
EEF
102
}
330
EEF
100
AcDbXrecord
280
     1
290
     1
  0
XRECORD
  5
EF4
102
{ACAD_REACTORS
330
EF3
102
}
330
EF3
100
AcDbXrecord
280
     1
290
     1
  0
XRECORD
  5
E8C
102
{ACAD_REACTORS
330
9D1
102
}
330
9D1
100
AcDbXrecord
280
     1
340
1E
  0
SORTENTSTABLE
  5
1594
102
{ACAD_REACTORS
330
9D1
102
}
330
9D1
100
AcDbSortentsTable
330
1E
331
80F
  5
810
331
810
  5
811
331
811
  5
812
331
812
  5
82C
331
940
  5
942
331
942
  5
9E1
331
9E1
  5
9E2
331
9E2
  5
BD9
331
BD9
  5
BDC
331
BDC
  5
BEA
331
BEA
  5
DD4
331
DD4
  5
DD5
331
DD5
  5
DD9
331
DD9
  5
DDC
331
DDC
  5
FD5
331
FD5
  5
FD6
331
FD6
  5
FD7
331
FD7
  5
1047
331
1047
  5
1048
331
1048
  5
1049
331
1049
  5
104A
331
104A
  5
104B
331
104B
  5
104C
331
104C
  5
104D
331
104D
  5
104E
331
104E
  5
104F
331
104F
  5
1050
331
1050
  5
1051
331
1051
  5
1052
331
1052
  5
1053
331
1053
  5
1054
331
1054
  5
109F
331
109F
  5
10A0
331
10A0
  5
10A1
331
10A1
  5
10A2
331
10A2
  5
10A3
331
10A3
  5
10A4
331
10A4
  5
10A5
331
10A5
  5
10A6
331
10A6
  5
10A7
331
10A7
  5
10A8
331
10A8
  5
10A9
331
10A9
  5
10AA
331
10AA
  5
10AB
331
10AB
  5
10DD
331
10DD
  5
10DE
331
10DE
  5
10DF
331
10DF
  5
10E0
331
10E0
  5
10E1
331
10E1
  5
10E2
331
10E2
  5
10E3
331
10E3
  5
10E4
331
10E4
  5
10E5
331
10E5
  5
10E6
331
10E6
  5
10E7
331
10E7
  5
10E8
331
10E8
  5
10E9
331
10E9
  5
10EA
331
10EA
  5
10EB
331
10EB
  5
10EC
331
10EC
  5
10ED
331
10ED
  5
10EE
331
10EE
  5
10EF
331
10EF
  5
10F0
331
10F0
  5
113F
331
113F
  5
1140
331
1140
  5
1141
331
1141
  5
1142
331
1142
  5
1143
331
1143
  5
1144
331
1144
  5
1145
331
1145
  5
1146
331
1146
  5
1147
331
1147
  5
1148
331
1148
  5
115B
331
115B
  5
115C
331
115C
  5
115D
331
115D
  5
115E
331
115E
  5
115F
331
115F
  5
1160
331
1160
  5
1161
331
1161
  5
1162
331
1162
  5
1163
331
1163
  5
1164
331
1164
  5
1165
331
1165
  5
1166
331
1166
  5
1167
331
1167
  5
1168
331
1168
  5
1169
331
1169
  5
116A
331
116A
  5
116B
331
116B
  5
116C
331
116C
  5
116D
331
116D
  5
116E
331
116E
  5
116F
331
116F
  5
1170
331
1170
  5
1171
331
1171
  5
1172
331
1172
  5
1173
331
1173
  5
1174
331
1174
  5
1175
331
1175
  5
1176
331
1176
  5
1257
331
1257
  5
1258
331
1258
  5
1259
331
1259
  5
125A
331
125A
  5
125B
331
125B
  5
125C
331
125C
  5
125D
331
125D
  5
125E
331
125E
  5
125F
331
125F
  5
1260
331
1260
  5
1261
331
1261
  5
1262
331
1262
  5
1263
331
1263
  5
1264
331
1264
  5
1265
331
1265
  5
1266
331
1266
  5
1267
331
1267
  5
1268
331
1268
  5
1269
331
1269
  5
126C
331
126C
  5
126D
331
126D
  5
126E
331
126E
  5
126F
331
126F
  5
1270
331
1270
  5
1271
331
1271
  5
1272
331
1272
  5
1273
331
1273
  5
1274
331
1277
  5
1366
331
1366
  5
1373
331
1373
  5
1380
331
138D
  5
139A
331
139A
  5
13A8
331
13A8
  5
13B5
331
13B5
  5
13C2
331
13C2
  5
13D0
331
13D0
  5
13DE
331
13DE
  5
13EC
331
13EC
  5
13FA
331
13FA
  5
1467
331
1467
  5
1593
  0
XRECORD
  5
E8B
102
{ACAD_REACTORS
330
9CF
102
}
330
9CF
100
AcDbXrecord
280
     1
340
1A
  0
ACDBDETAILVIEWSTYLE
  5
EDD
102
{ACAD_XDICTIONARY
360
1CE9
102
}
102
{ACAD_REACTORS
330
EDC
102
}
330
EDC
100
AcDbModelDocViewStyle
 70
     0
  3
Imperial24
290
     0
100
AcDbDetailViewStyle
 70
     0
 71
     0
 90
        3
 71
     1
340
11
 62
   256
 40
0.24
340
0
 62
   256
 40
0.24
300

 40
0.36
280
     3
 71
     2
340
15
 90
       25
 62
   256
 71
     3
340
11
 62
   256
 40
0.24
 90
        1
 40
0.75
 90
        1
300
%<\AcVar ViewType \f "%tc1">% %<\AcVar ViewDetailId>%\PSCALE %<\AcVar ViewScale \f "%sn">%
 71
     4
340
15
 90
       25
 62
   256
340
15
 90
       25
 62
   256
280
     0
  0
ACDBDETAILVIEWSTYLE
  5
108D
102
{ACAD_XDICTIONARY
360
1CED
102
}
102
{ACAD_REACTORS
330
EDC
102
}
330
EDC
100
AcDbModelDocViewStyle
 70
     0
  3
Metric50
290
     0
100
AcDbDetailViewStyle
 70
     0
 71
     0
 90
        3
 71
     1
340
11
 62
   256
 40
5.0
340
0
 62
   256
 40
5.0
300

 40
0.0
280
     1
 71
     2
340
15
 90
       25
 62
   256
 71
     3
340
11
 62
   256
 40
5.0
 90
        0
 40
15.0
 90
        1
300
%<\AcVar ViewDetailId>% (%<\AcVar ViewScale \f "%sn">%)
 71
     4
340
15
 90
       25
 62
   256
340
15
 90
       25
 62
   256
280
     0
  0
LAYOUT
  5
EDE
102
{ACAD_REACTORS
330
19
102
}
330
19
100
AcDbPlotSettings
  1

  2
C:\Users\okazakz.MEENT01\AppData\Roaming\Autodesk\AutoCAD LT 2019\R25\jpn\plotters\AutoCAD PDF (General Documentation).pc3
  4

  6

 40
0.0
 41
0.0
 42
0.0
 43
0.0
 44
0.0
 45
0.0
 46
0.0
 47
0.0
 48
0.0
 49
0.0
140
0.0
141
0.0
142
1.0
143
1.0
 70
  1712
 72
     0
 73
     0
 74
     0
  7

 75
     0
147
1.0
 76
     0
 77
     2
 78
   300
148
0.0
149
0.0
100
AcDbLayout
  1
Model
 70
     1
 71
     0
 10
0.0
 20
0.0
 11
12.0
 21
9.0
 12
0.0
 22
0.0
 32
0.0
 14
0.0
 24
0.0
 34
0.0
 15
0.0
 25
0.0
 35
0.0
146
0.0
 13
0.0
 23
0.0
 33
0.0
 16
1.0
 26
0.0
 36
0.0
 17
0.0
 27
1.0
 37
0.0
 76
     0
330
1E
331
E6A
  0
LAYOUT
  5
EDF
102
{ACAD_REACTORS
330
19
102
}
330
19
100
AcDbPlotSettings
  1

  2
C:\Users\okazakz.MEENT01\AppData\Roaming\Autodesk\AutoCAD LT 2019\R25\jpn\plotters\AutoCAD PDF (General Documentation).pc3
  4

  6

 40
0.0
 41
0.0
 42
0.0
 43
0.0
 44
0.0
 45
0.0
 46
0.0
 47
0.0
 48
0.0
 49
0.0
140
0.0
141
0.0
142
1.0
143
1.0
 70
   688
 72
     0
 73
     0
 74
     5
  7

 75
    16
147
1.0
 76
     0
 77
     2
 78
   300
148
0.0
149
0.0
100
AcDbLayout
  1
レイアウト1
 70
     1
 71
     1
 10
0.0
 20
0.0
 11
12.0
 21
9.0
 12
0.0
 22
0.0
 32
0.0
 14
1.000000000000000E+20
 24
1.000000000000000E+20
 34
1.000000000000000E+20
 15
-1.000000000000000E+20
 25
-1.000000000000000E+20
 35
-1.000000000000000E+20
146
0.0
 13
0.0
 23
0.0
 33
0.0
 16
1.0
 26
0.0
 36
0.0
 17
0.0
 27
1.0
 37
0.0
 76
     0
330
1A
  0
MATERIAL
  5
E9A
102
{ACAD_XDICTIONARY
360
E9B
102
}
102
{ACAD_REACTORS
330
E91
102
}
330
E91
100
AcDbMaterial
  1
ByBlock
 72
     0
 43
0.0208333333333333
 43
0.0
 43
0.0
 43
0.0
 43
0.0
 43
0.0208333333333333
 43
0.0
 43
0.0
 43
0.0
 43
0.0
 43
1.0
 43
0.0
 43
0.0
 43
0.0
 43
0.0
 43
1.0
 77
     0
 47
0.0208333333333333
 47
0.0
 47
0.0
 47
0.0
 47
0.0
 47
0.0208333333333333
 47
0.0
 47
0.0
 47
0.0
 47
0.0
 47
1.0
 47
0.0
 47
0.0
 47
0.0
 47
0.0
 47
1.0
171
     0
 49
0.0208333333333333
 49
0.0
 49
0.0
 49
0.0
 49
0.0
 49
0.0208333333333333
 49
0.0
 49
0.0
 49
0.0
 49
0.0
 49
1.0
 49
0.0
 49
0.0
 49
0.0
 49
0.0
 49
1.0
175
     0
142
0.0208333333333333
142
0.0
142
0.0
142
0.0
142
0.0
142
0.0208333333333333
142
0.0
142
0.0
142
0.0
142
0.0
142
1.0
142
0.0
142
0.0
142
0.0
142
0.0
142
1.0
179
     0
144
0.0208333333333333
144
0.0
144
0.0
144
0.0
144
0.0
144
0.0208333333333333
144
0.0
144
0.0
144
0.0
144
0.0
144
1.0
144
0.0
144
0.0
144
0.0
144
0.0
144
1.0
147
0.0208333333333333
147
0.0
147
0.0
147
0.0
147
0.0
147
0.0208333333333333
147
0.0
147
0.0
147
0.0
147
0.0
147
1.0
147
0.0
147
0.0
147
0.0
147
0.0
147
1.0
  0
MATERIAL
  5
E92
102
{ACAD_XDICTIONARY
360
E93
102
}
102
{ACAD_REACTORS
330
E91
102
}
330
E91
100
AcDbMaterial
  1
ByLayer
 72
     0
 43
0.0208333333333333
 43
0.0
 43
0.0
 43
0.0
 43
0.0
 43
0.0208333333333333
 43
0.0
 43
0.0
 43
0.0
 43
0.0
 43
1.0
 43
0.0
 43
0.0
 43
0.0
 43
0.0
 43
1.0
 77
     0
 47
0.0208333333333333
 47
0.0
 47
0.0
 47
0.0
 47
0.0
 47
0.0208333333333333
 47
0.0
 47
0.0
 47
0.0
 47
0.0
 47
1.0
 47
0.0
 47
0.0
 47
0.0
 47
0.0
 47
1.0
171
     0
 49
0.0208333333333333
 49
0.0
 49
0.0
 49
0.0
 49
0.0
 49
0.0208333333333333
 49
0.0
 49
0.0
 49
0.0
 49
0.0
 49
1.0
 49
0.0
 49
0.0
 49
0.0
 49
0.0
 49
1.0
175
     0
142
0.0208333333333333
142
0.0
142
0.0
142
0.0
142
0.0
142
0.0208333333333333
142
0.0
142
0.0
142
0.0
142
0.0
142
1.0
142
0.0
142
0.0
142
0.0
142
0.0
142
1.0
179
     0
144
0.0208333333333333
144
0.0
144
0.0
144
0.0
144
0.0
144
0.0208333333333333
144
0.0
144
0.0
144
0.0
144
0.0
144
1.0
144
0.0
144
0.0
144
0.0
144
0.0
144
1.0
147
0.0208333333333333
147
0.0
147
0.0
147
0.0
147
0.0
147
0.0208333333333333
147
0.0
147
0.0
147
0.0
147
0.0
147
1.0
147
0.0
147
0.0
147
0.0
147
0.0
147
1.0
  0
MATERIAL
  5
EA2
102
{ACAD_XDICTIONARY
360
EA3
102
}
102
{ACAD_REACTORS
330
E91
102
}
330
E91
100
AcDbMaterial
  1
Global
 72
     0
 43
0.0208333333333333
 43
0.0
 43
0.0
 43
0.0
 43
0.0
 43
0.0208333333333333
 43
0.0
 43
0.0
 43
0.0
 43
0.0
 43
1.0
 43
0.0
 43
0.0
 43
0.0
 43
0.0
 43
1.0
 77
     0
 47
0.0208333333333333
 47
0.0
 47
0.0
 47
0.0
 47
0.0
 47
0.0208333333333333
 47
0.0
 47
0.0
 47
0.0
 47
0.0
 47
1.0
 47
0.0
 47
0.0
 47
0.0
 47
0.0
 47
1.0
171
     0
 49
0.0208333333333333
 49
0.0
 49
0.0
 49
0.0
 49
0.0
 49
0.0208333333333333
 49
0.0
 49
0.0
 49
0.0
 49
0.0
 49
1.0
 49
0.0
 49
0.0
 49
0.0
 49
0.0
 49
1.0
175
     0
142
0.0208333333333333
142
0.0
142
0.0
142
0.0
142
0.0
142
0.0208333333333333
142
0.0
142
0.0
142
0.0
142
0.0
142
1.0
142
0.0
142
0.0
142
0.0
142
0.0
142
1.0
179
     0
144
0.0208333333333333
144
0.0
144
0.0
144
0.0
144
0.0
144
0.0208333333333333
144
0.0
144
0.0
144
0.0
144
0.0
144
1.0
144
0.0
144
0.0
144
0.0
144
0.0
144
1.0
147
0.0208333333333333
147
0.0
147
0.0
147
0.0
147
0.0
147
0.0208333333333333
147
0.0
147
0.0
147
0.0
147
0.0
147
1.0
147
0.0
147
0.0
147
0.0
147
0.0
147
1.0
  0
MLEADERSTYLE
  5
ED9
102
{ACAD_REACTORS
330
ED8
102
}
330
ED8
100
AcDbMLeaderStyle
170
     2
171
     1
172
     0
 90
        2
 40
0.0
 41
0.0
173
     1
 91
-1056964608
340
13
 92
       -2
290
     1
 42
0.09
291
     1
 43
0.36
  3
Standard
 44
0.18
300

342
11
174
     1
178
     6
175
     1
176
     0
 93
-1056964608
 45
0.18
292
     0
297
     0
 46
0.18
 94
-1056964608
 47
1.0
 49
1.0
140
1.0
293
     1
141
0.0
294
     1
177
     0
142
1.0
295
     0
296
     0
143
0.125
1001
ACAD_MLEADERVER
1070
     2
  0
MLINESTYLE
  5
17
102
{ACAD_REACTORS
330
16
102
}
330
16
100
AcDbMlineStyle
  2
STANDARD
 70
     0
  3

 62
   256
 51
90.0
 52
90.0
 71
     2
 49
0.5
 62
   256
  6
BYLAYER
 49
-0.5
 62
   256
  6
BYLAYER
  0
ACDBPLACEHOLDER
  5
F
102
{ACAD_REACTORS
330
E
102
}
330
E
  0
SCALE
  5
EC7
102
{ACAD_REACTORS
330
EC6
102
}
330
EC6
100
AcDbScale
 70
     0
300
1:1
140
1.0
141
1.0
290
     1
  0
SCALE
  5
EC8
102
{ACAD_REACTORS
330
EC6
102
}
330
EC6
100
AcDbScale
 70
     0
300
1/128" = 1'-0"
140
0.0078125
141
12.0
290
     0
  0
SCALE
  5
EC9
102
{ACAD_REACTORS
330
EC6
102
}
330
EC6
100
AcDbScale
 70
     0
300
1/64" = 1'-0"
140
0.015625
141
12.0
290
     0
  0
SCALE
  5
ECA
102
{ACAD_REACTORS
330
EC6
102
}
330
EC6
100
AcDbScale
 70
     0
300
1/32" = 1'-0"
140
0.03125
141
12.0
290
     0
  0
SCALE
  5
ECB
102
{ACAD_REACTORS
330
EC6
102
}
330
EC6
100
AcDbScale
 70
     0
300
1/16" = 1'-0"
140
0.0625
141
12.0
290
     0
  0
SCALE
  5
ECC
102
{ACAD_REACTORS
330
EC6
102
}
330
EC6
100
AcDbScale
 70
     0
300
3/32" = 1'-0"
140
0.09375
141
12.0
290
     0
  0
SCALE
  5
ECD
102
{ACAD_REACTORS
330
EC6
102
}
330
EC6
100
AcDbScale
 70
     0
300
1/8" = 1'-0"
140
0.125
141
12.0
290
     0
  0
SCALE
  5
ECE
102
{ACAD_REACTORS
330
EC6
102
}
330
EC6
100
AcDbScale
 70
     0
300
3/16" = 1'-0"
140
0.1875
141
12.0
290
     0
  0
SCALE
  5
ECF
102
{ACAD_REACTORS
330
EC6
102
}
330
EC6
100
AcDbScale
 70
     0
300
1/4" = 1'-0"
140
0.25
141
12.0
290
     0
  0
SCALE
  5
ED0
102
{ACAD_REACTORS
330
EC6
102
}
330
EC6
100
AcDbScale
 70
     0
300
3/8" = 1'-0"
140
0.375
141
12.0
290
     0
  0
SCALE
  5
ED1
102
{ACAD_REACTORS
330
EC6
102
}
330
EC6
100
AcDbScale
 70
     0
300
1/2" = 1'-0"
140
0.5
141
12.0
290
     0
  0
SCALE
  5
ED2
102
{ACAD_REACTORS
330
EC6
102
}
330
EC6
100
AcDbScale
 70
     0
300
3/4" = 1'-0"
140
0.75
141
12.0
290
     0
  0
SCALE
  5
ED3
102
{ACAD_REACTORS
330
EC6
102
}
330
EC6
100
AcDbScale
 70
     0
300
1" = 1'-0"
140
1.0
141
12.0
290
     0
  0
SCALE
  5
ED4
102
{ACAD_REACTORS
330
EC6
102
}
330
EC6
100
AcDbScale
 70
     0
300
1-1/2" = 1'-0"
140
1.5
141
12.0
290
     0
  0
SCALE
  5
ED5
102
{ACAD_REACTORS
330
EC6
102
}
330
EC6
100
AcDbScale
 70
     0
300
3" = 1'-0"
140
3.0
141
12.0
290
     0
  0
SCALE
  5
ED6
102
{ACAD_REACTORS
330
EC6
102
}
330
EC6
100
AcDbScale
 70
     0
300
6" = 1'-0"
140
6.0
141
12.0
290
     0
  0
SCALE
  5
ED7
102
{ACAD_REACTORS
330
EC6
102
}
330
EC6
100
AcDbScale
 70
     0
300
1'-0" = 1'-0"
140
12.0
141
12.0
290
     0
  0
ACDBSECTIONVIEWSTYLE
  5
EDB
102
{ACAD_XDICTIONARY
360
1CE7
102
}
102
{ACAD_REACTORS
330
EDA
102
}
330
EDA
100
AcDbModelDocViewStyle
 70
     0
  3
Imperial24
290
     0
100
AcDbSectionViewStyle
 70
     0
 71
     0
 90
       78
 71
     1
340
11
 62
   256
 40
0.24
340
0
340
0
 62
   256
 40
0.24
300
I, O, Q, S, X, Z
 40
0.48
 90
        3
 40
0.18
 90
        1
 71
     2
340
15
 90
       25
 62
   256
340
15
 90
       50
 62
   256
 40
0.24
 40
0.0
 40
0.24
 71
     3
340
11
 62
   256
 40
0.24
 90
        1
 40
0.75
 90
        1
300
%<\AcVar ViewType \f "%tc1">% %<\AcVar ViewSectionStartId>%-%<\AcVar ViewSectionEndId>%\PSCALE %<\AcVar ViewScale \f "%sn">%
 71
     4
 62
   256
 62
   257
300
ANSI31
 40
1.0
 90
        0
290
     0
290
     0
 90
        6
 40
0.0
 40
1.570796326794896
 40
0.2617993877991494
 40
1.308996938995747
 40
-0.2617993877991494
 40
1.832595714594044
  0
ACDBSECTIONVIEWSTYLE
  5
108C
102
{ACAD_XDICTIONARY
360
1CEB
102
}
102
{ACAD_REACTORS
330
EDA
102
}
330
EDA
100
AcDbModelDocViewStyle
 70
     0
  3
Metric50
290
     0
100
AcDbSectionViewStyle
 70
     0
 71
     0
 90
      102
 71
     1
340
11
 62
   256
 40
5.0
340
0
340
0
 62
   256
 40
5.0
300
I, O, Q, S, X, Z
 40
10.0
 90
        0
 40
2.5
 90
        0
 71
     2
340
15
 90
       25
 62
   256
340
15
 90
       50
 62
   256
 40
5.0
 40
2.5
 40
5.0
 71
     3
340
11
 62
   256
 40
5.0
 90
        0
 40
15.0
 90
        1
300
%<\AcVar ViewSectionStartId>%-%<\AcVar ViewSectionEndId>% (%<\AcVar ViewScale \f "%sn">%)
 71
     4
 62
   256
 62
   257
300
ANSI31
 40
1.0
 90
        0
290
     0
290
     0
 90
        6
 40
0.0
 40
1.570796326794896
 40
0.2617993877991494
 40
1.308996938995747
 40
-0.2617993877991494
 40
1.832595714594044
  0
TABLESTYLE
  5
EC5
102
{ACAD_XDICTIONARY
360
F01
102
}
102
{ACAD_REACTORS
330
EC4
102
}
330
EC4
100
AcDbTableStyle
  3
Standard
 70
     0
 71
     0
 40
0.06
 41
0.06
280
     0
281
     0
  7
STANDARD
140
0.18
170
     2
 62
     0
 63
     7
283
     0
274
    -2
284
     1
 64
     0
275
    -2
285
     1
 65
     0
276
    -2
286
     1
 66
     0
277
    -2
287
     1
 67
     0
278
    -2
288
     1
 68
     0
279
    -2
289
     1
 69
     0
  7
STANDARD
140
0.25
170
     5
 62
     0
 63
     7
283
     0
274
    -2
284
     1
 64
     0
275
    -2
285
     1
 65
     0
276
    -2
286
     1
 66
     0
277
    -2
287
     1
 67
     0
278
    -2
288
     1
 68
     0
279
    -2
289
     1
 69
     0
  7
STANDARD
140
0.18
170
     5
 62
     0
 63
     7
283
     0
274
    -2
284
     1
 64
     0
275
    -2
285
     1
 65
     0
276
    -2
286
     1
 66
     0
277
    -2
287
     1
 67
     0
278
    -2
288
     1
 68
     0
279
    -2
289
     1
 69
     0
  0
VISUALSTYLE
  5
EB0
102
{ACAD_XDICTIONARY
360
1CC0
102
}
102
{ACAD_REACTORS
330
EAA
102
}
330
EAA
100
AcDbVisualStyle
  2

 70
     4
 71
     0
 72
     2
 73
     0
 90
        0
 40
-0.6
 41
-30.0
 62
     5
 63
     7
421
 16777215
 74
     1
 91
        4
 64
     7
 65
   257
 75
     1
175
     1
 42
1.0
 92
        0
 66
   257
 43
1.0
 76
     1
 77
     6
 78
     2
 67
     7
 79
     5
170
     0
171
     0
290
     0
174
     0
 93
        1
 44
0.0
173
     0
291
     0
 45
0.0
1001
ACAD
1000
AcDbSavedByObjectVersion
1070
     0
  0
VISUALSTYLE
  5
EAF
102
{ACAD_XDICTIONARY
360
1CBE
102
}
102
{ACAD_REACTORS
330
EAA
102
}
330
EAA
100
AcDbVisualStyle
  2

 70
     7
 71
     1
 72
     0
 73
     1
 90
        0
 40
-0.6
 41
-30.0
 62
     5
 63
     7
421
 16777215
 74
     0
 91
        4
 64
     7
 65
   257
 75
     1
175
     1
 42
1.0
 92
        8
 66
     7
 43
1.0
 76
     1
 77
     6
 78
     2
 67
     7
 79
     5
170
     0
171
     0
290
     0
174
     0
 93
        1
 44
0.0
173
     0
291
     1
 45
0.0
1001
ACAD
1000
AcDbSavedByObjectVersion
1070
     0
  0
VISUALSTYLE
  5
EB6
102
{ACAD_XDICTIONARY
360
1CCC
102
}
102
{ACAD_REACTORS
330
EAA
102
}
330
EAA
100
AcDbVisualStyle
  2

 70
    12
 71
     2
 72
     2
 73
     0
 90
        0
 40
-0.6
 41
-30.0
 62
     5
 63
     7
421
 16777215
 74
     1
 91
        4
 64
     7
 65
   257
 75
     1
175
     1
 42
1.0
 92
        8
 66
     7
 43
1.0
 76
     1
 77
     6
 78
     2
 67
     7
 79
     5
170
     0
171
     0
290
     0
174
     0
 93
        1
 44
50.0
173
     0
291
     1
 45
0.0
1001
ACAD
1000
AcDbSavedByObjectVersion
1070
     0
  0
VISUALSTYLE
  5
EBA
102
{ACAD_XDICTIONARY
360
1CD4
102
}
102
{ACAD_REACTORS
330
EAA
102
}
330
EAA
100
AcDbVisualStyle
  2

 70
    16
 71
     2
 72
     2
 73
     3
 90
        0
 40
-0.6
 41
-30.0
 62
     5
 63
     8
421
  8421504
 74
     1
 91
        4
 64
     7
 65
   257
 75
     1
175
     1
 42
1.0
 92
        8
 66
     8
424
  8421504
 43
1.0
 76
     1
 77
     6
 78
     2
 67
     7
 79
     5
170
     0
171
     0
290
     0
174
     0
 93
        1
 44
0.0
173
     0
291
     1
 45
0.0
1001
ACAD
1000
AcDbSavedByObjectVersion
1070
     0
  0
VISUALSTYLE
  5
EB3
102
{ACAD_XDICTIONARY
360
1CC6
102
}
102
{ACAD_REACTORS
330
EAA
102
}
330
EAA
100
AcDbVisualStyle
  2

 70
     9
 71
     3
 72
     2
 73
     0
 90
        0
 40
-0.6
 41
-30.0
 62
     5
 63
     7
421
 16777215
 74
     2
 91
        2
 64
     7
 65
   257
 75
     1
175
     1
 42
179.0
 92
        8
 66
     7
 43
1.0
 76
     1
 77
     6
 78
     2
 67
     7
 79
     3
170
     0
171
     0
290
     0
174
     0
 93
        1
 44
0.0
173
     0
291
     0
 45
0.0
1001
ACAD
1000
AcDbSavedByObjectVersion
1070
     0
  0
VISUALSTYLE
  5
EB5
102
{ACAD_XDICTIONARY
360
1CCA
102
}
102
{ACAD_REACTORS
330
EAA
102
}
330
EAA
100
AcDbVisualStyle
  2

 70
    11
 71
     2
 72
     2
 73
     0
 90
        0
 40
-0.6
 41
-30.0
 62
     5
 63
     7
421
 16777215
 74
     1
 91
        4
 64
     7
 65
   257
 75
     1
175
     1
 42
1.0
 92
        8
 66
     7
 43
1.0
 76
     1
 77
     6
 78
     2
 67
     7
 79
     5
170
     0
171
     0
290
     0
174
     0
 93
        1
 44
-50.0
173
     0
291
     1
 45
0.0
1001
ACAD
1000
AcDbSavedByObjectVersion
1070
     0
  0
VISUALSTYLE
  5
EC2
102
{ACAD_XDICTIONARY
360
1CE4
102
}
102
{ACAD_REACTORS
330
EAA
102
}
330
EAA
100
AcDbVisualStyle
  2

 70
    22
 71
     2
 72
     2
 73
     0
 90
        0
 40
-0.6
 41
-30.0
 62
     5
 63
     7
421
 16777215
 74
     1
 91
        4
 64
     7
 65
   257
 75
     1
175
     1
 42
1.0
 92
        8
 66
     7
 43
1.0
 76
     1
 77
     6
 78
     2
 67
     7
 79
     5
170
     0
171
     0
290
     0
174
     0
 93
        1
 44
0.0
173
     0
291
     1
 45
0.0
1001
ACAD
1000
AcDbSavedByObjectVersion
1070
     0
  0
VISUALSTYLE
  5
EB9
102
{ACAD_XDICTIONARY
360
1CD2
102
}
102
{ACAD_REACTORS
330
EAA
102
}
330
EAA
100
AcDbVisualStyle
  2

 70
    15
 71
     2
 72
     2
 73
     0
 90
        0
 40
-0.6
 41
-30.0
 62
     5
 63
     7
421
 16777215
 74
     1
 91
        4
 64
     7
 65
   257
 75
     1
175
     1
 42
1.0
 92
        8
 66
     7
 43
1.0
 76
     1
 77
     6
 78
     2
 67
     7
 79
     5
170
     0
171
     0
290
     0
174
     0
 93
        1
 44
0.0
173
     0
291
     1
 45
0.0
1001
ACAD
1000
AcDbSavedByObjectVersion
1070
     0
  0
VISUALSTYLE
  5
EAB
102
{ACAD_XDICTIONARY
360
1CB6
102
}
102
{ACAD_REACTORS
330
EAA
102
}
330
EAA
100
AcDbVisualStyle
  2

 70
     0
 71
     2
 72
     1
 73
     1
 90
        2
 40
-0.6
 41
30.0
 62
     5
 63
     7
421
 16777215
 74
     0
 91
        0
 64
     7
 65
   257
 75
     1
175
     1
 42
1.0
 92
        8
 66
     7
 43
1.0
 76
     1
 77
     6
 78
     2
 67
     7
 79
     5
170
     0
171
     0
290
     0
174
     0
 93
       13
 44
0.0
173
     0
291
     1
 45
0.0
1001
ACAD
1000
AcDbSavedByObjectVersion
1070
     0
  0
VISUALSTYLE
  5
EAC
102
{ACAD_XDICTIONARY
360
1CB8
102
}
102
{ACAD_REACTORS
330
EAA
102
}
330
EAA
100
AcDbVisualStyle
  2

 70
     1
 71
     2
 72
     1
 73
     1
 90
        2
 40
-0.6
 41
30.0
 62
     5
 63
     7
421
 16777215
 74
     1
 91
        0
 64
     7
 65
   257
 75
     1
175
     1
 42
1.0
 92
        0
 66
   257
 43
1.0
 76
     1
 77
     6
 78
     2
 67
     7
 79
     5
170
     0
171
     0
290
     0
174
     0
 93
       13
 44
0.0
173
     0
291
     1
 45
0.0
1001
ACAD
1000
AcDbSavedByObjectVersion
1070
     0
  0
VISUALSTYLE
  5
EAD
102
{ACAD_XDICTIONARY
360
1CBA
102
}
102
{ACAD_REACTORS
330
EAA
102
}
330
EAA
100
AcDbVisualStyle
  2

 70
     2
 71
     2
 72
     2
 73
     1
 90
        2
 40
-0.6
 41
30.0
 62
     5
 63
     7
421
 16777215
 74
     0
 91
        0
 64
     7
 65
   257
 75
     1
175
     1
 42
1.0
 92
        0
 66
     7
 43
1.0
 76
     1
 77
     6
 78
     2
 67
     7
 79
     5
170
     0
171
     0
290
     0
174
     0
 93
       13
 44
0.0
173
     0
291
     1
 45
0.0
1001
ACAD
1000
AcDbSavedByObjectVersion
1070
     0
  0
VISUALSTYLE
  5
EAE
102
{ACAD_XDICTIONARY
360
1CBC
102
}
102
{ACAD_REACTORS
330
EAA
102
}
330
EAA
100
AcDbVisualStyle
  2

 70
     3
 71
     2
 72
     2
 73
     1
 90
        2
 40
-0.6
 41
30.0
 62
     5
 63
     7
421
 16777215
 74
     1
 91
        0
 64
     7
 65
   257
 75
     1
175
     1
 42
1.0
 92
        0
 66
   257
 43
1.0
 76
     1
 77
     6
 78
     2
 67
     7
 79
     5
170
     0
171
     0
290
     0
174
     0
 93
       13
 44
0.0
173
     0
291
     1
 45
0.0
1001
ACAD
1000
AcDbSavedByObjectVersion
1070
     0
  0
VISUALSTYLE
  5
EB2
102
{ACAD_XDICTIONARY
360
1CC4
102
}
102
{ACAD_REACTORS
330
EAA
102
}
330
EAA
100
AcDbVisualStyle
  2

 70
     6
 71
     1
 72
     2
 73
     2
 90
        0
 40
-0.6
 41
-30.0
 62
     5
 63
     7
421
 16777215
 74
     2
 91
        2
 64
     7
 65
   257
 75
     2
175
     1
 42
40.0
 92
        0
 66
   257
 43
1.0
 76
     1
 77
     6
 78
     2
 67
     7
 79
     3
170
     0
171
     0
290
     0
174
     0
 93
        1
 44
0.0
173
     0
291
     0
 45
0.0
1001
ACAD
1000
AcDbSavedByObjectVersion
1070
     0
  0
VISUALSTYLE
  5
EC0
102
{ACAD_XDICTIONARY
360
1CE0
102
}
102
{ACAD_REACTORS
330
EAA
102
}
330
EAA
100
AcDbVisualStyle
  2

 70
    20
 71
     2
 72
     2
 73
     0
 90
        0
 40
-0.6
 41
-30.0
 62
     5
 63
     7
421
 16777215
 74
     1
 91
        4
 64
     7
 65
   257
 75
     1
175
     1
 42
1.0
 92
       10
 66
     7
 43
1.0
 76
     1
 77
     6
 78
     2
 67
     7
 79
     5
170
     0
171
     0
290
     0
174
     0
 93
        1
 44
0.0
173
     0
291
     1
 45
0.0
1001
ACAD
1000
AcDbSavedByObjectVersion
1070
     0
  0
VISUALSTYLE
  5
EB8
102
{ACAD_XDICTIONARY
360
1CD0
102
}
102
{ACAD_REACTORS
330
EAA
102
}
330
EAA
100
AcDbVisualStyle
  2

 70
    14
 71
     2
 72
     2
 73
     0
 90
        0
 40
-0.6
 41
-30.0
 62
     5
 63
     7
421
 16777215
 74
     1
 91
        4
 64
     7
 65
   257
 75
     7
175
     7
 42
1.0
 92
        8
 66
     7
 43
1.0
 76
     1
 77
     6
 78
     2
 67
     7
 79
     5
170
     0
171
     0
290
     0
174
     0
 93
        1
 44
0.0
173
     0
291
     1
 45
0.0
1001
ACAD
1000
AcDbSavedByObjectVersion
1070
     0
  0
VISUALSTYLE
  5
EC1
102
{ACAD_XDICTIONARY
360
1CE2
102
}
102
{ACAD_REACTORS
330
EAA
102
}
330
EAA
100
AcDbVisualStyle
  2

 70
    21
 71
     2
 72
     2
 73
     0
 90
        0
 40
-0.6
 41
-30.0
 62
     5
 63
     7
421
 16777215
 74
     1
 91
        4
 64
     7
 65
   257
 75
     1
175
     1
 42
1.0
 92
        9
 66
     7
 43
1.0
 76
     1
 77
     6
 78
     2
 67
     7
 79
     5
170
     0
171
     0
290
     0
174
     0
 93
        1
 44
0.0
173
     0
291
     1
 45
0.0
1001
ACAD
1000
AcDbSavedByObjectVersion
1070
     0
  0
VISUALSTYLE
  5
EB4
102
{ACAD_XDICTIONARY
360
1CC8
102
}
102
{ACAD_REACTORS
330
EAA
102
}
330
EAA
100
AcDbVisualStyle
  2

 70
     8
 71
     2
 72
     3
 73
     0
 90
        2
 40
-0.6
 41
30.0
 62
     5
 63
     7
421
 16777215
 74
     0
 91
        0
 64
     7
 65
   257
 75
     1
175
     1
 42
1.0
 92
        8
 66
   257
 43
1.0
 76
     1
 77
     6
 78
     2
 67
     7
 79
     3
170
     0
171
     0
290
     0
174
     0
 93
       13
 44
0.0
173
     0
291
     0
 45
0.0
1001
ACAD
1000
AcDbSavedByObjectVersion
1070
     0
  0
VISUALSTYLE
  5
EBF
102
{ACAD_XDICTIONARY
360
1CDE
102
}
102
{ACAD_REACTORS
330
EAA
102
}
330
EAA
100
AcDbVisualStyle
  2

 70
    27
 71
     2
 72
     2
 73
     1
 90
        2
 40
-0.6
 41
30.0
 62
     5
 63
     7
421
 16777215
 74
     0
 91
        4
 64
     7
 65
   257
 75
     1
175
     1
 42
1.0
 92
        8
 66
   257
 43
1.0
 76
     1
 77
     6
 78
     2
 67
     8
425
  7895160
 79
     3
170
     0
171
     0
290
     0
174
     0
 93
        5
 44
0.0
173
     0
291
     0
 45
0.0
1001
ACAD
1000
AcDbSavedByObjectVersion
1070
     0
  0
VISUALSTYLE
  5
EBE
102
{ACAD_XDICTIONARY
360
1CDC
102
}
102
{ACAD_REACTORS
330
EAA
102
}
330
EAA
100
AcDbVisualStyle
  2

 70
    26
 71
     2
 72
     2
 73
     1
 90
        2
 40
-0.6
 41
30.0
 62
     5
 63
     7
421
 16777215
 74
     1
 91
        2
 64
     7
 65
   257
 75
     2
175
     1
 42
1.0
 92
        8
 66
   257
 43
1.0
 76
     1
 77
     6
 78
     2
 67
     7
 79
     3
170
     0
171
     0
290
     0
174
     0
 93
        5
 44
0.0
173
     0
291
     0
 45
0.0
1001
ACAD
1000
AcDbSavedByObjectVersion
1070
     0
  0
VISUALSTYLE
  5
EBB
102
{ACAD_XDICTIONARY
360
1CD6
102
}
102
{ACAD_REACTORS
330
EAA
102
}
330
EAA
100
AcDbVisualStyle
  2

 70
    23
 71
     2
 72
     2
 73
     3
 90
        0
 40
-0.6
 41
-30.0
 62
     5
 63
     7
421
 16777215
 74
     2
 91
        2
 64
     7
 65
     7
 75
     1
175
     1
 42
40.0
 92
        8
 66
     7
 43
1.0
 76
     1
 77
     6
 78
     2
 67
     7
 79
     3
170
     0
171
     0
290
     0
174
     0
 93
        1
 44
0.0
173
     0
291
     0
 45
0.0
1001
ACAD
1000
AcDbSavedByObjectVersion
1070
     0
  0
VISUALSTYLE
  5
EBC
102
{ACAD_XDICTIONARY
360
1CD8
102
}
102
{ACAD_REACTORS
330
EAA
102
}
330
EAA
100
AcDbVisualStyle
  2

 70
    24
 71
     1
 72
     2
 73
     2
 90
        0
 40
-0.6
 41
-30.0
 62
     5
 63
     7
421
 16777215
 74
     2
 91
        2
 64
     7
 65
     7
 75
     1
175
     1
 42
40.0
 92
       11
 66
     7
 43
1.0
 76
     1
 77
     6
 78
     2
 67
     7
 79
     6
170
     0
171
     0
290
     0
174
     0
 93
        1
 44
0.0
173
     0
291
     0
 45
0.0
1001
ACAD
1000
AcDbSavedByObjectVersion
1070
     0
  0
VISUALSTYLE
  5
EB7
102
{ACAD_XDICTIONARY
360
1CCE
102
}
102
{ACAD_REACTORS
330
EAA
102
}
330
EAA
100
AcDbVisualStyle
  2

 70
    13
 71
     2
 72
     2
 73
     0
 90
        0
 40
-0.6
 41
-30.0
 62
     5
 63
     7
421
 16777215
 74
     1
 91
        4
 64
     7
 65
   257
 75
     1
175
     1
 42
1.0
 92
       12
 66
     7
 43
1.0
 76
     1
 77
     6
 78
     2
 67
     7
 79
     5
170
     0
171
     0
290
     0
174
     0
 93
        1
 44
0.0
173
     0
291
     1
 45
0.0
1001
ACAD
1000
AcDbSavedByObjectVersion
1070
     0
  0
VISUALSTYLE
  5
EB1
102
{ACAD_XDICTIONARY
360
1CC2
102
}
102
{ACAD_REACTORS
330
EAA
102
}
330
EAA
100
AcDbVisualStyle
  2

 70
     5
 71
     0
 72
     2
 73
     0
 90
        0
 40
-0.6
 41
-30.0
 62
     5
 63
     7
421
 16777215
 74
     1
 91
        4
 64
     7
 65
   257
 75
     1
175
     1
 42
1.0
 92
        0
 66
   257
 43
1.0
 76
     1
 77
     6
 78
     2
 67
     7
 79
     3
170
     0
171
     0
290
     0
174
     0
 93
        1
 44
0.0
173
     0
291
     0
 45
0.0
1001
ACAD
1000
AcDbSavedByObjectVersion
1070
     0
  0
VISUALSTYLE
  5
EBD
102
{ACAD_XDICTIONARY
360
1CDA
102
}
102
{ACAD_REACTORS
330
EAA
102
}
330
EAA
100
AcDbVisualStyle
  2

 70
    25
 71
     2
 72
     2
 73
     1
 90
        1
 40
0.5
 41
-30.0
 62
     5
 63
     7
421
 16777215
 74
     1
 91
        0
 64
     7
 65
   257
 75
     1
175
     1
 42
1.0
 92
        8
 66
     7
 43
1.0
 76
     1
 77
     6
 78
     2
 67
     7
 79
     3
170
     0
171
     0
290
     0
174
     0
 93
       13
 44
0.0
173
     0
291
     0
 45
0.0
1001
ACAD
1000
AcDbSavedByObjectVersion
1070
     0
  0
DICTIONARYVAR
  5
EFB
102
{ACAD_REACTORS
330
EF5
102
}
330
EF5
100
DictionaryVariables
280
     0
  1
1:1
  0
DICTIONARYVAR
  5
EF7
102
{ACAD_REACTORS
330
EF5
102
}
330
EF5
100
DictionaryVariables
280
     0
  1
STANDARD
  0
DICTIONARYVAR
  5
EF6
102
{ACAD_REACTORS
330
EF5
102
}
330
EF5
100
DictionaryVariables
280
     0
  1
STANDARD
  0
DICTIONARYVAR
  5
EF8
102
{ACAD_REACTORS
330
EF5
102
}
330
EF5
100
DictionaryVariables
280
     0
  1
Imperial24
  0
DICTIONARYVAR
  5
EF9
102
{ACAD_REACTORS
330
EF5
102
}
330
EF5
100
DictionaryVariables
280
     0
  1
Imperial24
  0
DICTIONARYVAR
  5
EFD
102
{ACAD_REACTORS
330
EF5
102
}
330
EF5
100
DictionaryVariables
280
     0
  1
1
  0
DICTIONARYVAR
  5
EFE
102
{ACAD_REACTORS
330
EF5
102
}
330
EF5
100
DictionaryVariables
280
     0
  1
15
  0
DICTIONARYVAR
  5
EFC
102
{ACAD_REACTORS
330
EF5
102
}
330
EF5
100
DictionaryVariables
280
     0
  1
0
  0
DICTIONARYVAR
  5
1CB1
102
{ACAD_REACTORS
330
EF5
102
}
330
EF5
100
DictionaryVariables
280
     0
  1
1.570796
  0
DICTIONARYVAR
  5
1CB2
102
{ACAD_REACTORS
330
EF5
102
}
330
EF5
100
DictionaryVariables
280
     0
  1
1.570796
  0
DICTIONARYVAR
  5
EFA
102
{ACAD_REACTORS
330
EF5
102
}
330
EF5
100
DictionaryVariables
280
     0
  1
0
  0
DICTIONARYVAR
  5
1CB3
102
{ACAD_REACTORS
330
EF5
102
}
330
EF5
100
DictionaryVariables
280
     0
  1
2
  0
DICTIONARY
  5
1CE9
330
EDD
100
AcDbDictionary
280
     1
281
     1
  3
ACAD_XREC_ROUNDTRIP
360
1CEA
  0
DICTIONARY
  5
1CED
330
108D
100
AcDbDictionary
280
     1
281
     1
  3
ACAD_XREC_ROUNDTRIP
360
1CEE
  0
DICTIONARY
  5
E9B
330
E9A
100
AcDbDictionary
280
     1
281
     1
  3
ACAD_XREC_ROUNDTRIP
360
F53
  3
BUMPTILE
360
E9D
  3
DIFFUSETILE
360
E9C
  3
OPACITYTILE
360
EA0
  3
REFLECTIONTILE
360
E9F
  3
REFRACTIONTILE
360
EA1
  3
SPECULARTILE
360
E9E
  0
DICTIONARY
  5
E93
330
E92
100
AcDbDictionary
280
     1
281
     1
  3
ACAD_XREC_ROUNDTRIP
360
F52
  3
BUMPTILE
360
E95
  3
DIFFUSETILE
360
E94
  3
OPACITYTILE
360
E98
  3
REFLECTIONTILE
360
E97
  3
REFRACTIONTILE
360
E99
  3
SPECULARTILE
360
E96
  0
DICTIONARY
  5
EA3
330
EA2
100
AcDbDictionary
280
     1
281
     1
  3
ACAD_XREC_ROUNDTRIP
360
F54
  3
BUMPTILE
360
EA5
  3
DIFFUSETILE
360
EA4
  3
FBXASSET
360
F3D
  3
OPACITYTILE
360
EA8
  3
REFLECTIONTILE
360
EA7
  3
REFRACTIONTILE
360
EA9
  3
SPECULARTILE
360
EA6
  0
DICTIONARY
  5
1CE7
330
EDB
100
AcDbDictionary
280
     1
281
     1
  3
ACAD_XREC_ROUNDTRIP
360
1CE8
  0
DICTIONARY
  5
1CEB
330
108C
100
AcDbDictionary
280
     1
281
     1
  3
ACAD_XREC_ROUNDTRIP
360
1CEC
  0
DICTIONARY
  5
F01
330
EC5
100
AcDbDictionary
280
     1
281
     1
  3
ACAD_ROUNDTRIP_2008_TABLESTYLE_CELLSTYLEMAP
360
1CB4
  3
ACAD_XREC_ROUNDTRIP
360
1CE6
  0
DICTIONARY
  5
1CC0
330
EB0
100
AcDbDictionary
280
     1
281
     1
  3
ACAD_XREC_ROUNDTRIP
360
1CC1
  0
DICTIONARY
  5
1CBE
330
EAF
100
AcDbDictionary
280
     1
281
     1
  3
ACAD_XREC_ROUNDTRIP
360
1CBF
  0
DICTIONARY
  5
1CCC
330
EB6
100
AcDbDictionary
280
     1
281
     1
  3
ACAD_XREC_ROUNDTRIP
360
1CCD
  0
DICTIONARY
  5
1CD4
330
EBA
100
AcDbDictionary
280
     1
281
     1
  3
ACAD_XREC_ROUNDTRIP
360
1CD5
  0
DICTIONARY
  5
1CC6
330
EB3
100
AcDbDictionary
280
     1
281
     1
  3
ACAD_XREC_ROUNDTRIP
360
1CC7
  0
DICTIONARY
  5
1CCA
330
EB5
100
AcDbDictionary
280
     1
281
     1
  3
ACAD_XREC_ROUNDTRIP
360
1CCB
  0
DICTIONARY
  5
1CE4
330
EC2
100
AcDbDictionary
280
     1
281
     1
  3
ACAD_XREC_ROUNDTRIP
360
1CE5
  0
DICTIONARY
  5
1CD2
330
EB9
100
AcDbDictionary
280
     1
281
     1
  3
ACAD_XREC_ROUNDTRIP
360
1CD3
  0
DICTIONARY
  5
1CB6
330
EAB
100
AcDbDictionary
280
     1
281
     1
  3
ACAD_XREC_ROUNDTRIP
360
1CB7
  0
DICTIONARY
  5
1CB8
330
EAC
100
AcDbDictionary
280
     1
281
     1
  3
ACAD_XREC_ROUNDTRIP
360
1CB9
  0
DICTIONARY
  5
1CBA
330
EAD
100
AcDbDictionary
280
     1
281
     1
  3
ACAD_XREC_ROUNDTRIP
360
1CBB
  0
DICTIONARY
  5
1CBC
330
EAE
100
AcDbDictionary
280
     1
281
     1
  3
ACAD_XREC_ROUNDTRIP
360
1CBD
  0
DICTIONARY
  5
1CC4
330
EB2
100
AcDbDictionary
280
     1
281
     1
  3
ACAD_XREC_ROUNDTRIP
360
1CC5
  0
DICTIONARY
  5
1CE0
330
EC0
100
AcDbDictionary
280
     1
281
     1
  3
ACAD_XREC_ROUNDTRIP
360
1CE1
  0
DICTIONARY
  5
1CD0
330
EB8
100
AcDbDictionary
280
     1
281
     1
  3
ACAD_XREC_ROUNDTRIP
360
1CD1
  0
DICTIONARY
  5
1CE2
330
EC1
100
AcDbDictionary
280
     1
281
     1
  3
ACAD_XREC_ROUNDTRIP
360
1CE3
  0
DICTIONARY
  5
1CC8
330
EB4
100
AcDbDictionary
280
     1
281
     1
  3
ACAD_XREC_ROUNDTRIP
360
1CC9
  0
DICTIONARY
  5
1CDE
330
EBF
100
AcDbDictionary
280
     1
281
     1
  3
ACAD_XREC_ROUNDTRIP
360
1CDF
  0
DICTIONARY
  5
1CDC
330
EBE
100
AcDbDictionary
280
     1
281
     1
  3
ACAD_XREC_ROUNDTRIP
360
1CDD
  0
DICTIONARY
  5
1CD6
330
EBB
100
AcDbDictionary
280
     1
281
     1
  3
ACAD_XREC_ROUNDTRIP
360
1CD7
  0
DICTIONARY
  5
1CD8
330
EBC
100
AcDbDictionary
280
     1
281
     1
  3
ACAD_XREC_ROUNDTRIP
360
1CD9
  0
DICTIONARY
  5
1CCE
330
EB7
100
AcDbDictionary
280
     1
281
     1
  3
ACAD_XREC_ROUNDTRIP
360
1CCF
  0
DICTIONARY
  5
1CC2
330
EB1
100
AcDbDictionary
280
     1
281
     1
  3
ACAD_XREC_ROUNDTRIP
360
1CC3
  0
DICTIONARY
  5
1CDA
330
EBD
100
AcDbDictionary
280
     1
281
     1
  3
ACAD_XREC_ROUNDTRIP
360
1CDB
  0
XRECORD
  5
1CEA
102
{ACAD_REACTORS
330
1CE9
102
}
330
1CE9
100
AcDbXrecord
280
     1
102
DISPLAYNAME
  1
Imperial24
102
FLAGS
 90
        0
  0
XRECORD
  5
1CEE
102
{ACAD_REACTORS
330
1CED
102
}
330
1CED
100
AcDbXrecord
280
     1
102
DISPLAYNAME
  1
Metric50
102
FLAGS
 90
        0
  0
XRECORD
  5
F53
102
{ACAD_REACTORS
330
E9B
102
}
330
E9B
100
AcDbXrecord
280
     1
102
MATERIAL
148
0.0
149
0.0
149
0.0
 93
        0
 94
      127
282
     0
 72
     0
 77
     0
171
     0
175
     0
179
     0
273
     0
  0
XRECORD
  5
E9D
102
{ACAD_REACTORS
330
E9B
102
}
330
E9B
100
AcDbXrecord
280
     1
270
     1
271
     1
  0
XRECORD
  5
E9C
102
{ACAD_REACTORS
330
E9B
102
}
330
E9B
100
AcDbXrecord
280
     1
270
     1
271
     1
  0
XRECORD
  5
EA0
102
{ACAD_REACTORS
330
E9B
102
}
330
E9B
100
AcDbXrecord
280
     1
270
     1
271
     1
  0
XRECORD
  5
E9F
102
{ACAD_REACTORS
330
E9B
102
}
330
E9B
100
AcDbXrecord
280
     1
270
     1
271
     1
  0
XRECORD
  5
EA1
102
{ACAD_REACTORS
330
E9B
102
}
330
E9B
100
AcDbXrecord
280
     1
270
     1
271
     1
  0
XRECORD
  5
E9E
102
{ACAD_REACTORS
330
E9B
102
}
330
E9B
100
AcDbXrecord
280
     1
270
     1
271
     1
  0
XRECORD
  5
F52
102
{ACAD_REACTORS
330
E93
102
}
330
E93
100
AcDbXrecord
280
     1
102
MATERIAL
148
0.0
149
0.0
149
0.0
 93
        0
 94
      127
282
     0
 72
     0
 77
     0
171
     0
175
     0
179
     0
273
     0
  0
XRECORD
  5
E95
102
{ACAD_REACTORS
330
E93
102
}
330
E93
100
AcDbXrecord
280
     1
270
     1
271
     1
  0
XRECORD
  5
E94
102
{ACAD_REACTORS
330
E93
102
}
330
E93
100
AcDbXrecord
280
     1
270
     1
271
     1
  0
XRECORD
  5
E98
102
{ACAD_REACTORS
330
E93
102
}
330
E93
100
AcDbXrecord
280
     1
270
     1
271
     1
  0
XRECORD
  5
E97
102
{ACAD_REACTORS
330
E93
102
}
330
E93
100
AcDbXrecord
280
     1
270
     1
271
     1
  0
XRECORD
  5
E99
102
{ACAD_REACTORS
330
E93
102
}
330
E93
100
AcDbXrecord
280
     1
270
     1
271
     1
  0
XRECORD
  5
E96
102
{ACAD_REACTORS
330
E93
102
}
330
E93
100
AcDbXrecord
280
     1
270
     1
271
     1
  0
XRECORD
  5
F54
102
{ACAD_REACTORS
330
EA3
102
}
330
EA3
100
AcDbXrecord
280
     1
102
MATERIAL
148
0.0
149
0.0
149
0.0
 93
        0
 94
      127
282
     0
 72
     0
 77
     0
171
     0
175
     0
179
     0
273
     0
  0
XRECORD
  5
EA5
102
{ACAD_REACTORS
330
EA3
102
}
330
EA3
100
AcDbXrecord
280
     1
270
     1
271
     1
  0
XRECORD
  5
EA4
102
{ACAD_REACTORS
330
EA3
102
}
330
EA3
100
AcDbXrecord
280
     1
270
     1
271
     1
  0
XRECORD
  5
F3D
102
{ACAD_REACTORS
330
EA3
102
}
330
EA3
100
AcDbXrecord
280
     1
 70
     1
 90
652598616
 71
     1
  1
31A27550-6A4B-43FF-ABCE-504FF8C029B2
311
504B0304140006080800BD818E508B219AFF34010000A80100004F00000038374141353944322D363745442D344534302D414137332D3639414636383843413734452F4173736574446174612F446566696E6974696F6E4974657261746F7250726F706572746965732E62696E4550394E0331143529401414481C609068CD
311
381ECF6224C4781653D1C001226730492467B278461434699072035A6A3AEEC01DE012206E00DF21214F7AFEABFF7FF61221F4B306B86807B880F300ECA5AEF57C54DD54433D5668D765CCA4AFCC09783248584839C521EFE6989594E32C2F191619E1841216F2A2E840DF1EB0D077AA358D1B7935B2953646D57AD2DA4348
311
AC777863D5C02E654EDDA57D849C5900D1A660DDA4C19F2227F21EA86EA76717CA5ADD9CFB492C042CA5388ACB020431828588031C7121A324C945CC4AFF5ADB493BAFB4F583AEA07118121C099661164809D2F31287844999E484F28CFACDB0755F73E464F46B35323EF1D7127AD37A20BF66299436483B659342B0787A9F
311
39BB8293EAF09DBD7EF4DCA3B6F01E8F57FD1E7F99A5DB347AFE64D6C5DEDBC3F43FFF0B504B0304140006080800BD818E5000806D23FC000000300200004500000038374141353944322D363745442D344534302D414137332D3639414636383843413734452F4173736574446174612F496E7374616E636550726F706572
311
746965732E62696EEB606060F80F0540260323103700495E20ED9E9A975A94991C9C9C919A9BA802143036743432373535D035733471D235317673D375747276D53535307173B3703630B2743262476884683171713532B5D435353131D635313332D475727372D13534373670367376B67474B504EA00DBCBA019D37FE8AB
311
C6157B20CD04146B0062181F4C03F940F0C11EA29A8141C08141002C0426541C106CAC2CA046088033B02A030AC2157C6006F21A8018AAF50194E6010A610250382264E08660284CD9E98021862280A91564B406929A0FF62C401E28B6F88038B83CB1243943D7A928312F25350524830E4257FD5F158A2E08E6E392095D75
311
B5411B430700504B0304140006080800BD818E5088E57597CD3F0000904100006B00000038374141353944322D363745442D344534302D414137332D3639414636383843413734452F5265736F75726365732F33314132373535302D364134422D343346462D414243452D3530344646384330323942322F7468756D626E61
311
696C2F302F67656E657269635F706E67355B773CD4FF1FBF73E71C0E67EF7576C9DEF3EC995D46C6A1EC5046649CBDF79E192942562825CE965D8A868C2842C8DE9FDFD1F7E7F138F7078FCF6B3F5FCFD7EBFDFEC41B196891913091804020321D6D7513FC77D8C5070EC3FFEE51B21F068154CC75D455CC028A3EA6899280
311
3810109FDDE5D5CEC5521B28A1B422BF80741695D5B529DA1C2D058AD2388BDA9F476F7C2CADC939304173DBF48A452BF8A700C0C70C3D121C1AA15A5270C22E2B9E28763651F7DA0D12CE11077B2ECD0D560B5E3DE2368B1E65C5E1C87384A4CC5F2D9FB8BE39E9B77C753783A37998F5CEF1B4FEE553463245C971227088
311
0DF339E0B882A6BA713D865F6F384C842D440934EF264F4A304F8DE4EEFA1E2BF5E2D91F5ADD9613D6E31DDB33ED31DB1D7916CAF091286EA3D31B9CFECB78BB0060245B943C4C040119FF780A74DD308BA9D028678674EB5504ECF284EE814DAED07440BAF649BE4B55DA2890F4D73E2D489A59EE54FDB0A85B59F2F52C48
311
58A02705C4815A792B0C4A996A2023ECB195073E115E3E3647F64243A8338F2000BCB58DA5692C7E7C3D413F963FEDF3CF00FBB0F831A9D51360FECA43819F527B89FA260EB63C5DA676830AA3626A3693B23F1A17A0DFFCE3EE164E31B5365EDF0C89EF64D8E38AB0BA9A1117D7C3A0EC44F44F4023095E80BA610DE336D0
311
F99593A88BFC5306E72DF98F7FD132ED95878DF2964EA7E43071359FD83B2BDF9C6B5BDF768F0F3C0FC351199526F53D9460A34511F75D1B63E488178569472C91A94497807A3FD4A390C6558F26D416365C3656DE6E769DA9D8FC73774E1709812842DD8EF96AED1960F79D21B395CDDFE6F92CB4EB962A4668C76990E2EF
311
29798C8941D67DA50F4A5F947872460F1F6FDB794E8A29FD7AC0C0D6E0714339CE258FB17AE8535221E3464A10F29A0BE5EEECEFC5675926A89F49EB14E5711894F6586DB5754EB4D5DA9C6437EBA57DB97A24F8B8A8DB295FFD73266CF57E82694DF5166DDF93573AFE9C9C5EB05F8FEF8E89E0A8917B0B3724DB7BEBB532
311
52581EFC3E38166BA131A3A5B42FE2AD00A769BBFA4458D2DE7822F8C4F63D0B8E21B285AE13325F3410A435C648C9D91FDEB109E73CEDA7BC796961AF79175E1A3CE4C5E8B0D009B0C9E29EFD98BC8E97554E3D8D838424E270F7685226E5AC268E021EDE3522D583E8F20C0BDE2959EF5BBFEEDAB32FE9A3ED0E39F211A8
311
6AA9DEBFC68182EDED132AB8BB794442D2D7EA9F4D8BFF52BC4D55BB165124EE90A42D101E67BBBB292FFB4F66DE5BF2300E44546757DA7CEF8932BFC9F92A0707953491A55C5A5ACEDABD9FA1AEA01BAC3DC5A24E22E7C47213493996EFBC369D086ED9397C9BA6C7F9855C7BD5E15BFC8C53DB3D2A4C5901A57ACD2FBDF4
311
D1676E95338B2C2BCE65FDA4C64F5FEFDC7D9CA5AA1FCF11E193F2FDABF0F4916BF13FB916A224380E6462A9815F2300DC49CC4DF8D055CEF76462F4B7A7ACA7365C2707891370BC1D0AA6203C44CCAB47084FEC057F27FFCD57F89B8B9852459798A675C66BD7CE572CAF71FF7E6D7ECF7BF62CAB7B3F1107DCD04DC55A3F
311
9961700286141C94A4F771FEB2BCDA2DDEE0CB0BAE402FF1DB0100F8E475DFFFC074DDB4498AB7D186A7654DDB1CB680D703D47CEB4E72F8CB13D86A4AA68116E26387B93FD6738779B34FEDB8E517EDF2BAF28D9BE93A1D3A164320E07D42E514725C29515FF361754213EDE06B079A2E99EB1CA82A02019EADEEB87B9AF0
311
05BD04BBCECB14AACD6B24EFBE482194A97DD32400685FF1FEF1544D1B14EFB1E7F08E6D2CD2AF52DE757F35F5E62332EE88EA26417AD5C3E0E319D68F25414E6D672BD4522B278C57D18F0113921C71D96527E091F00CEB15AE23D24667369BD3CEFA10C7549D930890BA4366F4EBC55F01F746109F98ABCDD5A3EE06619C
311
6AD78AB33E48E4C9BD21BF7478B385EC05C4F8987E2C1BFA0A60EBEDAA0AE0B015C2720ECE180FB6F2DEFBEB822D96338C9B63822183BBF52FB664A7AE57003AABCE512BF77E7E31BDA2E739AC4C131657DDFE5225E900FB56CC01CDE808FA4A9C9DA16AC679656BB64796283D89812B8F91136AE18EE5EBBAF47A73BE3C15
311
3EB5D4CD491B4BFB4FE690A4CF9ABA08C0D8AA64220C438C96EA6CA80B58FE5761E697B3A292EB9FBDA502FA863E49FE694ADDFFF9D62C520BDD1A22014147A0903A05B9B729F54272EF83931FEEC057BFF8C8055C279EAC5C0011804828734024F6CFA319C9CC6867C727184465CD9BB7ED386AFFD96B294A85E3802FAE47
311
244602D8273615952B98C4F23F7EAE4463D9D638EEE374A20959E0FE519C4CFB0FBFE5DD80C2AA3F9DB961D1BDE57E67C9BB47B77FDD74EE3094F5DBBE3EBC1FBDB7393F5116263009E2EFE1AF9A221B2AE234C902BF70E9F280ED23E73908361565964333A3F01D0B006AF32FB21AA1316744B489D5A198E85299241735BE
311
559675130955C902A8ED761FC0DBE337A9F91919AF5CE32AF902ADF9AB2615E00E8A94586BA1A90839B61832FF1BFB76D2EFADE6DB1BA04CCAD3DA649E7E2A0219F592E22F2AD54847EEA8E42271011E9074F8F3DD9FBA6CDF88FFC9FC7E811AD1CA8F4557CE4AFC7BBEDCF0114A48689F20A584520C74DA8127124B767E2F
311
B91A6B186246727BE63C9445BAE02088D58B8EFDC0F1072407CD9B89A13F6303B4A928F593AD489B58E6869325790ADC406036C591729FE14021F94B7796BB11848D463536A092A26F077F94639F7CEEE2A724C66EC885F4A24F8B8A0AC321F8FD149BA529460FAA34E4663C02D41FDF80BCA222D42F0ABFF8490F4FA74C67
311
3807C2051D8E467B47B616072860069A9A303ABA9B319D58404461401B0A0F9BE5E1E151C14BC33B32ABE03DDE91708DFAEB15E7C0D593C86BB7D7EC17BE56E57975F077BFD5525F3A1A361D584A75E08CF29FC7B44B2B3085014F3A5A14517377C3F6B8F37E59514C3B12F8AACDEDDA4DFC49BE5710101534CD6FB6DE15B5
311
0F11A09472AABA727F0C49D9CB906B158030065F48EB3625E010CEC1D511D0053474B11E6A4F01C0D6EF1BED3A944FDEC70E0DDCDC756C86545910E0DAE3BE3AA9A404574C2995CD5CAF9549226BC94B4F4F0F5F9086F418F6B32346464610D8BC7391D3C3A3CCF04CFC1FB2A3A3170E369511868F14EEA4E5E438CC73DB1F
311
3248AA94B6B2FF33B222FF3D1E7BF146CAD229770158063BCE4F5391964DF62F7E52A7BE0EEA829C9E13C4C147D6F93FE59E111DAB5E4594D6F3CD1AD375EE039930EFE5AF2BB2D41C83C7DABD8C659BAFBE8FAB392CA634F3D15C1D945DB4588D2B0824A4EC928AAC565557CA2F0DAA588CA5BE30B3A8004F7BF005E96CBF
311
891D7F18112A3619FDF530DC8AA64954258E1811789B5189B49B4EB53F5F89F7D37523894F3EB57B373763C91E502F52CC99EB7BDDF933FC324C4FFC2561DFFA7339FAFDD0A4BFBE6D3A8FF9ED1FC49898139864602458968913181918F719CCF5A68B2EE9C1FF050E34E63107003B8120FA982C21B30A874E4F5E4B38D5A8
311
290C4B8D9BE48A0BE31EA995BDC37AC6DE90BA17D259DEF53605D55922FEB1855D915B659FBEB350EE0DFB2F9F766E1C84CC8964B75D08667445EAB966015F63A18A9E0A325C1B3DC628C0D3CB60F767FA93CC65F25458BD23C3B312716E5F40E5858AC06EBA9AB14F95DB99147B832069201541D09A0D856E12C629CF3268
311
3760EE855537D1901988D5EBC156676C7DD51D7207CF3267AF1D76C2AD867315E44618015313A98B19941C696FED3461CAA9B5415F918556D7802EDACEFD6B2E45853A9735DFC9DBF7E440F9319F8B6805A973BCCDC76C069A9144E51F187EDCC12FC31B5DEAAF0A76137199B106EC84ADA6B6EE697D4E6A96E007417F4E88
311
0E8B1E89B4BCE9D81EF611E2ED8F0C1A6C25F620FAFAAB656A7C42D464880E8AFAB0E0FC8EA38CA9A8AEEAEE3E4648BA4680270A89743CDD3E6C6CBF34B7B640EFA285ABC7EA0A1E28F3CC963D114A80123EE66D0AF7D5380EB41909B605AB4765B709B808590458157E69BA1378FEC4B48CAF6A730E3BE3C5EF2DD1A5EAF9
311
4B1DDE50CEB55DDFD7EE9A16747FA4B223359FB1FCC69E1194892BABB93A1D5C4E807AC0EA2E30180811E77A2291F6E7F7FAA5E0F60215BC6024E48DE436C511F0628B8CA189982D4D83CCA17D305A7E923C37941CFDFDCD93ACAF735EF5F0E61BBD3E6C41A59B242790D3A3BAC7064DCD89AA2E37214EC839820949D5CAA3
311
1E240D2948E48F690298974A96BA9A8432BC90F5071D6537C9666EA4564796B7AFFFA548077BEEA75F63083435074BA182F3699557397F71548383FDA8CA34D99B981E72835ECDA5DDDC151315173D05A21F651AAF8524E88209E2E7A737ED1045800CE3390050BCFB8BE588DF111617874C62575039CA588EEFDEFEFE319B
311
739DE2EDC147092A262611E159650E787917885EF08F1F51B8F2D8A71D60B58B190FEF9541A1BE94BC19FEA50784DA1419FE4B0FB51B8D36B5FF8E1286FD8AF42B91E59A5F1CC4D60174E764045FD8C57B18209B217F89A62252BD20BE0E63E12B8E8F029FE19E0E8D0870F58721A557082250D5424F7909369376E41666C0
311
EE77CD87CB283F661D5FB6D0DA023CB67320A20DC7BE661E9E1BFE5463085C557DA1FF9BE835733766C3D139F2CF9E2208873AD0EB4814DE9E6BF2CAF81614D4D43906ED1C05A3265CABBFE192770FC2F64F940CB6B17B5F166F133C9AEEAD2641807C3E69515171DD74C4A85311513D6EC9530B3B601B6BA3EBFF3B5C3D2F
311
7D69765141E345F75433953D013ADDF8F6AA7DC3F4A7563FE5C7D367937E2900D7EAD0F9FC9A4A1A9B5BDF1FEF08532660C01C5D6DE22199AA774383E306DAB87E301ABB7D213887F9869D4942D0D71E94B27EDF216A318BD488D45DF84529EF575AF3C3938C0AAA0215B01994153E2054A0B894DA5C784980633AAD485769
311
57CF4AEAEAFADC7C587368551C73DBE1E57C58AC713303A8BFC258BD04B51724459FF9E24C03A81E0E0679CEB9B348C0DC998FEB9C6D6EFA77D247CC8F92D3848599ED89A23218D0636465AD1CEEB7DC140D7426F83491C4E8E8281C2FB35240918FFECE880CA2A42D70E8B20B34DF5221C7DB0CF90ECCB9C745B37A47E9B7
311
16FF7A97B7A252C1F3814DC7B1E1A7F72B8751D524EF7CAE45B0C73B3BE7D08ED39781B380DDFC9AA4A4749C9493DB5BAD07A6EA6C092FBD0E85DB004DF06B8C9D3089C5320187E4CE1846158C7EA7DDAE8AD9AFFF21AA3A1026BB06A259845E8232DEE62811A4DA9CEAB3A4887320B76E2AE5615EAB7BDF738CBDD01F1E64
311
064BC13D9EC53576751CA8CACD58B3CEB0E6CA585BD089B2A59B9FC101403387AADBDBE70586B93D64BF3AD4453EF9C3B6A93817E8346991798601344F79A83C51F3D50F7BF2683A3605F51A72449489E0EE6169C749C60B1035651103AEE24D24E51A759C840DD3FC6504DA6FE107510E447B43461C79D22970B75DE5E1BD
311
3007D1AFC619A4A4A69B5626AF5E9B8374E20677F77E2F8E73DF868E8BEC7EBA7B6A75EEF7205E1AB9486CB642741D6E03FF13FCCEDB1C4AC129886268B01CDF4B124AF797CF784F3C6DEC97A17D4B558070A0F1C04DA4FF9BDBF34159AEFE958479824B3F58EBD1E19088A2AFDE501B6F2052368A3FD0E650A179EFAB1561
311
E1D27527077136E652676C3670F42DCB3352F48F6BC86D2C3B0051727E41A0A4DC6CE2BE9D47F5CAA2935A3C0539AF080665997194ABECD723B08129CC5B6B21D2E7D54CD4D12610E7E9FB8306771A89576C7A982002775ED44F3F744CF21EEBB27A631671D921938AAEE3EB0D19CD1E083727F607823E817BF599DCED5394
311
E37EEBC2E88782E638920CA641EF74D4CDFCDEF06F4278ECB18E31E7E9876F2D783C8BF429C75395F57E98C2B495A3DA077EB3AC3C158608B6B57FE3EA48484D9A480096FCEE0DE880950E7E5A5714131C5C41AAA29FD19AE81AC145FA1B9E85C7169A5AB837B213493DF7E9AA4B5FBF9CDEB36EBD21EF1181B7CF7366AB2A
311
951D01E37AF4EB835D1BE8C117CFBE7625D2EBCDB0B20C5A4B45CED0BCDE3EE8DA9DA78C2E21DEAAFFD1197E463C33CC6A80FB785669B856EFF7A8CCCA2841B5A5369173320B1170C368B2748D81062EA0296E5E2D95D7667A4A46D98A6FF475C76AAB0A8C8D45E226FAFC9FE0133EA9F60111F99CA81ACE03A1D14C89E8B0
311
D69079C91464FA1D99E651D0EAF606F345C42A8A1AA9BA391031582B96D5B4176A77AADB01F12FD298A75DEEBB2C82F0B8650E880722F8DDD90C56A7A058E5FDEF1AC93545BA27367C76F5D8F9690CB6F8DAE141EDD7971F0FB548A2AE435F224D6E5954CA155512F7332029D5A1230854B79F258EC5FFDB09F5F6343A8EB1
311
93229B7F7E79B3E48F8E183860B38C8269D1B53738FF1E0BACF6AADA6D4869E9DE708E79B5DADCC09B1BC76F649731CFAF59A83FD8BAE4C749D66FA87A3810D4D62FFE826FA400C0F325D2BC0F3CA35F5847B82A2ACC7961745C823E4D863D54460AF792CE6F79B5C7A33B25C3AEA6CDE15A919B6367D781E9D44F61BF8286
311
72594A3E1D9EDD6DF179A81F27EAC05B936575D73E05C209DDD2115CFB705DF9BBF3C911589B3640735E9E618FC9C36A7326C82B2205E244C55D56FDB9D5DC93CE958D4BF8174D2B3DA54CB3C09F2C2A6DFF73D23B2197355761AD421EC581284A7EF8DE2CE3497C0C804D49B41DFD6A7360844E5BEFFB495CFCDB97A45959
311
11CDBA623274CE852B5E278AF0BEB1770E9D37CD977B2766A7DED0E94B840E1E95E8C77DE5CB6354AF7871427C28ADBEEF7BA0A28E19DE9ACD75F379FE373EAE6DDDAE3834692F9C2B03B4FCA8FCA9ABE8EEEBEBB725B88A7C90941E850682CA04061A7DF0CE82ED49BFAFFD42C309818FAE14755CAAE78B0F73243ECCCAD7
311
DF58FCB9CDFAE7A4D3E6671A613639130D056C8383C8F4FCF4808C331E544DD26E4755D09EA05253B3049A1E32587CC25D72E073E2CD96D04A71BBCB0038FEC3F53D254199C3CDC67CD66640269431860225392B2CB3ECD0B4498AAE78BA1994246AE1EE78F2EDFB79F6C6CB6B5E279C4D373FBC21CB2698C9ACBBEB6A4BB6
311
B39E16AB0E421CCBFC7654D81ED86022F9BB522146F9F4772E2D0E4FA70120C95A85A417BF5078B232F4754363EB1750B2AC2148EB46B1EA72AD9B4D23ADCBC589D70106C3EC2ABEEED84DFE28E718C6C83502C28E9FDD3B09DA0A6F6F7B72B706A31C9E2A331EE70DA56A083D2177BFD63C55B11D8D949FAFCF90B23A1E24
311
B9B5018B9A17E99F2890EC302F330FE7936E2C23F0D237EC8916F5166AB84B62A21BB0B950146962D754F92CC2C8877BED8FC7B7B25726DD19545392570B3A2C66B58F027BEF412E552D12A588C4A3CC5C3193FCB3485EFFF700D0B9EEC077754A33DC1FB9E25AF814628F91DDFECB667D3F7690803F38D13F8AE39353523B
311
B08FC6760144AFA2CE28236F65EDBB3D5F59A57D612B99E3D7E5F8A851666BF9B5A6658EFC96EEB37A378ABB0EB3FDDF1303AF32C41BD1C8560745D7BD81066B0D6313359CF488563D3BA3F8E2185D1FAA3EBA1397C9D0E3DD232180A4DCADB6AF25DB3AC3CC26589C8239E66E81547BC7E2F328F9884764CA37EB5DBE390D
311
FC03A5246B456A7C3684C4377D0EEF9A350680FA9A077E8B2957B489E09AB1AD41316944C2254B5984830F691C93CAA767EECF976FA5647538830B5E63236A6F0365C1E0F3E327F24FE35EDDBD7360B0F7374837409F7A6311BECC12B7026D4FA1AE204FA3F5FE904B1F420C7A9044AE58E403E7C4848E7DA25DC9EDAC79DD
311
756FAA26B9EA83ACE8A214A2612A22AFA19DAE7DBAC5F8CDE1292A485F98DAC731A29FE01A3966E96BCB9FB5A4C8830E1B9AF0C54B87FBE221A097036E5D28D1F869F810C06A9BB0AC0612F69AEBAF893C6E7AD59460208BAB3A6B09CA4F6BDDAB8CF0D1F84B72487498395A70DCD754796E271099A567A55CF242BBED6469
311
6378BB6CF25EF0FCDB589F3A82F1116D010A9AB9FA4358809EE0C973A2B4229BAA876A70B03AB49CBA7FBE71DB1832FFD32F9BF2C8E98075CACAFB36921235D0F552B6A67E94E094097A5D7DF681B40623DA535ADA7A9AD8E9A62407D7C9A5AE51D62A17A83A23728DE86BB56115804D3F2675F2C6B87541A0FC497BF0CA86
311
420F558C9859EBE9FAD62747E323E3AADC03FDCDDFE7407B09DA90B44E3185723C5381EAEF589765E2F7A099BA46695BAD60CEF3491B8A171F5F56444F7CE9455312C3498C74173AEA0214EC029833B34B650CBB5A5508D5091665309642791708ECF27CF11DB3D797D6CFE474453BD4BFADB768094B2147814D81C7CBAF82
311
28DCAF5564B5891F5EF6A860EB2E323CB82AB868D8EA048880D63B0DE5341F1B3D53297B928A11E15F25E5148990F710747C3509ED14909C552EBE3973246FCE55D00564D8310BC3EBC5085D08D806799B77D6C57FDF5E55837F9E934F09C03C729271B64F12D0A9F9E938107CAF7BF1EC8CF1BB9B42363D33070F4CACB425
311
E605DDB0A34A12BB936DE286B9887A4E2E558F0886498BFF49C311D96C277CF6A9FC0D75AD0ECC5226D7E0E3572012E56D7FDE4410CEC7A6D0F997F225A2055B8B92E3956E875AE4993CB3D4C9063AF98FD45E1BAB165640A43439A2C9181A7C355B297C0A0CCFFAE19B6FA3C2BA238A885FBC98B8F6DAF4B94B97304878DF
311
4D8BFF6A4AEDF79E90ED4E68F00CD7299F4E0D83E35601AF0CBEF18C1E870E74758FA91F5131075004DB3CFCF09AE1DABC11957FD9808C92E8A678CE9DBE40DDA0E0D1D505AAFBCBA208232BFB6FB3704E8985E61ADE53DE74152F5C7DE74B1DEDCD37DC3E8FB30D7EBA8B9EFFC3606BF90B8D438279CB7709FC7C00D327F4
311
1817EEA71CD9E49FE9C8C9A81C70915D9F0F15958EC5AA4C3BBFAF46986B90F188BDB24B89DE3C6F29EC3E6F66D84856EE96A35E657CA41B41EFD8DBFA16AD6E91439EA92B40B21C053249F51AE50EB0B24C770FFAF40DF12C8436366819C48E36547D4E7B72FE2BBF10828583057814A668BDF183F6B2E58DFB151103E563
311
03E63D00F39C27C4661605DB644D19175D02E3F0241E8FC3458D17AAAADB117CE9EEA690D0DB01E634878C04C2C9310B69FCAB831151E3AD293BEF6E46B0ABCECB50F5939B39C613D41E81FAE8D34CAE3C4566B761D37185FE864AC32FCB71AEF39DAA5BAB88609BB980CD2F07A8F941653B529567726E2B2A58D079DD57E1
311
E5E31426CF184A04D7B03B985F276D47406AF276FE32E3328BA866EB1FD39BEF57863A317634AA5FE467409B3873F5069EF0D71AF00AD189D17BA1974ECDB2D623E9E14086386A6AAB5807825C37B015BFE892AFD154920EC437EB945D958E18622E1E0FE2FA06557CE4BB9BBD05A2D40E774DA2B65473791E314B7D6C8868
311
20B2FCFE4AA272B3B8B15E7344A145E8AF919B5454D89D36D413E87211186BF6F645E5EC94DCCE8E1C799022E4EC9BC86D7A0F2AFB1FC4B2CE48F84B3F49ECE65BAD24CADCC07EFF39AB06BE9E6B27A059938EA7208838455383DDBCFCD967DDE4650EF92A14FF933C975DB20BD7FEEBC4487576485963D757D16340D9599F
311
EB362F775F38CA4185A86F74B629C81B133644A3B18FD056E997E0734F9BE26D11C0AAFC669E2AC9FC41D281F8B2E1C35AE27BCE05F3DA295488096688719D974DF1B5D182DB7792288697F8763CFB43562C1CDEE11C4AABD5C22B6E33F6F389CFC3477C5919DC0D533F8A7A1846B7ADB60ABDC26C43D0CFC8910B7C15EE22
311
675BD02702ED39DB77A87A192CA7A543E6205B979B9F5A6B512A3CA799E198B2D5797C0AF8D1D872CA455D4D431A7879D4DD76110B5FF7F4176B54477A9EB5E4A5D11214FDA585F0382751D8E2582BA5D2075053298FEB8F1537304E32CB22C2E2B693DC0A760B1DFCA751BDC445AFDCBB12820ED85F6D5298933C7EF1211E
311
9E057684056CDA3FEF3BB6052355E162DF27C59E965A8DDB7F9437EB72CDDA3A090DE65A5B2F50326247B7EC67B73ACC7047FC9B353D6EE990F772207C6EC52B39DC2F3C0754821DAB559F7C1809C7D0DD5B0499D0442E0A6E391B3D5DB46D11E731E6794EC77523FBDAA242ED67F9FA1FB684255671F63C9BCFE6E7E896D5
311
1001A6113EF2298BA494E0B0980D1FA5B9D60796554C02256B1E0345FB7C6186B6A19D2DCA270416262845FA4F42DB5D9B0A0B6F07FCA2E56C242522E001E0CEB734AF310FC8BFB57E38E03AACE93B3326A2197891E68452B26A6307FDABFEE0223D3C03C3C73D2D5BC054C8311F12004CAE488E5C29287F8156A2CAA4AD0D
311
7BE6B97264E4139F437CE73ADF52E5134C52B819777C18B323A5924E4F67AFD13B1CDC3A61793A79FAF5C0CEB718E441071E797C6DCCB9EFCF7E4A1E9F3DF3C2F9C9E8294E9586868788C972857FB0556D7A26941A7EEB9B580AD78EC40B85DC906B4120A563CA3B87797ED612D3B035962BB75F6515A393F4CB057F564CDF
311
54F2E5A024514E6A1F901DB80C7E70B1FC05E356A7E72FABF4775B3E3FB8F70A2A8E7B6A94542BB304157978CCC999E707A29CC795E67A59CC546A5D47B368954CA7B6E75EC9E1F6FC73CE3B4F71F8CB1A6B15923D61EAAEB14626AAA9D04A26EB9C66CD1BE86CA31A5D8703DE04CD1EBCE4F5CCB62F93909AD11E55799A78
311
1A956ED27D3E738F4538CB04ADABC7DAEF20BC35BA6A90BCC1DC61BA05F20D8832FFB9BC9B15E2DB838A0AFBB7E0C82A562127E0446894F427794C3037186F622BF24DE1B00AA10A23BFA47B2A180D6DA5AD6F7326FEB8C100C2D7142EB2A0B2A9D1008A09BA343D70E054AB69E2A7EDB783CBD92537FAF4A44D1296AC2792
311
729104B3276C276C951D0CF3CF3F1E6B017720A7B8505A5FF9589365979678C36F1BAF759EAF57C60F1FF5FE9DCF5F8E764FF25A2D06CF25117A8FED51884C13B2B750DB0E4F5E3D64124FCF11F0AD8F1CC3B3DA4B38ED22BF1CB2585EE6BFEBBA63FBFD44F9537B9B37BDD6B358720F98A8125AED4349CCFEB0E135F19E20
311
8A04CA7E2B10711185D72E381F448036EF57C9F874E54A971CA37A639E986AC0226DC5AA00D5B14FEA9192234B3DE617814FC221C92F33F1D392F297731B567FD98FD91D989379AF567A65B8ADF177591DB90FBEA99BF4ED11B16E50A0AB1DBF1156D034BBE04D69D08F939D8E92BF525A1DDAFF80ECBC95D8F45D3FDD289F
311
D23F7D8B452F8EBB34EC082DEEE68E18EDDF072060FAD2AB1504DD4879BF67099FC58F6E9DEFBF645D16334A3E9A127C6F1AF6132CF287E433B43A0EE93812B4AA0B194E03EE3FF91EF9C6ED0074A2F6EB18A96A7C9890B1FCDA1F2095E944DB911ED54C60DF16FB74C8CE9BDC7C54C4F14078CF73C2FFF1F1BBCCD7CF64F7
311
1407EA1683DBC410D226627F66E509060D5C0AFD611DE681D509DB8DD12FB1265B03C6F5C55FF4C30BD94187FF692B4F152982502F193098A789526A038AB529A52BC0DC4FB6285CBAC10A8B8DB75DCD9BDABBB221E27D1F8DA9F5EE5926A1C8AA9BA9BC09239C6A7F12914EA3B59EFF7AAEC3FFCCE56F1C5C2980AD072793
311
527565E774F4631DB178CEEC691B1F367BEA0CF2907E1D6B854D527065979DDEF002D8B2ACEA7CE21AE297737EDE1D45B31233B73FEA35BCFDD0B09721FDBAF6432681F2FD10C3E9EFB246FD6E854B344ACC9D8A0EEF876A7314B49B6A499FC650B099D650DBFEC7638ADFD245E2B7839DA5AC5F7D5623FC0ECEEC8653FC9B
311
2BDD1AD4D00A566FBA7186DD3C9CD26512551637498CADB950FEC71ADB9A5524285DE328B8EC7EC75D2345AEC6A27C42AF6D9B92155315C80DBFCABBB7DA0FAE425C4FB896B15C9BFAC4FE67DF5A23D30C93DA4D8F36FB15D100050DA6062E22AEC5F4DAC4F6FEEF97AE05DE63C6D38F9E068A20BC5E3B6BCD75320C509092
311
4E7F93640A7735B1A43451C2D91EE62C6238B797349E59890AF3A520DF4A87095F3ABEC2E61F0593416CE46CDCBE0E00E2523FCCD04408588B5B6C9DB6459C786CE378770B54F51DA3A5E1DF2A3349BEAAC234A6CF8993B598B3B25B4B113E353A4D750FA7534749430F3EBF2512E7EA3FD43C6AB9A1F765A58463B306721A
311
15D224FAFE8C6F5E3432D57EE697DA0DD5A9D4866A8BCCAAA9DFF1F06047851408FEC060471D0E3EB86BFAF46E4B5E60311DC3E3CEA147C75CF971BE74689507154FF2D2E92F15CDB2B9182B11459FD8ACAC5A85F174BC94A7F4EE4C4F5CAFA7C02E37BF0BC77B7DCD0C047BC316F562A01A441AFA7931CC84A28CB9F4AA36
311
7EB515778F29BFE61195FA671F4352E5E46E3A64773F1F76EE5EB36D7BCE9BCEAD837A4D77F8DB8C92AEEF6711920D7C7D0F76B0FD0EB7AB83724CD35BCA7D36DDDF5FBB7FF6F04A91F3E2BB3B8F1A43CD659639507FF6331C5F697BCC782AE57D757A27D97F1AB9E0AEDB43F92F1B2AACDF5FEC8ADBAF9F814E2027003BA2
311
F9E144B1938A7A04050AE5D953B82C45619165C813A10E76DD6906B3C16438064D14CDA713AEC420034613E1AC7241904A49FBF87409AFB1FCB9B72FE7933A87D8FBEDACECE4EDCF6A4FE9FB94D5DEB74FAB7CFEAE17EE965DF980DCCA2D04134994F9A2E94D2265DA4FE6AA7B7AC15FACAC2B5ABBCD7DFF542C5314FDAB2E
311
1B9D8B65220B8E2B638BE008E8DCA22678C820C5053664D15E89F2D735B51A84955E81A443545E9FF787BE0FA700A76D136C27DA179A7C6E8939E01BE756E19CB292798063D8B97F44E8A27BCF3A614FEB8BE974A718E86F7EC99B53CA35FA24F61F2B07266684623A3D4CF073E511F3A10A8FDAFAF0078C577F4DF9D339FE
311
7862E5FA47CF4344209E5BF76D783B1B48E152AD281B15FCB934DCDA49CEC5706B1EE8B460F435324A5CAD154725E21AB8044B75A557A79F6C807B9340AA3D92503E866F4274412926C8C504E4D5EF8C0E68DD0B028781A6B4054F11CF18941F101C57CCC796773ABC8DED9CD91FE5788806C05E548895354AEAC96546D55B
311
0E94A59F148D061F42AA398D822CDECA4CDE79E13469BDCC44FDC990F366BA5978C15F97ED80CBFD73B0CD9B8B83A4F6845BDFBFAF034019473FB9A63BD55D3A4A7284757071574029A4D016DCCBE95DD679EF3C4880BF169422F8C89B68A988D2B13793CAED4F74DE7486C72DC94DF46B8E93D8E02EFCB1FF9B3BA10C8AE7
311
F653DF94F4AF466CDDCEF5776687F7C4C14B63E4EED1719DC2EC482D7DBCC7AE518CDE3D5FF86D39000EC3673C0044E1D308BF05F74D1B5F033A7D1BE7F74BC55BBE3E4A20F920946CA0271EB17BD2B80E5660ACB8A29A79F5E4BBA49D4D945B6EEF4A7EFEAA65E5555BBB57A7E15D2F83C69F30BBB978D2B39F1F26FC0974
311
24D39BB33CA3D87ABF64E307938B685BAD44F71556A30B7E712CA4FE600613C3E554B69ADE949A7CFE214DF1FFF05CB82151EC6FC31950239F94CF7AD39DC473F6EA356E5EC2C4EFA04383CEFE985A127484366FBEE3C0EC4FEA363E4F6632AE781392FD45D67B63FB8DF70E82734F431FD3443172A0E30A83D60982D55FA6
311
A2CF86DBA8382502ACC6CDEF3B907982EED1160E14863FA242F9757347E1544275CCDCF71ECD5F8621CBEA326B8BA884AD7F825781923E66971F04010D574C541D8427A438A37EEF8AF88240EED7362C953F5A81DE2D56109CDE2524EA0F5D2F87308C0C47BD97AD605878AB8589E17CA83930CB5E0DCCD75853D68B1AB136
311
594926DE426C367428E9334AFAFF90ECE221BB5DC9E5BB53D2CDEF954EAA9CD814F0E5725F1965DD458E5F8487683AD86B9D0076BE3EE91EB1CECC5331A67A3F79D8B27587C12EC2A6A70474749F27B4C0BBAFB94B34189E88DC18964BE4121B9137FD516C7755356E50D6714E31ACD222621EBBCD1CFF81D87479056A9DA0
311
E0B8EA19D24CF937DA89F78E8650CCBDC110AAB6C4E46DCBFD0446BA9E2060E81F314AC2031E88135E5476AC0160EF5C0DD2EEF1B8B5CB2D198BE9A554A9093B5F7D7E4B5407DDFCA1D9C152FD97F55BFFFDFE802954DFEC8995B983E28AC92F1971E28F531DC407A1280EB125F64A72E617EFB27DFBCEDCDA2D6F2BDADA36
311
873EE46B9BE1782998C63DA7182BC383FB6FD15DA472B175D7E8B4FC88F38D6E07FEAA3FA3CBB8F6B449ECF14D2175E5C5CCA3A42ABF24CA6C9395AF74535F4DDB38CB84F56614B0FD32D7E19CA5CF988DB4449C40E23DF2B16772594554579094450F56F253CD25EA7F77366FB1CFE79696C428BB64D5A41E986189427E5E
311
4D7E2DAE3D5BB4972B3DC44EAABDDDD63A2264ECFA5C786EB0EE1FDC5BE34FA0F08376869FD1E61EA06CAE15191135445EE8F0394161C3266A596AA035572BB0C8876180D8B9C77D307DF9DCDF7365ABDA6F3A2366436457A4DFC1F259666569A9E4A79C817BDD5610E5200FCE894A358EC72858D50EF67545DA81C6FACE3D
311
457BAF70367E1E6BDD9A952FB4F56247F58F523B97E640246051A72F79BE42FFA0B3187F63097F91C48B868586F714B0EBD5A00A8412C1236E1298F60C72BE6C96B82B404CADAA304AE9F303176B14BA53FBC2D5E86377E35542019E24D97B96A49B2C0E5006E7795954DEAF5DA58958839043C6C70BD3B1B33B6DC5C31316
311
D8A6923F142E26F6711A2258AF977DDF1F970ECC4F1F2B434B96D81BEB6E89BF3BBB3C7C8CC80505070723D6D7D7D3C8CA27CA164A26024FED94B12A86031867241DA53D929636DA600F050BC40CE48B8BA03D69224720DEE2ED2127390BDF5E6EA64527BBD4C4C63FA76BB801FEEC0E61218EC98A8A86CD8313781617877E
311
66692839B9468CF4DB8E50A73986E558E309C0D6F676F921BE02F1185454DC75B111572FF9D27D85EA14C05AD7271225B391C4275659CA4A43759D0BA44639BE4C30A84DB7F67A41399FB95CBF923B1B1672ABC807C1590557FB18D811983FA97F5E609516D62281D38B1281F68FC75528C35E4CD7DF0F7DBB5E5DD69C414E
311
BEA2F4A5B241B996BA77AE6C772E367408C633EA3E438B68563EA8BE7667F3A4C4FDEEA52ABD78A2820F443B7914A15F180018D231E64519C56A12F6CA7C8DAE18F06F6B769DBF92329EF6A5D18FBCE600F36BD8E8198DE5CDAA96181F3A756EBA5501CEE58F497EA4F418A2B82565B9BCC611713C0B708CCA1F398B78C5F7
311
D03B3437CC18F13061F55C7BEDADD5ACB1DB0E36D3CE47FF6EA1A563A57E9649EA5D14D1A50EAA457463381C073777EF1600607BAF6428A7DDC079D47A204EF1E1F1F0589FB054D45E02CE623B3823C317C601E589E22B1E88B448524B86A82828E32345EC18AE17214B42F8C41C6D428016D9BA31DDCB47572561E5A402E5
311
BA4FCE55F78AF7268524AA04130F3A20BA5D1E9F9948EA48FC8F5314FDB35E21898198060034ACE5E3E2BBCA34092518F275190AF65F45867FF0900AA4B81F25427414C372BF51DC29AA855C5428EE1EEDD6B849AD60F6E73475C2D2523F8A2772C840A478DED18A8C5C91B085F255DC4F54EA7AA8947354FD17ECF8FB3B4A
311
0DE7B483CAF3A1165EE05BBA413E5C1FEF3DE1D6B8F2F3F3251C17D9FCAB48A9AAF63AC773A0E413BBC46A9ADF84A566FC920E4D8C52C9769EE3301CADEEEDD92B312E02E2A7E35B7F1E7D203FE5A7D75578B06E99D0E46FFADB8FDA17ED8880390DA29094202D6F645F76F6F96409CDA05495A96E84B04A00D1A6C6C81D7F
311
3DE9376E828CCF144EE50E364ACCE7237EA0BFB5607ED1AC3CFE73794E5B61739D14DF1743441B1AC98F00ECEDE9E7301FA29755FBEFA68C91EF2B314CF510537EF1ABFC9A762496280B546F5EDAAF8A5B387D469FC9A878A92828C88608453ACEC6094DCA54111E7AD5B2663DFE2DD151B7F123B9F4FEF8EE36AB125FD7AD
311
52A59B1B765B3E3F73E3F73DEA93875004D2AFFE3CDE9493B87A9904DD052028949041A91DC0E1BA47BA714343FD5B25E0A6A09503AFC17C790058A836A324FE31D7893512E28230332F153181C1E018E1124EBE1BA262AA428A518237D1EA7275E48C5C561BD19ED6912EDD8367DA0F31E40EEAE9683DA9257525AEA7B632
311
B97119E17145A90231768A4F3B9120FF32E8319B015E3CBE26F1A754177D8185345817C096B0CE443A955D13AC15E1FB5DEEA0239EC32A3C92241A237B0B02FFCB4F93CF2B02570C8D192E2F2A68CEEB42F12E6F8CEEFF46C251E22B4341C56FB08CCE550E7A9D6F4D6564B9EA52A83D5BF2C6E03FA19D2775E15A8A7ACF30
311
A13C259EE7F5EF2AC3BA354F1500E1A07FC63FB4686E2F12EC69719F9ECF5FE3F35598DF2CE944008CE78F0911BA5BE5D0A34E0098FF038669C26030BA9B300303039852A8F6F496341737CA7E0D2E3AAA36DE0A70AA7D9CA0D54D9AD84B18A44C9E625475E1C97B93BEBB38DCE7D227E67A2D00F531436136355F243D1FC0
311
D712C5765754FA22FCFFAE97919161F46D6E61ACB37D83777B385889770B50765B127768443A5C4D3A4E35A3151111F146B7CA116F918A049F1C272F2CD7976C69A0068773451659A97E0F4A08FE604C3FF6CE7385DB19F4D3ABC8A0D80DA8A42096AC377DB49382B36E270B6FA7570188B4B7D1DDDDA82ACA487CCA5D38BD
311
3BD039ADBAFA4ACFF27809239B722081E2EB9F145320553D183F28471C388BC8814E5045676767AB58A8E72D1CED2CA731379515D2E533E4CF0B39DFC625F97AC4836831A4DE330E87A8126FA17EBE583D614E71E22A8DBF2825599743E0640037303E8E1B1E8EA4E1ABFA4F62907B5E4E0E5DCFDAB417C36C6848A2B8D15F
311
1E505434C0707E16B1CFC2A1C36A42BBF55734F8F4301DDC2A5110CEE8C0747F69519265012A2174BF4E955ECD4FDE095A3ABC70536B7AD0B9D7892F81287D667C108703C9B66A221E9A0929D030008F77FF6F5D2108EF5706FC87A3069B976F7C9FC3239D13D283CDEA83597461079FEEE049B0F392889898B7D87D31F8D6
311
0ED7B56B91823A8E4EDDB36C6172ECEE42BD42B12CD67994FA0F0DFAE9389356F4CD4425A4B8AA55CBF7ECD585C6A2C2316791E43D5C06841ADBB226A87FD61515FFBB0167B74E56BD7F3E90A57A97FEDCBDF483A0D6699A8C0849CAEB4947FAA90D8E332D9DEBD9F4738C37DA0CAF9CF3DAA68BCB67C420459C7A64498D6E
311
848E5CADE92BB6901F607AA331104A67F7CD650EE169B1DAE94D2C31C2F993632259B6957E246EFE4C5481107B07118607700040E5812A2A2A38DA0076875258C753F60E0F2662C748EDD5F3F3686B8FC3BD6FE631ECCAA1E8B1C1E565AD117E54893E79F4672E32F9E46B2A183DFDCF3EECB4D4D077DBEA0DA254D2560451
311
09670050129E9B9B1A9E4A11344D61497A992778095151510C4BB7EF2009B63AA4360635312E4CF668B7E0D3D85A8688E2BD83B569439892ADB63461930D428E0DE42E4AC57CE48DA5CC1449530D8BD3D6A0F08DF20C8E8F570F2CFFFCEA286E30969B4654D498A58D9DA782E19FE3F002181838925592C4A1EF0B332D88B6
311
1A92C644547BED490D3A42CFFAB70E36D961F694F6307F72FF15A1C79D5B1B5CEFD353D9E2B52566DEC8F8F09CB3E8359C0F68EBBB7898243E34E12A015B2685AB303C04D3A9E00671FF3DFF0A184E4A2ABEB2B666AF5B3A209C73D8EF29DCDB069C9F391EEE9DD0F74C7BCDE16F8F02E3B8816122BBEB50665775B600549D
311
8BB33A54A6BF940C028118BC6878C79958D6784F9DEAA6E26748386FFAF8D0D0101E2847B6563F5D8DC1D78F787BE00E2C941AE12148D4A81599FE8F68D4DA5CDED75530ADE138240300EE13B0FC13A1687FED6774662C05A2B7DFB186732F0D7A93545D8B0A6390AE5054D9CB582DA846D7A061B3358B45E2B52DDE63E114
311
397EDB7E09233A579155D795BE76102CF277F4DF8B188C4F2879BEAE3C08347124BF9ED23B128259FE107D31E34A652F090B30B39E0D9AF917B76A2806135621A8A60681F16AF216514BBD02711585B5B1AE823F4B2D0369EA5B6BCB863072727FFC871CA6C9AB79A814D989057E9470A3D238BC87CBB4A0EA49AFE2B86F22
311
E499793CAA9047080450166BDC357524561E258C77CB697F1ABB32562CF87C3B7AA12F911EF19FB3E5C02222E887D08202A60A17151F5E053A86B437771088B4FEE14D652C43E8D939995D34545E12E2FF93D4E366EAD25F10CB7DED141563C3D0C447AF06078A91135FD4B9611583CB4BF3BD167F2399CEAB0E0100F8FFC3
311
05F00F1711717173138B4B48C83022295DE657EFEDD97F238ECA80F528AFB4F8D67AD4E2594B9A3AA86D7487EFC313BA95745C186F0CDD84CC12DC9CB0424B42203D351FD9C0A3AF10CC7F388E0329279087386421F194F4A29464C1DEF7EF8BE515E4A199DCD5B909342598D8FE6A231F71336248D5CEC5454455C7BE383B
311
3BC7B260FED27F703FDC39A170F3827239102F59D4DEE7FEF82EAA1A5E4BA94DCC4CC44E7E2EDE20F24244E4454369D2E87C3F823F193FD4FD27E1C23984B01898D15ABC20711A8A558054951A6AE280096BA36CBA439603B7B0B4C45F248C14B2383B4B5CD8ECECE4FF859AD4A6CA2326D020EF090F4041D28DB66E5256B5
311
6232CC52829DE8060BAE6BBF37D4B7469B822454FE93210A3E8D15E69FFCF01123222611C51C4FD0A041A0CFA2471CF6BE38D2B20FA4C3525B5B8B586759475CF80ADFE67A284AC24651E52B8E683D24C2622642F27E7C3C22783BCF63648BC398BD6CD0D9C97E7E7E3EACB6126DB7A6C1FD9F1031302EE67ED96F22B77C7C
311
A0239BB324207559B105E4693EB26EC46182A92C9C0DBD24F29B31C5C5AC1F84300E0E17CEEAC15F5736FA4A98971E2F1423BFCD68D4BBD5F86E74B40A369F39507C88FCDB35D2DD8DEBEA4AF999E23CF2816D204200DF6E611781B9884C1AC8888B4DE397320472959434323A5A36B22A8E1F721A270DF3BD65E4A31C11FF
311
048AFB0D8B7B6881423793963A23CFCE935FC189ED36FAE35C46DA3574C979E4394BE52084F3081837BE033396D2EBD80F1F691B273F660D2B32FA27A33B1DE4ADA5F0FA4651511102DFA410DDA86E065272CA314D5249DF91B06BB92807B28EFD54F08F7B525252782CD276DD02E6B0319B13DF87B1F6361AD6B28FC0D711
311
CF445429B9E5A433CD493051C49A9E03DDB1B147D880253514A5DED88009018620EE229101C041950E2D8AA8E1F5F5438E0C0C0C60EEDEE9E3E0C051948C69F84BB7B2A48A1F3C8EB9E6864687F4F4F6F6E2FA87608ADAF9C5E117B7C1A737E710769DA1D15ECE6A84502AA855398712D5FB51BE92E4EF824969CE18278798
311
AC303C2C7980DD2500ADF8FB1E6D6C2FAAFF9987178923334A244758BAA01A9A1B70FA5097D01E1CC2A58DAD0EC94CE6430AA9B0C10D75E3C6BAC670EFBADEE1607739CE0FC18A2587E3EC3058562014C64219C69BC269082D5C2F4A659278D585755912176D78A1B641719C2A394CED495A1AC5D583FD2F5EDD93308EA7EA
311
E8A6DD396598BDBD3D4CFED62D18A5BDFDE0DD5C80D1A89BA62697B131AE7CE9A6594138582F1B37D68F1749AC7CB67A70695D48A4A056AC1FBD4E82358CEAE38F54B95A9016F9000F9879C0D9D131768635CA798895F27D6F1614F11F2838A83611AA51C9A3DDB539D42979C29F10465655C17BEC3E2760B80DCBF609198C
311
7B171A531905F3EC218D696025975E986C6B4C666666787271F202805577DD5A3EF0CAFAF91B62DC4B2DB4217A7606282F31D8DDBC290593BAA93EA6353AFA9939B877978481E15CFC9F2755CDC00C538F63A4BA3E80AE009B73CA0185687D339A507D165B74290D6EE46D5C58148F020C3668ABE9EF2F7549170DC80DB41F
311
FC1D678FF19AEB10C7133832B104B80F691B3138F97A92D26E551F1F110400D45AC71A9B9AC41A1A1B1DAEED0B0810638EFFB511D46B121C6FEA0F38CD00E03CFFEB9713FE1F9C263E4DDEC160D0497FA9A132BA608584057FB15380825DE6C7FC3C667EE947D488A09898D8E939C4953BF4EC9836344D2CC6B2971B2A21A5
311
72B06096F4982D2CC7232D46E8EA69DC83722E267754D777F97F96D5DA74E1E75178084D0E70F12AD33E5F71EF2AFA599B2BEBF60A5BE475F444F240CBFE8143C334E7ED9150FEEFEF7EB020C4DBED388DD1D6A167A76F3CBF119B578AE8CFA7736ACAFA4440A1C47185638A0D2F3EB5BDDEFDA958FB13CE4AA4923D5BF840
311
392D45544329525749734866684BF7F8D9D54D892E19BCA9F829A0F8BFCBEEA6CFDFC61D74EA1A645ED7A1FF241739F15694BD835B66FEC5677E40FE69BD3F91AE402F036537218A401CB0828604AD189E575015C6F3F6BBC8AC79CF6C70653847254B31551EFCBEB5978B9DB85D58D0FA41A9DFE9C624834AA04949D24B5A
311
E6D299E072D152D12097920F14AA92C31C3B97E28B6C2E6E9C23D63043ECBBC0A60FDF5BD0C33C127EA8A3308B8B6AFFEB28B4455BF6E7AF4FC6222728357EB8E46E85053E6A8843AB23295BF838ABDA94658FEF3F832F147046B4ACD6F7D48E8FCC9618582961C898D1C7A253C91BFECBDA6BA18A1FCF70755DCCEE2222F4
311
1B76D23CA98D0CB3D95F0CF66D57FFF65E2A90F5DF40FC3187621E981BD0BC1D992787212688976B94A8F0C6EF646624B570B78E068826F87CE27041A95C9A4871FF65CC17FCB1639629AD6A9517000D63AC231F3D741CB8430777E7ECF80CE7A3F73C0F162F7E56AA71F4DA80A33CD6ACEE78E2C11FAC03DAFCE929B106F8
311
F6B3ED2DC71FF994BD9CEF4E9A94896EF1B6E2B7B4978168BCF0847A3D2A4F1B0500B926E634B174548E9FBAD27153FB5FC36799B1E6C7C38A94E1F9E996796D7B485E635D5287A2AE76FBD11A341DB3F8F810385BB7296391973DC6C37C452A9305AEBBE0CDB6C566DB59FE60C8E94B1FD090354BF51439FFD1B48D725228
311
FFA88C84F686F547107A7A235665A4593B7C34D748C1AC8D56DD5DA861EEFBADDECBBD65117E65851F90351AEB65F0EFCFF4BCFEF24CB7A5879699FAC437A7AF9099186CF006BB923A59E37D7A36A29FD8D2CBB914A5E9D0A8FD212FBF796AE9A67958FF1D5D8B85F78F96219D4714EB919929241B6C018AAE0C02069F8D91
311
9961EC5DDFBFB7573E3AC8E08BFB7C8534BE6DE045B3CD63DBD71F7638BA2309CAE398EA3A7D8F98BBBC7AEB367EFA5CFA27A9F8F2F52FE878058E6209C026453F8E7E8A237DFC389E9590F6059B397CFD65183BBF936E86896612A5B5FEE49DAC8455D026218AFEBEC12B3523A45B57B82C9C97E02ACFA1184DB18E48CF61
311
5DBF39C3CC6F0B4AE6BBEEA2E39D944E290302FA3DE33FA7E40296E2EF7BF1CD855BBECFAD0FD622BEE9746FC4FDFDE545AE6E3BC234CADF83A0FB76DFB145BF3828AE3436368AC24989454F8FF70A177672C711CAA1A76107218CF948CA01F873520E7A2B118EBB161ABAD432932029628B6761590C98AB590C8C8C79798C
311
E9F715BA696E839E9131A4BB68BE923F1747FBFF165331FFDD4D05997ACD168F12CA75348DAC04C7F509FE83898A8B421181AF492861CE81E4A2DD0A30850CFA95E05F097FF70F9E777310D584A75BA7018922E271DAB1D785671157685B7D383D3E074DDB4F1E44EF04B07BAAC75A062077C54B9752C738C9D804D402E028
311
51F3F89605AF189738C18C021D2139EAF72513824E10DDD3047BACC8521ED7E98B257D1166903B1B08FA6F918FD7E162913FEC7D0EF4787E29C35FBA8C6E2C9C20E9AB30AE42CA2A01A090E7D010C1B5BF9CEE2A304BF3A987FB40D836979B79E18D70F257DA61E808472DD85B82761825779D6B90CAEB0F23360C6F80A7D7
311
D77545E95B3DFF0CF96A827F9B5BCECD2C9698718417EF80FEEDEE938AFF55859D0D540B7FE09435583A6F04874A0C7E8CF234DF4879722000167F5872CEC6BF3EF7E5A8CC8121E6A359227C8A29C95212F9F735BC72A887D56B8F309FC525BFB4FD767AAEC4AEFF249CFBBD2DE1AB9969A6155C7D8DABC307E47324C1F916
311
C7BCFF40ABA5644E9FFB9238D19ADADA49D9610F01ABBA57E4DFCBDCCBB2B93C8953206C91DE01B0E2651A6D6C31721915B31F7B7CBCE55466F6D70402788FA91D73BE4ADCBA99A35F17D6B83383704917D6833F0FA3CD45C926ADB8BC17999A4A0AFBCE2541F7B8CF4C2F5FBA611B3E626D64407CB32C122DFF4EF8674D6E
311
DBB86C8F7C6A16D50FA685E2CCA34F8F7D1D8265BB0042E9D7F1F666F7BE5FAA5184DF58E12122A42EF02F461B3F369AC746F96528AD208512AB56844CF75B97F352DF7995024FB02855385854F3798670D01CAC771AC3E1889EC25F61A20C1F8CAB46898817F9C47E2CDA1F286BF2F358298709FE567C91133E2638C8B539
311
75E753EA8BFD3578B5F7186B7BF084EBA3F77BAC3132A5779902EC22AF2D2E79F42D324E083386DAEE9810D1B44A5DAA54513C7A71E52A4AB9257D975B621308FE4D2141CC3DCFE946C154A3C1DFCCA7629EC69ACFA831634ADDA93C0388D2A9A2DDAFCF957C6995BCE7FBB6DC4EBAE79E63EB08E9A25F52F67076F7093CA5
311
45CA3053B5BF576DEAD4E0017143C5F759F32B2D6F145B52B67B48909B7C7FCA6586EE385A2189C16932CB6DDFD9152AE317C430492A578ED27B72D85D40C7C93C097939E1B50F4D67F05334FE9DC362C30B7FF561B95259138ECFD9274C8D695C31B14D4EAA9F3D7FA8DDF652F8C5DEFA23284C799B7D94416DEE81E05A86
311
6302DC70192A5368EA65E1CED8BF107A1E2D3119A71E85DC1A7B0C1E93274CE04DD0F2ABC8AC7C987FDB002B6F81757B43502EF7A0D92E416494FAEEA4C9C090CD9557AA4D532F4996A272B94355C5A0E4974EEA9627476F30809B94D8D8D860062E02204643BEC7D0438AF800FC7E2B26955D595421E83C69E1A07E0E3122
311
285835F014AD538188CF9737CE76D464A353FA55A001AB2526B84E985083693BC76FE211CA1D000679C889E3C009832C87E1AC2EDD05C302557422DF0800E316FCAC86978A371F025A6C7DAA9F333E7BD160403A1A06EA75AA9888FF01504B0304140006080800BD818E5028BB58AF800100009E0500003D00000038374141
311
353944322D363745442D344534302D414137332D3639414636383843413734452F536368656D61732F436F6D6D6F6E536368656D612E786D6CBD544D4FC23018BEFB2B96DE15493C78601010A34B880709DEDFB52FD0D8B54BD70DF6EFED3AC0B12E6442E2716BFB3CEFF3D18E26FB440405EA8C2B1992E1C323095052C5B8
311
DC842437EBFB673219DF8DA659866649B798C078B48AE6410122242F2A4994AC7F93815DF85C049C8564CA0A901499DD886B2EB9B1E02448F358701A9235880C49A0119892A20C89D1B9FD768815CAD268CB5E0355B40B1E47F3E37A2020464BED06AA57CE8FCC20C3C3446D46761A2632A8C1283D07031EFF2AE7CCB1BFEE
311
E916E406DFAC8E36FFD99A9D60A6944090EEDC3B670C7DC13DE86B6B2C5C240D6E503BB85ACD579D513F1B9F9A69DC9CC22AFA80C426D40AF0B21EA168559156B6276F0F726A6BFF04DCD513A87A62CAD41FB24FCB2858B3952E3D852084DA25B9303C15687973CC8E8AAE11DF2836C38C6A9E765E8C1BA1BFB1DC29CDFE51
311
8C8B5A7655A4ED7E77291ABEB80DBD82EC866ADE1B8D05AF9E35CF09D7A061F38A986D9EC412B8F0F65E5D81534D9B231D1E5A8FE577A241F3A5FD01504B0304140006080800BD818E50670136ADA9040000B41400003E00000038374141353944322D363745442D344534302D414137332D3639414636383843413734452F
311
536368656D61732F47656E65726963536368656D612E786D6CDD586D6FE3360CFEBE5F21F87BD3245B0E2D90F4905CD12E1F8A0CCDF5BE0A8AAC24DAE417C872DAECD78FD48BE3D44EE3B5C3E16E010EE75A34C5877C48911A7F7E4914D9095DC82C9D44835E3F2222E5592CD3CD242ACDFAE22AFA7CF3CB785A14C22CF956
311
24EC66FC34BF253BA626D1BD488596DCBD8F2E6FC6335608B7F428D258E807664080A98384D9E75E22F16B2CCF05D32CE502359492C878124DE31DBE89612BB196A934605E44F272A5249F446BA60A11112D589CA56A3F898C2EE16F6B136C595C7AC3C2FF076D3D808BDBC824572211A961A8D96E393F7AF5806BEA91EDDF
311
B1ABFB769EB08DE8BCDFE27EF98E9DE0ABCE3BFCA1C54E8AE777ECE2BFFC92A94C87EDE6A9111BA1ADE75C74BF391275D33FAAC5FABF89F1D33C9836CB3225980B2A479BE96A4FB3D59F821BCF11CF1FC55602586C7191D99E2C9C0CF2B8A662E3484E59466361985485D7E248E7953C01F19DA23B9D256461B6E09C40FF02
311
D1DEA98C19EBAFBA4659184B7D47DEDF22E2F53DB017721B164F5B845961697F0C699AAC2410982C385725A6361A500F59CD848221F103A8C1A7CA84A55F407794695C905C688E69B111550ACA946B9B4785FC1BDE0E229240B62665328986D5B32C400CEDD88188F35AC25EBCD40836F47F35E5C0EA4B6F767B50568CFFB5
311
665C505E2AD5EA8A9997205F50A2350EAB32C9294B0024108429953DF32C4D812E226658F78A490408362A94987E6F787DFCBBBABAAEDC36758ADEE9B58B41BF0F35D87BB1E991E02BF0B513748E6C0AA2EB2CE56EC68E97585643D82DE284E51DE03E4E22B00738761F1E66E1616A03EE093B0327B6BB9797262B0DCD72C6
311
A5817ADAC1C3C0A3909CF6639B404D18B15CAF4B3C09CEAA4414BD5F0723F059ED37048E7A64271711EDC9C5230F58FBDA5DE00DA512CF04BA6671A0D201A83D2EC81D2EB552C7E5CD1BF9D6913567B2CD53A659AC362A2B200B440195E2ACBBD167A32A86F7874F7F00686DB55D163481DADE5E417E979BAD827FC6B2B0AD
311
8A6AB1567038E466EB4B10C4C2F3F71196A09260938125FDAB8662456EAD68AB2F7C1DFF709C874887B76A4355564F017256531BF73D7D754A40E23401DA38EFC907CF8D8E3C1E5E7505D8E432C60BE1EDA01E5166683F169B6EAC6EC046153F66C2BE0679FD3F407982ABFA28F92E0E457501938D96B12090869079360D3F
311
947CA8BBC3D9FCE1ECF3C676C9BE80EB67CABE004FC290F8E26BE6A0371AD6CE66781C408A1FAA8CFFA63DD93A94CD5E1F3BA6A3DFB05B34E1247BB3949E3C332105035203136EA14AE89FF99E3E0B3C4EFE65C581A3A3D2D0EE84EFDB22B49DA31A07059E69B81628A8ED1228B63E42C3D840C3C01F460D1F331FE199821B
311
03F22CCDB6DBF074B49566B12C3B3626074EA1B130B4596BDBFBB642A835954A9509E5769234228129889952870EEE13F494954AD7A27EAD09411BDEEC5B6B6AD752C11509F826EF4007E86281B1AE63750FD09DBA87A34EF4CE2A75F3E85960004EA6B519F4806609E8C91CD18380BD81691D9F2CB5730631E6DDBAFBC30E
311
96D3E1D3D67EE8FB72BAD92AD4C1FD3CEDFBD2681858ED6583CA3853294B80AF67AECFAC6418D08164D5FD1E52E8B546BCC77B87C6E9D1655FFD384FB26A28AADD82E04B9C64EBF78FFF00504B0304140006080800BD818E508DFFFC99640100009B0300004500000038374141353944322D363745442D344534302D414137
311
332D3639414636383843413734452F536368656D61732F52656E6465724D6174657269616C536368656D612E786D6CA5535D6BC230147DDFAF08799F5FDB600FADA20EA430D968A7AF12D36B1B481349529DFF7EF9A85A718860DFDA73EFB987734EA3D16FC5D10E946652C4B8DFE9610482CA9C8922C6B5D93CBFE3D1F029
311
1A6B0D26A3255464182D920FB4233CC629881CD49C18508CF000E3EE309A100D61622AAB4A8A33B2483F11CB639C545B0E1508438C3D3C0361192846DB7ACD198DF186700D182920B914FC1063A36AFBEE8FBA03FFD3CC1D1F4FC9E151A2AF59F628C5B7821D83FDFD3489305080F2EE04BF962195FB285E9D2DD352320A9E
311
827AE357594914E42B1F5FE35F83688F60C4C91A6C946ED0668E8F244BC2EB0BA6E3BCCFC0B6A4B507F9F9F8D51EB315D9BA9E08D308E89F96931666E577837E2B4172199C68C4FE306156D47DF51C698C7B9D97FE5BEFE2190C3C38BB054E6E8163FB039CB4B993C80BF18D969203116D6BBD26238B821F9BB909AD6D9C71
311
B85BCD8C33D66FEA3D31B4BC0AD45BEA46BBEDDFEC0F504B0304140006080800BD818E50E647773551000000570000004700000038374141353944322D363745442D344534302D414137332D3639414636383843413734452F4173736574446174612F41737365745461626C654F66436F6E74656E74732E62696E53616060
311
3036743432373535D035733471D235317673D375747276D53535307173B3703630B274321202AACB4D2C492DCA4CCC492C28484D2C4ACC4B4E050A82012F90744FCD03CA26072767A4E6260200504B0304140006080800BD818E50C55C663656000000680000004500000038374141353944322D363745442D344534302D41
311
4137332D3639414636383843413734452F4173736574446174612F53747265616D56657273696F6E5461626C652E696E665D8CBD0A80300C06F73E4B29FE6CDD8A2E82A083B8B7F209014925C9FBA3AEAEC7DD2555D896CB85E51C2A1BD834F6A1F56EC4494C4695278364ABB24ABD2146F88CCEBB89D5321FF8F3F43D672A
311
3B44DF3CB6A1710F504B0304140006080800BD818E50B287695038010000A20400003600000038374141353944322D363745442D344534302D414137332D3639414636383843413734452F4173736574446174612F636E782E786D6CCD94314FC3301085FF4A64893176520AAA2AC71582A51348540C6C57E7D25A75ECC8BE
311
20F8F7D86D0650115387AEA7EFEE9E9FFC4EAE3E7B5B7C6088C6BB86D5BC62053AED5BE3760D1BA92B17AC582919BCA71F182B1CF4D8B05C664AEE821F87A9D46207A3CD556BDC612A3EC488B481ADC5E7EED13B42479115DA428C0D8B7A8F3D7018C9B7180FBC05025EF380D18F41639A44A6C769920E08842D53B36A5695
311
D5BCACE79BFA7E59DF2EEF16EF526452C9ADF776E24D5A16FC7033ABF4692F5395141950720C66A2F26B98FA4B25DF1A274522958C14922B53077D0DA90386C11A0D94CC135E13529920845E8A13ACA4C82EFCF2E2093BE34C6E592769403EBC248118C8E0157AF29FDACB7BB37691C069BC6647CE355EDE87D7E32F7A3BC5
311
F2989BEB4BCBB9466E5C7781AC88E33949D1C9D7457D03504B0304140006080800BD818E500838E319E7000000600100006700000038374141353944322D363745442D344534302D414137332D3639414636383843413734452F5265736F75726365732F33314132373535302D364134422D343346462D414243452D353034
311
4646384330323942322F7468756D626E61696C2F302F636E782E786D6C4D90C16E03210C447F6565A9C75DD834ADA288253F91532F15659D2D0A8B1198AAFDFB42CB21A7B1C64F9667D4E57BF7C317A6EC282C304F12060C965617B6050ADFC6130C17AD12113F603004B3E302CD06ADB64425766BC59B29BEB9DE857B3737
311
0C989C7D8F6183C17A93F302D97EE26E26539856CCF769356CA6794A98A9248BF500BB1DFB019BD030AEA00FF22047791CE7E3757E3DCFCFE797D39B128DD4EA83C877DE05C644F1E9202DD531D47FA4120DD0AA24D7A91602F4C3734AD4A5569953CDDF21FE891532317A670DD79A0459461E2B846657E21FD64AB4BC55FE
311
CAA8DABAD1BF504B0304140006080800BD818E50A233C2345D000000800000006500000038374141353944322D363745442D344534302D414137332D3639414636383843413734452F5265736F75726365732F33314132373535302D364134422D343346462D414243452D3530344646384330323942322F7468756D626E61
311
696C2F636E782E786D6C4D8B490E80201004BF42E6EE76F3C0F216234B883063108CCF170C074F95AE5473F5C4C06E932E4F28601967600677D21E9D8092EDB002539227A2FCCB80E1168D80A6417297A89C5D6963B7129A0D1E8F2EE73AA7B62BBEB8B27DE50B504B0304140006080800BD818E50BE897623630000008800
311
00005B00000038374141353944322D363745442D344534302D414137332D3639414636383843413734452F5265736F75726365732F33314132373535302D364134422D343346462D414243452D3530344646384330323942322F636E782E786D6C4DCC3B0E80201004D0AB90EDFD75167CCE820A4A845D83603CBE602CAC26
311
799919AEEEE0D965E2E908050C6D0FCCE04C8BC355404EB6198129C92351FAD580A10E464065907C8D948F8F166375F655BDC3FDC3B4E530A176BE7057BDC43B2A593FE403504B0304140006080800BD818E504A0A8B937F000000A30000003600000038374141353944322D363745442D344534302D414137332D36394146
311
36383843413734452F5265736F75726365732F636E782E786D6C4D8CD10E822018465F85FDF71422946D804317EFE1121D13A199B41E3F685E74F56D67DF39A2FDAC1EBDEDF6723148A84E04900D8F38BA304B48FB841B40AD125B8CFBDF0D5018562BA1605062DE627A1E68B4D3907CA1DE85E58075A5E99573822F9A7598
311
D5C660DDF577CC0933A6E909BD75341BE7A2E4F9F5F296BCFA02504B0304140006080800BD818E50CCB86F520B010000550300003400000038374141353944322D363745442D344534302D414137332D3639414636383843413734452F536368656D61732F636E782E786D6CCD93414F03211085FFCA86C4E302BB56D3342C
311
3D78F0E4453D794398B6A4C06C8035FAEF85CAA14DBCE9A13778F93279EFC188EDA777DD07C464314C64A09C7410341A1BF61359F2AE5F936E2B4544CC6718E982F230912A1329F61197B94906766A715575361C9BF880DE6378D107F08A74DAA99426924E57AA968C06D2911A95151D6884844BD4502664EBA14DD0115406
311
43E4C847DEF3553FAC5E87FBCD70BBB95BBF09564929DE115DE36DC81071BE19B9C6720CC51017AC02522CD136AAA620F2DC1D2D7D08560829528EA58546E6AFB9906A9E9DD52A97B2D809FC61A46035EC45E4470810ADBED6CC17F6FE2DF4330403F1A9BC54B4CA5D6BF6DF5CFEAD0276DA80F20DEA42C86F504B03041400
311
06080800BD818E50E3603EBE7A000000C20000002C00000038374141353944322D363745442D344534302D414137332D3639414636383843413734452F636E782E786D6C6DCD410EC2201085E1AB90D9DBEACE05D09878023D01A1D34A8419C380F1F82DA68B9AB8FDFEC93C3D7C52546FCC12980C9CBA232824CF63A0D940
311
2DD3E10C6AB03A3397DD192872090D3406ABE7CCF5B5D18893ABB1690CF4DCF02282E5EA8A5BB96FFE536F285CB347F95BEFFE81C9ED5AFF9D5B1FB575BB00504B0304140006080800BD818E50133C7FEB7E000000A300000007000000636E782E786D6C4D8CD10AC22018465F45FE7B6B95A9037548B3F718CD0D99D3B019
311
3D7E1ABBE8EA83C3778EE83EAB476F9B5E2E0609A74303C886471C5D9825E46DC21C50A7448A71FBBB010AC36A25540C4ACC29E6E78E463B0DD957EA5D5876C899D6D7B63F63CA4C8F89210DD69A5D306DF59D727ED38C98621CAB52E6D72B5BF3EA0B504B0304140006080800BD818E50CA1DF9C9A9000000730100001300
311
00005B436F6E74656E745F54797065735D2E786D6CA590410EC2300C04BF12E5DEBA70400835E500FC800F84E0B411AD13252E2ABF27A55740421CEDDDD9B55CEFA7A117778CC979527255565220197F75D42A39B22DB652EC9BFAFC089844F65252B2630E3B80643A1C742A7D40CA8AF571D09CC7D842D0E6A65B8475556D
311
C07862242E78CE904D7D44ABC79EC569CAEBA537E3521C16DF5CA5A40EA17746733E0B6615DE7217475F386F18B9481C510F1F021CD9FF027EA0E1F5C4E609504B0304140006080800BD818E503DEE336E64000000790000001B0000006175746F6465736B2D64657369676E2D7061636B6167652E786D6C35CBC10E83200C
311
00D05F21DCA56CA76D41FC96062B120735B69A7DBE268BB7777961F8D5AF396893C2ADB70FE7ADA196782C2DF776D7A97B5933C430F15651E5469C55D70F80A4992A3ADC954792C525AE70A1E4D6AD9816CC044FEFDF01FE3FDE907802504B0304140006080800BD818E5008F0D310F9000000960100003700000038374141
311
353944322D363745442D344534302D414137332D3639414636383843413734452F4173736574446174612F636F72652E786D6C8550CB6EC32010FC156BEFD806E3C68930519B285FD0536F0888831283C5A3EAE71762576A4F3DED6A76667677D8F16B7E549FDA07E3EC08B86EA1D2563A65EC34428A57344075E4CC3B177F
311
D1A0B262D6231418389BBC4BCB064967A3B605B54EE90D1421E808957CE46684206F7A16B5483133C2BD5E84BC8B49D7B85E799CA564D426352ABB99ABD11EF8697FA25D7F1E10DD9113A22DD9A1E18D0CA8A317D2F7FD65E8F6943545CC5934F3CF76E9B5885A01272D69514B11A6EFF8E580BB433F7CB0A630390BD1E79F
311
B7A5E53BE0AFE5EAB3888235EBF48F6B5AD4FFAEC9D8D891CD755504E0381FF91C70D69494727946986B49947F03504B0304140006080800BD818E50FE0C8722F30000008E0100006800000038374141353944322D363745442D344534302D414137332D3639414636383843413734452F5265736F75726365732F33314132
311
373535302D364134422D343346462D414243452D3530344646384330323942322F7468756D626E61696C2F302F636F72652E786D6C8550416EC32010FC8AB5776CC0B8211126525DE5053DF5860C715062B00C547D7E2176A5F6D4D3AE66676677479CBFE647F569D660BDEB81D4182AE346AFAD9B7A48F18A3854672956EF
311
E32F1A544ECDA687028314D3EAD3B243A377D1B8823AAFCD0EAA104C846A7CE4A68730DECCAC6A956266847BBDA8F1AE2653937AE3499192D5BBD4EAEC66AFD6AC2087E3C0DAEE8D2376A00362981E107FA51CB5EC42BBAEBBF0F6C84453C452443BFF6C1F57A3A2D12029A6186186087B272F27D29E3AFE219AC29422C435
311
FFBC2F2DDF81C4A2D9D03F6E69D1FFBB25EB624B77B74D1140927CDC73204553D2C9E5195DAE2549F90D504B0304140006080800BD818E50683EE212F9000000960100006600000038374141353944322D363745442D344534302D414137332D3639414636383843413734452F5265736F75726365732F3331413237353530
311
2D364134422D343346462D414243452D3530344646384330323942322F7468756D626E61696C2F636F72652E786D6C8550416EC32010FC8AB5776C8371E3449848719517F4D41B05E2A0D86019A8FAFC42EC4AEDA9A75DCDCECCEE0E3B7FCD53F1A9576F9CED01973514DA4AA78C1D7B88E1863A28CE9CADCE855F3428AC98
311
750F1906CEC6D5C56587A4B341DB8C5AA7F40E0AEF7580424EA9E9C1CBBB9E452962480CFF2817211F62D4252E371E67311AB54B8D4A6EE666F40A7C380EB4695F3B440F6440B42607D45D48871A7A256DDB5EBBE6485995C59C0533FF6C97AB16412BE0A42635AA29C2F40DBF9C70736ABB77566526673EACE9E77D69FE0E
311
78B8C7F9C30A33B16A9BFE718D8BFADF351A1B1AB2BB6E0A0F1CA7239F03CEAA9C522ACF0853CD89F26F504B0304140006080800BD818E5056E4D97A0D010000B10100005C00000038374141353944322D363745442D344534302D414137332D3639414636383843413734452F5265736F75726365732F3331413237353530
311
2D364134422D343346462D414243452D3530344646384330323942322F636F72652E786D6C85904D6EC3201484AF62B1C7E6372111268ADDFA045D75876CE2A2C41019A87AFC42E24AEDAAAB8786193EDEC8D3D772AB3ECD1AAC772DC035029571A39FAC9B5B90E2050A509D945CBD8FBF6CA0727A312D283250725E7DBA6F
311
D2E85D34AEA8CE4F6613750826826ABCE5430BC2F861165DEB14B3235CEBBB1EAF7A3635AE9F3E2553B2D316B5537ECD5EAC5981EA0F3DA3FC4540B6273D6488ECA1E88880940D84733E087A60B2296125A35D7EE8E36A74341350041104118398BDE1DD11D32317EFB2294E25435CF3CE1BB46C0714C567B2E71CC1DD9975
311
90D16180E7AE7F851CB161103D22878EC8E619FC034CF7E97F60B22E52B2019F890014CEFF7F5C28D99402F378B49B67295B7D03504B0304140006080800BD818E509CACB44DFA000000960100003700000038374141353944322D363745442D344534302D414137332D3639414636383843413734452F5265736F75726365
311
732F636F72652E786D6C8550CB4EC33010FC9568EFCEC371685A39AE44503F0071E26639DB60B5B1233F109F8FDD04094E9C76353B33BB3BFCFCB5DC8B4F745E5B334053D650A05176D2661E20862BE9A1380BEEAC0DBF685018B9E0001906C16767E3BA43CA9A8026A3C64EB883D27B0C50A87B6A06F0EA031759CA1812C3
311
DFCA55AA9B9CB16CCA8D27788C7ADAA57A4A6EFAAAD181188F236BBB979EB0031D09ABE981F4CFB4272DBBD0AEEB2E7D7B64BCCA62C1835E7EB62B8732E00482D6B42635230D7B6B9E4E4D7BEAFA775E65A6E03EB8F4F3BE347F07E215BD8D4EA1E7D536FDE31AD7E97FD7A84D68E9EEBA293C88261DF918085EE594527944
311
986A4E547C03504B0304140006080800BD818E5055C0BEC1F7000000940100003500000038374141353944322D363745442D344534302D414137332D3639414636383843413734452F536368656D61732F636F72652E786D6C8550CB6EC32010FC156BEFD806E38644984875951F684FBD214C5C94182C1E553FBFE0B8527B
311
EA6957B333B3BBC3CF5FCBBDFAD43E186707C0750B95B6CA4DC6CE03A478450CAAB3E0DEB9F88B0695958B1EA0C020F8EC5D5A7748391BB52DA87593DE4119828E50A97B6E0608EA432FB296296646B8D5AB543739EB1AD70F9EE0299969979A29BB99ABD11EC4781C69D7BF30440F6444B42507C49E09431DBD90BEEF2FAC
311
3B52DE14B1E0D12C3FDB95D732EA090469498B5A8A307DC34F27DC9D7AF6CE9BC2143C449F7FDE9796EF40BC6E7706DE3C667F3CD33AFDEF998C8D1DD93D1F8A0002E713B781E04DC928972DC05C4B9EE21B504B0304140006080800BD818E5007D669D502010000D80100002D00000038374141353944322D363745442D34
311
4534302D414137332D3639414636383843413734452F636F72652E786D6C95914D6EC3201085AF62CD1EDBF83F1126B29AF4045D754761E2A2C460195CF5F885DA55DB5DBB023DBE37C39B61A7F7E99EBCE1E2B4353DD03487048DB44A9BB187D55F4907C989B3C55AFF0383C488097B883270362E769D77495AE3D144D558
311
85BB289C430F89BC874B0F4EBEE22452B1FA40B85B3A0B791323A634DD38CEBC9EBEAC7241E151012FF22227794568F5449B232D8F75F7CCB24872B66AE3CB626F86D30BAAC4CE3E44025E972CDB9E03B66AB5435A854FEAABC60578D70E437D3817A4692F67525DAA9C0C435B92E6303C365DF730B4D525140966CE9C5FC2
311
68F62271087FB56FC65FD1D659FD33DAE670C0E977A82CCE99B3EC7309E18C3BE11F504B0304140006080800BD818E50CEEA55E107010000B201000008000000636F72652E786D6C8D50CB6EC32010FC15B477FCC0B871224CA4BACA17F4D41B35C445B1C13210B57F5F88A9D4DE7A5A3433BB330C3B7F2E33BAABCD696B7A
311
A88B0A9032A395DA4C3D047FC51DA033679BB5FE970C90118BEA21C1C0D9B4D9B06668B4C62B935063A5CAA0704E7940E31C1F3DB8F1432DA210C14785BB15AB186F6252455DEC3ACEBC5E7E56C74D09AF247052910A5714D7F4B57E3AD5CDA9EDDE5899949C85A065B6D232BAEBAB561BF0E138D0A67DE9303D9001D38A1C
311
70F74C3ADCD00B69DBF6D23547CACAB4CC99F35BFC733E12737AE4C43DF9B272A7387BB776CE82184A226BE62FE0152B13F1277458E53F426BE31B920FEE1B0E781D033D88689C1A8CE3516F9CA96DFE0D504B01021400140006080800BD818E508B219AFF34010000A80100004F0000000000000000000000000000000000
311
38374141353944322D363745442D344534302D414137332D3639414636383843413734452F4173736574446174612F446566696E6974696F6E4974657261746F7250726F706572746965732E62696E504B01021400140006080800BD818E5000806D23FC000000300200004500000000000000000000000000A10100003837
311
4141353944322D363745442D344534302D414137332D3639414636383843413734452F4173736574446174612F496E7374616E636550726F706572746965732E62696E504B01021400140006080800BD818E5088E57597CD3F0000904100006B000000000000000000000000000003000038374141353944322D363745442D
311
344534302D414137332D3639414636383843413734452F5265736F75726365732F33314132373535302D364134422D343346462D414243452D3530344646384330323942322F7468756D626E61696C2F302F67656E657269635F706E67504B01021400140006080800BD818E5028BB58AF800100009E0500003D0000000000
311
00000000000000005643000038374141353944322D363745442D344534302D414137332D3639414636383843413734452F536368656D61732F436F6D6D6F6E536368656D612E786D6C504B01021400140006080800BD818E50670136ADA9040000B41400003E00000000000000000000000000314500003837414135394432
311
2D363745442D344534302D414137332D3639414636383843413734452F536368656D61732F47656E65726963536368656D612E786D6C504B01021400140006080800BD818E508DFFFC99640100009B0300004500000000000000000000000000364A000038374141353944322D363745442D344534302D414137332D363941
311
4636383843413734452F536368656D61732F52656E6465724D6174657269616C536368656D612E786D6C504B01021400140006080800BD818E50E647773551000000570000004700000000000000000000000000FD4B000038374141353944322D363745442D344534302D414137332D3639414636383843413734452F4173
311
736574446174612F41737365745461626C654F66436F6E74656E74732E62696E504B01021400140006080800BD818E50C55C663656000000680000004500000000000000000000000000B34C000038374141353944322D363745442D344534302D414137332D3639414636383843413734452F4173736574446174612F5374
311
7265616D56657273696F6E5461626C652E696E66504B01021400140006080800BD818E50B287695038010000A204000036000000000000000000000000006C4D000038374141353944322D363745442D344534302D414137332D3639414636383843413734452F4173736574446174612F636E782E786D6C504B0102140014
311
0006080800BD818E500838E319E7000000600100006700000000000000000000000000F84E000038374141353944322D363745442D344534302D414137332D3639414636383843413734452F5265736F75726365732F33314132373535302D364134422D343346462D414243452D3530344646384330323942322F7468756D
311
626E61696C2F302F636E782E786D6C504B01021400140006080800BD818E50A233C2345D0000008000000065000000000000000000000000006450000038374141353944322D363745442D344534302D414137332D3639414636383843413734452F5265736F75726365732F33314132373535302D364134422D343346462D
311
414243452D3530344646384330323942322F7468756D626E61696C2F636E782E786D6C504B01021400140006080800BD818E50BE89762363000000880000005B000000000000000000000000004451000038374141353944322D363745442D344534302D414137332D3639414636383843413734452F5265736F7572636573
311
2F33314132373535302D364134422D343346462D414243452D3530344646384330323942322F636E782E786D6C504B01021400140006080800BD818E504A0A8B937F000000A300000036000000000000000000000000002052000038374141353944322D363745442D344534302D414137332D363941463638384341373445
311
2F5265736F75726365732F636E782E786D6C504B01021400140006080800BD818E50CCB86F520B010000550300003400000000000000000000000000F352000038374141353944322D363745442D344534302D414137332D3639414636383843413734452F536368656D61732F636E782E786D6C504B010214001400060808
311
00BD818E50E3603EBE7A000000C20000002C000000000000000000000000005054000038374141353944322D363745442D344534302D414137332D3639414636383843413734452F636E782E786D6C504B01021400140006080800BD818E50133C7FEB7E000000A3000000070000000000000000000000000014550000636E
311
782E786D6C504B01021400140006080800BD818E50CA1DF9C9A9000000730100001300000000000000000000000000B75500005B436F6E74656E745F54797065735D2E786D6C504B01021400140006080800BD818E503DEE336E64000000790000001B00000000000000000000000000915600006175746F6465736B2D6465
311
7369676E2D7061636B6167652E786D6C504B01021400140006080800BD818E5008F0D310F90000009601000037000000000000000000000000002E57000038374141353944322D363745442D344534302D414137332D3639414636383843413734452F4173736574446174612F636F72652E786D6C504B0102140014000608
311
0800BD818E50FE0C8722F30000008E01000068000000000000000000000000007C58000038374141353944322D363745442D344534302D414137332D3639414636383843413734452F5265736F75726365732F33314132373535302D364134422D343346462D414243452D3530344646384330323942322F7468756D626E61
311
696C2F302F636F72652E786D6C504B01021400140006080800BD818E50683EE212F9000000960100006600000000000000000000000000F559000038374141353944322D363745442D344534302D414137332D3639414636383843413734452F5265736F75726365732F33314132373535302D364134422D343346462D4142
311
43452D3530344646384330323942322F7468756D626E61696C2F636F72652E786D6C504B01021400140006080800BD818E5056E4D97A0D010000B10100005C00000000000000000000000000725B000038374141353944322D363745442D344534302D414137332D3639414636383843413734452F5265736F75726365732F
311
33314132373535302D364134422D343346462D414243452D3530344646384330323942322F636F72652E786D6C504B01021400140006080800BD818E509CACB44DFA000000960100003700000000000000000000000000F95C000038374141353944322D363745442D344534302D414137332D363941463638384341373445
311
2F5265736F75726365732F636F72652E786D6C504B01021400140006080800BD818E5055C0BEC1F7000000940100003500000000000000000000000000485E000038374141353944322D363745442D344534302D414137332D3639414636383843413734452F536368656D61732F636F72652E786D6C504B01021400140006
311
080800BD818E5007D669D502010000D80100002D00000000000000000000000000925F000038374141353944322D363745442D344534302D414137332D3639414636383843413734452F636F72652E786D6C504B01021400140006080800BD818E50CEEA55E107010000B20100000800000000000000000000000000DF6000
311
00636F72652E786D6C504B0506000000001A001A00210B00000C6200000000
310
504B0304140006080800BD818E50000000000000000000000000370000006662782F44453246384335422D323442412D344337422D394336342D3338314334363142323541362F617474726962757465732E62696E504B0304140006080800BD818E50000000000000000000000000350000006662782F4445324638433542
310
2D323442412D344337422D394336342D3338314334363142323541362F76657274696365732E62696E504B0304140006080800BD818E50F270F1330600000004000000360000006662782F44453246384335422D323442412D344337422D394336342D3338314334363142323541362F747269616E676C65732E62696E6366
310
60600000504B0304140006080800BD818E5088E57597CD3F000090410000420000006662782F44453246384335422D323442412D344337422D394336342D3338314334363142323541362F7265736F75726365732F322F305F67656E657269632E706E67355B773CD4FF1FBF73E71C0E67EF7576C9DEF3EC995D46C6A1EC50
310
46649CBDF79E192942562825CE965D8A868C2842C8DE9FDFD1F7E7F138F7078FCF6B3F5FCFD7EBFDFEC41B196891913091804020321D6D7513FC77D8C5070EC3FFEE51B21F068154CC75D455CC028A3EA68992803810109FDDE5D5CEC5521B28A1B422BF80741695D5B529DA1C2D058AD2388BDA9F476F7C2CADC939304173
310
DBF48A452BF8A700C0C70C3D121C1AA15A5270C22E2B9E28763651F7DA0D12CE11077B2ECD0D560B5E3DE2368B1E65C5E1C87384A4CC5F2D9FB8BE39E9B77C753783A37998F5CEF1B4FEE553463245C9712270880DF339E0B882A6BA713D865F6F384C842D440934EF264F4A304F8DE4EEFA1E2BF5E2D91F5ADD9613D6E31D
310
DB33ED31DB1D7916CAF091286EA3D31B9CFECB78BB0060245B943C4C040119FF780A74DD308BA9D028678674EB5504ECF284EE814DAED07440BAF649BE4B55DA2890F4D73E2D489A59EE54FDB0A85B59F2F52C4858A02705C4815A792B0C4A996A2023ECB195073E115E3E3647F64243A8338F2000BCB58DA5692C7E7C3D41
310
3F963FEDF3CF00FBB0F831A9D51360FECA43819F527B89FA260EB63C5DA676830AA3626A3693B23F1A17A0DFFCE3EE164E31B5365EDF0C89EF64D8E38AB0BA9A1117D7C3A0EC44F44F4023095E80BA610DE336D0F99593A88BFC5306E72DF98F7FD132ED95878DF2964EA7E43071359FD83B2BDF9C6B5BDF768F0F3C0FC351
310
199526F53D9460A34511F75D1B63E488178569472C91A94497807A3FD4A390C6558F26D416365C3656DE6E769DA9D8FC73774E1709812842DD8EF96AED1960F79D21B395CDDFE6F92CB4EB962A4668C76990E2EF29798C8941D67DA50F4A5F947872460F1F6FDB794E8A29FD7AC0C0D6E0714339CE258FB17AE8535221E346
310
4A10F29A0BE5EEECEFC5675926A89F49EB14E5711894F6586DB5754EB4D5DA9C6437EBA57DB97A24F8B8A8DB295FFD73266CF57E82694DF5166DDF93573AFE9C9C5EB05F8FEF8E89E0A8917B0B3724DB7BEBB53252581EFC3E38166BA131A3A5B42FE2AD00A769BBFA4458D2DE7822F8C4F63D0B8E21B285AE13325F3410A4
310
35C648C9D91FDEB109E73CEDA7BC796961AF79175E1A3CE4C5E8B0D009B0C9E29EFD98BC8E97554E3D8D838424E270F7685226E5AC268E021EDE3522D583E8F20C0BDE2959EF5BBFEEDAB32FE9A3ED0E39F211A86AA9DEBFC68182EDED132AB8BB794442D2D7EA9F4D8BFF52BC4D55BB165124EE90A42D101E67BBBB292FFB
310
4F66DE5BF2300E44546757DA7CEF8932BFC9F92A0707953491A55C5A5ACEDABD9FA1AEA01BAC3DC5A24E22E7C47213493996EFBC369D086ED9397C9BA6C7F9855C7BD5E15BFC8C53DB3D2A4C5901A57ACD2FBDF4D1676E95338B2C2BCE65FDA4C64F5FEFDC7D9CA5AA1FCF11E193F2FDABF0F4916BF13FB916A224380E6462
310
A9815F2300DC49CC4DF8D055CEF76462F4B7A7ACA7365C2707891370BC1D0AA6203C44CCAB47084FEC057F27FFCD57F89B8B9852459798A675C66BD7CE572CAF71FF7E6D7ECF7BF62CAB7B3F1107DCD04DC55A3F9961700286141C94A4F771FEB2BCDA2DDEE0CB0BAE402FF1DB0100F8E475DFFFC074DDB4498AB7D186A765
310
4DDB1CB680D703D47CEB4E72F8CB13D86A4AA68116E26387B93FD6738779B34FEDB8E517EDF2BAF28D9BE93A1D3A164320E07D42E514725C29515FF361754213EDE06B079A2E99EB1CA82A02019EADEEB87B9AF005BD04BBCECB14AACD6B24EFBE482194A97DD32400685FF1FEF1544D1B14EFB1E7F08E6D2CD2AF52DE757F
310
35F5E62332EE88EA26417AD5C3E0E319D68F25414E6D672BD4522B278C57D18F0113921C71D96527E091F00CEB15AE23D24667369BD3CEFA10C7549D930890BA4366F4EBC55F01F746109F98ABCDD5A3EE06619C6AD78AB33E48E4C9BD21BF7478B385EC05C4F8987E2C1BFA0A60EBEDAA0AE0B015C2720ECE180FB6F2DEFB
310
EB822D96338C9B63822183BBF52FB664A7AE57003AABCE512BF77E7E31BDA2E739AC4C131657DDFE5225E900FB56CC01CDE808FA4A9C9DA16AC679656BB64796283D89812B8F91136AE18EE5EBBAF47A73BE3C153EB5D4CD491B4BFB4FE690A4CF9ABA08C0D8AA64220C438C96EA6CA80B58FE5761E697B3A292EB9FBDA502
310
FA863E49FE694ADDFFF9D62C520BDD1A22014147A0903A05B9B729F54272EF83931FEEC057BFF8C8055C279EAC5C0011804828734024F6CFA319C9CC6867C727184465CD9BB7ED386AFFD96B294A85E3802FAE47244602D8273615952B98C4F23F7EAE4463D9D638EEE374A20959E0FE519C4CFB0FBFE5DD80C2AA3F9DB961
310
D1BDE57E67C9BB47B77FDD74EE3094F5DBBE3EBC1FBDB7393F5116263009E2EFE1AF9A221B2AE234C902BF70E9F280ED23E73908361565964333A3F01D0B006AF32FB21AA1316744B489D5A198E85299241735BE559675130955C902A8ED761FC0DBE337A9F91919AF5CE32AF902ADF9AB2615E00E8A94586BA1A90839B618
310
32FF1BFB76D2EFADE6DB1BA04CCAD3DA649E7E2A0219F592E22F2AD54847EEA8E42271011E9074F8F3DD9FBA6CDF88FFC9FC7E811AD1CA8F4557CE4AFC7BBEDCF0114A48689F20A584520C74DA8127124B767E2FB91A6B186246727BE63C9445BAE02088D58B8EFDC0F1072407CD9B89A13F6303B4A928F593AD489B58E686
310
9325790ADC406036C591729FE14021F94B7796BB11848D463536A092A26F077F94639F7CEEE2A724C66EC885F4A24F8B8A0AC321F8FD149BA529460FAA34E4663C02D41FDF80BCA222D42F0ABFF8490F4FA74C673807C2051D8E467B47B616072860069A9A303ABA9B319D58404461401B0A0F9BE5E1E151C14BC33B32ABE0
310
3DDE91708DFAEB15E7C0D593C86BB7D7EC17BE56E57975F077BFD5525F3A1A361D584A75E08CF29FC7B44B2B3085014F3A5A14517377C3F6B8F37E59514C3B12F8AACDEDDA4DFC49BE5710101534CD6FB6DE15B50F11A09472AABA727F0C49D9CB906B158030065F48EB3625E010CEC1D511D0053474B11E6A4F01C0D6EF1B
310
ED3A944FDEC70E0DDCDC756C86545910E0DAE3BE3AA9A404574C2995CD5CAF9549226BC94B4F4F0F5F9086F418F6B32346464610D8BC7391D3C3A3CCF04CFC1FB2A3A3170E369511868F14EEA4E5E438CC73DB1F3248AA94B6B2FF33B222FF3D1E7BF146CAD229770158063BCE4F5391964DF62F7E52A7BE0EEA829C9E13C4
310
C147D6F93FE59E111DAB5E4594D6F3CD1AD375EE039930EFE5AF2BB2D41C83C7DABD8C659BAFBE8FAB392CA634F3D15C1D945DB4588D2B0824A4EC928AAC565557CA2F0DAA588CA5BE30B3A8004F7BF005E96CBF891D7F18112A3619FDF530DC8AA64954258E1811789B5189B49B4EB53F5F89F7D37523894F3EB57B373763
310
C91E502F52CC99EB7BDDF933FC324C4FFC2561DFFA7339FAFDD0A4BFBE6D3A8FF9ED1FC49898139864602458968913181918F719CCF5A68B2EE9C1FF050E34E63107003B8120FA982C21B30A874E4F5E4B38D5A8290C4B8D9BE48A0BE31EA995BDC37AC6DE90BA17D259DEF53605D55922FEB1855D915B659FBEB350EE0DFB
310
2F9F766E1C84CC8964B75D08667445EAB966015F63A18A9E0A325C1B3DC628C0D3CB60F767FA93CC65F25458BD23C3B312716E5F40E5858AC06EBA9AB14F95DB99147B832069201541D09A0D856E12C629CF32683760EE855537D1901988D5EBC156676C7DD51D7207CF3267AF1D76C2AD867315E44618015313A98B19941C
310
696FED3461CAA9B5415F918556D7802EDACEFD6B2E45853A9735DFC9DBF7E440F9319F8B6805A973BCCDC76C069A9144E51F187EDCC12FC31B5DEAAF0A76137199B106EC84ADA6B6EE697D4E6A96E007417F4E880E8B1E89B4BCE9D81EF611E2ED8F0C1A6C25F620FAFAAB656A7C42D464880E8AFAB0E0FC8EA38CA9A8AEEA
310
EE3E4648BA4680270A89743CDD3E6C6CBF34B7B640EFA285ABC7EA0A1E28F3CC963D114A80123EE66D0AF7D5380EB41909B605AB4765B709B808590458157E69BA1378FEC4B48CAF6A730E3BE3C5EF2DD1A5EAF94B1DDE50CEB55DDFD7EE9A16747FA4B223359FB1FCC69E1194892BABB93A1D5C4E807AC0EA2E30180811E7
310
7A2291F6E7F7FAA5E0F60215BC6024E48DE436C511F0628B8CA189982D4D83CCA17D305A7E923C37941CFDFDCD93ACAF735EF5F0E61BBD3E6C41A59B242790D3A3BAC7064DCD89AA2E37214EC839820949D5CAA31E240D2948E48F690298974A96BA9A8432BC90F5071D6537C9666EA4564796B7AFFFA548077BEEA75F6308
310
3435074BA182F3699557397F71548383FDA8CA34D99B981E72835ECDA5DDDC151315173D05A21F651AAF8524E88209E2E7A737ED1045800CE3390050BCFB8BE588DF111617874C62575039CA588EEFDEFEFE319B739DE2EDC147092A262611E159650E787917885EF08F1F51B8F2D8A71D60B58B190FEF9541A1BE94BC19FE
310
A50784DA1419FE4B0FB51B8D36B5FF8E1286FD8AF42B91E59A5F1CC4D60174E764045FD8C57B18209B217F89A62252BD20BE0E63E12B8E8F029FE19E0E8D0870F58721A557082250D5424F7909369376E41666C0EE77CD87CB283F661D5FB6D0DA023CB67320A20DC7BE661E9E1BFE5463085C557DA1FF9BE835733766C3D1
310
39F2CF9E2208873AD0EB4814DE9E6BF2CAF81614D4D43906ED1C05A3265CABBFE192770FC2F64F940CB6B17B5F166F133C9AEEAD2641807C3E69515171DD74C4A85311513D6EC9530B3B601B6BA3EBFF3B5C3D2F7D69765141E345F75433953D013ADDF8F6AA7DC3F4A7563FE5C7D367937E2900D7EAD0F9FC9A4A1A9B5BDF
310
1FEF08532660C01C5D6DE22199AA774383E306DAB87E301ABB7D213887F9869D4942D0D71E94B27EDF216A318BD488D45DF84529EF575AF3C3938C0AAA0215B01994153E2054A0B894DA5C784980633AAD48576957CF4AEAEAFADC7C587368551C73DBE1E57C58AC713303A8BFC258BD04B51724459FF9E24C03A81E0E0679
310
CEB9B348C0DC998FEB9C6D6EFA77D247CC8F92D3848599ED89A23218D0636465AD1CEEB7DC140D7426F83491C4E8E8281C2FB35240918FFECE880CA2A42D70E8B20B34DF5221C7DB0CF90ECCB9C745B37A47E9B716FF7A97B7A252C1F3814DC7B1E1A7F72B8751D524EF7CAE45B0C73B3BE7D08ED39781B380DDFC9AA4A474
310
9C9493DB5BAD07A6EA6C092FBD0E85DB004DF06B8C9D3089C5320187E4CE1846158C7EA7DDAE8AD9AFFF21AA3A1026BB06A259845E8232DEE62811A4DA9CEAB3A4887320B76E2AE5615EAB7BDF738CBDD01F1E64064BC13D9EC53576751CA8CACD58B3CEB0E6CA585BD089B2A59B9FC101403387AADBDBE70586B93D64BF3A
310
D4453EF9C3B6A93817E8346991798601344F79A83C51F3D50F7BF2683A3605F51A72449489E0EE6169C749C60B1035651103AEE24D24E51A759C840DD3FC6504DA6FE107510E447B43461C79D22970B75DE5E1BD3007D1AFC619A4A4A69B5626AF5E9B8374E20677F77E2F8E73DF868E8BEC7EBA7B6A75EEF7205E1AB9486C
310
B642741D6E03FF13FCCEDB1C4AC129886268B01CDF4B124AF797CF784F3C6DEC97A17D4B558070A0F1C04DA4FF9BDBF34159AEFE958479824B3F58EBD1E19088A2AFDE501B6F2052368A3FD0E650A179EFAB1561E1D27527077136E652676C3670F42DCB3352F48F6BC86D2C3B0051727E41A0A4DC6CE2BE9D47F5CAA2935A
310
3C0539AF080665997194ABECD723B08129CC5B6B21D2E7D54CD4D12610E7E9FB8306771A89576C7A982002775ED44F3F744CF21EEBB27A631671D921938AAEE3EB0D19CD1E083727F607823E817BF599DCED5394E37EEBC2E88782E638920CA641EF74D4CDFCDEF06F4278ECB18E31E7E9876F2D783C8BF429C75395F57E98
310
C2B495A3DA077EB3AC3C158608B6B57FE3EA48484D9A480096FCEE0DE880950E7E5A5714131C5C41AAA29FD19AE81AC145FA1B9E85C7169A5AB837B213493DF7E9AA4B5FBF9CDEB36EBD21EF1181B7CF7366AB2A951D01E37AF4EB835D1BE8C117CFBE7625D2EBCDB0B20C5A4B45CED0BCDE3EE8DA9DA78C2E21DEAAFFD119
310
7E463C33CC6A80FB785669B856EFF7A8CCCA2841B5A5369173320B1170C368B2748D81062EA0296E5E2D95D7667A4A46D98A6FF475C76AAB0A8C8D45E226FAFC9FE0133EA9F60111F99CA81ACE03A1D14C89E8B0D69079C91464FA1D99E651D0EAF606F345C42A8A1AA9BA391031582B96D5B4176A77AADB01F12FD298A75D
310
EEBB2C82F0B8650E880722F8DDD90C56A7A058E5FDEF1AC93545BA27367C76F5D8F9690CB6F8DAE141EDD7971F0FB548A2AE435F224D6E5954CA155512F7332029D5A1230854B79F258EC5FFDB09F5F6343A8EB193229B7F7E79B3E48F8E183860B38C8269D1B53738FF1E0BACF6AADA6D4869E9DE708E79B5DADCC09B1BC7
310
6F649731CFAF59A83FD8BAE4C749D66FA87A3810D4D62FFE826FA400C0F325D2BC0F3CA35F5847B82A2ACC7961745C823E4D863D54460AF792CE6F79B5C7A33B25C3AEA6CDE15A919B6367D781E9D44F61BF828672594A3E1D9EDD6DF179A81F27EAC05B936575D73E05C209DDD2115CFB705DF9BBF3C911589B3640735E9E
310
618FC9C36A7326C82B2205E244C55D56FDB9D5DC93CE958D4BF8174D2B3DA54CB3C09F2C2A6DFF73D23B2197355761AD421EC581284A7EF8DE2CE3497C0C804D49B41DFD6A7360844E5BEFFB495CFCDB97A4595911CDBA623274CE852B5E278AF0BEB1770E9D37CD977B2766A7DED0E94B840E1E95E8C77DE5CB6354AF7871
310
427C28ADBEEF7BA0A28E19DE9ACD75F379FE373EAE6DDDAE3834692F9C2B03B4FCA8FCA9ABE8EEEBEBB725B88A7C90941E850682CA04061A7DF0CE82ED49BFAFFD42C309818FAE14755CAAE78B0F73243ECCCAD7DF58FCB9CDFAE7A4D3E6671A613639130D056C8383C8F4FCF4808C331E544DD26E4755D09EA05253B3049A
310
1E32587CC25D72E073E2CD96D04A71BBCB0038FEC3F53D254199C3CDC67CD66640269431860225392B2CB3ECD0B4498AAE78BA1994246AE1EE78F2EDFB79F6C6CB6B5E279C4D373FBC21CB2698C9ACBBEB6A4BB6B39E16AB0E421CCBFC7654D81ED86022F9BB522146F9F4772E2D0E4FA70120C95A85A417BF5078B232F475
310
4363EB1750B2AC2148EB46B1EA72AD9B4D23ADCBC589D70106C3EC2ABEEED84DFE28E718C6C83502C28E9FDD3B09DA0A6F6F7B72B706A31C9E2A331EE70DA56A083D2177BFD63C55B11D8D949FAFCF90B23A1E24B9B5018B9A17E99F2890EC302F330FE7936E2C23F0D237EC8916F5166AB84B62A21BB0B950146962D754F9
310
2CC2C8877BED8FC7B7B25726DD19545392570B3A2C66B58F027BEF412E552D12A588C4A3CC5C3193FCB3485EFFF700D0B9EEC077754A33DC1FB9E25AF814628F91DDFECB667D3F7690803F38D13F8AE39353523BB08FC6760144AFA2CE28236F65EDBB3D5F59A57D612B99E3D7E5F8A851666BF9B5A6658EFC96EEB37A378A
310
BB0EB3FDDF1303AF32C41BD1C8560745D7BD81066B0D6313359CF488563D3BA3F8E2185D1FAA3EBA1397C9D0E3DD232180A4DCADB6AF25DB3AC3CC26589C8239E66E81547BC7E2F328F9884764CA37EB5DBE390DFC03A5246B456A7C3684C4377D0EEF9A350680FA9A077E8B2957B489E09AB1AD41316944C2254B5984830F
310
691C93CAA767EECF976FA5647538830B5E63236A6F0365C1E0F3E327F24FE35EDDBD7360B0F7374837409F7A6311BECC12B7026D4FA1AE204FA3F5FE904B1F420C7A9044AE58E403E7C4848E7DA25DC9EDAC79DD756FAA26B9EA83ACE8A214A2612A22AFA19DAE7DBAC5F8CDE1292A485F98DAC731A29FE01A3966E96BCB9F
310
B5A4C8830E1B9AF0C54B87FBE221A097036E5D28D1F869F810C06A9BB0AC0612F69AEBAF893C6E7AD59460208BAB3A6B09CA4F6BDDAB8CF0D1F84B72487498395A70DCD754796E271099A567A55CF242BBED64696378BB6CF25EF0FCDB589F3A82F1116D010A9AB9FA4358809EE0C973A2B4229BAA876A70B03AB49CBA7FBE
310
71DB1832FFD32F9BF2C8E98075CACAFB36921235D0F552B6A67E94E094097A5D7DF681B40623DA535ADA7A9AD8E9A62407D7C9A5AE51D62A17A83A23728DE86BB56115804D3F2675F2C6B87541A0FC497BF0CA86420F558C9859EBE9FAD62747E323E3AADC03FDCDDFE7407B09DA90B44E3185723C5381EAEF589765E2F7A0
310
99BA46695BAD60CEF3491B8A171F5F56444F7CE9455312C3498C74173AEA0214EC029833B34B650CBB5A5508D5091665309642791708ECF27CF11DB3D797D6CFE474453BD4BFADB768094B2147814D81C7CBAF8228DCAF5564B5891F5EF6A860EB2E323CB82AB868D8EA048880D63B0DE5341F1B3D53297B928A11E15F25E5
310
148990F710747C3509ED14909C552EBE3973246FCE55D00564D8310BC3EBC5085D08D806799B77D6C57FDF5E55837F9E934F09C03C729271B64F12D0A9F9E938107CAF7BF1EC8CF1BB9B42363D33070F4CACB425E605DDB0A34A12BB936DE286B9887A4E2E558F0886498BFF49C311D96C277CF6A9FC0D75AD0ECC5226D7E0
310
E3572012E56D7FDE4410CEC7A6D0F997F225A2055B8B92E3956E875AE4993CB3D4C9063AF98FD45E1BAB165640A43439A2C9181A7C355B297C0A0CCFFAE19B6FA3C2BA238A885FBC98B8F6DAF4B94B97304878DF4D8BFF6A4AEDF79E90ED4E68F00CD7299F4E0D83E35601AF0CBEF18C1E870E74758FA91F5131075004DB3C
310
FCF09AE1DABC11957FD9808C92E8A678CE9DBE40DDA0E0D1D505AAFBCBA208232BFB6FB3704E8985E61ADE53DE74152F5C7DE74B1DEDCD37DC3E8FB30D7EBA8B9EFFC3606BF90B8D438279CB7709FC7C00D327F41817EEA71CD9E49FE9C8C9A81C70915D9F0F15958EC5AA4C3BBFAF46986B90F188BDB24B89DE3C6F29EC3E
310
6F66D84856EE96A35E657CA41B41EFD8DBFA16AD6E91439EA92B40B21C053249F51AE50EB0B24C770FFAF40DF12C8436366819C48E36547D4E7B72FE2BBF10828583057814A668BDF183F6B2E58DFB151103E56303E63D00F39C27C4661605DB644D19175D02E3F0241E8FC3458D17AAAADB117CE9EEA690D0DB01E634878C
310
04C2C9310B69FCAB831151E3AD293BEF6E46B0ABCECB50F5939B39C613D41E81FAE8D34CAE3C4566B761D37185FE864AC32FCB71AEF39DAA5BAB88609BB980CD2F07A8F941653B529567726E2B2A58D079DD57E1E5E31426CF184A04D7B03B985F276D47406AF276FE32E3328BA866EB1FD39BEF57863A317634AA5FE46740
310
9B3873F5069EF0D71AF00AD189D17BA1974ECDB2D623E9E14086386A6AAB5807825C37B015BFE892AFD154920EC437EB945D958E18622E1E0FE2FA06557CE4BB9BBD05A2D40E774DA2B65473791E314B7D6C886820B2FCFE4AA272B3B8B15E7344A145E8AF919B5454D89D36D413E87211186BF6F645E5EC94DCCE8E1C7990
310
22E4EC9BC86D7A0F2AFB1FC4B2CE48F84B3F49ECE65BAD24CADCC07EFF39AB06BE9E6B27A059938EA7208838455383DDBCFCD967DDE4650EF92A14FF933C975DB20BD7FEEBC4487576485963D757D16340D9599FEB362F775F38CA4185A86F74B629C81B133644A3B18FD056E997E0734F9BE26D11C0AAFC669E2AC9FC41D2
310
81F8B2E1C35AE27BCE05F3DA295488096688719D974DF1B5D182DB7792288697F8763CFB43562C1CDEE11C4AABD5C22B6E33F6F389CFC3477C5919DC0D533F8A7A1846B7ADB60ABDC26C43D0CFC8910B7C15EE22675BD02702ED39DB77A87A192CA7A543E6205B979B9F5A6B512A3CA799E198B2D5797C0AF8D1D872CA455D
310
4D431A7879D4DD76110B5FF7F4176B54477A9EB5E4A5D11214FDA585F0382751D8E2582BA5D2075053298FEB8F1537304E32CB22C2E2B693DC0A760B1DFCA751BDC445AFDCBB12820ED85F6D5298933C7EF1211E9E057684056CDA3FEF3BB6052355E162DF27C59E965A8DDB7F9437EB72CDDA3A090DE65A5B2F50326247B7
310
EC67B73ACC7047FC9B353D6EE990F772207C6EC52B39DC2F3C0754821DAB559F7C1809C7D0DD5B0499D0442E0A6E391B3D5DB46D11E731E6794EC77523FBDAA242ED67F9FA1FB684255671F63C9BCFE6E7E896D51001A6113EF2298BA494E0B0980D1FA5B9D60796554C02256B1E0345FB7C6186B6A19D2DCA270416262845
310
FA4F42DB5D9B0A0B6F07FCA2E56C242522E001E0CEB734AF310FC8BFB57E38E03AACE93B3326A2197891E68452B26A6307FDABFEE0223D3C03C3C73D2D5BC054C8311F12004CAE488E5C29287F8156A2CAA4AD0D7BE6B97264E4139F437CE73ADF52E5134C52B819777C18B323A5924E4F67AFD13B1CDC3A61793A79FAF5C0
310
CEB718E441071E797C6DCCB9EFCF7E4A1E9F3DF3C2F9C9E8294E9586868788C972857FB0556D7A26941A7EEB9B580AD78EC40B85DC906B4120A563CA3B87797ED612D3B035962BB75F6515A393F4CB057F564CDF54F2E5A024514E6A1F901DB80C7E70B1FC05E356A7E72FABF4775B3E3FB8F70A2A8E7B6A94542BB3041579
310
78CCC999E707A29CC795E67A59CC546A5D47B368954CA7B6E75EC9E1F6FC73CE3B4F71F8CB1A6B15923D61EAAEB14626AAA9D04A26EB9C66CD1BE86CA31A5D8703DE04CD1EBCE4F5CCB62F93909AD11E55799A781A956ED27D3E738F4538CB04ADABC7DAEF20BC35BA6A90BCC1DC61BA05F20D8832FFB9BC9B15E2DB838A0A
310
FBB7E0C82A562127E0446894F427794C3037186F622BF24DE1B00AA10A23BFA47B2A180D6DA5AD6F7326FEB8C100C2D7142EB2A0B2A9D1008A09BA343D70E054AB69E2A7EDB783CBD92537FAF4A44D1296AC2792729104B3276C276C951D0CF3CF3F1E6B017720A7B8505A5FF9589365979678C36F1BAF759EAF57C60F1FF5
310
FE9DCF5F8E764FF25A2D06CF25117A8FED51884C13B2B750DB0E4F5E3D64124FCF11F0AD8F1CC3B3DA4B38ED22BF1CB2585EE6BFEBBA63FBFD44F9537B9B37BDD6B358720F98A8125AED4349CCFEB0E135F19E208A04CA7E2B10711185D72E381F448036EF57C9F874E54A971CA37A639E986AC0226DC5AA00D5B14FEA9192
310
234B3DE617814FC221C92F33F1D392F297731B567FD98FD91D989379AF567A65B8ADF177591DB90FBEA99BF4ED11B16E50A0AB1DBF1156D034BBE04D69D08F939D8E92BF525A1DDAFF80ECBC95D8F45D3FDD289FD23F7D8B452F8EBB34EC082DEEE68E18EDDF072060FAD2AB1504DD4879BF67099FC58F6E9DEFBF645D1633
310
4A3E9A127C6F1AF6132CF287E433B43A0EE93812B4AA0B194E03EE3FF91EF9C6ED0074A2F6EB18A96A7C9890B1FCDA1F2095E944DB911ED54C60DF16FB74C8CE9BDC7C54C4F14078CF73C2FFF1F1BBCCD7CF64F71407EA1683DBC410D226627F66E509060D5C0AFD611DE681D509DB8DD12FB1265B03C6F5C55FF4C30BD941
310
87FF692B4F152982502F193098A789526A038AB529A52BC0DC4FB6285CBAC10A8B8DB75DCD9BDABBB221E27D1F8DA9F5EE5926A1C8AA9BA9BC09239C6A7F12914EA3B59EFF7AAEC3FFCCE56F1C5C2980AD072793527565E774F4631DB178CEEC691B1F367BEA0CF2907E1D6B854D527065979DDEF002D8B2ACEA7CE21AE297
310
737EDE1D45B31233B73FEA35BCFDD0B09721FDBAF6432681F2FD10C3E9EFB246FD6E854B344ACC9D8A0EEF876A7314B49B6A499FC650B099D650DBFEC7638ADFD245E2B7839DA5AC5F7D5623FC0ECEEC8653FC9B2BDD1AD4D00A566FBA7186DD3C9CD26512551637498CADB950FEC71ADB9A5524285DE328B8EC7EC75D2345
310
AEC6A27C42AF6D9B92155315C80DBFCABBB7DA0FAE425C4FB896B15C9BFAC4FE67DF5A23D30C93DA4D8F36FB15D100050DA6062E22AEC5F4DAC4F6FEEF97AE05DE63C6D38F9E068A20BC5E3B6BCD75320C5090924E7F93640A7735B1A43451C2D91EE62C6238B797349E59890AF3A520DF4A87095F3ABEC2E61F0593416CE4
310
6CDCBE0E00E2523FCCD04408588B5B6C9DB6459C786CE378770B54F51DA3A5E1DF2A3349BEAAC234A6CF8993B598B3B25B4B113E353A4D750FA7534749430F3EBF2512E7EA3FD43C6AB9A1F765A58463B306721A15D224FAFE8C6F5E3432D57EE697DA0DD5A9D4866A8BCCAAA9DFF1F06047851408FEC060471D0E3EB86BFA
310
F46E4B5E60311DC3E3CEA147C75CF971BE74689507154FF2D2E92F15CDB2B9182B11459FD8ACAC5A85F174BC94A7F4EE4C4F5CAFA7C02E37BF0BC77B7DCD0C047BC316F562A01A441AFA7931CC84A28CB9F4AA367EB515778F29BFE61195FA671F4352E5E46E3A64773F1F76EE5EB36D7BCE9BCEAD837A4D77F8DB8C92AEEF
310
6711920D7C7D0F76B0FD0EB7AB83724CD35BCA7D36DDDF5FBB7FF6F04A91F3E2BB3B8F1A43CD659639507FF6331C5F697BCC782AE57D757A27D97F1AB9E0AEDB43F92F1B2AACDF5FEC8ADBAF9F814E2027003BA2F9E144B1938A7A04050AE5D953B82C45619165C813A10E76DD6906B3C16438064D14CDA713AEC420034613
310
E1AC7241904A49FBF87409AFB1FCB9B72FE7933A87D8FBEDACECE4EDCF6A4FE9FB94D5DEB74FAB7CFEAE17EE965DF980DCCA2D04134994F9A2E94D2265DA4FE6AA7B7AC15FACAC2B5ABBCD7DFF542C5314FDAB2E1B9D8B65220B8E2B638BE008E8DCA22678C820C5053664D15E89F2D735B51A84955E81A443545E9FF787BE
310
0FA700A76D136C27DA179A7C6E8939E01BE756E19CB292798063D8B97F44E8A27BCF3A614FEB8BE974A718E86F7EC99B53CA35FA24F61F2B07266684623A3D4CF073E511F3A10A8FDAFAF0078C577F4DF9D339FE7862E5FA47CF4344209E5BF76D783B1B48E152AD281B15FCB934DCDA49CEC5706B1EE8B460F435324A5CAD
310
154725E21AB8044B75A557A79F6C807B9340AA3D92503E866F4274412926C8C504E4D5EF8C0E68DD0B028781A6B4054F11CF18941F101C57CCC796773ABC8DED9CD91FE5788806C05E548895354AEAC96546D55B0E94A59F148D061F42AA398D822CDECA4CDE79E13469BDCC44FDC990F366BA5978C15F97ED80CBFD73B0CD
310
9B8B83A4F6845BDFBFAF034019473FB9A63BD55D3A4A7284757071574029A4D016DCCBE95DD679EF3C4880BF169422F8C89B68A988D2B13793CAED4F74DE7486C72DC94DF46B8E93D8E02EFCB1FF9B3BA10C8AE7F653DF94F4AF466CDDCEF5776687F7C4C14B63E4EED1719DC2EC482D7DBCC7AE518CDE3D5FF86D39000EC3
310
673C0044E1D308BF05F74D1B5F033A7D1BE7F74BC55BBE3E4A20F920946CA0271EB17BD2B80E5660ACB8A29A79F5E4BBA49D4D945B6EEF4A7EFEAA65E5555BBB57A7E15D2F83C69F30BBB978D2B39F1F26FC097424D39BB33CA3D87ABF64E307938B685BAD44F71556A30B7E712CA4FE600613C3E554B69ADE949A7CFE214D
310
F1FFF05CB82151EC6FC31950239F94CF7AD39DC473F6EA356E5EC2C4EFA04383CEFE985A127484366FBEE3C0EC4FEA363E4F6632AE781392FD45D67B63FB8DF70E82734F431FD3443172A0E30A83D60982D55FA6A2CF86DBA8382502ACC6CDEF3B907982EED1160E14863FA242F9757347E1544275CCDCF71ECD5F8621CBEA
310
326B8BA884AD7F825781923E66971F04010D574C541D8427A438A37EEF8AF88240EED7362C953F5A81DE2D56109CDE2524EA0F5D2F87308C0C47BD97AD605878AB8589E17CA83930CB5E0DCCD75853D68B1AB136594926DE426C367428E9334AFAFF90ECE221BB5DC9E5BB53D2CDEF954EAA9CD814F0E5725F1965DD458E5F
310
8487683AD86B9D0076BE3EE91EB1CECC5331A67A3F79D8B27587C12EC2A6A70474749F27B4C0BBAFB94B34189E88DC18964BE4121B9137FD516C7755356E50D6714E31ACD222621EBBCD1CFF81D87479056A9DA0E0B8EA19D24CF937DA89F78E8650CCBDC110AAB6C4E46DCBFD0446BA9E2060E81F314AC2031E88135E5476
310
AC0160EF5C0DD2EEF1B8B5CB2D198BE9A554A9093B5F7D7E4B5407DDFCA1D9C152FD97F55BFFFDFE802954DFEC8995B983E28AC92F1971E28F531DC407A1280EB125F64A72E617EFB27DFBCEDCDA2D6F2BDADA36873EE46B9BE1782998C63DA7182BC383FB6FD15DA472B175D7E8B4FC88F38D6E07FEAA3FA3CBB8F6B449EC
310
F14D2175E5C5CCA3A42ABF24CA6C9395AF74535F4DDB38CB84F56614B0FD32D7E19CA5CF988DB4449C40E23DF2B16772594554579094450F56F253CD25EA7F77366FB1CFE79696C428BB64D5A41E986189427E5E4D7E2DAE3D5BB4972B3DC44EAABDDDD63A2264ECFA5C786EB0EE1FDC5BE34FA0F08376869FD1E61EA06CAE
310
15191135445EE8F0394161C3266A596AA035572BB0C8876180D8B9C77D307DF9DCDF7365ABDA6F3A2366436457A4DFC1F259666569A9E4A79C817BDD5610E5200FCE894A358EC72858D50EF67545DA81C6FACE3D457BAF70367E1E6BDD9A952FB4F56247F58F523B97E640246051A72F79BE42FFA0B3187F63097F91C48B86
310
8586F714B0EBD5A00A8412C1236E1298F60C72BE6C96B82B404CADAA304AE9F303176B14BA53FBC2D5E86377E35542019E24D97B96A49B2C0E5006E7795954DEAF5DA58958839043C6C70BD3B1B33B6DC5C31316D8A6923F142E26F6711A2258AF977DDF1F970ECC4F1F2B434B96D81BEB6E89BF3BBB3C7C8CC80505070723
310
D6D7D7D3C8CA27CA164A26024FED94B12A86031867241DA53D929636DA600F050BC40CE48B8BA03D69224720DEE2ED2127390BDF5E6EA64527BBD4C4C63FA76BB801FEEC0E61218EC98A8A86CD8313781617877E66692839B9468CF4DB8E50A73986E558E309C0D6F676F921BE02F1185454DC75B111572FF9D27D85EA14C0
310
5AD7271225B391C4275659CA4A43759D0BA44639BE4C30A84DB7F67A41399FB95CBF923B1B1672ABC807C1590557FB18D811983FA97F5E609516D62281D38B1281F68FC75528C35E4CD7DF0F7DBB5E5DD69C414EBEA2F4A5B241B996BA77AE6C772E367408C633EA3E438B68563EA8BE7667F3A4C4FDEEA52ABD78A2820F44
310
3B7914A15F180018D231E64519C56A12F6CA7C8DAE18F06F6B769DBF92329EF6A5D18FBCE600F36BD8E8198DE5CDAA96181F3A756EBA5501CEE58F497EA4F418A2B82565B9BCC611713C0B708CCA1F398B78C5F7D03B3437CC18F13061F55C7BEDADD5ACB1DB0E36D3CE47FF6EA1A563A57E9649EA5D14D1A50EAA45746338
310
1C073777EF1600607BAF6428A7DDC079D47A204EF1E1F1F0589FB054D45E02CE623B3823C317C601E589E22B1E88B448524B86A82828E32345EC18AE17214B42F8C41C6D428016D9BA31DDCB47572561E5A402E5BA4FCE55F78AF7268524AA04130F3A20BA5D1E9F9948EA48FC8F5314FDB35E21898198060034ACE5E3E2BB
310
CA34092518F275190AF65F45867FF0900AA4B81F25427414C372BF51DC29AA855C5428EE1EEDD6B849AD60F6E73475C2D2523F8A2772C840A478DED18A8C5C91B085F255DC4F54EA7AA8947354FD17ECF8FB3B4A0DE7B483CAF3A1165EE05BBA413E5C1FEF3DE1D6B8F2F3F3251C17D9FCAB48A9AAF63AC773A0E413BBC46A
310
9ADF84A566FC920E4D8C52C9769EE3301CADEEEDD92B312E02E2A7E35B7F1E7D203FE5A7D75578B06E99D0E46FFADB8FDA17ED8880390DA29094202D6F645F76F6F96409CDA05495A96E84B04A00D1A6C6C81D7F3DE9376E828CCF144EE50E364ACCE7237EA0BFB5607ED1AC3CFE73794E5B61739D14DF1743441B1AC98F00
310
ECEDE9E7301FA29755FBEFA68C91EF2B314CF510537EF1ABFC9A762496280B546F5EDAAF8A5B387D469FC9A878A92828C88608453ACEC6094DCA54111E7AD5B2663DFE2DD151B7F123B9F4FEF8EE36AB125FD7AD52A59B1B765B3E3F73E3F73DEA93875004D2AFFE3CDE9493B87A9904DD052028949041A91DC0E1BA47BA71
310
4343FD5B25E0A6A09503AFC17C790058A836A324FE31D7893512E28230332F153181C1E018E1124EBE1BA262AA428A518237D1EA7275E48C5C561BD19ED6912EDD8367DA0F31E40EEAE9683DA9257525AEA7B632B97119E17145A90231768A4F3B9120FF32E8319B015E3CBE26F1A754177D8185345817C096B0CE443A955D
310
13AC15E1FB5DEEA0239EC32A3C92241A237B0B02FFCB4F93CF2B02570C8D192E2F2A68CEEB42F12E6F8CEEFF46C251E22B4341C56FB08CCE550E7A9D6F4D6564B9EA52A83D5BF2C6E03FA19D2775E15A8A7ACF30A13C259EE7F5EF2AC3BA354F1500E1A07FC63FB4686E2F12EC69719F9ECF5FE3F35598DF2CE944008CE78F
310
0911BA5BE5D0A34E0098FF038669C26030BA9B300303039852A8F6F496341737CA7E0D2E3AAA36DE0A70AA7D9CA0D54D9AD84B18A44C9E625475E1C97B93BEBB38DCE7D227E67A2D00F531436136355F243D1FC0D712C5765754FA22FCFFAE97919161F46D6E61ACB37D83777B385889770B50765B127768443A5C4D3A4E35
310
A3151111F146B7CA116F918A049F1C272F2CD7976C69A0068773451659A97E0F4A08FE604C3FF6CE7385DB19F4D3ABC8A0D80DA8A42096AC377DB49382B36E270B6FA7570188B4B7D1DDDDA82ACA487CCA5D38BD3BD039ADBAFA4ACFF27809239B722081E2EB9F145320553D183F28471C388BC8814E5045676767AB58A8E7
310
2D1CED2CA731379515D2E533E4CF0B39DFC625F97AC4836831A4DE330E87A8126FA17EBE583D614E71E22A8DBF2825599743E0640037303E8E1B1E8EA4E1ABFA4F62907B5E4E0E5DCFDAB417C36C6848A2B8D15F1E505434C0707E16B1CFC2A1C36A42BBF55734F8F4301DDC2A5110CEE8C0747F69519265012A2174BF4E95
310
5ECD4FDE095A3ABC70536B7AD0B9D7892F81287D667C108703C9B66A221E9A0929D030008F77FF6F5D2108EF5706FC87A3069B976F7C9FC3239D13D283CDEA83597461079FEEE049B0F392889898B7D87D31F8D60ED7B56B91823A8E4EDDB36C6172ECEE42BD42B12CD67994FA0F0DFAE9389356F4CD4425A4B8AA55CBF7EC
310
D585C6A2C2316791E43D5C06841ADBB226A87FD61515FFBB0167B74E56BD7F3E90A57A97FEDCBDF483A0D6699A8C0849CAEB4947FAA90D8E332D9DEBD9F4738C37DA0CAF9CF3DAA68BCB67C420459C7A64498D6E848E5CADE92BB6901F607AA331104A67F7CD650EE169B1DAE94D2C31C2F993632259B6957E246EFE4C5481
310
107B07118607700040E5812A2A2A38DA0076875258C753F60E0F2662C748EDD5F3F3686B8FC3BD6FE631ECCAA1E8B1C1E565AD117E54893E79F4672E32F9E46B2A183DFDCF3EECB4D4D077DBEA0DA254D256045109670050129E9B9B1A9E4A11344D61497A992778095151510C4BB7EF2009B63AA4360635312E4CF668B7E0
310
D3D85A8688E2BD83B569439892ADB63461930D428E0DE42E4AC57CE48DA5CC1449530D8BD3D6A0F08DF20C8E8F570F2CFFFCEA286E30969B4654D498A58D9DA782E19FE3F002181838925592C4A1EF0B332D88B61A92C644547BED490D3A42CFFAB70E36D961F694F6307F72FF15A1C79D5B1B5CEFD353D9E2B52566DEC8F8
310
F09CB3E8359C0F68EBBB7898243E34E12A015B2685AB303C04D3A9E00671FF3DFF0A184E4A2ABEB2B666AF5B3A209C73D8EF29DCDB069C9F391EEE9DD0F74C7BCDE16F8F02E3B8816122BBEB50665775B600549D8BB33A54A6BF940C028118BC6878C79958D6784F9DEAA6E26748386FFAF8D0D0101E2847B6563F5D8DC1D7
310
8F787BE00E2C941AE12148D4A81599FE8F68D4DA5CDED75530ADE138240300EE13B0FC13A1687FED6774662C05A2B7DFB186732F0D7A93545D8B0A6390AE5054D9CB582DA846D7A061B3358B45E2B52DDE63E114397EDB7E09233A579155D795BE76102CF277F4DF8B188C4F2879BEAE3C08347124BF9ED23B128259FE107D
310
31E34A652F090B30B39E0D9AF917B76A2806135621A8A60681F16AF216514BBD02711585B5B1AE823F4B2D0369EA5B6BCB863072727FFC871CA6C9AB79A814D989057E9470A3D238BC87CBB4A0EA49AFE2B86F22E499793CAA9047080450166BDC357524561E258C77CB697F1ABB32562CF87C3B7AA12F911EF19FB3E5C022
310
22E887D08202A60A17151F5E053A86B437771088B4FEE14D652C43E8D939995D34545E12E2FF93D4E366EAD25F10CB7DED141563C3D0C447AF06078A91135FD4B9611583CB4BF3BD167F2399CEAB0E0100F8FFC305F00F1711717173138B4B48C83022295DE657EFEDD97F238ECA80F528AFB4F8D67AD4E2594B9A3AA86D74
310
87EFC313BA95745C186F0CDD84CC12DC9CB0424B42203D351FD9C0A3AF10CC7F388E0329279087386421F194F4A29464C1DEF7EF8BE515E4A199DCD5B909342598D8FE6A231F71336248D5CEC5454455C7BE383B3BC7B260FED27F703FDC39A170F3827239102F59D4DEE7FEF82EAA1A5E4BA94DCC4CC44E7E2EDE20F24244
310
E4454369D2E87C3F823F193FD4FD27E1C23984B01898D15ABC20711A8A558054951A6AE280096BA36CBA439603B7B0B4C45F248C14B2383B4B5CD8ECECE4FF859AD4A6CA2326D020EF090F4041D28DB66E5256B56232CC52829DE8060BAE6BBF37D4B7469B822454FE93210A3E8D15E69FFCF01123222611C51C4FD0A041A0
310
CFA2471CF6BE38D2B20FA4C3525B5B8B586759475CF80ADFE67A284AC24651E52B8E683D24C2622642F27E7C3C22783BCF63648BC398BD6CD0D9C97E7E7E3EACB6126DB7A6C1FD9F1031302EE67ED96F22B77C7CA0239BB324207559B105E4693EB26EC46182A92C9C0DBD24F29B31C5C5AC1F84300E0E17CEEAC15F5736FA
310
4A98971E2F1423BFCD68D4BBD5F86E74B40A369F39507C88FCDB35D2DD8DEBEA4AF999E23CF2816D204200DF6E611781B9884C1AC8888B4DE397320472959434323A5A36B22A8E1F721A270DF3BD65E4A31C11FF048AFB0D8B7B6881423793963A23CFCE935FC189ED36FAE35C46DA3574C979E4394BE52084F3081837BE03
310
3396D2EBD80F1F691B273F660D2B32FA27A33B1DE4ADA5F0FA4651511102DFA410DDA86E065272CA314D5249DF91B06BB92807B28EFD54F08F7B525252782CD276DD02E6B0319B13DF87B1F6361AD6B28FC0D711CF445429B9E5A433CD493051C49A9E03DDB1B147D880253514A5DED88009018620EE229101C041950E2D8A
310
A8E1F5F5438E0C0C0C60EEDEE9E3E0C051948C69F84BB7B2A48A1F3C8EB9E6864687F4F4F6F6E2FA87608ADAF9C5E117B7C1A737E710769DA1D15ECE6A84502AA855398712D5FB51BE92E4EF824969CE18278798AC303C2C7980DD2500ADF8FB1E6D6C2FAAFF9987178923334A244758BAA01A9A1B70FA5097D01E1CC2A58D
310
AD0EC94CE6430AA9B0C10D75E3C6BAC670EFBADEE1607739CE0FC18A2587E3EC3058562014C64219C69BC269082D5C2F4A659278D585755912176D78A1B641719C2A394CED495A1AC5D583FD2F5EDD93308EA7EAE8A6DD396598BDBD3D4CFED62D18A5BDFDE0DD5C80D1A89BA62697B131AE7CE9A6594138582F1B37D68F17
310
49AC7CB67A70695D48A4A056AC1FBD4E82358CEAE38F54B95A9016F9000F9879C0D9D131768635CA798895F27D6F1614F11F2838A83611AA51C9A3DDB539D42979C29F10465655C17BEC3E2760B80DCBF609198C7B171A531905F3EC218D696025975E986C6B4C666666787271F202805577DD5A3EF0CAFAF91B62DC4B2DB4
310
217A7606282F31D8DDBC290593BAA93EA6353AFA9939B877978481E15CFC9F2755CDC00C538F63A4BA3E80AE009B73CA0185687D339A507D165B74290D6EE46D5C58148F020C3668ABE9EF2F7549170DC80DB41FFC1D678FF19AEB10C7133832B104B80F691B3138F97A92D26E551F1F110400D45AC71A9B9AC41A1A1B1DAE
310
ED0B0810638EFFB511D46B121C6FEA0F38CD00E03CFFEB9713FE1F9C263E4DDEC160D0497FA9A132BA608584057FB15380825DE6C7FC3C667EE947D488A09898D8E939C4953BF4EC9836344D2CC6B2971B2A21A572B06096F4982D2CC7232D46E8EA69DC83722E267754D777F97F96D5DA74E1E75178084D0E70F12AD33E5F
310
71EF2AFA599B2BEBF60A5BE475F444F240CBFE8143C334E7ED9150FEEFEF7EB020C4DBED388DD1D6A167A76F3CBF119B578AE8CFA7736ACAFA4440A1C47185638A0D2F3EB5BDDEFDA958FB13CE4AA4923D5BF840392D45544329525749734866684BF7F8D9D54D892E19BCA9F829A0F8BFCBEEA6CFDFC61D74EA1A645ED7A1
310
FF241739F15694BD835B66FEC5677E40FE69BD3F91AE402F036537218A401CB0828604AD189E575015C6F3F6BBC8AC79CF6C70653847254B31551EFCBEB5978B9DB85D58D0FA41A9DFE9C624834AA04949D24B5AE6D299E072D152D12097920F14AA92C31C3B97E28B6C2E6E9C23D63043ECBBC0A60FDF5BD0C33C127EA8A3
310
308B8B6AFFEB28B4455BF6E7AF4FC6222728357EB8E46E85053E6A8843AB23295BF838ABDA94658FEF3F832F147046B4ACD6F7D48E8FCC9618582961C898D1C7A253C91BFECBDA6BA18A1FCF70755DCCEE2222F41B76D23CA98D0CB3D95F0CF66D57FFF65E2A90F5DF40FC3187621E981BD0BC1D992787212688976B94A8F0
310
C6EF646624B570B78E068826F87CE27041A95C9A4871FF65CC17FCB1639629AD6A9517000D63AC231F3D741CB8430777E7ECF80CE7A3F73C0F162F7E56AA71F4DA80A33CD6ACEE78E2C11FAC03DAFCE929B106F8F6B3ED2DC71FF994BD9CEF4E9A94896EF1B6E2B7B4978168BCF0847A3D2A4F1B0500B926E634B174548E9F
310
BAD27153FB5FC36799B1E6C7C38A94E1F9E996796D7B485E635D5287A2AE76FBD11A341DB3F8F810385BB7296391973DC6C37C452A9305AEBBE0CDB6C566DB59FE60C8E94B1FD090354BF51439FFD1B48D725228FFA88C84F686F547107A7A235665A4593B7C34D748C1AC8D56DD5DA861EEFBADDECBBD65117E65851F9035
310
1AEB65F0EFCFF4BCFEF24CB7A5879699FAC437A7AF9099186CF006BB923A59E37D7A36A29FD8D2CBB914A5E9D0A8FD212FBF796AE9A67958FF1D5D8B85F78F96219D4714EB919929241B6C018AAE0C02069F8D919961EC5DDFBFB7573E3AC8E08BFB7C8534BE6DE045B3CD63DBD71F7638BA2309CAE398EA3A7D8F98BBBC7A
310
EB367EFA5CFA27A9F8F2F52FE878058E6209C026453F8E7E8A237DFC389E9590F6059B397CFD65183BBF936E86896612A5B5FEE49DAC8455D026218AFEBEC12B3523A45B57B82C9C97E02ACFA1184DB18E48CF615DBF39C3CC6F0B4AE6BBEEA2E39D944E290302FA3DE33FA7E40296E2EF7BF1CD855BBECFAD0FD622BEE974
310
6FC4FDFDE545AE6E3BC234CADF83A0FB76DFB145BF3828AE3436368AC24989454F8FF70A177672C711CAA1A76107218CF948CA01F873520E7A2B118EBB161ABAD432932029628B6761590C98AB590C8C8C79798CE9F715BA696E839E9131A4BB68BE923F1747FBFF165331FFDD4D05997ACD168F12CA75348DAC04C7F509FE
310
83898A8B421181AF492861CE81E4A2DD0A30850CFA95E05F097FF70F9E777310D584A75BA7018922E271DAB1D785671157685B7D383D3E074DDB4F1E44EF04B07BAAC75A062077C54B9752C738C9D804D402E02851F3F89605AF189738C18C021D2139EAF72513824E10DDD3047BACC8521ED7E98B257D1166903B1B08FA6F
310
918FD7E162913FEC7D0EF4787E29C35FBA8C6E2C9C20E9AB30AE42CA2A01A090E7D010C1B5BF9CEE2A304BF3A987FB40D836979B79E18D70F257DA61E808472DD85B82761825779D6B90CAEB0F23360C6F80A7D7D77545E95B3DFF0CF96A827F9B5BCECD2C9698718417EF80FEEDEE938AFF55859D0D540B7FE09435583A6F
310
04874A0C7E8CF234DF4879722000167F5872CEC6BF3EF7E5A8CC8121E6A359227C8A29C95212F9F735BC72A887D56B8F309FC525BFB4FD767AAEC4AEFF249CFBBD2DE1AB9969A6155C7D8DABC307E47324C1F916C7BCFF40ABA5644E9FFB9238D19ADADA49D9610F01ABBA57E4DFCBDCCBB2B93C8953206C91DE01B0E2651A
310
6D6C31721915B31F7B7CBCE55466F6D70402788FA91D73BE4ADCBA99A35F17D6B83383704917D6833F0FA3CD45C926ADB8BC17999A4A0AFBCE2541F7B8CF4C2F5FBA611B3E626D64407CB32C122DFF4EF8674D6EDBB86C8F7C6A16D50FA685E2CCA34F8F7D1D8265BB0042E9D7F1F666F7BE5FAA5184DF58E12122A42EF02F
310
461B3F369AC746F96528AD208512AB56844CF75B97F352DF7995024FB02855385854F3798670D01CAC771AC3E1889EC25F61A20C1F8CAB46898817F9C47E2CDA1F286BF2F358298709FE567C91133E2638C8B53975E753EA8BFD3578B5F7186B7BF084EBA3F77BAC3132A5779902EC22AF2D2E79F42D324E083386DAEE9810
310
D1B44A5DAA54513C7A71E52A4AB9257D975B621308FE4D2141CC3DCFE946C154A3C1DFCCA7629EC69ACFA831634ADDA93C0388D2A9A2DDAFCF957C6995BCE7FBB6DC4EBAE79E63EB08E9A25F52F67076F7093CA545CA3053B5BF576DEAD4E0017143C5F759F32B2D6F145B52B67B48909B7C7FCA6586EE385A2189C16932CB
310
6DDFD9152AE317C430492A578ED27B72D85D40C7C93C097939E1B50F4D67F05334FE9DC362C30B7FF561B95259138ECFD9274C8D695C31B14D4EAA9F3D7FA8DDF652F8C5DEFA23284C799B7D94416DEE81E05A866302DC70192A5368EA65E1CED8BF107A1E2D3119A71E85DC1A7B0C1E93274CE04DD0F2ABC8AC7C987FDB00
310
2B6F81757B43502EF7A0D92E416494FAEEA4C9C090CD9557AA4D532F4996A272B94355C5A0E4974EEA9627476F30809B94D8D8D860062E02204643BEC7D0438AF800FC7E2B26955D595421E83C69E1A07E0E3122285835F014AD538188CF9737CE76D464A353FA55A001AB2526B84E985083693BC76FE211CA1D000679C889
310
E3C009832C87E1AC2EDD05C302557422DF0800E316FCAC86978A371F025A6C7DAA9F333E7BD160403A1A06EA75AA9888FF01504B0304140006080800BD818E5051464CB48900000043010000360000006662782F44453246384335422D323442412D344337422D394336342D3338314334363142323541362F646972656374
310
6F72792E786D6C9D8F310EC2300C45AF127987122606C71DD918B841D4B851A43646695A717C52A85029031293A5A76FBF6FACEF7DA7264E43906840EF0FA03836E242F406C6DCEE4EA06AC22492573150D1F66C60C640E8938CB705396EEDD86DE9B5042FE27813D640EA63BB001C722AF6E55CB61E4863F58284D5D3F53D
310
D715CE1C3985E63FD7F1B7EBDD617E9F1E504B0304140006080800BD818E500DA3947B42070000541C0000340000006662782F44453246384335422D323442412D344337422D394336342D3338314334363142323541362F6F626A656374732E786D6CDD59596FDB3810FE2B84F665F74197AFD885E3C2769AC028D21635BA
310
D837819669871BEA002525CEFEFA1D52A42C2AB2ADF400169B00B14391C3996FEED1F4FD2162E889F08C26F1B5E53B9E85481C265B1AEFAFAD22DFD9630BBD9FA1294F92BCB6CF42318EC8B52596ADD974CF9322554B5BB2C3056BAEDE2EFE4259486262A190E12CBBB6B2F08144D8C1459E6C49F6E86C718E9DFDEEE0F84E
310
B9D124BBE7387D685C95624EE21C5885F518A8280E7CF35F10C99D4D5DB1C1D8D6EFB6AD77669B2B053719A57196E3387CC555E3BADE09AE1AD7F5FDC1CD87DE70620F0783BE3D18F57C7B71BBB8B1FDABBEB71C2D9793F987898566D34D92B04A012989B7A0C5176BE64F5DF1A4125FA1D0C67798C43109159A6D1BB644D1
310
A5246B626200EB4BD16A0A2965AD2DF43B0A7F625B27500C960CB4B570FAB36EBDC9E66F0021EB62A53C23C2CAB39C83AE15F6A53F7853B75C35F4423314E19C708A196274C3310705C1D652410619E12D82141298492D6A7A755EC1B02FFB521B97BB8231E1BFD64C7A5A00FE48F24C7246FF21FCC87DFD36E009A42D689C
310
8F95B0F94B0A242653572E96CFFA3DF5B00412ED18DE83B580986253BFD7C06B2962C1EAC69A7DBCDD1CD6223EB45F9EF224253C1796279D59F99DD660CDB4C0F83A8052E26AEAEE88CA5780FE13205FF182A6A0394E0F83C340CBCE719CED121E817690876C0FFE78487C7DF56DEA5687670819B1F214A6E0B63F0953430C
310
E3EE1AA4B3E913187DC2FB4AB8758819D8F43D8D859F83A12096C012C4FBDDE660CD56104C61114E6106D2C3EFD4155F117C947420DE3434D4167E3B284A3B4CD3CF8EBABA039BE134AC5465C8780ADFE14FC1777EB3FEB82EF80E87E45E39F60DD9D198E6904CDB193240375CFEDBEA93F4C83B966C303B9E36368570CD3E
310
1171A3452D6BA51624F5029C88345C6A46AEDC53F076C6704C922253EB6D712A4C58C283CD4B50BA70EB5D7F6A1B282F5306D01ACB20B9879CA602136BA6B4550542A726285818E6CA02F7A556834D11A5018E922216A1F6B52936F98038232C11A84A6ADAB0B5D76AB25BBADB151904AF56924B0348E5CF9A7069E1038863
310
6DFC72B2E31892681207147230384BEB0DC6051578E779CE08DB0594B1220A7694411E09229C9EA0DF51827AE67A242FCF09DFB612342D4BFBA4B62101B8025683A4B35519F3954E3979A2A2CC94F94C67036387AA43ADD9E044BA1099A205506D8CD2CCFBFEBC77351C7AF6683E58D883FEEDAD3D5F2C3FD8436F707B3B5E
310
7ABDC9A2D7E45347AB7ABE03558A32C7F0BFFCA1883631A60C1E08B1F1367DF75E66CF6B1742A30BA51A5C315CD8BDC1626E0F96570B7BB21C0DECFED85F0E46FEA2379C8F5C4EB2A4E021C9DC9EEB05DA24D3787F8A2BCDDDEB180A65CDE564A7F5D514E67F1C439B39C150E27F358856B1ABA520EC1A44C5D16608C5E1A3
310
48514108555FABFB348268938FB638F7C6B8EC397D4FFEF8FEA4E74D7AE3C970D831ECC99B7E38D2B5C91042E759E44192E290E6ED29B5814C4796DF945D9CBE3F2CB1D17F7B3D0478755EAD983A9F991453018DF09E043B2CFA8A96507A49E2D6ACB7674996D19864B22F7C552F36687A0E945F66966E315B9A0511C9F1F7
310
58AC6C341A5E00D19C05D0C1E6628670B18EA85C40F52CA7288A7E1952BD94FF25C87094B2B237BE84815FA520DD15B559A8605A5CF104F619E03CF0B6448E3A2E51AFD8D71545ABD69AD427DF4DFE043CBA12FA85F0E82BBA175BCED09F889F3184A1D1D0EF8FAE2A555C424B5F968BDE8F15D0AD862FC133A1FB874EC569
310
37ADD4CABCB210CF4904AD2FCE0BDEC96347104D9AEEA52243C3256A37BDB1A0943D9FEEFAE032D9F49D2A896BD740ED4A63988D7512E49514AD462C7521E78062DCF506CF3EABEC3AD51F8E98BFBCCAAEBB5F2407469771800ABB0CC12AFE1875786BA56ED450D933CE4308A56BF9692FC023B6647B6CE60C726D65BDAE69
310
2F55DC2B11522398F2621169EFC517F61583AAA1E3CEDCBBB2D073CBF595486D0E0CB48F7C184C9BB43EDFAD1B5460A5F3E92F0223F2DCA0A05697A2833E43EADBEA3827685050127D5B9D39FE9FE842B4026BA33798206709A330C8275BB42709E46F185574E8507844329997C1785590D26F113A9C7E2AE7B039DE307D3A
310
7CC030CC66AA7F2B4218A442CEBCB6D43AFA0D46A7627A29075ACE23B46E2A8659A8E0F4DA028BCD297468CE06466072E028A937469CE0D838DE8B8C5F9EAAFE3F1E13E840543ACA55EDE9828B92CC7026288553F96E01EABEF2C16CFAFDA26B7610CEE1EBA6C82B618E0B47691408FA2542291C4C0A1F15BC072829CECBE5
310
3B728F0149A769FE593B28A9DA39E67B3992AFE13DBFF9E28A69FAEA334A59B117EA3CD7311B946CD1A9B3A29C5C4DC1309498291655E4F29DFB8527F05A2A42B7148C00FD7E188FFE709749142571B9E4CED5CB2DB47E8057555B578F09A1F5F7FCB12B2707EA5540B0C11971F0367B8405502DA7629E5A426C1840154D6B
310
06A035227401C78CFDAB1BA4AAA3DA54A51E76053CF23D00024712EF7F84DBD437D48696E00BC0957C78FCA217A62E87C1F9EC5F504B0304140006080800BD818E50BA39DACDE2000000550100003C0000006662782F44453246384335422D323442412D344337422D394336342D3338314334363142323541362F7265736F
310
75726365732F322F636E782E786D6C4D90DD6A032110855F65117AB9FE6CD312826B5E2257BD0956275B893A8B3FA57DFB6A6AA157339CF3319C39F2FC15FCF409293B8C2B11949309A241EBE2B6925A6EF3914C67251362F9879129EA002BE93251724B58F72159B8E9EABBEA5DBC0F915F3788909CB9EE712393F13AE795
310
64F30141535D0B5AC8776A75D154D004196B32D04E1417609C300974014BD4C2173EF3C32C0E17F17A12CFA797E39B649D54F21DD10FDEC50209F7A7851B6C6B6C89B8641D50B22637A8FE4633FEE2D1164FB2662B994B6A1D0CAC7CEF0D73416FC01EC8AFAB24EB4FB6F168A0CD5E88FA01504B0304140006080800BD818E
310
50FF15A4A45D000000800000003A0000006662782F44453246384335422D323442412D344337422D394336342D3338314334363142323541362F7265736F75726365732F636E782E786D6C4D8B3B0E80201005AF42B6F75B59F0390B113044D83508C6E30BC6C26AF226F3B8BA6360974DA7271430F523308B2B198F9B8092
310
5DB700539227A2FCCB80A18E5640D320F996A81C9F32D6E9129A0D1EF74FCE750E6D57BC7165FBCA07504B0304140006080800BD818E50B7EBC2E84301000056050000300000006662782F44453246384335422D323442412D344337422D394336342D3338314334363142323541362F636E782E786D6CCD94C14E03211086
310
5F6543E271D9DD5A4DD3B034F1E0137830DE5876BA6259D8C060ECDB0B95B61AD3E8A1497B23C347F2FF333FC3561FA32EDEC179654D4B1A5A93028CB4BD32434B02AECB0529569C396BF11B460A234668492A13CE0667C3944B3DAC45D0A9AA95D9E4A24074AA0B089E14520BEF5BE2E52B8C828A80B607BFA1BD40411BEA
310
C0DBE024C4F7A846C8EFA50381D0133EAB677559CFCB66FED4DC2F9BDBE5DDE2855589E4ACB356675E190467A79B592D6D3C9A28A7665502380B4E652A7920FCA88D76CAB02ADE73E6A35E33640EB753E2A6492B293036AAB21201CB08811859F505735625C73F7C3F3E3C1F35C453AF1C48B46E7BB13634A7DA7090466322
310
FED7851DF89779DBBD45CB979BFB49C359D8D9ECEE93EB63747F2721E64998415FE30738483B7FFEE3624125AFD1F45ED9993C57BB1518079F3622FF04504B0304140006080800BD818E500ADDF5D77E000000A30000000B0000006662782F636E782E786D6C4D8CD10AC22018465F45FE7B2BCD99813AA6D57B8CE6C6C869
310
D88C1E3F8D5D74F5C1E13B47B69FC5A3B74BAF390605647700E4C23D0E739814E475C40250AB658A71FDBB010AFDE214540C5A4E29E6E7860637F6D957EAE7F0D8E0E54A6FC2360653663ACCECC9E0B3E50C1F05B18C13439B8E17635F9532BF5ED99AD75F504B0304140006080800BD818E50A6D797065F00000082000000
310
07000000636E782E786D6C4DCB3B0E80201045D1AD90E9FD7516806B51190811670C8A61F982B1B0BAC9C97B72CA7B1037C6D3332918DA1E04D2CAC69353902EDB8C20262D23F3F59B81A079470595414B17391D1F19B4730A5583A7ED43BBE4025D9592775E5ADFFA01504B0304140006080800BD818E50ECFD112DA80000
310
0026010000130000005B436F6E74656E745F54797065735D2E786D6C7D4F4B0EC22010BD0A61DF525D18634ABB506FE00510A79458060253536F2FD89D5197F3FED3F68B9BD80362B21E25DFD40D6780DADF2C1AC9671AAA3D677DD75E9E0112CB5A4C928F44E12044D22338956A1F003333F8E814E5331A1194BE2B0362DB
310
343BA13D122055543278D79E6050F344ECBC6478EDCD76CE8EABAE5449AE4298AC56946789C28AAFBEABC53F3EAF09A84A1441B91F0101CD4780756578C173A578FFDDBD00504B0304140006080800BD818E503DEE336E64000000790000001B0000006175746F6465736B2D64657369676E2D7061636B6167652E786D6C35
310
CBC10E83200C00D05F21DCA56CA76D41FC96062B120735B69A7DBE268BB7777961F8D5AF396893C2ADB70FE7ADA196782C2DF776D7A97B5933C430F15651E5469C55D70F80A4992A3ADC954792C525AE70A1E4D6AD9816CC044FEFDF01FE3FDE907802504B0304140006080800BD818E50ED960A89F40000008E0100003D00
310
00006662782F44453246384335422D323442412D344337422D394336342D3338314334363142323541362F7265736F75726365732F322F636F72652E786D6C8550CB6EC32010FC156BEFD8C6AFB811268A95E40B7AEA0D01715062B07844F9FC42EC4AEDA9A75DCDCECCEE0E39BCE647F694D629A307C0790999D4DC08A5A7
310
0182BFA21EB20325D618FF8B069966B31C20C140C9644D5836881BEDA54EA836426E20734E7AC8F8233603387E9333CB59F091E1EEF9C2F89D4D32C7F9CAA324042536A912D14D5D95B4407B3C5ECA5D7F41FDA91B51F3713EA363DDD4A8C5A7AE6EC7E36E6C5A522431255ECD3FDBB995CC4B01B42AAB12950DC2CD27EEF6
310
B8DEB7FD1729129312E76DFC795B9ABE8B7452ACE81FB7B088FFDD82D2BEAE36B755E180E278DC7B404991D289E51D5DAC2949FA0D504B0304140006080800BD818E5066183A7AF9000000960100003B0000006662782F44453246384335422D323442412D344337422D394336342D3338314334363142323541362F726573
310
6F75726365732F636F72652E786D6C8550496EC3300CFC8AC1BB6CCB5BDC40561023C90B7AEA4D901947482C195A8A3EBF52E202EDA92712C3992139ECF0B53CB24FB44E193D00CD4BC8504B33293D0F10FC95F4901D38B3C6F85F34C8B4587080040367B33561DD2069B4479D506D26DC40E11C7AC8E42336033879C345E4
310
22F8C870F77C15F22E66CC69FEE27116829A36A99AA29BBA2AB4C07B3A5ECA5D7F21FDA91B49F3763E9363DDD4A4A5A7AE6EC7E36E6C5A562431675E2D3FDBA545E171025E955549CA86D0E69D767B5AEFDBFE831589C999F336FEBC2D4DDF01B7E84CB0121D2B5ED33FAE619DFE770D4AFBBADA5C5F0A079CC6239F03CE8A
310
94522CCF08634D89F26F504B0304140006080800BD818E503FC48F53F3000000B1010000310000006662782F44453246384335422D323442412D344337422D394336342D3338314334363142323541362F636F72652E786D6C8D50CB6EC32010FC156BEFD80663D78D3051ECB65FD0536F08131725068B47D5CF2F24AED4DE
310
725A343BC3CC0E3B7EAFD7E24B39AFAD1900973514CA483B6BB30C10C319F5501C3973D6863F34288C58D5001906CE1667E3B643D29AA04C468D9DD50E0AEF5580425ED363002F3FD52A4A114362F84BB90979118B2A7179E77116F4FA2B954E89A066E0A42635AA29C2F41D7707DC1CDAFE835599C9598C7ADEADF49CDCF5
310
592B07FCE595BCF5533B2242C713A2D3D3889EA78EA2A6C713EDF048DA53C7AA2CE6CC07976EDE3FC9D73D2ABF0BFF658EDBFC40666D424376C3BBC203C729CF6DC159950B4CE3D66E9AB96CFE03504B0304140006080800BD818E50EEC9A64354010000DD0200000C0000006662782F636F72652E786D6C8D52DB8E832014
310
FC15C33B2A5E5AB7419A9AB65FB04FFB4691BAA40A06C1F4F317BCC4EDC35E628264CE39336726E0E3B36B8391EB4128590214C620E092A95AC8A604D6DC61018223C15A29F3AD0D049276BC041E0604375AD97E819892864B8F4A55F305A4C3C00D0858EB2E2518D827EF6848AD711DC323EC297BD08687289CFB08B656D4
310
CBA8A81D9BB80BAE012950758DF7C51516E75D05B3B7CB059ED22C85393AEFD2BC3AEDAB2CC7911F26D8886E55679A53C36B40923889619C4194BDA3DD01A587BCF8C091EF247830DA795E44BD3B40EEB7278E66FC85CFF6F5DF7C564893260BDF3C310082DC7A5381E0C8E7E37E5378AF193A61979FA1B776B5F070D0C899
310
513A73955AD9AD34D2D672471D07D387A3B9EA9827829F78925F787EE7704151D9B8D5A871D79B355EFD75A79E6B389A672095EE68BB2D37AFB89D9BD08BA5759CA956E9FF4CAF56D73023FF30C917504B0304140006080800BD818E509DDCB6AB08010000B201000008000000636F72652E786D6C8D50CB6EC32010FC15B4
310
776CF02B6E84896225F9829E7AA386B828365880A3F6EF0B892BB5B79E16CDCCEE0CC30E9FF384EECA796D4D073423809419ACD466EC600D57DC023A70E6AC0DBF64808C9855070906CE4667D76583066B8232093556AA0D14DEAB006898E2A3033F7CA85964620D51E16FD922869B185546B3A78EB3A0E79FD5C129119404
310
5E90826052615ABDD2664FCB7DDDBEB13C29395B572D372B2DA3BBBE6AE580B7B4BF905D7BC1EDA9E971F5723EE3635995B8A6A7A6ACFBE3AEAF6A96A765CE7C70F1CFDB919833202FEEC997E54F8AB3776BA74D10434964CDF4059CB03C117F42AF8BFC47686D42596C079F1B1E388D811E44344E0DC6F1A837CED436FF06
310
504B01021400140006080800BD818E500000000000000000000000003700000000000000000000000000000000006662782F44453246384335422D323442412D344337422D394336342D3338314334363142323541362F617474726962757465732E62696E504B01021400140006080800BD818E5000000000000000000000
310
00003500000000000000000000000000550000006662782F44453246384335422D323442412D344337422D394336342D3338314334363142323541362F76657274696365732E62696E504B01021400140006080800BD818E50F270F13306000000040000003600000000000000000000000000A80000006662782F44453246
310
384335422D323442412D344337422D394336342D3338314334363142323541362F747269616E676C65732E62696E504B01021400140006080800BD818E5088E57597CD3F0000904100004200000000000000000000000000020100006662782F44453246384335422D323442412D344337422D394336342D33383143343631
310
42323541362F7265736F75726365732F322F305F67656E657269632E706E67504B01021400140006080800BD818E5051464CB4890000004301000036000000000000000000000000002F4100006662782F44453246384335422D323442412D344337422D394336342D3338314334363142323541362F6469726563746F7279
310
2E786D6C504B01021400140006080800BD818E500DA3947B42070000541C000034000000000000000000000000000C4200006662782F44453246384335422D323442412D344337422D394336342D3338314334363142323541362F6F626A656374732E786D6C504B01021400140006080800BD818E50BA39DACDE200000055
310
0100003C00000000000000000000000000A04900006662782F44453246384335422D323442412D344337422D394336342D3338314334363142323541362F7265736F75726365732F322F636E782E786D6C504B01021400140006080800BD818E50FF15A4A45D000000800000003A00000000000000000000000000DC4A0000
310
6662782F44453246384335422D323442412D344337422D394336342D3338314334363142323541362F7265736F75726365732F636E782E786D6C504B01021400140006080800BD818E50B7EBC2E843010000560500003000000000000000000000000000914B00006662782F44453246384335422D323442412D344337422D
310
394336342D3338314334363142323541362F636E782E786D6C504B01021400140006080800BD818E500ADDF5D77E000000A30000000B00000000000000000000000000224D00006662782F636E782E786D6C504B01021400140006080800BD818E50A6D797065F000000820000000700000000000000000000000000C94D00
310
00636E782E786D6C504B01021400140006080800BD818E50ECFD112DA80000002601000013000000000000000000000000004D4E00005B436F6E74656E745F54797065735D2E786D6C504B01021400140006080800BD818E503DEE336E64000000790000001B00000000000000000000000000264F00006175746F6465736B
310
2D64657369676E2D7061636B6167652E786D6C504B01021400140006080800BD818E50ED960A89F40000008E0100003D00000000000000000000000000C34F00006662782F44453246384335422D323442412D344337422D394336342D3338314334363142323541362F7265736F75726365732F322F636F72652E786D6C50
310
4B01021400140006080800BD818E5066183A7AF9000000960100003B00000000000000000000000000125100006662782F44453246384335422D323442412D344337422D394336342D3338314334363142323541362F7265736F75726365732F636F72652E786D6C504B01021400140006080800BD818E503FC48F53F30000
310
00B10100003100000000000000000000000000645200006662782F44453246384335422D323442412D344337422D394336342D3338314334363142323541362F636F72652E786D6C504B01021400140006080800BD818E50EEC9A64354010000DD0200000C00000000000000000000000000A65300006662782F636F72652E
310
786D6C504B01021400140006080800BD818E509DDCB6AB08010000B2010000080000000000000000000000000024550000636F72652E786D6C504B050600000000120012002D060000525600000000
  0
XRECORD
  5
EA8
102
{ACAD_REACTORS
330
EA3
102
}
330
EA3
100
AcDbXrecord
280
     1
270
     1
271
     1
  0
XRECORD
  5
EA7
102
{ACAD_REACTORS
330
EA3
102
}
330
EA3
100
AcDbXrecord
280
     1
270
     1
271
     1
  0
XRECORD
  5
EA9
102
{ACAD_REACTORS
330
EA3
102
}
330
EA3
100
AcDbXrecord
280
     1
270
     1
271
     1
  0
XRECORD
  5
EA6
102
{ACAD_REACTORS
330
EA3
102
}
330
EA3
100
AcDbXrecord
280
     1
270
     1
271
     1
  0
XRECORD
  5
1CE8
102
{ACAD_REACTORS
330
1CE7
102
}
330
1CE7
100
AcDbXrecord
280
     1
102
DISPLAYNAME
  1
Imperial24
102
FLAGS
 90
        0
  0
XRECORD
  5
1CEC
102
{ACAD_REACTORS
330
1CEB
102
}
330
1CEB
100
AcDbXrecord
280
     1
102
DISPLAYNAME
  1
Metric50
102
FLAGS
 90
        0
  0
CELLSTYLEMAP
  5
1CB4
102
{ACAD_REACTORS
330
F01
102
}
330
F01
100
AcDbCellStyleMap
 90
        3
300
CELLSTYLE
  1
TABLEFORMAT_BEGIN
 90
        5
170
     1
 91
        0
 92
    32768
 62
   257
 93
        1
300
CONTENTFORMAT
  1
CONTENTFORMAT_BEGIN
 90
        0
 91
        0
 92
      512
 93
        0
300

 40
0.0
140
1.0
 94
        5
 62
     0
340
11
144
0.25
309
CONTENTFORMAT_END
171
     1
301
MARGIN
  1
CELLMARGIN_BEGIN
 40
0.06
 40
0.06
 40
0.06
 40
0.06
 40
0.18
 40
0.18
309
CELLMARGIN_END
 94
        6
 95
        1
302
GRIDFORMAT
  1
GRIDFORMAT_BEGIN
 90
        0
 91
        1
 62
     0
 92
       -2
340
0
 93
        0
 40
0.045
309
GRIDFORMAT_END
 95
        2
302
GRIDFORMAT
  1
GRIDFORMAT_BEGIN
 90
        0
 91
        1
 62
     0
 92
       -2
340
0
 93
        0
 40
0.045
309
GRIDFORMAT_END
 95
        4
302
GRIDFORMAT
  1
GRIDFORMAT_BEGIN
 90
        0
 91
        1
 62
     0
 92
       -2
340
0
 93
        0
 40
0.045
309
GRIDFORMAT_END
 95
        8
302
GRIDFORMAT
  1
GRIDFORMAT_BEGIN
 90
        0
 91
        1
 62
     0
 92
       -2
340
0
 93
        0
 40
0.045
309
GRIDFORMAT_END
 95
       16
302
GRIDFORMAT
  1
GRIDFORMAT_BEGIN
 90
        0
 91
        1
 62
     0
 92
       -2
340
0
 93
        0
 40
0.045
309
GRIDFORMAT_END
 95
       32
302
GRIDFORMAT
  1
GRIDFORMAT_BEGIN
 90
        0
 91
        1
 62
     0
 92
       -2
340
0
 93
        0
 40
0.045
309
GRIDFORMAT_END
309
TABLEFORMAT_END
  1
CELLSTYLE_BEGIN
 90
        1
 91
        1
300
_TITLE
309
CELLSTYLE_END
300
CELLSTYLE
  1
TABLEFORMAT_BEGIN
 90
        5
170
     1
 91
        0
 92
        0
 62
   257
 93
        1
300
CONTENTFORMAT
  1
CONTENTFORMAT_BEGIN
 90
        0
 91
        0
 92
      512
 93
        0
300

 40
0.0
140
1.0
 94
        5
 62
     0
340
11
144
0.18
309
CONTENTFORMAT_END
171
     1
301
MARGIN
  1
CELLMARGIN_BEGIN
 40
0.06
 40
0.06
 40
0.06
 40
0.06
 40
0.18
 40
0.18
309
CELLMARGIN_END
 94
        6
 95
        1
302
GRIDFORMAT
  1
GRIDFORMAT_BEGIN
 90
        0
 91
        1
 62
     0
 92
       -2
340
0
 93
        0
 40
0.045
309
GRIDFORMAT_END
 95
        2
302
GRIDFORMAT
  1
GRIDFORMAT_BEGIN
 90
        0
 91
        1
 62
     0
 92
       -2
340
0
 93
        0
 40
0.045
309
GRIDFORMAT_END
 95
        4
302
GRIDFORMAT
  1
GRIDFORMAT_BEGIN
 90
        0
 91
        1
 62
     0
 92
       -2
340
0
 93
        0
 40
0.045
309
GRIDFORMAT_END
 95
        8
302
GRIDFORMAT
  1
GRIDFORMAT_BEGIN
 90
        0
 91
        1
 62
     0
 92
       -2
340
0
 93
        0
 40
0.045
309
GRIDFORMAT_END
 95
       16
302
GRIDFORMAT
  1
GRIDFORMAT_BEGIN
 90
        0
 91
        1
 62
     0
 92
       -2
340
0
 93
        0
 40
0.045
309
GRIDFORMAT_END
 95
       32
302
GRIDFORMAT
  1
GRIDFORMAT_BEGIN
 90
        0
 91
        1
 62
     0
 92
       -2
340
0
 93
        0
 40
0.045
309
GRIDFORMAT_END
309
TABLEFORMAT_END
  1
CELLSTYLE_BEGIN
 90
        2
 91
        1
300
_HEADER
309
CELLSTYLE_END
300
CELLSTYLE
  1
TABLEFORMAT_BEGIN
 90
        5
170
     1
 91
        0
 92
        0
 62
   257
 93
        1
300
CONTENTFORMAT
  1
CONTENTFORMAT_BEGIN
 90
        0
 91
        0
 92
      512
 93
        0
300

 40
0.0
140
1.0
 94
        2
 62
     0
340
11
144
0.18
309
CONTENTFORMAT_END
171
     1
301
MARGIN
  1
CELLMARGIN_BEGIN
 40
0.06
 40
0.06
 40
0.06
 40
0.06
 40
0.18
 40
0.18
309
CELLMARGIN_END
 94
        6
 95
        1
302
GRIDFORMAT
  1
GRIDFORMAT_BEGIN
 90
        0
 91
        1
 62
     0
 92
       -2
340
0
 93
        0
 40
0.045
309
GRIDFORMAT_END
 95
        2
302
GRIDFORMAT
  1
GRIDFORMAT_BEGIN
 90
        0
 91
        1
 62
     0
 92
       -2
340
0
 93
        0
 40
0.045
309
GRIDFORMAT_END
 95
        4
302
GRIDFORMAT
  1
GRIDFORMAT_BEGIN
 90
        0
 91
        1
 62
     0
 92
       -2
340
0
 93
        0
 40
0.045
309
GRIDFORMAT_END
 95
        8
302
GRIDFORMAT
  1
GRIDFORMAT_BEGIN
 90
        0
 91
        1
 62
     0
 92
       -2
340
0
 93
        0
 40
0.045
309
GRIDFORMAT_END
 95
       16
302
GRIDFORMAT
  1
GRIDFORMAT_BEGIN
 90
        0
 91
        1
 62
     0
 92
       -2
340
0
 93
        0
 40
0.045
309
GRIDFORMAT_END
 95
       32
302
GRIDFORMAT
  1
GRIDFORMAT_BEGIN
 90
        0
 91
        1
 62
     0
 92
       -2
340
0
 93
        0
 40
0.045
309
GRIDFORMAT_END
309
TABLEFORMAT_END
  1
CELLSTYLE_BEGIN
 90
        3
 91
        2
300
_DATA
309
CELLSTYLE_END
  0
XRECORD
  5
1CE6
102
{ACAD_REACTORS
330
F01
102
}
330
F01
100
AcDbXrecord
280
     1
102
ACAD_ROUNDTRIP_PRE2007_TABLESTYLE
 90
      512
 91
        0
  1

 92
      512
 93
        0
  2

 94
      512
 95
        0
  3

  0
XRECORD
  5
1CC1
102
{ACAD_REACTORS
330
1CC0
102
}
330
1CC0
100
AcDbXrecord
280
     1
102
RTVSPost2010Prop28
280
     1
102
RTVSPost2010PropOp28
 70
     1
102
RTVSPost2010Prop29
280
     1
102
RTVSPost2010PropOp29
 70
     1
102
RTVSPost2010Prop30
280
     0
102
RTVSPost2010PropOp30
 70
     1
102
RTVSPost2010Prop31
280
     0
102
RTVSPost2010PropOp31
 70
     1
102
RTVSPost2010Prop32
280
     0
102
RTVSPost2010PropOp32
 70
     1
102
RTVSPost2010Prop33
280
     0
102
RTVSPost2010PropOp33
 70
     1
102
RTVSPost2010Prop34
280
     0
102
RTVSPost2010PropOp34
 70
     1
102
RTVSPost2010Prop35
280
     0
102
RTVSPost2010PropOp35
 70
     1
102
RTVSPost2010Prop36
280
     0
102
RTVSPost2010PropOp36
 70
     1
102
RTVSPost2010Prop37
 90
       50
102
RTVSPost2010PropOp37
 70
     1
102
RTVSPost2010Prop38
140
0.0
102
RTVSPost2010PropOp38
 70
     1
102
RTVSPost2010Prop39
140
1.0
102
RTVSPost2010PropOp39
 70
     1
102
RTVSPost2010Prop40
 90
        0
102
RTVSPost2010PropOp40
 70
     1
102
RTVSPost2010Prop41ColorIndex
 90
       18
102
RTVSPost2010Prop41ColorRGB
 90
-16777216
102
RTVSPost2010PropOp41
 70
     1
102
RTVSPost2010Prop42
 90
       50
102
RTVSPost2010PropOp42
 70
     1
102
RTVSPost2010Prop43
 90
        3
102
RTVSPost2010PropOp43
 70
     1
102
RTVSPost2010Prop44ColorIndex
 90
        5
102
RTVSPost2010Prop44ColorRGB
 90
      255
102
RTVSPost2010PropOp44
 70
     1
102
RTVSPost2010Prop45
280
     0
102
RTVSPost2010PropOp45
 70
     1
102
RTVSPost2010Prop46
 90
       50
102
RTVSPost2010PropOp46
 70
     1
102
RTVSPost2010Prop47
 90
       50
102
RTVSPost2010PropOp47
 70
     1
102
RTVSPost2010Prop48
 90
       50
102
RTVSPost2010PropOp48
 70
     1
102
RTVSPost2010Prop49
280
     0
102
RTVSPost2010PropOp49
 70
     1
102
RTVSPost2010Prop50
 90
       50
102
RTVSPost2010PropOp50
 70
     1
102
RTVSPost2010Prop51ColorIndex
 90
      256
102
RTVSPost2010Prop51ColorRGB
 90
-16777216
102
RTVSPost2010PropOp51
 70
     0
102
RTVSPost2010Prop52
140
1.0
102
RTVSPost2010PropOp52
 70
     0
102
RTVSPost2010Prop53
 90
        2
102
RTVSPost2010PropOp53
 70
     1
102
RTVSPost2010Prop54
  1
strokes_ogs.tif
102
RTVSPost2010PropOp54
 70
     1
102
RTVSPost2010Prop55
280
     0
102
RTVSPost2010PropOp55
 70
     1
102
RTVSPost2010Prop56
140
1.0
102
RTVSPost2010PropOp56
 70
     1
102
RTVSPost2010Prop57
140
1.0
102
RTVSPost2010PropOp57
 70
     1
102
RTVSPropertyOp0
 70
     1
102
RTVSPropertyOp1
 70
     1
102
RTVSPropertyOp2
 70
     1
102
RTVSPropertyOp3
 70
     1
102
RTVSPropertyOp4
 70
     1
102
RTVSPropertyOp5
 70
     1
102
RTVSPropertyOp6
 70
     1
102
RTVSPropertyOp7
 70
     1
102
RTVSPropertyOp8
 70
     1
102
RTVSPropertyOp9
 70
     1
102
RTVSPropertyOp10
 70
     1
102
RTVSPropertyOp11
 70
     1
102
RTVSPropertyOp12
 70
     1
102
RTVSPropertyOp13
 70
     1
102
RTVSPropertyOp14
 70
     1
102
RTVSPropertyOp15
 70
     1
102
RTVSPropertyOp16
 70
     1
102
RTVSPropertyOp17
 70
     1
102
RTVSPropertyOp18
 70
     1
102
RTVSPropertyOp19
 70
     1
102
RTVSPropertyOp20
 70
     1
102
RTVSPropertyOp21
 70
     1
102
RTVSPropertyOp22
 70
     1
102
RTVSPropertyOp23
 70
     1
102
RTVSPropertyOp24
 70
     1
102
RTVSPropertyOp25
 70
     1
102
RTVSPropertyOp26
 70
     1
102
RTVSPropertyOp27
 70
     1
102
RTVSPropertyOp28
 70
     1
102
RTVSPropertyOp29
 70
     1
102
RTVSPropertyOp30
 70
     1
102
RTVSPropertyOp31
 70
     1
102
RTVSPropertyOp32
 70
     1
102
RTVSPropertyOp33
 70
     1
102
RTVSPropertyOp34
 70
     1
102
RTVSPropertyOp35
 70
     1
102
RTVSPropertyOp36
 70
     1
102
RTVSPropertyOp37
 70
     1
102
RTVSPropertyOp38
 70
     1
102
RTVSPropertyOp39
 70
     1
102
RTVSPropertyOp40
 70
     1
102
RTVSPropertyOp41
 70
     1
102
RTVSPropertyOp42
 70
     1
102
RTVSPropertyOp43
 70
     1
102
RTVSPropertyOp44
 70
     1
102
RTVSPropertyOp45
 70
     1
102
RTVSPropertyOp46
 70
     1
102
RTVSPropertyOp47
 70
     1
102
RTVSPropertyOp48
 70
     1
102
RTVSPropertyOp49
 70
     1
102
RTVSPropertyOp50
 70
     1
102
RTVSPropertyOp51
 70
     0
102
RTVSPropertyOp52
 70
     0
102
RTVSPropertyOp53
 70
     1
102
RTVSPropertyOp54
 70
     1
102
RTVSPropertyOp55
 70
     1
102
RTVSPropertyOp56
 70
     1
102
RTVSPropertyOp57
 70
     1
102
RTVSPropertyOp58
 70
     1
102
RTVSPropertyOp59
 70
     1
102
RTVSPropertyOp60
 70
     1
102
RTVSPropertyOp61
 70
     1
102
RTVSPropertyOp62
 70
     1
  0
XRECORD
  5
1CBF
102
{ACAD_REACTORS
330
1CBE
102
}
330
1CBE
100
AcDbXrecord
280
     1
102
RTVSPost2010Prop28
280
     0
102
RTVSPost2010PropOp28
 70
     1
102
RTVSPost2010Prop29
280
     1
102
RTVSPost2010PropOp29
 70
     1
102
RTVSPost2010Prop30
280
     1
102
RTVSPost2010PropOp30
 70
     1
102
RTVSPost2010Prop31
280
     0
102
RTVSPost2010PropOp31
 70
     1
102
RTVSPost2010Prop32
280
     0
102
RTVSPost2010PropOp32
 70
     1
102
RTVSPost2010Prop33
280
     0
102
RTVSPost2010PropOp33
 70
     1
102
RTVSPost2010Prop34
280
     0
102
RTVSPost2010PropOp34
 70
     1
102
RTVSPost2010Prop35
280
     0
102
RTVSPost2010PropOp35
 70
     1
102
RTVSPost2010Prop36
280
     0
102
RTVSPost2010PropOp36
 70
     1
102
RTVSPost2010Prop37
 90
       50
102
RTVSPost2010PropOp37
 70
     1
102
RTVSPost2010Prop38
140
0.0
102
RTVSPost2010PropOp38
 70
     1
102
RTVSPost2010Prop39
140
1.0
102
RTVSPost2010PropOp39
 70
     1
102
RTVSPost2010Prop40
 90
        0
102
RTVSPost2010PropOp40
 70
     1
102
RTVSPost2010Prop41ColorIndex
 90
       18
102
RTVSPost2010Prop41ColorRGB
 90
-16777216
102
RTVSPost2010PropOp41
 70
     1
102
RTVSPost2010Prop42
 90
       50
102
RTVSPost2010PropOp42
 70
     1
102
RTVSPost2010Prop43
 90
        3
102
RTVSPost2010PropOp43
 70
     1
102
RTVSPost2010Prop44ColorIndex
 90
        5
102
RTVSPost2010Prop44ColorRGB
 90
      255
102
RTVSPost2010PropOp44
 70
     1
102
RTVSPost2010Prop45
280
     0
102
RTVSPost2010PropOp45
 70
     1
102
RTVSPost2010Prop46
 90
       50
102
RTVSPost2010PropOp46
 70
     1
102
RTVSPost2010Prop47
 90
       50
102
RTVSPost2010PropOp47
 70
     1
102
RTVSPost2010Prop48
 90
       50
102
RTVSPost2010PropOp48
 70
     1
102
RTVSPost2010Prop49
280
     0
102
RTVSPost2010PropOp49
 70
     1
102
RTVSPost2010Prop50
 90
       50
102
RTVSPost2010PropOp50
 70
     1
102
RTVSPost2010Prop51ColorIndex
 90
      256
102
RTVSPost2010Prop51ColorRGB
 90
-16777216
102
RTVSPost2010PropOp51
 70
     0
102
RTVSPost2010Prop52
140
1.0
102
RTVSPost2010PropOp52
 70
     0
102
RTVSPost2010Prop53
 90
        2
102
RTVSPost2010PropOp53
 70
     1
102
RTVSPost2010Prop54
  1
strokes_ogs.tif
102
RTVSPost2010PropOp54
 70
     1
102
RTVSPost2010Prop55
280
     0
102
RTVSPost2010PropOp55
 70
     1
102
RTVSPost2010Prop56
140
1.0
102
RTVSPost2010PropOp56
 70
     1
102
RTVSPost2010Prop57
140
1.0
102
RTVSPost2010PropOp57
 70
     1
102
RTVSPropertyOp0
 70
     1
102
RTVSPropertyOp1
 70
     1
102
RTVSPropertyOp2
 70
     1
102
RTVSPropertyOp3
 70
     1
102
RTVSPropertyOp4
 70
     1
102
RTVSPropertyOp5
 70
     1
102
RTVSPropertyOp6
 70
     1
102
RTVSPropertyOp7
 70
     1
102
RTVSPropertyOp8
 70
     1
102
RTVSPropertyOp9
 70
     1
102
RTVSPropertyOp10
 70
     1
102
RTVSPropertyOp11
 70
     1
102
RTVSPropertyOp12
 70
     1
102
RTVSPropertyOp13
 70
     1
102
RTVSPropertyOp14
 70
     1
102
RTVSPropertyOp15
 70
     1
102
RTVSPropertyOp16
 70
     1
102
RTVSPropertyOp17
 70
     1
102
RTVSPropertyOp18
 70
     1
102
RTVSPropertyOp19
 70
     1
102
RTVSPropertyOp20
 70
     1
102
RTVSPropertyOp21
 70
     1
102
RTVSPropertyOp22
 70
     1
102
RTVSPropertyOp23
 70
     1
102
RTVSPropertyOp24
 70
     1
102
RTVSPropertyOp25
 70
     1
102
RTVSPropertyOp26
 70
     1
102
RTVSPropertyOp27
 70
     1
102
RTVSPropertyOp28
 70
     1
102
RTVSPropertyOp29
 70
     1
102
RTVSPropertyOp30
 70
     1
102
RTVSPropertyOp31
 70
     1
102
RTVSPropertyOp32
 70
     1
102
RTVSPropertyOp33
 70
     1
102
RTVSPropertyOp34
 70
     1
102
RTVSPropertyOp35
 70
     1
102
RTVSPropertyOp36
 70
     1
102
RTVSPropertyOp37
 70
     1
102
RTVSPropertyOp38
 70
     1
102
RTVSPropertyOp39
 70
     1
102
RTVSPropertyOp40
 70
     1
102
RTVSPropertyOp41
 70
     1
102
RTVSPropertyOp42
 70
     1
102
RTVSPropertyOp43
 70
     1
102
RTVSPropertyOp44
 70
     1
102
RTVSPropertyOp45
 70
     1
102
RTVSPropertyOp46
 70
     1
102
RTVSPropertyOp47
 70
     1
102
RTVSPropertyOp48
 70
     1
102
RTVSPropertyOp49
 70
     1
102
RTVSPropertyOp50
 70
     1
102
RTVSPropertyOp51
 70
     0
102
RTVSPropertyOp52
 70
     0
102
RTVSPropertyOp53
 70
     1
102
RTVSPropertyOp54
 70
     1
102
RTVSPropertyOp55
 70
     1
102
RTVSPropertyOp56
 70
     1
102
RTVSPropertyOp57
 70
     1
102
RTVSPropertyOp58
 70
     1
102
RTVSPropertyOp59
 70
     1
102
RTVSPropertyOp60
 70
     1
102
RTVSPropertyOp61
 70
     1
102
RTVSPropertyOp62
 70
     1
  0
XRECORD
  5
1CCD
102
{ACAD_REACTORS
330
1CCC
102
}
330
1CCC
100
AcDbXrecord
280
     1
102
RTVSPost2010Prop28
280
     0
102
RTVSPost2010PropOp28
 70
     1
102
RTVSPost2010Prop29
280
     1
102
RTVSPost2010PropOp29
 70
     1
102
RTVSPost2010Prop30
280
     1
102
RTVSPost2010PropOp30
 70
     1
102
RTVSPost2010Prop31
280
     0
102
RTVSPost2010PropOp31
 70
     1
102
RTVSPost2010Prop32
280
     0
102
RTVSPost2010PropOp32
 70
     1
102
RTVSPost2010Prop33
280
     0
102
RTVSPost2010PropOp33
 70
     1
102
RTVSPost2010Prop34
280
     0
102
RTVSPost2010PropOp34
 70
     1
102
RTVSPost2010Prop35
280
     0
102
RTVSPost2010PropOp35
 70
     1
102
RTVSPost2010Prop36
280
     0
102
RTVSPost2010PropOp36
 70
     1
102
RTVSPost2010Prop37
 90
       50
102
RTVSPost2010PropOp37
 70
     1
102
RTVSPost2010Prop38
140
0.0
102
RTVSPost2010PropOp38
 70
     1
102
RTVSPost2010Prop39
140
1.0
102
RTVSPost2010PropOp39
 70
     1
102
RTVSPost2010Prop40
 90
        0
102
RTVSPost2010PropOp40
 70
     1
102
RTVSPost2010Prop41ColorIndex
 90
       18
102
RTVSPost2010Prop41ColorRGB
 90
-16777216
102
RTVSPost2010PropOp41
 70
     1
102
RTVSPost2010Prop42
 90
       50
102
RTVSPost2010PropOp42
 70
     1
102
RTVSPost2010Prop43
 90
        3
102
RTVSPost2010PropOp43
 70
     1
102
RTVSPost2010Prop44ColorIndex
 90
        5
102
RTVSPost2010Prop44ColorRGB
 90
      255
102
RTVSPost2010PropOp44
 70
     1
102
RTVSPost2010Prop45
280
     0
102
RTVSPost2010PropOp45
 70
     1
102
RTVSPost2010Prop46
 90
       50
102
RTVSPost2010PropOp46
 70
     1
102
RTVSPost2010Prop47
 90
       50
102
RTVSPost2010PropOp47
 70
     1
102
RTVSPost2010Prop48
 90
       50
102
RTVSPost2010PropOp48
 70
     1
102
RTVSPost2010Prop49
280
     0
102
RTVSPost2010PropOp49
 70
     1
102
RTVSPost2010Prop50
 90
       50
102
RTVSPost2010PropOp50
 70
     1
102
RTVSPost2010Prop51ColorIndex
 90
      256
102
RTVSPost2010Prop51ColorRGB
 90
-16777216
102
RTVSPost2010PropOp51
 70
     0
102
RTVSPost2010Prop52
140
1.0
102
RTVSPost2010PropOp52
 70
     0
102
RTVSPost2010Prop53
 90
        2
102
RTVSPost2010PropOp53
 70
     1
102
RTVSPost2010Prop54
  1
strokes_ogs.tif
102
RTVSPost2010PropOp54
 70
     1
102
RTVSPost2010Prop55
280
     0
102
RTVSPost2010PropOp55
 70
     1
102
RTVSPost2010Prop56
140
1.0
102
RTVSPost2010PropOp56
 70
     1
102
RTVSPost2010Prop57
140
1.0
102
RTVSPost2010PropOp57
 70
     1
102
RTVSPropertyOp0
 70
     1
102
RTVSPropertyOp1
 70
     1
102
RTVSPropertyOp2
 70
     1
102
RTVSPropertyOp3
 70
     1
102
RTVSPropertyOp4
 70
     1
102
RTVSPropertyOp5
 70
     1
102
RTVSPropertyOp6
 70
     1
102
RTVSPropertyOp7
 70
     1
102
RTVSPropertyOp8
 70
     1
102
RTVSPropertyOp9
 70
     1
102
RTVSPropertyOp10
 70
     1
102
RTVSPropertyOp11
 70
     1
102
RTVSPropertyOp12
 70
     1
102
RTVSPropertyOp13
 70
     1
102
RTVSPropertyOp14
 70
     1
102
RTVSPropertyOp15
 70
     1
102
RTVSPropertyOp16
 70
     1
102
RTVSPropertyOp17
 70
     1
102
RTVSPropertyOp18
 70
     1
102
RTVSPropertyOp19
 70
     1
102
RTVSPropertyOp20
 70
     1
102
RTVSPropertyOp21
 70
     1
102
RTVSPropertyOp22
 70
     1
102
RTVSPropertyOp23
 70
     1
102
RTVSPropertyOp24
 70
     1
102
RTVSPropertyOp25
 70
     1
102
RTVSPropertyOp26
 70
     1
102
RTVSPropertyOp27
 70
     1
102
RTVSPropertyOp28
 70
     1
102
RTVSPropertyOp29
 70
     1
102
RTVSPropertyOp30
 70
     1
102
RTVSPropertyOp31
 70
     1
102
RTVSPropertyOp32
 70
     1
102
RTVSPropertyOp33
 70
     1
102
RTVSPropertyOp34
 70
     1
102
RTVSPropertyOp35
 70
     1
102
RTVSPropertyOp36
 70
     1
102
RTVSPropertyOp37
 70
     1
102
RTVSPropertyOp38
 70
     1
102
RTVSPropertyOp39
 70
     1
102
RTVSPropertyOp40
 70
     1
102
RTVSPropertyOp41
 70
     1
102
RTVSPropertyOp42
 70
     1
102
RTVSPropertyOp43
 70
     1
102
RTVSPropertyOp44
 70
     1
102
RTVSPropertyOp45
 70
     1
102
RTVSPropertyOp46
 70
     1
102
RTVSPropertyOp47
 70
     1
102
RTVSPropertyOp48
 70
     1
102
RTVSPropertyOp49
 70
     1
102
RTVSPropertyOp50
 70
     1
102
RTVSPropertyOp51
 70
     0
102
RTVSPropertyOp52
 70
     0
102
RTVSPropertyOp53
 70
     1
102
RTVSPropertyOp54
 70
     1
102
RTVSPropertyOp55
 70
     1
102
RTVSPropertyOp56
 70
     1
102
RTVSPropertyOp57
 70
     1
102
RTVSPropertyOp58
 70
     1
102
RTVSPropertyOp59
 70
     1
102
RTVSPropertyOp60
 70
     1
102
RTVSPropertyOp61
 70
     1
102
RTVSPropertyOp62
 70
     1
  0
XRECORD
  5
1CD5
102
{ACAD_REACTORS
330
1CD4
102
}
330
1CD4
100
AcDbXrecord
280
     1
102
RTVSPost2010Prop28
280
     0
102
RTVSPost2010PropOp28
 70
     1
102
RTVSPost2010Prop29
280
     1
102
RTVSPost2010PropOp29
 70
     1
102
RTVSPost2010Prop30
280
     1
102
RTVSPost2010PropOp30
 70
     1
102
RTVSPost2010Prop31
280
     0
102
RTVSPost2010PropOp31
 70
     1
102
RTVSPost2010Prop32
280
     0
102
RTVSPost2010PropOp32
 70
     1
102
RTVSPost2010Prop33
280
     0
102
RTVSPost2010PropOp33
 70
     1
102
RTVSPost2010Prop34
280
     0
102
RTVSPost2010PropOp34
 70
     1
102
RTVSPost2010Prop35
280
     0
102
RTVSPost2010PropOp35
 70
     1
102
RTVSPost2010Prop36
280
     0
102
RTVSPost2010PropOp36
 70
     1
102
RTVSPost2010Prop37
 90
       50
102
RTVSPost2010PropOp37
 70
     1
102
RTVSPost2010Prop38
140
0.0
102
RTVSPost2010PropOp38
 70
     1
102
RTVSPost2010Prop39
140
1.0
102
RTVSPost2010PropOp39
 70
     1
102
RTVSPost2010Prop40
 90
        0
102
RTVSPost2010PropOp40
 70
     1
102
RTVSPost2010Prop41ColorIndex
 90
       18
102
RTVSPost2010Prop41ColorRGB
 90
-16777216
102
RTVSPost2010PropOp41
 70
     1
102
RTVSPost2010Prop42
 90
       50
102
RTVSPost2010PropOp42
 70
     1
102
RTVSPost2010Prop43
 90
        3
102
RTVSPost2010PropOp43
 70
     1
102
RTVSPost2010Prop44ColorIndex
 90
        5
102
RTVSPost2010Prop44ColorRGB
 90
      255
102
RTVSPost2010PropOp44
 70
     1
102
RTVSPost2010Prop45
280
     0
102
RTVSPost2010PropOp45
 70
     1
102
RTVSPost2010Prop46
 90
       50
102
RTVSPost2010PropOp46
 70
     1
102
RTVSPost2010Prop47
 90
       50
102
RTVSPost2010PropOp47
 70
     1
102
RTVSPost2010Prop48
 90
       50
102
RTVSPost2010PropOp48
 70
     1
102
RTVSPost2010Prop49
280
     0
102
RTVSPost2010PropOp49
 70
     1
102
RTVSPost2010Prop50
 90
       50
102
RTVSPost2010PropOp50
 70
     1
102
RTVSPost2010Prop51ColorIndex
 90
      256
102
RTVSPost2010Prop51ColorRGB
 90
-16777216
102
RTVSPost2010PropOp51
 70
     0
102
RTVSPost2010Prop52
140
1.0
102
RTVSPost2010PropOp52
 70
     0
102
RTVSPost2010Prop53
 90
        2
102
RTVSPost2010PropOp53
 70
     1
102
RTVSPost2010Prop54
  1
strokes_ogs.tif
102
RTVSPost2010PropOp54
 70
     1
102
RTVSPost2010Prop55
280
     0
102
RTVSPost2010PropOp55
 70
     1
102
RTVSPost2010Prop56
140
1.0
102
RTVSPost2010PropOp56
 70
     1
102
RTVSPost2010Prop57
140
1.0
102
RTVSPost2010PropOp57
 70
     1
102
RTVSPropertyOp0
 70
     1
102
RTVSPropertyOp1
 70
     1
102
RTVSPropertyOp2
 70
     1
102
RTVSPropertyOp3
 70
     1
102
RTVSPropertyOp4
 70
     1
102
RTVSPropertyOp5
 70
     1
102
RTVSPropertyOp6
 70
     1
102
RTVSPropertyOp7
 70
     1
102
RTVSPropertyOp8
 70
     1
102
RTVSPropertyOp9
 70
     1
102
RTVSPropertyOp10
 70
     1
102
RTVSPropertyOp11
 70
     1
102
RTVSPropertyOp12
 70
     1
102
RTVSPropertyOp13
 70
     1
102
RTVSPropertyOp14
 70
     1
102
RTVSPropertyOp15
 70
     1
102
RTVSPropertyOp16
 70
     1
102
RTVSPropertyOp17
 70
     1
102
RTVSPropertyOp18
 70
     1
102
RTVSPropertyOp19
 70
     1
102
RTVSPropertyOp20
 70
     1
102
RTVSPropertyOp21
 70
     1
102
RTVSPropertyOp22
 70
     1
102
RTVSPropertyOp23
 70
     1
102
RTVSPropertyOp24
 70
     1
102
RTVSPropertyOp25
 70
     1
102
RTVSPropertyOp26
 70
     1
102
RTVSPropertyOp27
 70
     1
102
RTVSPropertyOp28
 70
     1
102
RTVSPropertyOp29
 70
     1
102
RTVSPropertyOp30
 70
     1
102
RTVSPropertyOp31
 70
     1
102
RTVSPropertyOp32
 70
     1
102
RTVSPropertyOp33
 70
     1
102
RTVSPropertyOp34
 70
     1
102
RTVSPropertyOp35
 70
     1
102
RTVSPropertyOp36
 70
     1
102
RTVSPropertyOp37
 70
     1
102
RTVSPropertyOp38
 70
     1
102
RTVSPropertyOp39
 70
     1
102
RTVSPropertyOp40
 70
     1
102
RTVSPropertyOp41
 70
     1
102
RTVSPropertyOp42
 70
     1
102
RTVSPropertyOp43
 70
     1
102
RTVSPropertyOp44
 70
     1
102
RTVSPropertyOp45
 70
     1
102
RTVSPropertyOp46
 70
     1
102
RTVSPropertyOp47
 70
     1
102
RTVSPropertyOp48
 70
     1
102
RTVSPropertyOp49
 70
     1
102
RTVSPropertyOp50
 70
     1
102
RTVSPropertyOp51
 70
     0
102
RTVSPropertyOp52
 70
     0
102
RTVSPropertyOp53
 70
     1
102
RTVSPropertyOp54
 70
     1
102
RTVSPropertyOp55
 70
     1
102
RTVSPropertyOp56
 70
     1
102
RTVSPropertyOp57
 70
     1
102
RTVSPropertyOp58
 70
     1
102
RTVSPropertyOp59
 70
     1
102
RTVSPropertyOp60
 70
     1
102
RTVSPropertyOp61
 70
     1
102
RTVSPropertyOp62
 70
     1
  0
XRECORD
  5
1CC7
102
{ACAD_REACTORS
330
1CC6
102
}
330
1CC6
100
AcDbXrecord
280
     1
102
RTVSPost2010Prop28
280
     0
102
RTVSPost2010PropOp28
 70
     1
102
RTVSPost2010Prop29
280
     1
102
RTVSPost2010PropOp29
 70
     1
102
RTVSPost2010Prop30
280
     1
102
RTVSPost2010PropOp30
 70
     1
102
RTVSPost2010Prop31
280
     0
102
RTVSPost2010PropOp31
 70
     1
102
RTVSPost2010Prop32
280
     0
102
RTVSPost2010PropOp32
 70
     1
102
RTVSPost2010Prop33
280
     0
102
RTVSPost2010PropOp33
 70
     1
102
RTVSPost2010Prop34
280
     0
102
RTVSPost2010PropOp34
 70
     1
102
RTVSPost2010Prop35
280
     0
102
RTVSPost2010PropOp35
 70
     1
102
RTVSPost2010Prop36
280
     0
102
RTVSPost2010PropOp36
 70
     1
102
RTVSPost2010Prop37
 90
       50
102
RTVSPost2010PropOp37
 70
     1
102
RTVSPost2010Prop38
140
0.0
102
RTVSPost2010PropOp38
 70
     1
102
RTVSPost2010Prop39
140
1.0
102
RTVSPost2010PropOp39
 70
     1
102
RTVSPost2010Prop40
 90
        0
102
RTVSPost2010PropOp40
 70
     1
102
RTVSPost2010Prop41ColorIndex
 90
       18
102
RTVSPost2010Prop41ColorRGB
 90
-16777216
102
RTVSPost2010PropOp41
 70
     1
102
RTVSPost2010Prop42
 90
       50
102
RTVSPost2010PropOp42
 70
     1
102
RTVSPost2010Prop43
 90
        3
102
RTVSPost2010PropOp43
 70
     1
102
RTVSPost2010Prop44ColorIndex
 90
        5
102
RTVSPost2010Prop44ColorRGB
 90
      255
102
RTVSPost2010PropOp44
 70
     1
102
RTVSPost2010Prop45
280
     0
102
RTVSPost2010PropOp45
 70
     1
102
RTVSPost2010Prop46
 90
       50
102
RTVSPost2010PropOp46
 70
     1
102
RTVSPost2010Prop47
 90
       50
102
RTVSPost2010PropOp47
 70
     1
102
RTVSPost2010Prop48
 90
       50
102
RTVSPost2010PropOp48
 70
     1
102
RTVSPost2010Prop49
280
     0
102
RTVSPost2010PropOp49
 70
     1
102
RTVSPost2010Prop50
 90
       50
102
RTVSPost2010PropOp50
 70
     1
102
RTVSPost2010Prop51ColorIndex
 90
      256
102
RTVSPost2010Prop51ColorRGB
 90
-16777216
102
RTVSPost2010PropOp51
 70
     0
102
RTVSPost2010Prop52
140
1.0
102
RTVSPost2010PropOp52
 70
     0
102
RTVSPost2010Prop53
 90
        2
102
RTVSPost2010PropOp53
 70
     1
102
RTVSPost2010Prop54
  1
strokes_ogs.tif
102
RTVSPost2010PropOp54
 70
     1
102
RTVSPost2010Prop55
280
     0
102
RTVSPost2010PropOp55
 70
     1
102
RTVSPost2010Prop56
140
1.0
102
RTVSPost2010PropOp56
 70
     1
102
RTVSPost2010Prop57
140
1.0
102
RTVSPost2010PropOp57
 70
     1
102
RTVSPropertyOp0
 70
     1
102
RTVSPropertyOp1
 70
     1
102
RTVSPropertyOp2
 70
     1
102
RTVSPropertyOp3
 70
     1
102
RTVSPropertyOp4
 70
     1
102
RTVSPropertyOp5
 70
     1
102
RTVSPropertyOp6
 70
     1
102
RTVSPropertyOp7
 70
     1
102
RTVSPropertyOp8
 70
     1
102
RTVSPropertyOp9
 70
     1
102
RTVSPropertyOp10
 70
     1
102
RTVSPropertyOp11
 70
     1
102
RTVSPropertyOp12
 70
     1
102
RTVSPropertyOp13
 70
     1
102
RTVSPropertyOp14
 70
     1
102
RTVSPropertyOp15
 70
     1
102
RTVSPropertyOp16
 70
     1
102
RTVSPropertyOp17
 70
     1
102
RTVSPropertyOp18
 70
     1
102
RTVSPropertyOp19
 70
     1
102
RTVSPropertyOp20
 70
     1
102
RTVSPropertyOp21
 70
     1
102
RTVSPropertyOp22
 70
     1
102
RTVSPropertyOp23
 70
     1
102
RTVSPropertyOp24
 70
     1
102
RTVSPropertyOp25
 70
     1
102
RTVSPropertyOp26
 70
     1
102
RTVSPropertyOp27
 70
     1
102
RTVSPropertyOp28
 70
     1
102
RTVSPropertyOp29
 70
     1
102
RTVSPropertyOp30
 70
     1
102
RTVSPropertyOp31
 70
     1
102
RTVSPropertyOp32
 70
     1
102
RTVSPropertyOp33
 70
     1
102
RTVSPropertyOp34
 70
     1
102
RTVSPropertyOp35
 70
     1
102
RTVSPropertyOp36
 70
     1
102
RTVSPropertyOp37
 70
     1
102
RTVSPropertyOp38
 70
     1
102
RTVSPropertyOp39
 70
     1
102
RTVSPropertyOp40
 70
     1
102
RTVSPropertyOp41
 70
     1
102
RTVSPropertyOp42
 70
     1
102
RTVSPropertyOp43
 70
     1
102
RTVSPropertyOp44
 70
     1
102
RTVSPropertyOp45
 70
     1
102
RTVSPropertyOp46
 70
     1
102
RTVSPropertyOp47
 70
     1
102
RTVSPropertyOp48
 70
     1
102
RTVSPropertyOp49
 70
     1
102
RTVSPropertyOp50
 70
     1
102
RTVSPropertyOp51
 70
     0
102
RTVSPropertyOp52
 70
     0
102
RTVSPropertyOp53
 70
     1
102
RTVSPropertyOp54
 70
     1
102
RTVSPropertyOp55
 70
     1
102
RTVSPropertyOp56
 70
     1
102
RTVSPropertyOp57
 70
     1
102
RTVSPropertyOp58
 70
     1
102
RTVSPropertyOp59
 70
     1
102
RTVSPropertyOp60
 70
     1
102
RTVSPropertyOp61
 70
     1
102
RTVSPropertyOp62
 70
     1
  0
XRECORD
  5
1CCB
102
{ACAD_REACTORS
330
1CCA
102
}
330
1CCA
100
AcDbXrecord
280
     1
102
RTVSPost2010Prop28
280
     0
102
RTVSPost2010PropOp28
 70
     1
102
RTVSPost2010Prop29
280
     1
102
RTVSPost2010PropOp29
 70
     1
102
RTVSPost2010Prop30
280
     1
102
RTVSPost2010PropOp30
 70
     1
102
RTVSPost2010Prop31
280
     0
102
RTVSPost2010PropOp31
 70
     1
102
RTVSPost2010Prop32
280
     0
102
RTVSPost2010PropOp32
 70
     1
102
RTVSPost2010Prop33
280
     0
102
RTVSPost2010PropOp33
 70
     1
102
RTVSPost2010Prop34
280
     0
102
RTVSPost2010PropOp34
 70
     1
102
RTVSPost2010Prop35
280
     0
102
RTVSPost2010PropOp35
 70
     1
102
RTVSPost2010Prop36
280
     0
102
RTVSPost2010PropOp36
 70
     1
102
RTVSPost2010Prop37
 90
       50
102
RTVSPost2010PropOp37
 70
     1
102
RTVSPost2010Prop38
140
0.0
102
RTVSPost2010PropOp38
 70
     1
102
RTVSPost2010Prop39
140
1.0
102
RTVSPost2010PropOp39
 70
     1
102
RTVSPost2010Prop40
 90
        0
102
RTVSPost2010PropOp40
 70
     1
102
RTVSPost2010Prop41ColorIndex
 90
       18
102
RTVSPost2010Prop41ColorRGB
 90
-16777216
102
RTVSPost2010PropOp41
 70
     1
102
RTVSPost2010Prop42
 90
       50
102
RTVSPost2010PropOp42
 70
     1
102
RTVSPost2010Prop43
 90
        3
102
RTVSPost2010PropOp43
 70
     1
102
RTVSPost2010Prop44ColorIndex
 90
        5
102
RTVSPost2010Prop44ColorRGB
 90
      255
102
RTVSPost2010PropOp44
 70
     1
102
RTVSPost2010Prop45
280
     0
102
RTVSPost2010PropOp45
 70
     1
102
RTVSPost2010Prop46
 90
       50
102
RTVSPost2010PropOp46
 70
     1
102
RTVSPost2010Prop47
 90
       50
102
RTVSPost2010PropOp47
 70
     1
102
RTVSPost2010Prop48
 90
       50
102
RTVSPost2010PropOp48
 70
     1
102
RTVSPost2010Prop49
280
     0
102
RTVSPost2010PropOp49
 70
     1
102
RTVSPost2010Prop50
 90
       50
102
RTVSPost2010PropOp50
 70
     1
102
RTVSPost2010Prop51ColorIndex
 90
      256
102
RTVSPost2010Prop51ColorRGB
 90
-16777216
102
RTVSPost2010PropOp51
 70
     0
102
RTVSPost2010Prop52
140
1.0
102
RTVSPost2010PropOp52
 70
     0
102
RTVSPost2010Prop53
 90
        2
102
RTVSPost2010PropOp53
 70
     1
102
RTVSPost2010Prop54
  1
strokes_ogs.tif
102
RTVSPost2010PropOp54
 70
     1
102
RTVSPost2010Prop55
280
     0
102
RTVSPost2010PropOp55
 70
     1
102
RTVSPost2010Prop56
140
1.0
102
RTVSPost2010PropOp56
 70
     1
102
RTVSPost2010Prop57
140
1.0
102
RTVSPost2010PropOp57
 70
     1
102
RTVSPropertyOp0
 70
     1
102
RTVSPropertyOp1
 70
     1
102
RTVSPropertyOp2
 70
     1
102
RTVSPropertyOp3
 70
     1
102
RTVSPropertyOp4
 70
     1
102
RTVSPropertyOp5
 70
     1
102
RTVSPropertyOp6
 70
     1
102
RTVSPropertyOp7
 70
     1
102
RTVSPropertyOp8
 70
     1
102
RTVSPropertyOp9
 70
     1
102
RTVSPropertyOp10
 70
     1
102
RTVSPropertyOp11
 70
     1
102
RTVSPropertyOp12
 70
     1
102
RTVSPropertyOp13
 70
     1
102
RTVSPropertyOp14
 70
     1
102
RTVSPropertyOp15
 70
     1
102
RTVSPropertyOp16
 70
     1
102
RTVSPropertyOp17
 70
     1
102
RTVSPropertyOp18
 70
     1
102
RTVSPropertyOp19
 70
     1
102
RTVSPropertyOp20
 70
     1
102
RTVSPropertyOp21
 70
     1
102
RTVSPropertyOp22
 70
     1
102
RTVSPropertyOp23
 70
     1
102
RTVSPropertyOp24
 70
     1
102
RTVSPropertyOp25
 70
     1
102
RTVSPropertyOp26
 70
     1
102
RTVSPropertyOp27
 70
     1
102
RTVSPropertyOp28
 70
     1
102
RTVSPropertyOp29
 70
     1
102
RTVSPropertyOp30
 70
     1
102
RTVSPropertyOp31
 70
     1
102
RTVSPropertyOp32
 70
     1
102
RTVSPropertyOp33
 70
     1
102
RTVSPropertyOp34
 70
     1
102
RTVSPropertyOp35
 70
     1
102
RTVSPropertyOp36
 70
     1
102
RTVSPropertyOp37
 70
     1
102
RTVSPropertyOp38
 70
     1
102
RTVSPropertyOp39
 70
     1
102
RTVSPropertyOp40
 70
     1
102
RTVSPropertyOp41
 70
     1
102
RTVSPropertyOp42
 70
     1
102
RTVSPropertyOp43
 70
     1
102
RTVSPropertyOp44
 70
     1
102
RTVSPropertyOp45
 70
     1
102
RTVSPropertyOp46
 70
     1
102
RTVSPropertyOp47
 70
     1
102
RTVSPropertyOp48
 70
     1
102
RTVSPropertyOp49
 70
     1
102
RTVSPropertyOp50
 70
     1
102
RTVSPropertyOp51
 70
     0
102
RTVSPropertyOp52
 70
     0
102
RTVSPropertyOp53
 70
     1
102
RTVSPropertyOp54
 70
     1
102
RTVSPropertyOp55
 70
     1
102
RTVSPropertyOp56
 70
     1
102
RTVSPropertyOp57
 70
     1
102
RTVSPropertyOp58
 70
     1
102
RTVSPropertyOp59
 70
     1
102
RTVSPropertyOp60
 70
     1
102
RTVSPropertyOp61
 70
     1
102
RTVSPropertyOp62
 70
     1
  0
XRECORD
  5
1CE5
102
{ACAD_REACTORS
330
1CE4
102
}
330
1CE4
100
AcDbXrecord
280
     1
102
RTVSPost2010Prop28
280
     0
102
RTVSPost2010PropOp28
 70
     1
102
RTVSPost2010Prop29
280
     1
102
RTVSPost2010PropOp29
 70
     1
102
RTVSPost2010Prop30
280
     1
102
RTVSPost2010PropOp30
 70
     1
102
RTVSPost2010Prop31
280
     0
102
RTVSPost2010PropOp31
 70
     1
102
RTVSPost2010Prop32
280
     0
102
RTVSPost2010PropOp32
 70
     1
102
RTVSPost2010Prop33
280
     0
102
RTVSPost2010PropOp33
 70
     1
102
RTVSPost2010Prop34
280
     0
102
RTVSPost2010PropOp34
 70
     1
102
RTVSPost2010Prop35
280
     0
102
RTVSPost2010PropOp35
 70
     1
102
RTVSPost2010Prop36
280
     0
102
RTVSPost2010PropOp36
 70
     1
102
RTVSPost2010Prop37
 90
       50
102
RTVSPost2010PropOp37
 70
     0
102
RTVSPost2010Prop38
140
0.0
102
RTVSPost2010PropOp38
 70
     0
102
RTVSPost2010Prop39
140
1.0
102
RTVSPost2010PropOp39
 70
     0
102
RTVSPost2010Prop40
 90
        0
102
RTVSPost2010PropOp40
 70
     0
102
RTVSPost2010Prop41ColorIndex
 90
       18
102
RTVSPost2010Prop41ColorRGB
 90
-16777216
102
RTVSPost2010PropOp41
 70
     0
102
RTVSPost2010Prop42
 90
       50
102
RTVSPost2010PropOp42
 70
     0
102
RTVSPost2010Prop43
 90
        3
102
RTVSPost2010PropOp43
 70
     0
102
RTVSPost2010Prop44ColorIndex
 90
        5
102
RTVSPost2010Prop44ColorRGB
 90
      255
102
RTVSPost2010PropOp44
 70
     0
102
RTVSPost2010Prop45
280
     0
102
RTVSPost2010PropOp45
 70
     1
102
RTVSPost2010Prop46
 90
       50
102
RTVSPost2010PropOp46
 70
     0
102
RTVSPost2010Prop47
 90
       50
102
RTVSPost2010PropOp47
 70
     0
102
RTVSPost2010Prop48
 90
       50
102
RTVSPost2010PropOp48
 70
     0
102
RTVSPost2010Prop49
280
     0
102
RTVSPost2010PropOp49
 70
     1
102
RTVSPost2010Prop50
 90
       50
102
RTVSPost2010PropOp50
 70
     0
102
RTVSPost2010Prop51ColorIndex
 90
      256
102
RTVSPost2010Prop51ColorRGB
 90
-16777216
102
RTVSPost2010PropOp51
 70
     0
102
RTVSPost2010Prop52
140
1.0
102
RTVSPost2010PropOp52
 70
     0
102
RTVSPost2010Prop53
 90
        2
102
RTVSPost2010PropOp53
 70
     0
102
RTVSPost2010Prop54
  1
strokes_ogs.tif
102
RTVSPost2010PropOp54
 70
     0
102
RTVSPost2010Prop55
280
     0
102
RTVSPost2010PropOp55
 70
     1
102
RTVSPost2010Prop56
140
1.0
102
RTVSPost2010PropOp56
 70
     0
102
RTVSPost2010Prop57
140
1.0
102
RTVSPost2010PropOp57
 70
     0
102
RTVSPropertyOp0
 70
     0
102
RTVSPropertyOp1
 70
     0
102
RTVSPropertyOp2
 70
     0
102
RTVSPropertyOp3
 70
     0
102
RTVSPropertyOp4
 70
     0
102
RTVSPropertyOp5
 70
     0
102
RTVSPropertyOp6
 70
     0
102
RTVSPropertyOp7
 70
     0
102
RTVSPropertyOp8
 70
     0
102
RTVSPropertyOp9
 70
     0
102
RTVSPropertyOp10
 70
     0
102
RTVSPropertyOp11
 70
     0
102
RTVSPropertyOp12
 70
     0
102
RTVSPropertyOp13
 70
     0
102
RTVSPropertyOp14
 70
     2
102
RTVSPropertyOp15
 70
     0
102
RTVSPropertyOp16
 70
     0
102
RTVSPropertyOp17
 70
     0
102
RTVSPropertyOp18
 70
     0
102
RTVSPropertyOp19
 70
     0
102
RTVSPropertyOp20
 70
     0
102
RTVSPropertyOp21
 70
     0
102
RTVSPropertyOp22
 70
     0
102
RTVSPropertyOp23
 70
     0
102
RTVSPropertyOp24
 70
     0
102
RTVSPropertyOp25
 70
     0
102
RTVSPropertyOp26
 70
     0
102
RTVSPropertyOp27
 70
     0
102
RTVSPropertyOp28
 70
     1
102
RTVSPropertyOp29
 70
     1
102
RTVSPropertyOp30
 70
     1
102
RTVSPropertyOp31
 70
     1
102
RTVSPropertyOp32
 70
     1
102
RTVSPropertyOp33
 70
     1
102
RTVSPropertyOp34
 70
     1
102
RTVSPropertyOp35
 70
     1
102
RTVSPropertyOp36
 70
     1
102
RTVSPropertyOp37
 70
     0
102
RTVSPropertyOp38
 70
     0
102
RTVSPropertyOp39
 70
     0
102
RTVSPropertyOp40
 70
     0
102
RTVSPropertyOp41
 70
     0
102
RTVSPropertyOp42
 70
     0
102
RTVSPropertyOp43
 70
     0
102
RTVSPropertyOp44
 70
     0
102
RTVSPropertyOp45
 70
     1
102
RTVSPropertyOp46
 70
     0
102
RTVSPropertyOp47
 70
     0
102
RTVSPropertyOp48
 70
     0
102
RTVSPropertyOp49
 70
     1
102
RTVSPropertyOp50
 70
     0
102
RTVSPropertyOp51
 70
     0
102
RTVSPropertyOp52
 70
     0
102
RTVSPropertyOp53
 70
     0
102
RTVSPropertyOp54
 70
     0
102
RTVSPropertyOp55
 70
     1
102
RTVSPropertyOp56
 70
     0
102
RTVSPropertyOp57
 70
     0
102
RTVSPropertyOp58
 70
     1
102
RTVSPropertyOp59
 70
     1
102
RTVSPropertyOp60
 70
     1
102
RTVSPropertyOp61
 70
     1
102
RTVSPropertyOp62
 70
     1
  0
XRECORD
  5
1CD3
102
{ACAD_REACTORS
330
1CD2
102
}
330
1CD2
100
AcDbXrecord
280
     1
102
RTVSPost2010Prop28
280
     0
102
RTVSPost2010PropOp28
 70
     1
102
RTVSPost2010Prop29
280
     1
102
RTVSPost2010PropOp29
 70
     1
102
RTVSPost2010Prop30
280
     1
102
RTVSPost2010PropOp30
 70
     1
102
RTVSPost2010Prop31
280
     0
102
RTVSPost2010PropOp31
 70
     1
102
RTVSPost2010Prop32
280
     0
102
RTVSPost2010PropOp32
 70
     1
102
RTVSPost2010Prop33
280
     0
102
RTVSPost2010PropOp33
 70
     1
102
RTVSPost2010Prop34
280
     0
102
RTVSPost2010PropOp34
 70
     1
102
RTVSPost2010Prop35
280
     0
102
RTVSPost2010PropOp35
 70
     1
102
RTVSPost2010Prop36
280
     0
102
RTVSPost2010PropOp36
 70
     1
102
RTVSPost2010Prop37
 90
       50
102
RTVSPost2010PropOp37
 70
     1
102
RTVSPost2010Prop38
140
0.0
102
RTVSPost2010PropOp38
 70
     1
102
RTVSPost2010Prop39
140
1.0
102
RTVSPost2010PropOp39
 70
     1
102
RTVSPost2010Prop40
 90
        0
102
RTVSPost2010PropOp40
 70
     1
102
RTVSPost2010Prop41ColorIndex
 90
       18
102
RTVSPost2010Prop41ColorRGB
 90
-16777216
102
RTVSPost2010PropOp41
 70
     1
102
RTVSPost2010Prop42
 90
       50
102
RTVSPost2010PropOp42
 70
     1
102
RTVSPost2010Prop43
 90
        3
102
RTVSPost2010PropOp43
 70
     1
102
RTVSPost2010Prop44ColorIndex
 90
        5
102
RTVSPost2010Prop44ColorRGB
 90
      255
102
RTVSPost2010PropOp44
 70
     1
102
RTVSPost2010Prop45
280
     0
102
RTVSPost2010PropOp45
 70
     1
102
RTVSPost2010Prop46
 90
       50
102
RTVSPost2010PropOp46
 70
     1
102
RTVSPost2010Prop47
 90
       50
102
RTVSPost2010PropOp47
 70
     1
102
RTVSPost2010Prop48
 90
       50
102
RTVSPost2010PropOp48
 70
     1
102
RTVSPost2010Prop49
280
     0
102
RTVSPost2010PropOp49
 70
     1
102
RTVSPost2010Prop50
 90
       50
102
RTVSPost2010PropOp50
 70
     1
102
RTVSPost2010Prop51ColorIndex
 90
      256
102
RTVSPost2010Prop51ColorRGB
 90
-16777216
102
RTVSPost2010PropOp51
 70
     0
102
RTVSPost2010Prop52
140
1.0
102
RTVSPost2010PropOp52
 70
     0
102
RTVSPost2010Prop53
 90
        2
102
RTVSPost2010PropOp53
 70
     1
102
RTVSPost2010Prop54
  1
strokes_ogs.tif
102
RTVSPost2010PropOp54
 70
     1
102
RTVSPost2010Prop55
280
     0
102
RTVSPost2010PropOp55
 70
     1
102
RTVSPost2010Prop56
140
1.0
102
RTVSPost2010PropOp56
 70
     1
102
RTVSPost2010Prop57
140
1.0
102
RTVSPost2010PropOp57
 70
     1
102
RTVSPropertyOp0
 70
     1
102
RTVSPropertyOp1
 70
     1
102
RTVSPropertyOp2
 70
     1
102
RTVSPropertyOp3
 70
     1
102
RTVSPropertyOp4
 70
     1
102
RTVSPropertyOp5
 70
     1
102
RTVSPropertyOp6
 70
     1
102
RTVSPropertyOp7
 70
     1
102
RTVSPropertyOp8
 70
     1
102
RTVSPropertyOp9
 70
     1
102
RTVSPropertyOp10
 70
     1
102
RTVSPropertyOp11
 70
     1
102
RTVSPropertyOp12
 70
     1
102
RTVSPropertyOp13
 70
     1
102
RTVSPropertyOp14
 70
     1
102
RTVSPropertyOp15
 70
     1
102
RTVSPropertyOp16
 70
     1
102
RTVSPropertyOp17
 70
     1
102
RTVSPropertyOp18
 70
     1
102
RTVSPropertyOp19
 70
     1
102
RTVSPropertyOp20
 70
     1
102
RTVSPropertyOp21
 70
     1
102
RTVSPropertyOp22
 70
     1
102
RTVSPropertyOp23
 70
     1
102
RTVSPropertyOp24
 70
     1
102
RTVSPropertyOp25
 70
     1
102
RTVSPropertyOp26
 70
     1
102
RTVSPropertyOp27
 70
     1
102
RTVSPropertyOp28
 70
     1
102
RTVSPropertyOp29
 70
     1
102
RTVSPropertyOp30
 70
     1
102
RTVSPropertyOp31
 70
     1
102
RTVSPropertyOp32
 70
     1
102
RTVSPropertyOp33
 70
     1
102
RTVSPropertyOp34
 70
     1
102
RTVSPropertyOp35
 70
     1
102
RTVSPropertyOp36
 70
     1
102
RTVSPropertyOp37
 70
     1
102
RTVSPropertyOp38
 70
     1
102
RTVSPropertyOp39
 70
     1
102
RTVSPropertyOp40
 70
     1
102
RTVSPropertyOp41
 70
     1
102
RTVSPropertyOp42
 70
     1
102
RTVSPropertyOp43
 70
     1
102
RTVSPropertyOp44
 70
     1
102
RTVSPropertyOp45
 70
     1
102
RTVSPropertyOp46
 70
     1
102
RTVSPropertyOp47
 70
     1
102
RTVSPropertyOp48
 70
     1
102
RTVSPropertyOp49
 70
     1
102
RTVSPropertyOp50
 70
     1
102
RTVSPropertyOp51
 70
     0
102
RTVSPropertyOp52
 70
     0
102
RTVSPropertyOp53
 70
     1
102
RTVSPropertyOp54
 70
     1
102
RTVSPropertyOp55
 70
     1
102
RTVSPropertyOp56
 70
     1
102
RTVSPropertyOp57
 70
     1
102
RTVSPropertyOp58
 70
     1
102
RTVSPropertyOp59
 70
     1
102
RTVSPropertyOp60
 70
     1
102
RTVSPropertyOp61
 70
     1
102
RTVSPropertyOp62
 70
     1
  0
XRECORD
  5
1CB7
102
{ACAD_REACTORS
330
1CB6
102
}
330
1CB6
100
AcDbXrecord
280
     1
102
RTVSPost2010Prop28
280
     0
102
RTVSPost2010PropOp28
 70
     1
102
RTVSPost2010Prop29
280
     1
102
RTVSPost2010PropOp29
 70
     1
102
RTVSPost2010Prop30
280
     1
102
RTVSPost2010PropOp30
 70
     1
102
RTVSPost2010Prop31
280
     0
102
RTVSPost2010PropOp31
 70
     1
102
RTVSPost2010Prop32
280
     0
102
RTVSPost2010PropOp32
 70
     1
102
RTVSPost2010Prop33
280
     0
102
RTVSPost2010PropOp33
 70
     1
102
RTVSPost2010Prop34
280
     0
102
RTVSPost2010PropOp34
 70
     1
102
RTVSPost2010Prop35
280
     0
102
RTVSPost2010PropOp35
 70
     1
102
RTVSPost2010Prop36
280
     0
102
RTVSPost2010PropOp36
 70
     1
102
RTVSPost2010Prop37
 90
       50
102
RTVSPost2010PropOp37
 70
     1
102
RTVSPost2010Prop38
140
0.0
102
RTVSPost2010PropOp38
 70
     1
102
RTVSPost2010Prop39
140
1.0
102
RTVSPost2010PropOp39
 70
     1
102
RTVSPost2010Prop40
 90
        0
102
RTVSPost2010PropOp40
 70
     1
102
RTVSPost2010Prop41ColorIndex
 90
       18
102
RTVSPost2010Prop41ColorRGB
 90
-16777216
102
RTVSPost2010PropOp41
 70
     1
102
RTVSPost2010Prop42
 90
       50
102
RTVSPost2010PropOp42
 70
     1
102
RTVSPost2010Prop43
 90
        3
102
RTVSPost2010PropOp43
 70
     1
102
RTVSPost2010Prop44ColorIndex
 90
        5
102
RTVSPost2010Prop44ColorRGB
 90
      255
102
RTVSPost2010PropOp44
 70
     1
102
RTVSPost2010Prop45
280
     0
102
RTVSPost2010PropOp45
 70
     1
102
RTVSPost2010Prop46
 90
       50
102
RTVSPost2010PropOp46
 70
     1
102
RTVSPost2010Prop47
 90
       50
102
RTVSPost2010PropOp47
 70
     1
102
RTVSPost2010Prop48
 90
       50
102
RTVSPost2010PropOp48
 70
     1
102
RTVSPost2010Prop49
280
     0
102
RTVSPost2010PropOp49
 70
     1
102
RTVSPost2010Prop50
 90
       50
102
RTVSPost2010PropOp50
 70
     1
102
RTVSPost2010Prop51ColorIndex
 90
      256
102
RTVSPost2010Prop51ColorRGB
 90
-16777216
102
RTVSPost2010PropOp51
 70
     0
102
RTVSPost2010Prop52
140
1.0
102
RTVSPost2010PropOp52
 70
     0
102
RTVSPost2010Prop53
 90
        2
102
RTVSPost2010PropOp53
 70
     1
102
RTVSPost2010Prop54
  1
strokes_ogs.tif
102
RTVSPost2010PropOp54
 70
     1
102
RTVSPost2010Prop55
280
     0
102
RTVSPost2010PropOp55
 70
     1
102
RTVSPost2010Prop56
140
1.0
102
RTVSPost2010PropOp56
 70
     1
102
RTVSPost2010Prop57
140
1.0
102
RTVSPost2010PropOp57
 70
     1
102
RTVSPropertyOp0
 70
     1
102
RTVSPropertyOp1
 70
     1
102
RTVSPropertyOp2
 70
     1
102
RTVSPropertyOp3
 70
     1
102
RTVSPropertyOp4
 70
     1
102
RTVSPropertyOp5
 70
     1
102
RTVSPropertyOp6
 70
     1
102
RTVSPropertyOp7
 70
     1
102
RTVSPropertyOp8
 70
     1
102
RTVSPropertyOp9
 70
     1
102
RTVSPropertyOp10
 70
     1
102
RTVSPropertyOp11
 70
     1
102
RTVSPropertyOp12
 70
     1
102
RTVSPropertyOp13
 70
     1
102
RTVSPropertyOp14
 70
     1
102
RTVSPropertyOp15
 70
     1
102
RTVSPropertyOp16
 70
     1
102
RTVSPropertyOp17
 70
     1
102
RTVSPropertyOp18
 70
     1
102
RTVSPropertyOp19
 70
     1
102
RTVSPropertyOp20
 70
     1
102
RTVSPropertyOp21
 70
     1
102
RTVSPropertyOp22
 70
     1
102
RTVSPropertyOp23
 70
     1
102
RTVSPropertyOp24
 70
     1
102
RTVSPropertyOp25
 70
     1
102
RTVSPropertyOp26
 70
     1
102
RTVSPropertyOp27
 70
     1
102
RTVSPropertyOp28
 70
     1
102
RTVSPropertyOp29
 70
     1
102
RTVSPropertyOp30
 70
     1
102
RTVSPropertyOp31
 70
     1
102
RTVSPropertyOp32
 70
     1
102
RTVSPropertyOp33
 70
     1
102
RTVSPropertyOp34
 70
     1
102
RTVSPropertyOp35
 70
     1
102
RTVSPropertyOp36
 70
     1
102
RTVSPropertyOp37
 70
     1
102
RTVSPropertyOp38
 70
     1
102
RTVSPropertyOp39
 70
     1
102
RTVSPropertyOp40
 70
     1
102
RTVSPropertyOp41
 70
     1
102
RTVSPropertyOp42
 70
     1
102
RTVSPropertyOp43
 70
     1
102
RTVSPropertyOp44
 70
     1
102
RTVSPropertyOp45
 70
     1
102
RTVSPropertyOp46
 70
     1
102
RTVSPropertyOp47
 70
     1
102
RTVSPropertyOp48
 70
     1
102
RTVSPropertyOp49
 70
     1
102
RTVSPropertyOp50
 70
     1
102
RTVSPropertyOp51
 70
     0
102
RTVSPropertyOp52
 70
     0
102
RTVSPropertyOp53
 70
     1
102
RTVSPropertyOp54
 70
     1
102
RTVSPropertyOp55
 70
     1
102
RTVSPropertyOp56
 70
     1
102
RTVSPropertyOp57
 70
     1
102
RTVSPropertyOp58
 70
     1
102
RTVSPropertyOp59
 70
     1
102
RTVSPropertyOp60
 70
     1
102
RTVSPropertyOp61
 70
     1
102
RTVSPropertyOp62
 70
     1
  0
XRECORD
  5
1CB9
102
{ACAD_REACTORS
330
1CB8
102
}
330
1CB8
100
AcDbXrecord
280
     1
102
RTVSPost2010Prop28
280
     0
102
RTVSPost2010PropOp28
 70
     1
102
RTVSPost2010Prop29
280
     1
102
RTVSPost2010PropOp29
 70
     1
102
RTVSPost2010Prop30
280
     1
102
RTVSPost2010PropOp30
 70
     1
102
RTVSPost2010Prop31
280
     0
102
RTVSPost2010PropOp31
 70
     1
102
RTVSPost2010Prop32
280
     0
102
RTVSPost2010PropOp32
 70
     1
102
RTVSPost2010Prop33
280
     0
102
RTVSPost2010PropOp33
 70
     1
102
RTVSPost2010Prop34
280
     0
102
RTVSPost2010PropOp34
 70
     1
102
RTVSPost2010Prop35
280
     0
102
RTVSPost2010PropOp35
 70
     1
102
RTVSPost2010Prop36
280
     0
102
RTVSPost2010PropOp36
 70
     1
102
RTVSPost2010Prop37
 90
       50
102
RTVSPost2010PropOp37
 70
     1
102
RTVSPost2010Prop38
140
0.0
102
RTVSPost2010PropOp38
 70
     1
102
RTVSPost2010Prop39
140
1.0
102
RTVSPost2010PropOp39
 70
     1
102
RTVSPost2010Prop40
 90
        0
102
RTVSPost2010PropOp40
 70
     1
102
RTVSPost2010Prop41ColorIndex
 90
       18
102
RTVSPost2010Prop41ColorRGB
 90
-16777216
102
RTVSPost2010PropOp41
 70
     1
102
RTVSPost2010Prop42
 90
       50
102
RTVSPost2010PropOp42
 70
     1
102
RTVSPost2010Prop43
 90
        3
102
RTVSPost2010PropOp43
 70
     1
102
RTVSPost2010Prop44ColorIndex
 90
        5
102
RTVSPost2010Prop44ColorRGB
 90
      255
102
RTVSPost2010PropOp44
 70
     1
102
RTVSPost2010Prop45
280
     0
102
RTVSPost2010PropOp45
 70
     1
102
RTVSPost2010Prop46
 90
       50
102
RTVSPost2010PropOp46
 70
     1
102
RTVSPost2010Prop47
 90
       50
102
RTVSPost2010PropOp47
 70
     1
102
RTVSPost2010Prop48
 90
       50
102
RTVSPost2010PropOp48
 70
     1
102
RTVSPost2010Prop49
280
     0
102
RTVSPost2010PropOp49
 70
     1
102
RTVSPost2010Prop50
 90
       50
102
RTVSPost2010PropOp50
 70
     1
102
RTVSPost2010Prop51ColorIndex
 90
      256
102
RTVSPost2010Prop51ColorRGB
 90
-16777216
102
RTVSPost2010PropOp51
 70
     0
102
RTVSPost2010Prop52
140
1.0
102
RTVSPost2010PropOp52
 70
     0
102
RTVSPost2010Prop53
 90
        2
102
RTVSPost2010PropOp53
 70
     1
102
RTVSPost2010Prop54
  1
strokes_ogs.tif
102
RTVSPost2010PropOp54
 70
     1
102
RTVSPost2010Prop55
280
     0
102
RTVSPost2010PropOp55
 70
     1
102
RTVSPost2010Prop56
140
1.0
102
RTVSPost2010PropOp56
 70
     1
102
RTVSPost2010Prop57
140
1.0
102
RTVSPost2010PropOp57
 70
     1
102
RTVSPropertyOp0
 70
     1
102
RTVSPropertyOp1
 70
     1
102
RTVSPropertyOp2
 70
     1
102
RTVSPropertyOp3
 70
     1
102
RTVSPropertyOp4
 70
     1
102
RTVSPropertyOp5
 70
     1
102
RTVSPropertyOp6
 70
     1
102
RTVSPropertyOp7
 70
     1
102
RTVSPropertyOp8
 70
     1
102
RTVSPropertyOp9
 70
     1
102
RTVSPropertyOp10
 70
     1
102
RTVSPropertyOp11
 70
     1
102
RTVSPropertyOp12
 70
     1
102
RTVSPropertyOp13
 70
     1
102
RTVSPropertyOp14
 70
     1
102
RTVSPropertyOp15
 70
     1
102
RTVSPropertyOp16
 70
     1
102
RTVSPropertyOp17
 70
     1
102
RTVSPropertyOp18
 70
     1
102
RTVSPropertyOp19
 70
     1
102
RTVSPropertyOp20
 70
     1
102
RTVSPropertyOp21
 70
     1
102
RTVSPropertyOp22
 70
     1
102
RTVSPropertyOp23
 70
     1
102
RTVSPropertyOp24
 70
     1
102
RTVSPropertyOp25
 70
     1
102
RTVSPropertyOp26
 70
     1
102
RTVSPropertyOp27
 70
     1
102
RTVSPropertyOp28
 70
     1
102
RTVSPropertyOp29
 70
     1
102
RTVSPropertyOp30
 70
     1
102
RTVSPropertyOp31
 70
     1
102
RTVSPropertyOp32
 70
     1
102
RTVSPropertyOp33
 70
     1
102
RTVSPropertyOp34
 70
     1
102
RTVSPropertyOp35
 70
     1
102
RTVSPropertyOp36
 70
     1
102
RTVSPropertyOp37
 70
     1
102
RTVSPropertyOp38
 70
     1
102
RTVSPropertyOp39
 70
     1
102
RTVSPropertyOp40
 70
     1
102
RTVSPropertyOp41
 70
     1
102
RTVSPropertyOp42
 70
     1
102
RTVSPropertyOp43
 70
     1
102
RTVSPropertyOp44
 70
     1
102
RTVSPropertyOp45
 70
     1
102
RTVSPropertyOp46
 70
     1
102
RTVSPropertyOp47
 70
     1
102
RTVSPropertyOp48
 70
     1
102
RTVSPropertyOp49
 70
     1
102
RTVSPropertyOp50
 70
     1
102
RTVSPropertyOp51
 70
     0
102
RTVSPropertyOp52
 70
     0
102
RTVSPropertyOp53
 70
     1
102
RTVSPropertyOp54
 70
     1
102
RTVSPropertyOp55
 70
     1
102
RTVSPropertyOp56
 70
     1
102
RTVSPropertyOp57
 70
     1
102
RTVSPropertyOp58
 70
     1
102
RTVSPropertyOp59
 70
     1
102
RTVSPropertyOp60
 70
     1
102
RTVSPropertyOp61
 70
     1
102
RTVSPropertyOp62
 70
     1
  0
XRECORD
  5
1CBB
102
{ACAD_REACTORS
330
1CBA
102
}
330
1CBA
100
AcDbXrecord
280
     1
102
RTVSPost2010Prop28
280
     0
102
RTVSPost2010PropOp28
 70
     1
102
RTVSPost2010Prop29
280
     1
102
RTVSPost2010PropOp29
 70
     1
102
RTVSPost2010Prop30
280
     1
102
RTVSPost2010PropOp30
 70
     1
102
RTVSPost2010Prop31
280
     0
102
RTVSPost2010PropOp31
 70
     1
102
RTVSPost2010Prop32
280
     0
102
RTVSPost2010PropOp32
 70
     1
102
RTVSPost2010Prop33
280
     0
102
RTVSPost2010PropOp33
 70
     1
102
RTVSPost2010Prop34
280
     0
102
RTVSPost2010PropOp34
 70
     1
102
RTVSPost2010Prop35
280
     0
102
RTVSPost2010PropOp35
 70
     1
102
RTVSPost2010Prop36
280
     0
102
RTVSPost2010PropOp36
 70
     1
102
RTVSPost2010Prop37
 90
       50
102
RTVSPost2010PropOp37
 70
     1
102
RTVSPost2010Prop38
140
0.0
102
RTVSPost2010PropOp38
 70
     1
102
RTVSPost2010Prop39
140
1.0
102
RTVSPost2010PropOp39
 70
     1
102
RTVSPost2010Prop40
 90
        0
102
RTVSPost2010PropOp40
 70
     1
102
RTVSPost2010Prop41ColorIndex
 90
       18
102
RTVSPost2010Prop41ColorRGB
 90
-16777216
102
RTVSPost2010PropOp41
 70
     1
102
RTVSPost2010Prop42
 90
       50
102
RTVSPost2010PropOp42
 70
     1
102
RTVSPost2010Prop43
 90
        3
102
RTVSPost2010PropOp43
 70
     1
102
RTVSPost2010Prop44ColorIndex
 90
        5
102
RTVSPost2010Prop44ColorRGB
 90
      255
102
RTVSPost2010PropOp44
 70
     1
102
RTVSPost2010Prop45
280
     0
102
RTVSPost2010PropOp45
 70
     1
102
RTVSPost2010Prop46
 90
       50
102
RTVSPost2010PropOp46
 70
     1
102
RTVSPost2010Prop47
 90
       50
102
RTVSPost2010PropOp47
 70
     1
102
RTVSPost2010Prop48
 90
       50
102
RTVSPost2010PropOp48
 70
     1
102
RTVSPost2010Prop49
280
     0
102
RTVSPost2010PropOp49
 70
     1
102
RTVSPost2010Prop50
 90
       50
102
RTVSPost2010PropOp50
 70
     1
102
RTVSPost2010Prop51ColorIndex
 90
      256
102
RTVSPost2010Prop51ColorRGB
 90
-16777216
102
RTVSPost2010PropOp51
 70
     0
102
RTVSPost2010Prop52
140
1.0
102
RTVSPost2010PropOp52
 70
     0
102
RTVSPost2010Prop53
 90
        2
102
RTVSPost2010PropOp53
 70
     1
102
RTVSPost2010Prop54
  1
strokes_ogs.tif
102
RTVSPost2010PropOp54
 70
     1
102
RTVSPost2010Prop55
280
     0
102
RTVSPost2010PropOp55
 70
     1
102
RTVSPost2010Prop56
140
1.0
102
RTVSPost2010PropOp56
 70
     1
102
RTVSPost2010Prop57
140
1.0
102
RTVSPost2010PropOp57
 70
     1
102
RTVSPropertyOp0
 70
     1
102
RTVSPropertyOp1
 70
     1
102
RTVSPropertyOp2
 70
     1
102
RTVSPropertyOp3
 70
     1
102
RTVSPropertyOp4
 70
     1
102
RTVSPropertyOp5
 70
     1
102
RTVSPropertyOp6
 70
     1
102
RTVSPropertyOp7
 70
     1
102
RTVSPropertyOp8
 70
     1
102
RTVSPropertyOp9
 70
     1
102
RTVSPropertyOp10
 70
     1
102
RTVSPropertyOp11
 70
     1
102
RTVSPropertyOp12
 70
     1
102
RTVSPropertyOp13
 70
     1
102
RTVSPropertyOp14
 70
     1
102
RTVSPropertyOp15
 70
     1
102
RTVSPropertyOp16
 70
     1
102
RTVSPropertyOp17
 70
     1
102
RTVSPropertyOp18
 70
     1
102
RTVSPropertyOp19
 70
     1
102
RTVSPropertyOp20
 70
     1
102
RTVSPropertyOp21
 70
     1
102
RTVSPropertyOp22
 70
     1
102
RTVSPropertyOp23
 70
     1
102
RTVSPropertyOp24
 70
     1
102
RTVSPropertyOp25
 70
     1
102
RTVSPropertyOp26
 70
     1
102
RTVSPropertyOp27
 70
     1
102
RTVSPropertyOp28
 70
     1
102
RTVSPropertyOp29
 70
     1
102
RTVSPropertyOp30
 70
     1
102
RTVSPropertyOp31
 70
     1
102
RTVSPropertyOp32
 70
     1
102
RTVSPropertyOp33
 70
     1
102
RTVSPropertyOp34
 70
     1
102
RTVSPropertyOp35
 70
     1
102
RTVSPropertyOp36
 70
     1
102
RTVSPropertyOp37
 70
     1
102
RTVSPropertyOp38
 70
     1
102
RTVSPropertyOp39
 70
     1
102
RTVSPropertyOp40
 70
     1
102
RTVSPropertyOp41
 70
     1
102
RTVSPropertyOp42
 70
     1
102
RTVSPropertyOp43
 70
     1
102
RTVSPropertyOp44
 70
     1
102
RTVSPropertyOp45
 70
     1
102
RTVSPropertyOp46
 70
     1
102
RTVSPropertyOp47
 70
     1
102
RTVSPropertyOp48
 70
     1
102
RTVSPropertyOp49
 70
     1
102
RTVSPropertyOp50
 70
     1
102
RTVSPropertyOp51
 70
     0
102
RTVSPropertyOp52
 70
     0
102
RTVSPropertyOp53
 70
     1
102
RTVSPropertyOp54
 70
     1
102
RTVSPropertyOp55
 70
     1
102
RTVSPropertyOp56
 70
     1
102
RTVSPropertyOp57
 70
     1
102
RTVSPropertyOp58
 70
     1
102
RTVSPropertyOp59
 70
     1
102
RTVSPropertyOp60
 70
     1
102
RTVSPropertyOp61
 70
     1
102
RTVSPropertyOp62
 70
     1
  0
XRECORD
  5
1CBD
102
{ACAD_REACTORS
330
1CBC
102
}
330
1CBC
100
AcDbXrecord
280
     1
102
RTVSPost2010Prop28
280
     0
102
RTVSPost2010PropOp28
 70
     1
102
RTVSPost2010Prop29
280
     1
102
RTVSPost2010PropOp29
 70
     1
102
RTVSPost2010Prop30
280
     1
102
RTVSPost2010PropOp30
 70
     1
102
RTVSPost2010Prop31
280
     0
102
RTVSPost2010PropOp31
 70
     1
102
RTVSPost2010Prop32
280
     0
102
RTVSPost2010PropOp32
 70
     1
102
RTVSPost2010Prop33
280
     0
102
RTVSPost2010PropOp33
 70
     1
102
RTVSPost2010Prop34
280
     0
102
RTVSPost2010PropOp34
 70
     1
102
RTVSPost2010Prop35
280
     0
102
RTVSPost2010PropOp35
 70
     1
102
RTVSPost2010Prop36
280
     0
102
RTVSPost2010PropOp36
 70
     1
102
RTVSPost2010Prop37
 90
       50
102
RTVSPost2010PropOp37
 70
     1
102
RTVSPost2010Prop38
140
0.0
102
RTVSPost2010PropOp38
 70
     1
102
RTVSPost2010Prop39
140
1.0
102
RTVSPost2010PropOp39
 70
     1
102
RTVSPost2010Prop40
 90
        0
102
RTVSPost2010PropOp40
 70
     1
102
RTVSPost2010Prop41ColorIndex
 90
       18
102
RTVSPost2010Prop41ColorRGB
 90
-16777216
102
RTVSPost2010PropOp41
 70
     1
102
RTVSPost2010Prop42
 90
       50
102
RTVSPost2010PropOp42
 70
     1
102
RTVSPost2010Prop43
 90
        3
102
RTVSPost2010PropOp43
 70
     1
102
RTVSPost2010Prop44ColorIndex
 90
        5
102
RTVSPost2010Prop44ColorRGB
 90
      255
102
RTVSPost2010PropOp44
 70
     1
102
RTVSPost2010Prop45
280
     0
102
RTVSPost2010PropOp45
 70
     1
102
RTVSPost2010Prop46
 90
       50
102
RTVSPost2010PropOp46
 70
     1
102
RTVSPost2010Prop47
 90
       50
102
RTVSPost2010PropOp47
 70
     1
102
RTVSPost2010Prop48
 90
       50
102
RTVSPost2010PropOp48
 70
     1
102
RTVSPost2010Prop49
280
     0
102
RTVSPost2010PropOp49
 70
     1
102
RTVSPost2010Prop50
 90
       50
102
RTVSPost2010PropOp50
 70
     1
102
RTVSPost2010Prop51ColorIndex
 90
      256
102
RTVSPost2010Prop51ColorRGB
 90
-16777216
102
RTVSPost2010PropOp51
 70
     0
102
RTVSPost2010Prop52
140
1.0
102
RTVSPost2010PropOp52
 70
     0
102
RTVSPost2010Prop53
 90
        2
102
RTVSPost2010PropOp53
 70
     1
102
RTVSPost2010Prop54
  1
strokes_ogs.tif
102
RTVSPost2010PropOp54
 70
     1
102
RTVSPost2010Prop55
280
     0
102
RTVSPost2010PropOp55
 70
     1
102
RTVSPost2010Prop56
140
1.0
102
RTVSPost2010PropOp56
 70
     1
102
RTVSPost2010Prop57
140
1.0
102
RTVSPost2010PropOp57
 70
     1
102
RTVSPropertyOp0
 70
     1
102
RTVSPropertyOp1
 70
     1
102
RTVSPropertyOp2
 70
     1
102
RTVSPropertyOp3
 70
     1
102
RTVSPropertyOp4
 70
     1
102
RTVSPropertyOp5
 70
     1
102
RTVSPropertyOp6
 70
     1
102
RTVSPropertyOp7
 70
     1
102
RTVSPropertyOp8
 70
     1
102
RTVSPropertyOp9
 70
     1
102
RTVSPropertyOp10
 70
     1
102
RTVSPropertyOp11
 70
     1
102
RTVSPropertyOp12
 70
     1
102
RTVSPropertyOp13
 70
     1
102
RTVSPropertyOp14
 70
     1
102
RTVSPropertyOp15
 70
     1
102
RTVSPropertyOp16
 70
     1
102
RTVSPropertyOp17
 70
     1
102
RTVSPropertyOp18
 70
     1
102
RTVSPropertyOp19
 70
     1
102
RTVSPropertyOp20
 70
     1
102
RTVSPropertyOp21
 70
     1
102
RTVSPropertyOp22
 70
     1
102
RTVSPropertyOp23
 70
     1
102
RTVSPropertyOp24
 70
     1
102
RTVSPropertyOp25
 70
     1
102
RTVSPropertyOp26
 70
     1
102
RTVSPropertyOp27
 70
     1
102
RTVSPropertyOp28
 70
     1
102
RTVSPropertyOp29
 70
     1
102
RTVSPropertyOp30
 70
     1
102
RTVSPropertyOp31
 70
     1
102
RTVSPropertyOp32
 70
     1
102
RTVSPropertyOp33
 70
     1
102
RTVSPropertyOp34
 70
     1
102
RTVSPropertyOp35
 70
     1
102
RTVSPropertyOp36
 70
     1
102
RTVSPropertyOp37
 70
     1
102
RTVSPropertyOp38
 70
     1
102
RTVSPropertyOp39
 70
     1
102
RTVSPropertyOp40
 70
     1
102
RTVSPropertyOp41
 70
     1
102
RTVSPropertyOp42
 70
     1
102
RTVSPropertyOp43
 70
     1
102
RTVSPropertyOp44
 70
     1
102
RTVSPropertyOp45
 70
     1
102
RTVSPropertyOp46
 70
     1
102
RTVSPropertyOp47
 70
     1
102
RTVSPropertyOp48
 70
     1
102
RTVSPropertyOp49
 70
     1
102
RTVSPropertyOp50
 70
     1
102
RTVSPropertyOp51
 70
     0
102
RTVSPropertyOp52
 70
     0
102
RTVSPropertyOp53
 70
     1
102
RTVSPropertyOp54
 70
     1
102
RTVSPropertyOp55
 70
     1
102
RTVSPropertyOp56
 70
     1
102
RTVSPropertyOp57
 70
     1
102
RTVSPropertyOp58
 70
     1
102
RTVSPropertyOp59
 70
     1
102
RTVSPropertyOp60
 70
     1
102
RTVSPropertyOp61
 70
     1
102
RTVSPropertyOp62
 70
     1
  0
XRECORD
  5
1CC5
102
{ACAD_REACTORS
330
1CC4
102
}
330
1CC4
100
AcDbXrecord
280
     1
102
RTVSPost2010Prop28
280
     0
102
RTVSPost2010PropOp28
 70
     1
102
RTVSPost2010Prop29
280
     1
102
RTVSPost2010PropOp29
 70
     1
102
RTVSPost2010Prop30
280
     1
102
RTVSPost2010PropOp30
 70
     1
102
RTVSPost2010Prop31
280
     0
102
RTVSPost2010PropOp31
 70
     1
102
RTVSPost2010Prop32
280
     0
102
RTVSPost2010PropOp32
 70
     1
102
RTVSPost2010Prop33
280
     0
102
RTVSPost2010PropOp33
 70
     1
102
RTVSPost2010Prop34
280
     0
102
RTVSPost2010PropOp34
 70
     1
102
RTVSPost2010Prop35
280
     0
102
RTVSPost2010PropOp35
 70
     1
102
RTVSPost2010Prop36
280
     0
102
RTVSPost2010PropOp36
 70
     1
102
RTVSPost2010Prop37
 90
       50
102
RTVSPost2010PropOp37
 70
     1
102
RTVSPost2010Prop38
140
0.0
102
RTVSPost2010PropOp38
 70
     1
102
RTVSPost2010Prop39
140
1.0
102
RTVSPost2010PropOp39
 70
     1
102
RTVSPost2010Prop40
 90
        0
102
RTVSPost2010PropOp40
 70
     1
102
RTVSPost2010Prop41ColorIndex
 90
       18
102
RTVSPost2010Prop41ColorRGB
 90
-16777216
102
RTVSPost2010PropOp41
 70
     1
102
RTVSPost2010Prop42
 90
       50
102
RTVSPost2010PropOp42
 70
     1
102
RTVSPost2010Prop43
 90
        3
102
RTVSPost2010PropOp43
 70
     1
102
RTVSPost2010Prop44ColorIndex
 90
        5
102
RTVSPost2010Prop44ColorRGB
 90
      255
102
RTVSPost2010PropOp44
 70
     1
102
RTVSPost2010Prop45
280
     0
102
RTVSPost2010PropOp45
 70
     1
102
RTVSPost2010Prop46
 90
       50
102
RTVSPost2010PropOp46
 70
     1
102
RTVSPost2010Prop47
 90
       50
102
RTVSPost2010PropOp47
 70
     1
102
RTVSPost2010Prop48
 90
       50
102
RTVSPost2010PropOp48
 70
     1
102
RTVSPost2010Prop49
280
     0
102
RTVSPost2010PropOp49
 70
     1
102
RTVSPost2010Prop50
 90
       50
102
RTVSPost2010PropOp50
 70
     1
102
RTVSPost2010Prop51ColorIndex
 90
      256
102
RTVSPost2010Prop51ColorRGB
 90
-16777216
102
RTVSPost2010PropOp51
 70
     0
102
RTVSPost2010Prop52
140
1.0
102
RTVSPost2010PropOp52
 70
     0
102
RTVSPost2010Prop53
 90
        2
102
RTVSPost2010PropOp53
 70
     1
102
RTVSPost2010Prop54
  1
strokes_ogs.tif
102
RTVSPost2010PropOp54
 70
     1
102
RTVSPost2010Prop55
280
     0
102
RTVSPost2010PropOp55
 70
     1
102
RTVSPost2010Prop56
140
1.0
102
RTVSPost2010PropOp56
 70
     1
102
RTVSPost2010Prop57
140
1.0
102
RTVSPost2010PropOp57
 70
     1
102
RTVSPropertyOp0
 70
     1
102
RTVSPropertyOp1
 70
     1
102
RTVSPropertyOp2
 70
     1
102
RTVSPropertyOp3
 70
     1
102
RTVSPropertyOp4
 70
     1
102
RTVSPropertyOp5
 70
     1
102
RTVSPropertyOp6
 70
     1
102
RTVSPropertyOp7
 70
     1
102
RTVSPropertyOp8
 70
     1
102
RTVSPropertyOp9
 70
     1
102
RTVSPropertyOp10
 70
     1
102
RTVSPropertyOp11
 70
     1
102
RTVSPropertyOp12
 70
     1
102
RTVSPropertyOp13
 70
     1
102
RTVSPropertyOp14
 70
     1
102
RTVSPropertyOp15
 70
     1
102
RTVSPropertyOp16
 70
     1
102
RTVSPropertyOp17
 70
     1
102
RTVSPropertyOp18
 70
     1
102
RTVSPropertyOp19
 70
     1
102
RTVSPropertyOp20
 70
     1
102
RTVSPropertyOp21
 70
     1
102
RTVSPropertyOp22
 70
     1
102
RTVSPropertyOp23
 70
     1
102
RTVSPropertyOp24
 70
     1
102
RTVSPropertyOp25
 70
     1
102
RTVSPropertyOp26
 70
     1
102
RTVSPropertyOp27
 70
     1
102
RTVSPropertyOp28
 70
     1
102
RTVSPropertyOp29
 70
     1
102
RTVSPropertyOp30
 70
     1
102
RTVSPropertyOp31
 70
     1
102
RTVSPropertyOp32
 70
     1
102
RTVSPropertyOp33
 70
     1
102
RTVSPropertyOp34
 70
     1
102
RTVSPropertyOp35
 70
     1
102
RTVSPropertyOp36
 70
     1
102
RTVSPropertyOp37
 70
     1
102
RTVSPropertyOp38
 70
     1
102
RTVSPropertyOp39
 70
     1
102
RTVSPropertyOp40
 70
     1
102
RTVSPropertyOp41
 70
     1
102
RTVSPropertyOp42
 70
     1
102
RTVSPropertyOp43
 70
     1
102
RTVSPropertyOp44
 70
     1
102
RTVSPropertyOp45
 70
     1
102
RTVSPropertyOp46
 70
     1
102
RTVSPropertyOp47
 70
     1
102
RTVSPropertyOp48
 70
     1
102
RTVSPropertyOp49
 70
     1
102
RTVSPropertyOp50
 70
     1
102
RTVSPropertyOp51
 70
     0
102
RTVSPropertyOp52
 70
     0
102
RTVSPropertyOp53
 70
     1
102
RTVSPropertyOp54
 70
     1
102
RTVSPropertyOp55
 70
     1
102
RTVSPropertyOp56
 70
     1
102
RTVSPropertyOp57
 70
     1
102
RTVSPropertyOp58
 70
     1
102
RTVSPropertyOp59
 70
     1
102
RTVSPropertyOp60
 70
     1
102
RTVSPropertyOp61
 70
     1
102
RTVSPropertyOp62
 70
     1
  0
XRECORD
  5
1CE1
102
{ACAD_REACTORS
330
1CE0
102
}
330
1CE0
100
AcDbXrecord
280
     1
102
RTVSPost2010Prop28
280
     0
102
RTVSPost2010PropOp28
 70
     1
102
RTVSPost2010Prop29
280
     1
102
RTVSPost2010PropOp29
 70
     1
102
RTVSPost2010Prop30
280
     1
102
RTVSPost2010PropOp30
 70
     1
102
RTVSPost2010Prop31
280
     0
102
RTVSPost2010PropOp31
 70
     1
102
RTVSPost2010Prop32
280
     0
102
RTVSPost2010PropOp32
 70
     1
102
RTVSPost2010Prop33
280
     0
102
RTVSPost2010PropOp33
 70
     1
102
RTVSPost2010Prop34
280
     0
102
RTVSPost2010PropOp34
 70
     1
102
RTVSPost2010Prop35
280
     0
102
RTVSPost2010PropOp35
 70
     1
102
RTVSPost2010Prop36
280
     0
102
RTVSPost2010PropOp36
 70
     1
102
RTVSPost2010Prop37
 90
       50
102
RTVSPost2010PropOp37
 70
     0
102
RTVSPost2010Prop38
140
0.0
102
RTVSPost2010PropOp38
 70
     0
102
RTVSPost2010Prop39
140
1.0
102
RTVSPost2010PropOp39
 70
     0
102
RTVSPost2010Prop40
 90
        0
102
RTVSPost2010PropOp40
 70
     0
102
RTVSPost2010Prop41ColorIndex
 90
       18
102
RTVSPost2010Prop41ColorRGB
 90
-16777216
102
RTVSPost2010PropOp41
 70
     0
102
RTVSPost2010Prop42
 90
       50
102
RTVSPost2010PropOp42
 70
     0
102
RTVSPost2010Prop43
 90
        3
102
RTVSPost2010PropOp43
 70
     0
102
RTVSPost2010Prop44ColorIndex
 90
        5
102
RTVSPost2010Prop44ColorRGB
 90
      255
102
RTVSPost2010PropOp44
 70
     0
102
RTVSPost2010Prop45
280
     0
102
RTVSPost2010PropOp45
 70
     1
102
RTVSPost2010Prop46
 90
       50
102
RTVSPost2010PropOp46
 70
     0
102
RTVSPost2010Prop47
 90
       50
102
RTVSPost2010PropOp47
 70
     0
102
RTVSPost2010Prop48
 90
       50
102
RTVSPost2010PropOp48
 70
     0
102
RTVSPost2010Prop49
280
     0
102
RTVSPost2010PropOp49
 70
     1
102
RTVSPost2010Prop50
 90
       50
102
RTVSPost2010PropOp50
 70
     0
102
RTVSPost2010Prop51ColorIndex
 90
      256
102
RTVSPost2010Prop51ColorRGB
 90
-16777216
102
RTVSPost2010PropOp51
 70
     0
102
RTVSPost2010Prop52
140
1.0
102
RTVSPost2010PropOp52
 70
     0
102
RTVSPost2010Prop53
 90
        2
102
RTVSPost2010PropOp53
 70
     0
102
RTVSPost2010Prop54
  1
strokes_ogs.tif
102
RTVSPost2010PropOp54
 70
     0
102
RTVSPost2010Prop55
280
     0
102
RTVSPost2010PropOp55
 70
     1
102
RTVSPost2010Prop56
140
1.0
102
RTVSPost2010PropOp56
 70
     0
102
RTVSPost2010Prop57
140
1.0
102
RTVSPost2010PropOp57
 70
     0
102
RTVSPropertyOp0
 70
     0
102
RTVSPropertyOp1
 70
     0
102
RTVSPropertyOp2
 70
     0
102
RTVSPropertyOp3
 70
     0
102
RTVSPropertyOp4
 70
     0
102
RTVSPropertyOp5
 70
     0
102
RTVSPropertyOp6
 70
     0
102
RTVSPropertyOp7
 70
     0
102
RTVSPropertyOp8
 70
     0
102
RTVSPropertyOp9
 70
     0
102
RTVSPropertyOp10
 70
     0
102
RTVSPropertyOp11
 70
     0
102
RTVSPropertyOp12
 70
     0
102
RTVSPropertyOp13
 70
     0
102
RTVSPropertyOp14
 70
     2
102
RTVSPropertyOp15
 70
     0
102
RTVSPropertyOp16
 70
     0
102
RTVSPropertyOp17
 70
     0
102
RTVSPropertyOp18
 70
     0
102
RTVSPropertyOp19
 70
     0
102
RTVSPropertyOp20
 70
     0
102
RTVSPropertyOp21
 70
     0
102
RTVSPropertyOp22
 70
     0
102
RTVSPropertyOp23
 70
     0
102
RTVSPropertyOp24
 70
     0
102
RTVSPropertyOp25
 70
     0
102
RTVSPropertyOp26
 70
     0
102
RTVSPropertyOp27
 70
     0
102
RTVSPropertyOp28
 70
     1
102
RTVSPropertyOp29
 70
     1
102
RTVSPropertyOp30
 70
     1
102
RTVSPropertyOp31
 70
     1
102
RTVSPropertyOp32
 70
     1
102
RTVSPropertyOp33
 70
     1
102
RTVSPropertyOp34
 70
     1
102
RTVSPropertyOp35
 70
     1
102
RTVSPropertyOp36
 70
     1
102
RTVSPropertyOp37
 70
     0
102
RTVSPropertyOp38
 70
     0
102
RTVSPropertyOp39
 70
     0
102
RTVSPropertyOp40
 70
     0
102
RTVSPropertyOp41
 70
     0
102
RTVSPropertyOp42
 70
     0
102
RTVSPropertyOp43
 70
     0
102
RTVSPropertyOp44
 70
     0
102
RTVSPropertyOp45
 70
     1
102
RTVSPropertyOp46
 70
     0
102
RTVSPropertyOp47
 70
     0
102
RTVSPropertyOp48
 70
     0
102
RTVSPropertyOp49
 70
     1
102
RTVSPropertyOp50
 70
     0
102
RTVSPropertyOp51
 70
     0
102
RTVSPropertyOp52
 70
     0
102
RTVSPropertyOp53
 70
     0
102
RTVSPropertyOp54
 70
     0
102
RTVSPropertyOp55
 70
     1
102
RTVSPropertyOp56
 70
     0
102
RTVSPropertyOp57
 70
     0
102
RTVSPropertyOp58
 70
     1
102
RTVSPropertyOp59
 70
     1
102
RTVSPropertyOp60
 70
     1
102
RTVSPropertyOp61
 70
     1
102
RTVSPropertyOp62
 70
     1
  0
XRECORD
  5
1CD1
102
{ACAD_REACTORS
330
1CD0
102
}
330
1CD0
100
AcDbXrecord
280
     1
102
RTVSPost2010Prop28
280
     0
102
RTVSPost2010PropOp28
 70
     1
102
RTVSPost2010Prop29
280
     1
102
RTVSPost2010PropOp29
 70
     1
102
RTVSPost2010Prop30
280
     1
102
RTVSPost2010PropOp30
 70
     1
102
RTVSPost2010Prop31
280
     0
102
RTVSPost2010PropOp31
 70
     1
102
RTVSPost2010Prop32
280
     0
102
RTVSPost2010PropOp32
 70
     1
102
RTVSPost2010Prop33
280
     0
102
RTVSPost2010PropOp33
 70
     1
102
RTVSPost2010Prop34
280
     0
102
RTVSPost2010PropOp34
 70
     1
102
RTVSPost2010Prop35
280
     0
102
RTVSPost2010PropOp35
 70
     1
102
RTVSPost2010Prop36
280
     0
102
RTVSPost2010PropOp36
 70
     1
102
RTVSPost2010Prop37
 90
       50
102
RTVSPost2010PropOp37
 70
     1
102
RTVSPost2010Prop38
140
0.0
102
RTVSPost2010PropOp38
 70
     1
102
RTVSPost2010Prop39
140
1.0
102
RTVSPost2010PropOp39
 70
     1
102
RTVSPost2010Prop40
 90
        0
102
RTVSPost2010PropOp40
 70
     1
102
RTVSPost2010Prop41ColorIndex
 90
       18
102
RTVSPost2010Prop41ColorRGB
 90
-16777216
102
RTVSPost2010PropOp41
 70
     1
102
RTVSPost2010Prop42
 90
       50
102
RTVSPost2010PropOp42
 70
     1
102
RTVSPost2010Prop43
 90
        3
102
RTVSPost2010PropOp43
 70
     1
102
RTVSPost2010Prop44ColorIndex
 90
        5
102
RTVSPost2010Prop44ColorRGB
 90
      255
102
RTVSPost2010PropOp44
 70
     1
102
RTVSPost2010Prop45
280
     0
102
RTVSPost2010PropOp45
 70
     1
102
RTVSPost2010Prop46
 90
       50
102
RTVSPost2010PropOp46
 70
     1
102
RTVSPost2010Prop47
 90
       50
102
RTVSPost2010PropOp47
 70
     1
102
RTVSPost2010Prop48
 90
       50
102
RTVSPost2010PropOp48
 70
     1
102
RTVSPost2010Prop49
280
     0
102
RTVSPost2010PropOp49
 70
     1
102
RTVSPost2010Prop50
 90
       50
102
RTVSPost2010PropOp50
 70
     1
102
RTVSPost2010Prop51ColorIndex
 90
      256
102
RTVSPost2010Prop51ColorRGB
 90
-16777216
102
RTVSPost2010PropOp51
 70
     0
102
RTVSPost2010Prop52
140
1.0
102
RTVSPost2010PropOp52
 70
     0
102
RTVSPost2010Prop53
 90
        2
102
RTVSPost2010PropOp53
 70
     1
102
RTVSPost2010Prop54
  1
strokes_ogs.tif
102
RTVSPost2010PropOp54
 70
     1
102
RTVSPost2010Prop55
280
     0
102
RTVSPost2010PropOp55
 70
     1
102
RTVSPost2010Prop56
140
1.0
102
RTVSPost2010PropOp56
 70
     1
102
RTVSPost2010Prop57
140
1.0
102
RTVSPost2010PropOp57
 70
     1
102
RTVSPropertyOp0
 70
     1
102
RTVSPropertyOp1
 70
     1
102
RTVSPropertyOp2
 70
     1
102
RTVSPropertyOp3
 70
     1
102
RTVSPropertyOp4
 70
     1
102
RTVSPropertyOp5
 70
     1
102
RTVSPropertyOp6
 70
     1
102
RTVSPropertyOp7
 70
     1
102
RTVSPropertyOp8
 70
     1
102
RTVSPropertyOp9
 70
     1
102
RTVSPropertyOp10
 70
     1
102
RTVSPropertyOp11
 70
     1
102
RTVSPropertyOp12
 70
     1
102
RTVSPropertyOp13
 70
     1
102
RTVSPropertyOp14
 70
     1
102
RTVSPropertyOp15
 70
     1
102
RTVSPropertyOp16
 70
     1
102
RTVSPropertyOp17
 70
     1
102
RTVSPropertyOp18
 70
     1
102
RTVSPropertyOp19
 70
     1
102
RTVSPropertyOp20
 70
     1
102
RTVSPropertyOp21
 70
     1
102
RTVSPropertyOp22
 70
     1
102
RTVSPropertyOp23
 70
     1
102
RTVSPropertyOp24
 70
     1
102
RTVSPropertyOp25
 70
     1
102
RTVSPropertyOp26
 70
     1
102
RTVSPropertyOp27
 70
     1
102
RTVSPropertyOp28
 70
     1
102
RTVSPropertyOp29
 70
     1
102
RTVSPropertyOp30
 70
     1
102
RTVSPropertyOp31
 70
     1
102
RTVSPropertyOp32
 70
     1
102
RTVSPropertyOp33
 70
     1
102
RTVSPropertyOp34
 70
     1
102
RTVSPropertyOp35
 70
     1
102
RTVSPropertyOp36
 70
     1
102
RTVSPropertyOp37
 70
     1
102
RTVSPropertyOp38
 70
     1
102
RTVSPropertyOp39
 70
     1
102
RTVSPropertyOp40
 70
     1
102
RTVSPropertyOp41
 70
     1
102
RTVSPropertyOp42
 70
     1
102
RTVSPropertyOp43
 70
     1
102
RTVSPropertyOp44
 70
     1
102
RTVSPropertyOp45
 70
     1
102
RTVSPropertyOp46
 70
     1
102
RTVSPropertyOp47
 70
     1
102
RTVSPropertyOp48
 70
     1
102
RTVSPropertyOp49
 70
     1
102
RTVSPropertyOp50
 70
     1
102
RTVSPropertyOp51
 70
     0
102
RTVSPropertyOp52
 70
     0
102
RTVSPropertyOp53
 70
     1
102
RTVSPropertyOp54
 70
     1
102
RTVSPropertyOp55
 70
     1
102
RTVSPropertyOp56
 70
     1
102
RTVSPropertyOp57
 70
     1
102
RTVSPropertyOp58
 70
     1
102
RTVSPropertyOp59
 70
     1
102
RTVSPropertyOp60
 70
     1
102
RTVSPropertyOp61
 70
     1
102
RTVSPropertyOp62
 70
     1
  0
XRECORD
  5
1CE3
102
{ACAD_REACTORS
330
1CE2
102
}
330
1CE2
100
AcDbXrecord
280
     1
102
RTVSPost2010Prop28
280
     0
102
RTVSPost2010PropOp28
 70
     1
102
RTVSPost2010Prop29
280
     1
102
RTVSPost2010PropOp29
 70
     1
102
RTVSPost2010Prop30
280
     1
102
RTVSPost2010PropOp30
 70
     1
102
RTVSPost2010Prop31
280
     0
102
RTVSPost2010PropOp31
 70
     1
102
RTVSPost2010Prop32
280
     0
102
RTVSPost2010PropOp32
 70
     1
102
RTVSPost2010Prop33
280
     0
102
RTVSPost2010PropOp33
 70
     1
102
RTVSPost2010Prop34
280
     0
102
RTVSPost2010PropOp34
 70
     1
102
RTVSPost2010Prop35
280
     0
102
RTVSPost2010PropOp35
 70
     1
102
RTVSPost2010Prop36
280
     0
102
RTVSPost2010PropOp36
 70
     1
102
RTVSPost2010Prop37
 90
       50
102
RTVSPost2010PropOp37
 70
     0
102
RTVSPost2010Prop38
140
0.0
102
RTVSPost2010PropOp38
 70
     0
102
RTVSPost2010Prop39
140
1.0
102
RTVSPost2010PropOp39
 70
     0
102
RTVSPost2010Prop40
 90
        0
102
RTVSPost2010PropOp40
 70
     0
102
RTVSPost2010Prop41ColorIndex
 90
       18
102
RTVSPost2010Prop41ColorRGB
 90
-16777216
102
RTVSPost2010PropOp41
 70
     0
102
RTVSPost2010Prop42
 90
       50
102
RTVSPost2010PropOp42
 70
     0
102
RTVSPost2010Prop43
 90
        3
102
RTVSPost2010PropOp43
 70
     0
102
RTVSPost2010Prop44ColorIndex
 90
        5
102
RTVSPost2010Prop44ColorRGB
 90
      255
102
RTVSPost2010PropOp44
 70
     0
102
RTVSPost2010Prop45
280
     0
102
RTVSPost2010PropOp45
 70
     1
102
RTVSPost2010Prop46
 90
       50
102
RTVSPost2010PropOp46
 70
     0
102
RTVSPost2010Prop47
 90
       50
102
RTVSPost2010PropOp47
 70
     0
102
RTVSPost2010Prop48
 90
       50
102
RTVSPost2010PropOp48
 70
     0
102
RTVSPost2010Prop49
280
     0
102
RTVSPost2010PropOp49
 70
     1
102
RTVSPost2010Prop50
 90
       50
102
RTVSPost2010PropOp50
 70
     0
102
RTVSPost2010Prop51ColorIndex
 90
      256
102
RTVSPost2010Prop51ColorRGB
 90
-16777216
102
RTVSPost2010PropOp51
 70
     0
102
RTVSPost2010Prop52
140
1.0
102
RTVSPost2010PropOp52
 70
     0
102
RTVSPost2010Prop53
 90
        2
102
RTVSPost2010PropOp53
 70
     0
102
RTVSPost2010Prop54
  1
strokes_ogs.tif
102
RTVSPost2010PropOp54
 70
     0
102
RTVSPost2010Prop55
280
     0
102
RTVSPost2010PropOp55
 70
     1
102
RTVSPost2010Prop56
140
1.0
102
RTVSPost2010PropOp56
 70
     0
102
RTVSPost2010Prop57
140
1.0
102
RTVSPost2010PropOp57
 70
     0
102
RTVSPropertyOp0
 70
     0
102
RTVSPropertyOp1
 70
     0
102
RTVSPropertyOp2
 70
     0
102
RTVSPropertyOp3
 70
     0
102
RTVSPropertyOp4
 70
     0
102
RTVSPropertyOp5
 70
     0
102
RTVSPropertyOp6
 70
     0
102
RTVSPropertyOp7
 70
     0
102
RTVSPropertyOp8
 70
     0
102
RTVSPropertyOp9
 70
     0
102
RTVSPropertyOp10
 70
     0
102
RTVSPropertyOp11
 70
     0
102
RTVSPropertyOp12
 70
     0
102
RTVSPropertyOp13
 70
     0
102
RTVSPropertyOp14
 70
     2
102
RTVSPropertyOp15
 70
     0
102
RTVSPropertyOp16
 70
     0
102
RTVSPropertyOp17
 70
     0
102
RTVSPropertyOp18
 70
     0
102
RTVSPropertyOp19
 70
     0
102
RTVSPropertyOp20
 70
     0
102
RTVSPropertyOp21
 70
     0
102
RTVSPropertyOp22
 70
     0
102
RTVSPropertyOp23
 70
     0
102
RTVSPropertyOp24
 70
     0
102
RTVSPropertyOp25
 70
     0
102
RTVSPropertyOp26
 70
     0
102
RTVSPropertyOp27
 70
     0
102
RTVSPropertyOp28
 70
     1
102
RTVSPropertyOp29
 70
     1
102
RTVSPropertyOp30
 70
     1
102
RTVSPropertyOp31
 70
     1
102
RTVSPropertyOp32
 70
     1
102
RTVSPropertyOp33
 70
     1
102
RTVSPropertyOp34
 70
     1
102
RTVSPropertyOp35
 70
     1
102
RTVSPropertyOp36
 70
     1
102
RTVSPropertyOp37
 70
     0
102
RTVSPropertyOp38
 70
     0
102
RTVSPropertyOp39
 70
     0
102
RTVSPropertyOp40
 70
     0
102
RTVSPropertyOp41
 70
     0
102
RTVSPropertyOp42
 70
     0
102
RTVSPropertyOp43
 70
     0
102
RTVSPropertyOp44
 70
     0
102
RTVSPropertyOp45
 70
     1
102
RTVSPropertyOp46
 70
     0
102
RTVSPropertyOp47
 70
     0
102
RTVSPropertyOp48
 70
     0
102
RTVSPropertyOp49
 70
     1
102
RTVSPropertyOp50
 70
     0
102
RTVSPropertyOp51
 70
     0
102
RTVSPropertyOp52
 70
     0
102
RTVSPropertyOp53
 70
     0
102
RTVSPropertyOp54
 70
     0
102
RTVSPropertyOp55
 70
     1
102
RTVSPropertyOp56
 70
     0
102
RTVSPropertyOp57
 70
     0
102
RTVSPropertyOp58
 70
     1
102
RTVSPropertyOp59
 70
     1
102
RTVSPropertyOp60
 70
     1
102
RTVSPropertyOp61
 70
     1
102
RTVSPropertyOp62
 70
     1
  0
XRECORD
  5
1CC9
102
{ACAD_REACTORS
330
1CC8
102
}
330
1CC8
100
AcDbXrecord
280
     1
102
RTVSPost2010Prop28
280
     0
102
RTVSPost2010PropOp28
 70
     1
102
RTVSPost2010Prop29
280
     1
102
RTVSPost2010PropOp29
 70
     1
102
RTVSPost2010Prop30
280
     1
102
RTVSPost2010PropOp30
 70
     1
102
RTVSPost2010Prop31
280
     0
102
RTVSPost2010PropOp31
 70
     1
102
RTVSPost2010Prop32
280
     0
102
RTVSPost2010PropOp32
 70
     1
102
RTVSPost2010Prop33
280
     0
102
RTVSPost2010PropOp33
 70
     1
102
RTVSPost2010Prop34
280
     0
102
RTVSPost2010PropOp34
 70
     1
102
RTVSPost2010Prop35
280
     0
102
RTVSPost2010PropOp35
 70
     1
102
RTVSPost2010Prop36
280
     0
102
RTVSPost2010PropOp36
 70
     1
102
RTVSPost2010Prop37
 90
       50
102
RTVSPost2010PropOp37
 70
     1
102
RTVSPost2010Prop38
140
0.0
102
RTVSPost2010PropOp38
 70
     1
102
RTVSPost2010Prop39
140
1.0
102
RTVSPost2010PropOp39
 70
     1
102
RTVSPost2010Prop40
 90
        0
102
RTVSPost2010PropOp40
 70
     1
102
RTVSPost2010Prop41ColorIndex
 90
       18
102
RTVSPost2010Prop41ColorRGB
 90
-16777216
102
RTVSPost2010PropOp41
 70
     1
102
RTVSPost2010Prop42
 90
       50
102
RTVSPost2010PropOp42
 70
     1
102
RTVSPost2010Prop43
 90
        3
102
RTVSPost2010PropOp43
 70
     1
102
RTVSPost2010Prop44ColorIndex
 90
        5
102
RTVSPost2010Prop44ColorRGB
 90
      255
102
RTVSPost2010PropOp44
 70
     1
102
RTVSPost2010Prop45
280
     0
102
RTVSPost2010PropOp45
 70
     1
102
RTVSPost2010Prop46
 90
       50
102
RTVSPost2010PropOp46
 70
     1
102
RTVSPost2010Prop47
 90
       50
102
RTVSPost2010PropOp47
 70
     1
102
RTVSPost2010Prop48
 90
       50
102
RTVSPost2010PropOp48
 70
     1
102
RTVSPost2010Prop49
280
     0
102
RTVSPost2010PropOp49
 70
     1
102
RTVSPost2010Prop50
 90
       50
102
RTVSPost2010PropOp50
 70
     1
102
RTVSPost2010Prop51ColorIndex
 90
      256
102
RTVSPost2010Prop51ColorRGB
 90
-16777216
102
RTVSPost2010PropOp51
 70
     0
102
RTVSPost2010Prop52
140
1.0
102
RTVSPost2010PropOp52
 70
     0
102
RTVSPost2010Prop53
 90
        2
102
RTVSPost2010PropOp53
 70
     1
102
RTVSPost2010Prop54
  1
strokes_ogs.tif
102
RTVSPost2010PropOp54
 70
     1
102
RTVSPost2010Prop55
280
     0
102
RTVSPost2010PropOp55
 70
     1
102
RTVSPost2010Prop56
140
1.0
102
RTVSPost2010PropOp56
 70
     1
102
RTVSPost2010Prop57
140
1.0
102
RTVSPost2010PropOp57
 70
     1
102
RTVSPropertyOp0
 70
     1
102
RTVSPropertyOp1
 70
     1
102
RTVSPropertyOp2
 70
     1
102
RTVSPropertyOp3
 70
     1
102
RTVSPropertyOp4
 70
     1
102
RTVSPropertyOp5
 70
     1
102
RTVSPropertyOp6
 70
     1
102
RTVSPropertyOp7
 70
     1
102
RTVSPropertyOp8
 70
     1
102
RTVSPropertyOp9
 70
     1
102
RTVSPropertyOp10
 70
     1
102
RTVSPropertyOp11
 70
     1
102
RTVSPropertyOp12
 70
     1
102
RTVSPropertyOp13
 70
     1
102
RTVSPropertyOp14
 70
     1
102
RTVSPropertyOp15
 70
     1
102
RTVSPropertyOp16
 70
     1
102
RTVSPropertyOp17
 70
     1
102
RTVSPropertyOp18
 70
     1
102
RTVSPropertyOp19
 70
     1
102
RTVSPropertyOp20
 70
     1
102
RTVSPropertyOp21
 70
     1
102
RTVSPropertyOp22
 70
     1
102
RTVSPropertyOp23
 70
     1
102
RTVSPropertyOp24
 70
     1
102
RTVSPropertyOp25
 70
     1
102
RTVSPropertyOp26
 70
     1
102
RTVSPropertyOp27
 70
     1
102
RTVSPropertyOp28
 70
     1
102
RTVSPropertyOp29
 70
     1
102
RTVSPropertyOp30
 70
     1
102
RTVSPropertyOp31
 70
     1
102
RTVSPropertyOp32
 70
     1
102
RTVSPropertyOp33
 70
     1
102
RTVSPropertyOp34
 70
     1
102
RTVSPropertyOp35
 70
     1
102
RTVSPropertyOp36
 70
     1
102
RTVSPropertyOp37
 70
     1
102
RTVSPropertyOp38
 70
     1
102
RTVSPropertyOp39
 70
     1
102
RTVSPropertyOp40
 70
     1
102
RTVSPropertyOp41
 70
     1
102
RTVSPropertyOp42
 70
     1
102
RTVSPropertyOp43
 70
     1
102
RTVSPropertyOp44
 70
     1
102
RTVSPropertyOp45
 70
     1
102
RTVSPropertyOp46
 70
     1
102
RTVSPropertyOp47
 70
     1
102
RTVSPropertyOp48
 70
     1
102
RTVSPropertyOp49
 70
     1
102
RTVSPropertyOp50
 70
     1
102
RTVSPropertyOp51
 70
     0
102
RTVSPropertyOp52
 70
     0
102
RTVSPropertyOp53
 70
     1
102
RTVSPropertyOp54
 70
     1
102
RTVSPropertyOp55
 70
     1
102
RTVSPropertyOp56
 70
     1
102
RTVSPropertyOp57
 70
     1
102
RTVSPropertyOp58
 70
     1
102
RTVSPropertyOp59
 70
     1
102
RTVSPropertyOp60
 70
     1
102
RTVSPropertyOp61
 70
     1
102
RTVSPropertyOp62
 70
     1
  0
XRECORD
  5
1CDF
102
{ACAD_REACTORS
330
1CDE
102
}
330
1CDE
100
AcDbXrecord
280
     1
102
RTVSPost2010Prop28
280
     0
102
RTVSPost2010PropOp28
 70
     1
102
RTVSPost2010Prop29
280
     1
102
RTVSPost2010PropOp29
 70
     1
102
RTVSPost2010Prop30
280
     1
102
RTVSPost2010PropOp30
 70
     1
102
RTVSPost2010Prop31
280
     0
102
RTVSPost2010PropOp31
 70
     1
102
RTVSPost2010Prop32
280
     0
102
RTVSPost2010PropOp32
 70
     1
102
RTVSPost2010Prop33
280
     0
102
RTVSPost2010PropOp33
 70
     1
102
RTVSPost2010Prop34
280
     0
102
RTVSPost2010PropOp34
 70
     1
102
RTVSPost2010Prop35
280
     0
102
RTVSPost2010PropOp35
 70
     1
102
RTVSPost2010Prop36
280
     0
102
RTVSPost2010PropOp36
 70
     1
102
RTVSPost2010Prop37
 90
       50
102
RTVSPost2010PropOp37
 70
     1
102
RTVSPost2010Prop38
140
0.0
102
RTVSPost2010PropOp38
 70
     1
102
RTVSPost2010Prop39
140
1.0
102
RTVSPost2010PropOp39
 70
     1
102
RTVSPost2010Prop40
 90
        0
102
RTVSPost2010PropOp40
 70
     1
102
RTVSPost2010Prop41ColorIndex
 90
       18
102
RTVSPost2010Prop41ColorRGB
 90
-16777216
102
RTVSPost2010PropOp41
 70
     1
102
RTVSPost2010Prop42
 90
       50
102
RTVSPost2010PropOp42
 70
     1
102
RTVSPost2010Prop43
 90
        3
102
RTVSPost2010PropOp43
 70
     1
102
RTVSPost2010Prop44ColorIndex
 90
        5
102
RTVSPost2010Prop44ColorRGB
 90
      255
102
RTVSPost2010PropOp44
 70
     1
102
RTVSPost2010Prop45
280
     0
102
RTVSPost2010PropOp45
 70
     1
102
RTVSPost2010Prop46
 90
       50
102
RTVSPost2010PropOp46
 70
     1
102
RTVSPost2010Prop47
 90
       50
102
RTVSPost2010PropOp47
 70
     1
102
RTVSPost2010Prop48
 90
       50
102
RTVSPost2010PropOp48
 70
     1
102
RTVSPost2010Prop49
280
     0
102
RTVSPost2010PropOp49
 70
     1
102
RTVSPost2010Prop50
 90
       50
102
RTVSPost2010PropOp50
 70
     1
102
RTVSPost2010Prop51ColorIndex
 90
      256
102
RTVSPost2010Prop51ColorRGB
 90
-16777216
102
RTVSPost2010PropOp51
 70
     0
102
RTVSPost2010Prop52
140
1.0
102
RTVSPost2010PropOp52
 70
     0
102
RTVSPost2010Prop53
 90
        2
102
RTVSPost2010PropOp53
 70
     1
102
RTVSPost2010Prop54
  1
strokes_ogs.tif
102
RTVSPost2010PropOp54
 70
     1
102
RTVSPost2010Prop55
280
     0
102
RTVSPost2010PropOp55
 70
     1
102
RTVSPost2010Prop56
140
1.0
102
RTVSPost2010PropOp56
 70
     1
102
RTVSPost2010Prop57
140
1.0
102
RTVSPost2010PropOp57
 70
     1
102
RTVSPropertyOp0
 70
     1
102
RTVSPropertyOp1
 70
     1
102
RTVSPropertyOp2
 70
     1
102
RTVSPropertyOp3
 70
     1
102
RTVSPropertyOp4
 70
     1
102
RTVSPropertyOp5
 70
     1
102
RTVSPropertyOp6
 70
     1
102
RTVSPropertyOp7
 70
     1
102
RTVSPropertyOp8
 70
     1
102
RTVSPropertyOp9
 70
     1
102
RTVSPropertyOp10
 70
     1
102
RTVSPropertyOp11
 70
     1
102
RTVSPropertyOp12
 70
     1
102
RTVSPropertyOp13
 70
     1
102
RTVSPropertyOp14
 70
     1
102
RTVSPropertyOp15
 70
     1
102
RTVSPropertyOp16
 70
     1
102
RTVSPropertyOp17
 70
     1
102
RTVSPropertyOp18
 70
     1
102
RTVSPropertyOp19
 70
     1
102
RTVSPropertyOp20
 70
     1
102
RTVSPropertyOp21
 70
     1
102
RTVSPropertyOp22
 70
     1
102
RTVSPropertyOp23
 70
     1
102
RTVSPropertyOp24
 70
     1
102
RTVSPropertyOp25
 70
     1
102
RTVSPropertyOp26
 70
     1
102
RTVSPropertyOp27
 70
     1
102
RTVSPropertyOp28
 70
     1
102
RTVSPropertyOp29
 70
     1
102
RTVSPropertyOp30
 70
     1
102
RTVSPropertyOp31
 70
     1
102
RTVSPropertyOp32
 70
     1
102
RTVSPropertyOp33
 70
     1
102
RTVSPropertyOp34
 70
     1
102
RTVSPropertyOp35
 70
     1
102
RTVSPropertyOp36
 70
     1
102
RTVSPropertyOp37
 70
     1
102
RTVSPropertyOp38
 70
     1
102
RTVSPropertyOp39
 70
     1
102
RTVSPropertyOp40
 70
     1
102
RTVSPropertyOp41
 70
     1
102
RTVSPropertyOp42
 70
     1
102
RTVSPropertyOp43
 70
     1
102
RTVSPropertyOp44
 70
     1
102
RTVSPropertyOp45
 70
     1
102
RTVSPropertyOp46
 70
     1
102
RTVSPropertyOp47
 70
     1
102
RTVSPropertyOp48
 70
     1
102
RTVSPropertyOp49
 70
     1
102
RTVSPropertyOp50
 70
     1
102
RTVSPropertyOp51
 70
     0
102
RTVSPropertyOp52
 70
     0
102
RTVSPropertyOp53
 70
     1
102
RTVSPropertyOp54
 70
     1
102
RTVSPropertyOp55
 70
     1
102
RTVSPropertyOp56
 70
     1
102
RTVSPropertyOp57
 70
     1
102
RTVSPropertyOp58
 70
     1
102
RTVSPropertyOp59
 70
     1
102
RTVSPropertyOp60
 70
     1
102
RTVSPropertyOp61
 70
     1
102
RTVSPropertyOp62
 70
     1
  0
XRECORD
  5
1CDD
102
{ACAD_REACTORS
330
1CDC
102
}
330
1CDC
100
AcDbXrecord
280
     1
102
RTVSPost2010Prop28
280
     0
102
RTVSPost2010PropOp28
 70
     1
102
RTVSPost2010Prop29
280
     1
102
RTVSPost2010PropOp29
 70
     1
102
RTVSPost2010Prop30
280
     1
102
RTVSPost2010PropOp30
 70
     1
102
RTVSPost2010Prop31
280
     0
102
RTVSPost2010PropOp31
 70
     1
102
RTVSPost2010Prop32
280
     0
102
RTVSPost2010PropOp32
 70
     1
102
RTVSPost2010Prop33
280
     0
102
RTVSPost2010PropOp33
 70
     1
102
RTVSPost2010Prop34
280
     0
102
RTVSPost2010PropOp34
 70
     1
102
RTVSPost2010Prop35
280
     0
102
RTVSPost2010PropOp35
 70
     1
102
RTVSPost2010Prop36
280
     0
102
RTVSPost2010PropOp36
 70
     1
102
RTVSPost2010Prop37
 90
       50
102
RTVSPost2010PropOp37
 70
     1
102
RTVSPost2010Prop38
140
0.0
102
RTVSPost2010PropOp38
 70
     1
102
RTVSPost2010Prop39
140
1.0
102
RTVSPost2010PropOp39
 70
     1
102
RTVSPost2010Prop40
 90
        0
102
RTVSPost2010PropOp40
 70
     1
102
RTVSPost2010Prop41ColorIndex
 90
       18
102
RTVSPost2010Prop41ColorRGB
 90
-16777216
102
RTVSPost2010PropOp41
 70
     1
102
RTVSPost2010Prop42
 90
       50
102
RTVSPost2010PropOp42
 70
     1
102
RTVSPost2010Prop43
 90
        3
102
RTVSPost2010PropOp43
 70
     1
102
RTVSPost2010Prop44ColorIndex
 90
        5
102
RTVSPost2010Prop44ColorRGB
 90
      255
102
RTVSPost2010PropOp44
 70
     1
102
RTVSPost2010Prop45
280
     0
102
RTVSPost2010PropOp45
 70
     1
102
RTVSPost2010Prop46
 90
       50
102
RTVSPost2010PropOp46
 70
     1
102
RTVSPost2010Prop47
 90
       50
102
RTVSPost2010PropOp47
 70
     1
102
RTVSPost2010Prop48
 90
       50
102
RTVSPost2010PropOp48
 70
     1
102
RTVSPost2010Prop49
280
     0
102
RTVSPost2010PropOp49
 70
     1
102
RTVSPost2010Prop50
 90
       50
102
RTVSPost2010PropOp50
 70
     1
102
RTVSPost2010Prop51ColorIndex
 90
      256
102
RTVSPost2010Prop51ColorRGB
 90
-16777216
102
RTVSPost2010PropOp51
 70
     0
102
RTVSPost2010Prop52
140
1.0
102
RTVSPost2010PropOp52
 70
     0
102
RTVSPost2010Prop53
 90
        2
102
RTVSPost2010PropOp53
 70
     1
102
RTVSPost2010Prop54
  1
strokes_ogs.tif
102
RTVSPost2010PropOp54
 70
     1
102
RTVSPost2010Prop55
280
     0
102
RTVSPost2010PropOp55
 70
     1
102
RTVSPost2010Prop56
140
1.0
102
RTVSPost2010PropOp56
 70
     1
102
RTVSPost2010Prop57
140
1.0
102
RTVSPost2010PropOp57
 70
     1
102
RTVSPropertyOp0
 70
     1
102
RTVSPropertyOp1
 70
     1
102
RTVSPropertyOp2
 70
     1
102
RTVSPropertyOp3
 70
     1
102
RTVSPropertyOp4
 70
     1
102
RTVSPropertyOp5
 70
     1
102
RTVSPropertyOp6
 70
     1
102
RTVSPropertyOp7
 70
     1
102
RTVSPropertyOp8
 70
     1
102
RTVSPropertyOp9
 70
     1
102
RTVSPropertyOp10
 70
     1
102
RTVSPropertyOp11
 70
     1
102
RTVSPropertyOp12
 70
     1
102
RTVSPropertyOp13
 70
     1
102
RTVSPropertyOp14
 70
     1
102
RTVSPropertyOp15
 70
     1
102
RTVSPropertyOp16
 70
     1
102
RTVSPropertyOp17
 70
     1
102
RTVSPropertyOp18
 70
     1
102
RTVSPropertyOp19
 70
     1
102
RTVSPropertyOp20
 70
     1
102
RTVSPropertyOp21
 70
     1
102
RTVSPropertyOp22
 70
     1
102
RTVSPropertyOp23
 70
     1
102
RTVSPropertyOp24
 70
     1
102
RTVSPropertyOp25
 70
     1
102
RTVSPropertyOp26
 70
     1
102
RTVSPropertyOp27
 70
     1
102
RTVSPropertyOp28
 70
     1
102
RTVSPropertyOp29
 70
     1
102
RTVSPropertyOp30
 70
     1
102
RTVSPropertyOp31
 70
     1
102
RTVSPropertyOp32
 70
     1
102
RTVSPropertyOp33
 70
     1
102
RTVSPropertyOp34
 70
     1
102
RTVSPropertyOp35
 70
     1
102
RTVSPropertyOp36
 70
     1
102
RTVSPropertyOp37
 70
     1
102
RTVSPropertyOp38
 70
     1
102
RTVSPropertyOp39
 70
     1
102
RTVSPropertyOp40
 70
     1
102
RTVSPropertyOp41
 70
     1
102
RTVSPropertyOp42
 70
     1
102
RTVSPropertyOp43
 70
     1
102
RTVSPropertyOp44
 70
     1
102
RTVSPropertyOp45
 70
     1
102
RTVSPropertyOp46
 70
     1
102
RTVSPropertyOp47
 70
     1
102
RTVSPropertyOp48
 70
     1
102
RTVSPropertyOp49
 70
     1
102
RTVSPropertyOp50
 70
     1
102
RTVSPropertyOp51
 70
     0
102
RTVSPropertyOp52
 70
     0
102
RTVSPropertyOp53
 70
     1
102
RTVSPropertyOp54
 70
     1
102
RTVSPropertyOp55
 70
     1
102
RTVSPropertyOp56
 70
     1
102
RTVSPropertyOp57
 70
     1
102
RTVSPropertyOp58
 70
     1
102
RTVSPropertyOp59
 70
     1
102
RTVSPropertyOp60
 70
     1
102
RTVSPropertyOp61
 70
     1
102
RTVSPropertyOp62
 70
     1
  0
XRECORD
  5
1CD7
102
{ACAD_REACTORS
330
1CD6
102
}
330
1CD6
100
AcDbXrecord
280
     1
102
RTVSPost2010Prop28
280
     0
102
RTVSPost2010PropOp28
 70
     1
102
RTVSPost2010Prop29
280
     1
102
RTVSPost2010PropOp29
 70
     1
102
RTVSPost2010Prop30
280
     1
102
RTVSPost2010PropOp30
 70
     1
102
RTVSPost2010Prop31
280
     0
102
RTVSPost2010PropOp31
 70
     1
102
RTVSPost2010Prop32
280
     0
102
RTVSPost2010PropOp32
 70
     1
102
RTVSPost2010Prop33
280
     0
102
RTVSPost2010PropOp33
 70
     1
102
RTVSPost2010Prop34
280
     0
102
RTVSPost2010PropOp34
 70
     1
102
RTVSPost2010Prop35
280
     0
102
RTVSPost2010PropOp35
 70
     1
102
RTVSPost2010Prop36
280
     0
102
RTVSPost2010PropOp36
 70
     1
102
RTVSPost2010Prop37
 90
       50
102
RTVSPost2010PropOp37
 70
     1
102
RTVSPost2010Prop38
140
0.0
102
RTVSPost2010PropOp38
 70
     1
102
RTVSPost2010Prop39
140
1.0
102
RTVSPost2010PropOp39
 70
     1
102
RTVSPost2010Prop40
 90
        0
102
RTVSPost2010PropOp40
 70
     1
102
RTVSPost2010Prop41ColorIndex
 90
       18
102
RTVSPost2010Prop41ColorRGB
 90
-16777216
102
RTVSPost2010PropOp41
 70
     1
102
RTVSPost2010Prop42
 90
       50
102
RTVSPost2010PropOp42
 70
     1
102
RTVSPost2010Prop43
 90
        3
102
RTVSPost2010PropOp43
 70
     1
102
RTVSPost2010Prop44ColorIndex
 90
        5
102
RTVSPost2010Prop44ColorRGB
 90
      255
102
RTVSPost2010PropOp44
 70
     1
102
RTVSPost2010Prop45
280
     0
102
RTVSPost2010PropOp45
 70
     1
102
RTVSPost2010Prop46
 90
       50
102
RTVSPost2010PropOp46
 70
     1
102
RTVSPost2010Prop47
 90
       50
102
RTVSPost2010PropOp47
 70
     1
102
RTVSPost2010Prop48
 90
       50
102
RTVSPost2010PropOp48
 70
     1
102
RTVSPost2010Prop49
280
     0
102
RTVSPost2010PropOp49
 70
     1
102
RTVSPost2010Prop50
 90
       50
102
RTVSPost2010PropOp50
 70
     1
102
RTVSPost2010Prop51ColorIndex
 90
      256
102
RTVSPost2010Prop51ColorRGB
 90
-16777216
102
RTVSPost2010PropOp51
 70
     0
102
RTVSPost2010Prop52
140
1.0
102
RTVSPost2010PropOp52
 70
     0
102
RTVSPost2010Prop53
 90
        2
102
RTVSPost2010PropOp53
 70
     1
102
RTVSPost2010Prop54
  1
strokes_ogs.tif
102
RTVSPost2010PropOp54
 70
     1
102
RTVSPost2010Prop55
280
     0
102
RTVSPost2010PropOp55
 70
     1
102
RTVSPost2010Prop56
140
1.0
102
RTVSPost2010PropOp56
 70
     1
102
RTVSPost2010Prop57
140
1.0
102
RTVSPost2010PropOp57
 70
     1
102
RTVSPropertyOp0
 70
     1
102
RTVSPropertyOp1
 70
     1
102
RTVSPropertyOp2
 70
     1
102
RTVSPropertyOp3
 70
     1
102
RTVSPropertyOp4
 70
     1
102
RTVSPropertyOp5
 70
     1
102
RTVSPropertyOp6
 70
     1
102
RTVSPropertyOp7
 70
     1
102
RTVSPropertyOp8
 70
     1
102
RTVSPropertyOp9
 70
     1
102
RTVSPropertyOp10
 70
     1
102
RTVSPropertyOp11
 70
     1
102
RTVSPropertyOp12
 70
     1
102
RTVSPropertyOp13
 70
     1
102
RTVSPropertyOp14
 70
     1
102
RTVSPropertyOp15
 70
     1
102
RTVSPropertyOp16
 70
     1
102
RTVSPropertyOp17
 70
     1
102
RTVSPropertyOp18
 70
     1
102
RTVSPropertyOp19
 70
     1
102
RTVSPropertyOp20
 70
     1
102
RTVSPropertyOp21
 70
     1
102
RTVSPropertyOp22
 70
     1
102
RTVSPropertyOp23
 70
     1
102
RTVSPropertyOp24
 70
     1
102
RTVSPropertyOp25
 70
     1
102
RTVSPropertyOp26
 70
     1
102
RTVSPropertyOp27
 70
     1
102
RTVSPropertyOp28
 70
     1
102
RTVSPropertyOp29
 70
     1
102
RTVSPropertyOp30
 70
     1
102
RTVSPropertyOp31
 70
     1
102
RTVSPropertyOp32
 70
     1
102
RTVSPropertyOp33
 70
     1
102
RTVSPropertyOp34
 70
     1
102
RTVSPropertyOp35
 70
     1
102
RTVSPropertyOp36
 70
     1
102
RTVSPropertyOp37
 70
     1
102
RTVSPropertyOp38
 70
     1
102
RTVSPropertyOp39
 70
     1
102
RTVSPropertyOp40
 70
     1
102
RTVSPropertyOp41
 70
     1
102
RTVSPropertyOp42
 70
     1
102
RTVSPropertyOp43
 70
     1
102
RTVSPropertyOp44
 70
     1
102
RTVSPropertyOp45
 70
     1
102
RTVSPropertyOp46
 70
     1
102
RTVSPropertyOp47
 70
     1
102
RTVSPropertyOp48
 70
     1
102
RTVSPropertyOp49
 70
     1
102
RTVSPropertyOp50
 70
     1
102
RTVSPropertyOp51
 70
     0
102
RTVSPropertyOp52
 70
     0
102
RTVSPropertyOp53
 70
     1
102
RTVSPropertyOp54
 70
     1
102
RTVSPropertyOp55
 70
     1
102
RTVSPropertyOp56
 70
     1
102
RTVSPropertyOp57
 70
     1
102
RTVSPropertyOp58
 70
     1
102
RTVSPropertyOp59
 70
     1
102
RTVSPropertyOp60
 70
     1
102
RTVSPropertyOp61
 70
     1
102
RTVSPropertyOp62
 70
     1
  0
XRECORD
  5
1CD9
102
{ACAD_REACTORS
330
1CD8
102
}
330
1CD8
100
AcDbXrecord
280
     1
102
RTVSPost2010Prop28
280
     0
102
RTVSPost2010PropOp28
 70
     1
102
RTVSPost2010Prop29
280
     1
102
RTVSPost2010PropOp29
 70
     1
102
RTVSPost2010Prop30
280
     1
102
RTVSPost2010PropOp30
 70
     1
102
RTVSPost2010Prop31
280
     0
102
RTVSPost2010PropOp31
 70
     1
102
RTVSPost2010Prop32
280
     0
102
RTVSPost2010PropOp32
 70
     1
102
RTVSPost2010Prop33
280
     0
102
RTVSPost2010PropOp33
 70
     1
102
RTVSPost2010Prop34
280
     0
102
RTVSPost2010PropOp34
 70
     1
102
RTVSPost2010Prop35
280
     0
102
RTVSPost2010PropOp35
 70
     1
102
RTVSPost2010Prop36
280
     0
102
RTVSPost2010PropOp36
 70
     1
102
RTVSPost2010Prop37
 90
       50
102
RTVSPost2010PropOp37
 70
     1
102
RTVSPost2010Prop38
140
0.0
102
RTVSPost2010PropOp38
 70
     1
102
RTVSPost2010Prop39
140
1.0
102
RTVSPost2010PropOp39
 70
     1
102
RTVSPost2010Prop40
 90
        0
102
RTVSPost2010PropOp40
 70
     1
102
RTVSPost2010Prop41ColorIndex
 90
       18
102
RTVSPost2010Prop41ColorRGB
 90
-16777216
102
RTVSPost2010PropOp41
 70
     1
102
RTVSPost2010Prop42
 90
       50
102
RTVSPost2010PropOp42
 70
     1
102
RTVSPost2010Prop43
 90
        3
102
RTVSPost2010PropOp43
 70
     1
102
RTVSPost2010Prop44ColorIndex
 90
        5
102
RTVSPost2010Prop44ColorRGB
 90
      255
102
RTVSPost2010PropOp44
 70
     1
102
RTVSPost2010Prop45
280
     0
102
RTVSPost2010PropOp45
 70
     1
102
RTVSPost2010Prop46
 90
       50
102
RTVSPost2010PropOp46
 70
     1
102
RTVSPost2010Prop47
 90
       50
102
RTVSPost2010PropOp47
 70
     1
102
RTVSPost2010Prop48
 90
       50
102
RTVSPost2010PropOp48
 70
     1
102
RTVSPost2010Prop49
280
     0
102
RTVSPost2010PropOp49
 70
     1
102
RTVSPost2010Prop50
 90
       50
102
RTVSPost2010PropOp50
 70
     1
102
RTVSPost2010Prop51ColorIndex
 90
      256
102
RTVSPost2010Prop51ColorRGB
 90
-16777216
102
RTVSPost2010PropOp51
 70
     0
102
RTVSPost2010Prop52
140
1.0
102
RTVSPost2010PropOp52
 70
     0
102
RTVSPost2010Prop53
 90
        2
102
RTVSPost2010PropOp53
 70
     1
102
RTVSPost2010Prop54
  1
strokes_ogs.tif
102
RTVSPost2010PropOp54
 70
     1
102
RTVSPost2010Prop55
280
     0
102
RTVSPost2010PropOp55
 70
     1
102
RTVSPost2010Prop56
140
1.0
102
RTVSPost2010PropOp56
 70
     1
102
RTVSPost2010Prop57
140
1.0
102
RTVSPost2010PropOp57
 70
     1
102
RTVSPropertyOp0
 70
     1
102
RTVSPropertyOp1
 70
     1
102
RTVSPropertyOp2
 70
     1
102
RTVSPropertyOp3
 70
     1
102
RTVSPropertyOp4
 70
     1
102
RTVSPropertyOp5
 70
     1
102
RTVSPropertyOp6
 70
     1
102
RTVSPropertyOp7
 70
     1
102
RTVSPropertyOp8
 70
     1
102
RTVSPropertyOp9
 70
     1
102
RTVSPropertyOp10
 70
     1
102
RTVSPropertyOp11
 70
     1
102
RTVSPropertyOp12
 70
     1
102
RTVSPropertyOp13
 70
     1
102
RTVSPropertyOp14
 70
     1
102
RTVSPropertyOp15
 70
     1
102
RTVSPropertyOp16
 70
     1
102
RTVSPropertyOp17
 70
     1
102
RTVSPropertyOp18
 70
     1
102
RTVSPropertyOp19
 70
     1
102
RTVSPropertyOp20
 70
     1
102
RTVSPropertyOp21
 70
     1
102
RTVSPropertyOp22
 70
     1
102
RTVSPropertyOp23
 70
     1
102
RTVSPropertyOp24
 70
     1
102
RTVSPropertyOp25
 70
     1
102
RTVSPropertyOp26
 70
     1
102
RTVSPropertyOp27
 70
     1
102
RTVSPropertyOp28
 70
     1
102
RTVSPropertyOp29
 70
     1
102
RTVSPropertyOp30
 70
     1
102
RTVSPropertyOp31
 70
     1
102
RTVSPropertyOp32
 70
     1
102
RTVSPropertyOp33
 70
     1
102
RTVSPropertyOp34
 70
     1
102
RTVSPropertyOp35
 70
     1
102
RTVSPropertyOp36
 70
     1
102
RTVSPropertyOp37
 70
     1
102
RTVSPropertyOp38
 70
     1
102
RTVSPropertyOp39
 70
     1
102
RTVSPropertyOp40
 70
     1
102
RTVSPropertyOp41
 70
     1
102
RTVSPropertyOp42
 70
     1
102
RTVSPropertyOp43
 70
     1
102
RTVSPropertyOp44
 70
     1
102
RTVSPropertyOp45
 70
     1
102
RTVSPropertyOp46
 70
     1
102
RTVSPropertyOp47
 70
     1
102
RTVSPropertyOp48
 70
     1
102
RTVSPropertyOp49
 70
     1
102
RTVSPropertyOp50
 70
     1
102
RTVSPropertyOp51
 70
     0
102
RTVSPropertyOp52
 70
     0
102
RTVSPropertyOp53
 70
     1
102
RTVSPropertyOp54
 70
     1
102
RTVSPropertyOp55
 70
     1
102
RTVSPropertyOp56
 70
     1
102
RTVSPropertyOp57
 70
     1
102
RTVSPropertyOp58
 70
     1
102
RTVSPropertyOp59
 70
     1
102
RTVSPropertyOp60
 70
     1
102
RTVSPropertyOp61
 70
     1
102
RTVSPropertyOp62
 70
     1
  0
XRECORD
  5
1CCF
102
{ACAD_REACTORS
330
1CCE
102
}
330
1CCE
100
AcDbXrecord
280
     1
102
RTVSPost2010Prop28
280
     0
102
RTVSPost2010PropOp28
 70
     1
102
RTVSPost2010Prop29
280
     1
102
RTVSPost2010PropOp29
 70
     1
102
RTVSPost2010Prop30
280
     1
102
RTVSPost2010PropOp30
 70
     1
102
RTVSPost2010Prop31
280
     0
102
RTVSPost2010PropOp31
 70
     1
102
RTVSPost2010Prop32
280
     0
102
RTVSPost2010PropOp32
 70
     1
102
RTVSPost2010Prop33
280
     0
102
RTVSPost2010PropOp33
 70
     1
102
RTVSPost2010Prop34
280
     0
102
RTVSPost2010PropOp34
 70
     1
102
RTVSPost2010Prop35
280
     0
102
RTVSPost2010PropOp35
 70
     1
102
RTVSPost2010Prop36
280
     0
102
RTVSPost2010PropOp36
 70
     1
102
RTVSPost2010Prop37
 90
       50
102
RTVSPost2010PropOp37
 70
     1
102
RTVSPost2010Prop38
140
0.0
102
RTVSPost2010PropOp38
 70
     1
102
RTVSPost2010Prop39
140
1.0
102
RTVSPost2010PropOp39
 70
     1
102
RTVSPost2010Prop40
 90
        0
102
RTVSPost2010PropOp40
 70
     1
102
RTVSPost2010Prop41ColorIndex
 90
       18
102
RTVSPost2010Prop41ColorRGB
 90
-16777216
102
RTVSPost2010PropOp41
 70
     1
102
RTVSPost2010Prop42
 90
       50
102
RTVSPost2010PropOp42
 70
     1
102
RTVSPost2010Prop43
 90
        3
102
RTVSPost2010PropOp43
 70
     1
102
RTVSPost2010Prop44ColorIndex
 90
        5
102
RTVSPost2010Prop44ColorRGB
 90
      255
102
RTVSPost2010PropOp44
 70
     1
102
RTVSPost2010Prop45
280
     0
102
RTVSPost2010PropOp45
 70
     1
102
RTVSPost2010Prop46
 90
       50
102
RTVSPost2010PropOp46
 70
     1
102
RTVSPost2010Prop47
 90
       50
102
RTVSPost2010PropOp47
 70
     1
102
RTVSPost2010Prop48
 90
       50
102
RTVSPost2010PropOp48
 70
     1
102
RTVSPost2010Prop49
280
     0
102
RTVSPost2010PropOp49
 70
     1
102
RTVSPost2010Prop50
 90
       50
102
RTVSPost2010PropOp50
 70
     1
102
RTVSPost2010Prop51ColorIndex
 90
      256
102
RTVSPost2010Prop51ColorRGB
 90
-16777216
102
RTVSPost2010PropOp51
 70
     0
102
RTVSPost2010Prop52
140
1.0
102
RTVSPost2010PropOp52
 70
     0
102
RTVSPost2010Prop53
 90
        2
102
RTVSPost2010PropOp53
 70
     1
102
RTVSPost2010Prop54
  1
strokes_ogs.tif
102
RTVSPost2010PropOp54
 70
     1
102
RTVSPost2010Prop55
280
     0
102
RTVSPost2010PropOp55
 70
     1
102
RTVSPost2010Prop56
140
1.0
102
RTVSPost2010PropOp56
 70
     1
102
RTVSPost2010Prop57
140
1.0
102
RTVSPost2010PropOp57
 70
     1
102
RTVSPropertyOp0
 70
     1
102
RTVSPropertyOp1
 70
     1
102
RTVSPropertyOp2
 70
     1
102
RTVSPropertyOp3
 70
     1
102
RTVSPropertyOp4
 70
     1
102
RTVSPropertyOp5
 70
     1
102
RTVSPropertyOp6
 70
     1
102
RTVSPropertyOp7
 70
     1
102
RTVSPropertyOp8
 70
     1
102
RTVSPropertyOp9
 70
     1
102
RTVSPropertyOp10
 70
     1
102
RTVSPropertyOp11
 70
     1
102
RTVSPropertyOp12
 70
     1
102
RTVSPropertyOp13
 70
     1
102
RTVSPropertyOp14
 70
     1
102
RTVSPropertyOp15
 70
     1
102
RTVSPropertyOp16
 70
     1
102
RTVSPropertyOp17
 70
     1
102
RTVSPropertyOp18
 70
     1
102
RTVSPropertyOp19
 70
     1
102
RTVSPropertyOp20
 70
     1
102
RTVSPropertyOp21
 70
     1
102
RTVSPropertyOp22
 70
     1
102
RTVSPropertyOp23
 70
     1
102
RTVSPropertyOp24
 70
     1
102
RTVSPropertyOp25
 70
     1
102
RTVSPropertyOp26
 70
     1
102
RTVSPropertyOp27
 70
     1
102
RTVSPropertyOp28
 70
     1
102
RTVSPropertyOp29
 70
     1
102
RTVSPropertyOp30
 70
     1
102
RTVSPropertyOp31
 70
     1
102
RTVSPropertyOp32
 70
     1
102
RTVSPropertyOp33
 70
     1
102
RTVSPropertyOp34
 70
     1
102
RTVSPropertyOp35
 70
     1
102
RTVSPropertyOp36
 70
     1
102
RTVSPropertyOp37
 70
     1
102
RTVSPropertyOp38
 70
     1
102
RTVSPropertyOp39
 70
     1
102
RTVSPropertyOp40
 70
     1
102
RTVSPropertyOp41
 70
     1
102
RTVSPropertyOp42
 70
     1
102
RTVSPropertyOp43
 70
     1
102
RTVSPropertyOp44
 70
     1
102
RTVSPropertyOp45
 70
     1
102
RTVSPropertyOp46
 70
     1
102
RTVSPropertyOp47
 70
     1
102
RTVSPropertyOp48
 70
     1
102
RTVSPropertyOp49
 70
     1
102
RTVSPropertyOp50
 70
     1
102
RTVSPropertyOp51
 70
     0
102
RTVSPropertyOp52
 70
     0
102
RTVSPropertyOp53
 70
     1
102
RTVSPropertyOp54
 70
     1
102
RTVSPropertyOp55
 70
     1
102
RTVSPropertyOp56
 70
     1
102
RTVSPropertyOp57
 70
     1
102
RTVSPropertyOp58
 70
     1
102
RTVSPropertyOp59
 70
     1
102
RTVSPropertyOp60
 70
     1
102
RTVSPropertyOp61
 70
     1
102
RTVSPropertyOp62
 70
     1
  0
XRECORD
  5
1CC3
102
{ACAD_REACTORS
330
1CC2
102
}
330
1CC2
100
AcDbXrecord
280
     1
102
RTVSPost2010Prop28
280
     0
102
RTVSPost2010PropOp28
 70
     1
102
RTVSPost2010Prop29
280
     1
102
RTVSPost2010PropOp29
 70
     1
102
RTVSPost2010Prop30
280
     1
102
RTVSPost2010PropOp30
 70
     1
102
RTVSPost2010Prop31
280
     0
102
RTVSPost2010PropOp31
 70
     1
102
RTVSPost2010Prop32
280
     0
102
RTVSPost2010PropOp32
 70
     1
102
RTVSPost2010Prop33
280
     0
102
RTVSPost2010PropOp33
 70
     1
102
RTVSPost2010Prop34
280
     0
102
RTVSPost2010PropOp34
 70
     1
102
RTVSPost2010Prop35
280
     0
102
RTVSPost2010PropOp35
 70
     1
102
RTVSPost2010Prop36
280
     0
102
RTVSPost2010PropOp36
 70
     1
102
RTVSPost2010Prop37
 90
       50
102
RTVSPost2010PropOp37
 70
     1
102
RTVSPost2010Prop38
140
0.0
102
RTVSPost2010PropOp38
 70
     1
102
RTVSPost2010Prop39
140
1.0
102
RTVSPost2010PropOp39
 70
     1
102
RTVSPost2010Prop40
 90
        0
102
RTVSPost2010PropOp40
 70
     1
102
RTVSPost2010Prop41ColorIndex
 90
       18
102
RTVSPost2010Prop41ColorRGB
 90
-16777216
102
RTVSPost2010PropOp41
 70
     1
102
RTVSPost2010Prop42
 90
       50
102
RTVSPost2010PropOp42
 70
     1
102
RTVSPost2010Prop43
 90
        3
102
RTVSPost2010PropOp43
 70
     1
102
RTVSPost2010Prop44ColorIndex
 90
        5
102
RTVSPost2010Prop44ColorRGB
 90
      255
102
RTVSPost2010PropOp44
 70
     1
102
RTVSPost2010Prop45
280
     0
102
RTVSPost2010PropOp45
 70
     1
102
RTVSPost2010Prop46
 90
       50
102
RTVSPost2010PropOp46
 70
     1
102
RTVSPost2010Prop47
 90
       50
102
RTVSPost2010PropOp47
 70
     1
102
RTVSPost2010Prop48
 90
       50
102
RTVSPost2010PropOp48
 70
     1
102
RTVSPost2010Prop49
280
     0
102
RTVSPost2010PropOp49
 70
     1
102
RTVSPost2010Prop50
 90
       50
102
RTVSPost2010PropOp50
 70
     1
102
RTVSPost2010Prop51ColorIndex
 90
      256
102
RTVSPost2010Prop51ColorRGB
 90
-16777216
102
RTVSPost2010PropOp51
 70
     0
102
RTVSPost2010Prop52
140
1.0
102
RTVSPost2010PropOp52
 70
     0
102
RTVSPost2010Prop53
 90
        2
102
RTVSPost2010PropOp53
 70
     1
102
RTVSPost2010Prop54
  1
strokes_ogs.tif
102
RTVSPost2010PropOp54
 70
     1
102
RTVSPost2010Prop55
280
     0
102
RTVSPost2010PropOp55
 70
     1
102
RTVSPost2010Prop56
140
1.0
102
RTVSPost2010PropOp56
 70
     1
102
RTVSPost2010Prop57
140
1.0
102
RTVSPost2010PropOp57
 70
     1
102
RTVSPropertyOp0
 70
     1
102
RTVSPropertyOp1
 70
     1
102
RTVSPropertyOp2
 70
     1
102
RTVSPropertyOp3
 70
     1
102
RTVSPropertyOp4
 70
     1
102
RTVSPropertyOp5
 70
     1
102
RTVSPropertyOp6
 70
     1
102
RTVSPropertyOp7
 70
     1
102
RTVSPropertyOp8
 70
     1
102
RTVSPropertyOp9
 70
     1
102
RTVSPropertyOp10
 70
     1
102
RTVSPropertyOp11
 70
     1
102
RTVSPropertyOp12
 70
     1
102
RTVSPropertyOp13
 70
     1
102
RTVSPropertyOp14
 70
     1
102
RTVSPropertyOp15
 70
     1
102
RTVSPropertyOp16
 70
     1
102
RTVSPropertyOp17
 70
     1
102
RTVSPropertyOp18
 70
     1
102
RTVSPropertyOp19
 70
     1
102
RTVSPropertyOp20
 70
     1
102
RTVSPropertyOp21
 70
     1
102
RTVSPropertyOp22
 70
     1
102
RTVSPropertyOp23
 70
     1
102
RTVSPropertyOp24
 70
     1
102
RTVSPropertyOp25
 70
     1
102
RTVSPropertyOp26
 70
     1
102
RTVSPropertyOp27
 70
     1
102
RTVSPropertyOp28
 70
     1
102
RTVSPropertyOp29
 70
     1
102
RTVSPropertyOp30
 70
     1
102
RTVSPropertyOp31
 70
     1
102
RTVSPropertyOp32
 70
     1
102
RTVSPropertyOp33
 70
     1
102
RTVSPropertyOp34
 70
     1
102
RTVSPropertyOp35
 70
     1
102
RTVSPropertyOp36
 70
     1
102
RTVSPropertyOp37
 70
     1
102
RTVSPropertyOp38
 70
     1
102
RTVSPropertyOp39
 70
     1
102
RTVSPropertyOp40
 70
     1
102
RTVSPropertyOp41
 70
     1
102
RTVSPropertyOp42
 70
     1
102
RTVSPropertyOp43
 70
     1
102
RTVSPropertyOp44
 70
     1
102
RTVSPropertyOp45
 70
     1
102
RTVSPropertyOp46
 70
     1
102
RTVSPropertyOp47
 70
     1
102
RTVSPropertyOp48
 70
     1
102
RTVSPropertyOp49
 70
     1
102
RTVSPropertyOp50
 70
     1
102
RTVSPropertyOp51
 70
     0
102
RTVSPropertyOp52
 70
     0
102
RTVSPropertyOp53
 70
     1
102
RTVSPropertyOp54
 70
     1
102
RTVSPropertyOp55
 70
     1
102
RTVSPropertyOp56
 70
     1
102
RTVSPropertyOp57
 70
     1
102
RTVSPropertyOp58
 70
     1
102
RTVSPropertyOp59
 70
     1
102
RTVSPropertyOp60
 70
     1
102
RTVSPropertyOp61
 70
     1
102
RTVSPropertyOp62
 70
     1
  0
XRECORD
  5
1CDB
102
{ACAD_REACTORS
330
1CDA
102
}
330
1CDA
100
AcDbXrecord
280
     1
102
RTVSPost2010Prop28
280
     0
102
RTVSPost2010PropOp28
 70
     1
102
RTVSPost2010Prop29
280
     1
102
RTVSPost2010PropOp29
 70
     1
102
RTVSPost2010Prop30
280
     1
102
RTVSPost2010PropOp30
 70
     1
102
RTVSPost2010Prop31
280
     0
102
RTVSPost2010PropOp31
 70
     1
102
RTVSPost2010Prop32
280
     0
102
RTVSPost2010PropOp32
 70
     1
102
RTVSPost2010Prop33
280
     0
102
RTVSPost2010PropOp33
 70
     1
102
RTVSPost2010Prop34
280
     0
102
RTVSPost2010PropOp34
 70
     1
102
RTVSPost2010Prop35
280
     0
102
RTVSPost2010PropOp35
 70
     1
102
RTVSPost2010Prop36
280
     0
102
RTVSPost2010PropOp36
 70
     1
102
RTVSPost2010Prop37
 90
       50
102
RTVSPost2010PropOp37
 70
     1
102
RTVSPost2010Prop38
140
0.0
102
RTVSPost2010PropOp38
 70
     1
102
RTVSPost2010Prop39
140
1.0
102
RTVSPost2010PropOp39
 70
     1
102
RTVSPost2010Prop40
 90
        0
102
RTVSPost2010PropOp40
 70
     1
102
RTVSPost2010Prop41ColorIndex
 90
       18
102
RTVSPost2010Prop41ColorRGB
 90
-16777216
102
RTVSPost2010PropOp41
 70
     1
102
RTVSPost2010Prop42
 90
       50
102
RTVSPost2010PropOp42
 70
     1
102
RTVSPost2010Prop43
 90
        3
102
RTVSPost2010PropOp43
 70
     1
102
RTVSPost2010Prop44ColorIndex
 90
        5
102
RTVSPost2010Prop44ColorRGB
 90
      255
102
RTVSPost2010PropOp44
 70
     1
102
RTVSPost2010Prop45
280
     0
102
RTVSPost2010PropOp45
 70
     1
102
RTVSPost2010Prop46
 90
       50
102
RTVSPost2010PropOp46
 70
     1
102
RTVSPost2010Prop47
 90
       50
102
RTVSPost2010PropOp47
 70
     1
102
RTVSPost2010Prop48
 90
       50
102
RTVSPost2010PropOp48
 70
     1
102
RTVSPost2010Prop49
280
     0
102
RTVSPost2010PropOp49
 70
     1
102
RTVSPost2010Prop50
 90
       50
102
RTVSPost2010PropOp50
 70
     1
102
RTVSPost2010Prop51ColorIndex
 90
      256
102
RTVSPost2010Prop51ColorRGB
 90
-16777216
102
RTVSPost2010PropOp51
 70
     0
102
RTVSPost2010Prop52
140
1.0
102
RTVSPost2010PropOp52
 70
     0
102
RTVSPost2010Prop53
 90
        2
102
RTVSPost2010PropOp53
 70
     1
102
RTVSPost2010Prop54
  1
strokes_ogs.tif
102
RTVSPost2010PropOp54
 70
     1
102
RTVSPost2010Prop55
280
     0
102
RTVSPost2010PropOp55
 70
     1
102
RTVSPost2010Prop56
140
1.0
102
RTVSPost2010PropOp56
 70
     1
102
RTVSPost2010Prop57
140
1.0
102
RTVSPost2010PropOp57
 70
     1
102
RTVSPropertyOp0
 70
     1
102
RTVSPropertyOp1
 70
     1
102
RTVSPropertyOp2
 70
     1
102
RTVSPropertyOp3
 70
     1
102
RTVSPropertyOp4
 70
     1
102
RTVSPropertyOp5
 70
     1
102
RTVSPropertyOp6
 70
     1
102
RTVSPropertyOp7
 70
     1
102
RTVSPropertyOp8
 70
     1
102
RTVSPropertyOp9
 70
     1
102
RTVSPropertyOp10
 70
     1
102
RTVSPropertyOp11
 70
     1
102
RTVSPropertyOp12
 70
     1
102
RTVSPropertyOp13
 70
     1
102
RTVSPropertyOp14
 70
     1
102
RTVSPropertyOp15
 70
     1
102
RTVSPropertyOp16
 70
     1
102
RTVSPropertyOp17
 70
     1
102
RTVSPropertyOp18
 70
     1
102
RTVSPropertyOp19
 70
     1
102
RTVSPropertyOp20
 70
     1
102
RTVSPropertyOp21
 70
     1
102
RTVSPropertyOp22
 70
     1
102
RTVSPropertyOp23
 70
     1
102
RTVSPropertyOp24
 70
     1
102
RTVSPropertyOp25
 70
     1
102
RTVSPropertyOp26
 70
     1
102
RTVSPropertyOp27
 70
     1
102
RTVSPropertyOp28
 70
     1
102
RTVSPropertyOp29
 70
     1
102
RTVSPropertyOp30
 70
     1
102
RTVSPropertyOp31
 70
     1
102
RTVSPropertyOp32
 70
     1
102
RTVSPropertyOp33
 70
     1
102
RTVSPropertyOp34
 70
     1
102
RTVSPropertyOp35
 70
     1
102
RTVSPropertyOp36
 70
     1
102
RTVSPropertyOp37
 70
     1
102
RTVSPropertyOp38
 70
     1
102
RTVSPropertyOp39
 70
     1
102
RTVSPropertyOp40
 70
     1
102
RTVSPropertyOp41
 70
     1
102
RTVSPropertyOp42
 70
     1
102
RTVSPropertyOp43
 70
     1
102
RTVSPropertyOp44
 70
     1
102
RTVSPropertyOp45
 70
     1
102
RTVSPropertyOp46
 70
     1
102
RTVSPropertyOp47
 70
     1
102
RTVSPropertyOp48
 70
     1
102
RTVSPropertyOp49
 70
     1
102
RTVSPropertyOp50
 70
     1
102
RTVSPropertyOp51
 70
     0
102
RTVSPropertyOp52
 70
     0
102
RTVSPropertyOp53
 70
     1
102
RTVSPropertyOp54
 70
     1
102
RTVSPropertyOp55
 70
     1
102
RTVSPropertyOp56
 70
     1
102
RTVSPropertyOp57
 70
     1
102
RTVSPropertyOp58
 70
     1
102
RTVSPropertyOp59
 70
     1
102
RTVSPropertyOp60
 70
     1
102
RTVSPropertyOp61
 70
     1
102
RTVSPropertyOp62
 70
     1
  0
ENDSEC
  0
EOF
