  0
SECTION
  2
HEADER
  9
$ACADVER
  1
AC1018
  9
$ACADMAINTVER
 70
   104
  9
$DWGCODEPAGE
  3
ANSI_932
  9
$LASTSAVEDBY
  1
SERIZAH
  9
$INSBASE
 10
0.0
 20
0.0
 30
0.0
  9
$EXTMIN
 10
-1980.0
 20
-1980.000000000001
 30
0.0
  9
$EXTMAX
 10
2751.45372322142
 20
2020.0
 30
0.0
  9
$LIMMIN
 10
-1384.451703750524
 20
-1473.73925801703
  9
$LIMMAX
 10
1763.167591875864
 20
1160.340322739995
  9
$ORTHOMODE
 70
     0
  9
$REGENMODE
 70
     0
  9
$FILLMODE
 70
     1
  9
$QTEXTMODE
 70
     0
  9
$MIRRTEXT
 70
     0
  9
$LTSCALE
 40
20.0
  9
$ATTMODE
 70
     1
  9
$TEXTSIZE
 40
64.0
  9
$TRACEWID
 40
0.05
  9
$TEXTSTYLE
  7
ME08
  9
$CLAYER
  8
SIZE
  9
$CELTYPE
  6
BYLAYER
  9
$CECOLOR
 62
   256
  9
$CELTSCALE
 40
1.0
  9
$DISPSILH
 70
     0
  9
$DIMSCALE
 40
1.0
  9
$DIMASZ
 40
10.0
  9
$DIMEXO
 40
10.0
  9
$DIMDLI
 40
100.0
  9
$DIMRND
 40
0.0
  9
$DIMDLE
 40
0.0
  9
$DIMEXE
 40
10.0
  9
$DIMTP
 40
0.0
  9
$DIMTM
 40
0.0
  9
$DIMTXT
 40
45.0
  9
$DIMCEN
 40
0.09
  9
$DIMTSZ
 40
0.0
  9
$DIMTOL
 70
     0
  9
$DIMLIM
 70
     0
  9
$DIMTIH
 70
     0
  9
$DIMTOH
 70
     0
  9
$DIMSE1
 70
     0
  9
$DIMSE2
 70
     0
  9
$DIMTAD
 70
     1
  9
$DIMZIN
 70
     8
  9
$DIMBLK
  1
Origin
  9
$DIMASO
 70
     1
  9
$DIMSHO
 70
     0
  9
$DIMPOST
  1

  9
$DIMAPOST
  1

  9
$DIMALT
 70
     0
  9
$DIMALTD
 70
     2
  9
$DIMALTF
 40
25.4
  9
$DIMLFAC
 40
1.0
  9
$DIMTOFL
 70
     1
  9
$DIMTVP
 40
0.0
  9
$DIMTIX
 70
     0
  9
$DIMSOXD
 70
     0
  9
$DIMSAH
 70
     0
  9
$DIMBLK1
  1

  9
$DIMBLK2
  1

  9
$DIMSTYLE
  2
STANDARD_ME08
  9
$DIMCLRD
 70
     0
  9
$DIMCLRE
 70
     0
  9
$DIMCLRT
 70
     0
  9
$DIMTFAC
 40
1.0
  9
$DIMGAP
 40
10.0
  9
$DIMJUST
 70
     0
  9
$DIMSD1
 70
     0
  9
$DIMSD2
 70
     0
  9
$DIMTOLJ
 70
     1
  9
$DIMTZIN
 70
     0
  9
$DIMALTZ
 70
     0
  9
$DIMALTTZ
 70
     0
  9
$DIMUPT
 70
     0
  9
$DIMDEC
 70
     2
  9
$DIMTDEC
 70
     2
  9
$DIMALTU
 70
     2
  9
$DIMALTTD
 70
     2
  9
$DIMTXSTY
  7
ME08
  9
$DIMAUNIT
 70
     0
  9
$DIMADEC
 70
     0
  9
$DIMALTRND
 40
0.0
  9
$DIMAZIN
 70
     0
  9
$DIMDSEP
 70
    46
  9
$DIMATFIT
 70
     3
  9
$DIMFRAC
 70
     0
  9
$DIMLDRBLK
  1
Open30
  9
$DIMLUNIT
 70
     2
  9
$DIMLWD
 70
    -2
  9
$DIMLWE
 70
    -2
  9
$DIMTMOVE
 70
     0
  9
$LUNITS
 70
     2
  9
$LUPREC
 70
     4
  9
$SKETCHINC
 40
0.1
  9
$FILLETRAD
 40
10.0
  9
$AUNITS
 70
     1
  9
$AUPREC
 70
     3
  9
$MENU
  1
ACAD
  9
$ELEVATION
 40
0.0
  9
$PELEVATION
 40
0.0
  9
$THICKNESS
 40
0.0
  9
$LIMCHECK
 70
     0
  9
$CHAMFERA
 40
0.0
  9
$CHAMFERB
 40
0.0
  9
$CHAMFERC
 40
0.0
  9
$CHAMFERD
 40
0.0
  9
$SKPOLY
 70
     0
  9
$TDCREATE
 40
2450332.775879629
  9
$TDUCREATE
 40
2450332.400879629
  9
$TDUPDATE
 40
2459874.473252315
  9
$TDUUPDATE
 40
2459874.098252315
  9
$TDINDWG
 40
1.4015632292
  9
$TDUSRTIMER
 40
1.4015407986
  9
$USRTIMER
 70
     1
  9
$ANGBASE
 50
0.0
  9
$ANGDIR
 70
     0
  9
$PDMODE
 70
     3
  9
$PDSIZE
 40
-2.0
  9
$PLINEWID
 40
0.0
  9
$SPLFRAME
 70
     0
  9
$SPLINETYPE
 70
     6
  9
$SPLINESEGS
 70
     8
  9
$HANDSEED
  5
206F
  9
$SURFTAB1
 70
     6
  9
$SURFTAB2
 70
     6
  9
$SURFTYPE
 70
     6
  9
$SURFU
 70
     6
  9
$SURFV
 70
     6
  9
$UCSBASE
  2

  9
$UCSNAME
  2

  9
$UCSORG
 10
0.0
 20
0.0
 30
0.0
  9
$UCSXDIR
 10
1.0
 20
0.0
 30
0.0
  9
$UCSYDIR
 10
0.0
 20
1.0
 30
0.0
  9
$UCSORTHOREF
  2

  9
$UCSORTHOVIEW
 70
     0
  9
$UCSORGTOP
 10
0.0
 20
0.0
 30
0.0
  9
$UCSORGBOTTOM
 10
0.0
 20
0.0
 30
0.0
  9
$UCSORGLEFT
 10
0.0
 20
0.0
 30
0.0
  9
$UCSORGRIGHT
 10
0.0
 20
0.0
 30
0.0
  9
$UCSORGFRONT
 10
0.0
 20
0.0
 30
0.0
  9
$UCSORGBACK
 10
0.0
 20
0.0
 30
0.0
  9
$PUCSBASE
  2

  9
$PUCSNAME
  2

  9
$PUCSORG
 10
0.0
 20
0.0
 30
0.0
  9
$PUCSXDIR
 10
1.0
 20
0.0
 30
0.0
  9
$PUCSYDIR
 10
0.0
 20
1.0
 30
0.0
  9
$PUCSORTHOREF
  2

  9
$PUCSORTHOVIEW
 70
     0
  9
$PUCSORGTOP
 10
0.0
 20
0.0
 30
0.0
  9
$PUCSORGBOTTOM
 10
0.0
 20
0.0
 30
0.0
  9
$PUCSORGLEFT
 10
0.0
 20
0.0
 30
0.0
  9
$PUCSORGRIGHT
 10
0.0
 20
0.0
 30
0.0
  9
$PUCSORGFRONT
 10
0.0
 20
0.0
 30
0.0
  9
$PUCSORGBACK
 10
0.0
 20
0.0
 30
0.0
  9
$USERI1
 70
     0
  9
$USERI2
 70
     0
  9
$USERI3
 70
     0
  9
$USERI4
 70
     0
  9
$USERI5
 70
     0
  9
$USERR1
 40
20.0
  9
$USERR2
 40
0.0
  9
$USERR3
 40
0.0
  9
$USERR4
 40
0.0
  9
$USERR5
 40
0.0
  9
$WORLDVIEW
 70
     1
  9
$SHADEDGE
 70
     3
  9
$SHADEDIF
 70
    70
  9
$TILEMODE
 70
     1
  9
$MAXACTVP
 70
    64
  9
$PINSBASE
 10
0.0
 20
0.0
 30
0.0
  9
$PLIMCHECK
 70
     0
  9
$PEXTMIN
 10
1.000000000000000E+20
 20
1.000000000000000E+20
 30
1.000000000000000E+20
  9
$PEXTMAX
 10
-1.000000000000000E+20
 20
-1.000000000000000E+20
 30
-1.000000000000000E+20
  9
$PLIMMIN
 10
0.0
 20
0.0
  9
$PLIMMAX
 10
12.0
 20
9.0
  9
$UNITMODE
 70
     0
  9
$VISRETAIN
 70
     1
  9
$PLINEGEN
 70
     0
  9
$PSLTSCALE
 70
     1
  9
$TREEDEPTH
 70
  3020
  9
$CMLSTYLE
  2
STANDARD
  9
$CMLJUST
 70
     0
  9
$CMLSCALE
 40
1.0
  9
$PROXYGRAPHICS
 70
     1
  9
$MEASUREMENT
 70
     0
  9
$CELWEIGHT
370
    -1
  9
$ENDCAPS
280
     0
  9
$JOINSTYLE
280
     0
  9
$LWDISPLAY
290
     0
  9
$INSUNITS
 70
     0
  9
$HYPERLINKBASE
  1

  9
$STYLESHEET
  1
MONOCHROME.STB
  9
$XEDIT
290
     1
  9
$CEPSNTYPE
380
     0
  9
$PSTYLEMODE
290
     0
  9
$FINGERPRINTGUID
  2
{8E873859-7981-469D-9774-FECD588D52BD}
  9
$VERSIONGUID
  2
{D7EAC5C0-A832-1C43-8AA3-0ECF1FA34DE7}
  9
$EXTNAMES
290
     1
  9
$PSVPSCALE
 40
0.0
  9
$OLESTARTUP
290
     0
  9
$SORTENTS
280
   127
  9
$INDEXCTL
280
     0
  9
$HIDETEXT
280
     0
  9
$XCLIPFRAME
290
     0
  9
$HALOGAP
280
     0
  9
$OBSCOLOR
 70
   257
  9
$OBSLTYPE
280
     0
  9
$INTERSECTIONDISPLAY
280
     0
  9
$INTERSECTIONCOLOR
 70
   257
  9
$DIMASSOC
280
     1
  9
$PROJECTNAME
  1

  0
ENDSEC
  0
SECTION
  2
CLASSES
  0
CLASS
  1
ACDBDICTIONARYWDFLT
  2
AcDbDictionaryWithDefault
  3
ObjectDBX Classes
 90
        0
 91
        1
280
     0
281
     0
  0
CLASS
  1
MATERIAL
  2
AcDbMaterial
  3
ObjectDBX Classes
 90
     1153
 91
        3
280
     0
281
     0
  0
CLASS
  1
VISUALSTYLE
  2
AcDbVisualStyle
  3
ObjectDBX Classes
 90
     4095
 91
       24
280
     0
281
     0
  0
CLASS
  1
TABLESTYLE
  2
AcDbTableStyle
  3
ObjectDBX Classes
 90
     4095
 91
        1
280
     0
281
     0
  0
CLASS
  1
SCALE
  2
AcDbScale
  3
ObjectDBX Classes
 90
     1153
 91
       17
280
     0
281
     0
  0
CLASS
  1
MLEADERSTYLE
  2
AcDbMLeaderStyle
  3
ACDB_MLEADERSTYLE_CLASS
 90
     4095
 91
        1
280
     0
281
     0
  0
CLASS
  1
ACDBSECTIONVIEWSTYLE
  2
AcDbSectionViewStyle
  3
ObjectDBX Classes
 90
     1025
 91
        1
280
     0
281
     0
  0
CLASS
  1
ACDBDETAILVIEWSTYLE
  2
AcDbDetailViewStyle
  3
ObjectDBX Classes
 90
     1025
 91
        1
280
     0
281
     0
  0
CLASS
  1
DICTIONARYVAR
  2
AcDbDictionaryVar
  3
ObjectDBX Classes
 90
        0
 91
       15
280
     0
281
     0
  0
CLASS
  1
CELLSTYLEMAP
  2
AcDbCellStyleMap
  3
ObjectDBX Classes
 90
     1152
 91
        2
280
     0
281
     0
  0
CLASS
  1
SORTENTSTABLE
  2
AcDbSortentsTable
  3
ObjectDBX Classes
 90
        0
 91
        1
280
     0
281
     0
  0
ENDSEC
  0
SECTION
  2
TABLES
  0
TABLE
  2
VPORT
  5
8
330
0
100
AcDbSymbolTable
 70
     1
1001
ACAD
1000
DbSaveVer
1071
      226
  0
VPORT
  5
C13
330
8
100
AcDbSymbolTableRecord
100
AcDbViewportTableRecord
  2
*ACTIVE
 70
     0
 10
0.0
 20
0.0
 11
1.0
 21
1.0
 12
385.7268726269854
 22
20.00000931322347
 13
0.0
 23
0.0
 14
400.0
 24
400.0
 15
400.0
 25
400.0
 16
0.0
 26
0.0
 36
1.0
 17
0.0
 27
0.0
 37
0.0
 40
4030.495920705721
 41
1.887694145758661
 42
50.0
 43
0.0
 44
0.0
 50
0.0
 51
0.0
 71
     0
 72
   500
 73
     1
 74
     0
 75
     0
 76
     0
 77
     0
 78
     1
281
     0
 65
     1
110
0.0
120
0.0
130
0.0
111
1.0
121
0.0
131
0.0
112
0.0
122
1.0
132
0.0
 79
     0
146
0.0
1001
ACAD_NAV_VCDISPLAY
1070
     3
  0
ENDTAB
  0
TABLE
  2
LTYPE
  5
5
330
0
100
AcDbSymbolTable
 70
     4
  0
LTYPE
  5
13
330
5
100
AcDbSymbolTableRecord
100
AcDbLinetypeTableRecord
  2
BYBLOCK
 70
     0
  3

 72
    65
 73
     0
 40
0.0
  0
LTYPE
  5
14
330
5
100
AcDbSymbolTableRecord
100
AcDbLinetypeTableRecord
  2
BYLAYER
 70
     0
  3

 72
    65
 73
     0
 40
0.0
  0
LTYPE
  5
15
330
5
100
AcDbSymbolTableRecord
100
AcDbLinetypeTableRecord
  2
CONTINUOUS
 70
     0
  3
実線
 72
    65
 73
     0
 40
0.0
  0
LTYPE
  5
D7D
330
5
100
AcDbSymbolTableRecord
100
AcDbLinetypeTableRecord
  2
CENTER
 70
     0
  3
Center ____ _ ____ _ ____ _ ____ _ ____ _ ____
 72
    65
 73
     4
 40
2.0
 49
1.25
 74
     0
 49
-0.25
 74
     0
 49
0.25
 74
     0
 49
-0.25
 74
     0
  0
LTYPE
  5
DD4
330
5
100
AcDbSymbolTableRecord
100
AcDbLinetypeTableRecord
  2
PHANTOM
 70
     0
  3
Phantom ______  __  __  ______  __  __  ______
 72
    65
 73
     6
 40
2.5
 49
1.25
 74
     0
 49
-0.25
 74
     0
 49
0.25
 74
     0
 49
-0.25
 74
     0
 49
0.25
 74
     0
 49
-0.25
 74
     0
  0
ENDTAB
  0
TABLE
  2
LAYER
  5
2
102
{ACAD_XDICTIONARY
360
D81
102
}
330
0
100
AcDbSymbolTable
 70
    10
  0
LAYER
  5
10
102
{ACAD_XDICTIONARY
360
C8A
102
}
330
2
100
AcDbSymbolTableRecord
100
AcDbLayerTableRecord
  2
0
 70
     0
 62
     7
  6
CONTINUOUS
370
    -3
390
F
  0
LAYER
  5
22
102
{ACAD_XDICTIONARY
360
C8C
102
}
330
2
100
AcDbSymbolTableRecord
100
AcDbLayerTableRecord
  2
BASIS
 70
     0
 62
     6
  6
CENTER
370
    -3
390
F
  0
LAYER
  5
29
102
{ACAD_XDICTIONARY
360
C8E
102
}
330
2
100
AcDbSymbolTableRecord
100
AcDbLayerTableRecord
  2
OUTLINE
 70
     0
 62
     3
  6
CONTINUOUS
370
    -3
390
F
  0
LAYER
  5
2A
102
{ACAD_XDICTIONARY
360
C90
102
}
330
2
100
AcDbSymbolTableRecord
100
AcDbLayerTableRecord
  2
DETAIL
 70
     0
 62
     5
  6
CONTINUOUS
370
    -3
390
F
  0
LAYER
  5
2B
102
{ACAD_XDICTIONARY
360
C92
102
}
330
2
100
AcDbSymbolTableRecord
100
AcDbLayerTableRecord
  2
SIZE
 70
     0
 62
    30
  6
CONTINUOUS
370
    -3
390
F
  0
LAYER
  5
2D
102
{ACAD_XDICTIONARY
360
C96
102
}
330
2
100
AcDbSymbolTableRecord
100
AcDbLayerTableRecord
  2
ARRANGE
 70
     0
 62
     1
  6
CONTINUOUS
370
    -3
390
F
  0
LAYER
  5
2E
330
2
100
AcDbSymbolTableRecord
100
AcDbLayerTableRecord
  2
DEFPOINTS
 70
     0
 62
     7
  6
CONTINUOUS
290
     0
370
    -3
390
F
  0
LAYER
  5
31
102
{ACAD_XDICTIONARY
360
C9C
102
}
330
2
100
AcDbSymbolTableRecord
100
AcDbLayerTableRecord
  2
ETC
 70
     0
 62
    61
  6
CONTINUOUS
370
    -3
390
F
  0
LAYER
  5
DAA
102
{ACAD_XDICTIONARY
360
DAB
102
}
330
2
100
AcDbSymbolTableRecord
100
AcDbLayerTableRecord
  2
NOTE
 70
     0
 62
     4
  6
CONTINUOUS
370
    -3
390
F
  0
LAYER
  5
DAE
102
{ACAD_XDICTIONARY
360
DAF
102
}
330
2
100
AcDbSymbolTableRecord
100
AcDbLayerTableRecord
  2
SERVICESPACE
 70
     0
 62
     2
  6
PHANTOM
370
    18
390
F
  0
ENDTAB
  0
TABLE
  2
STYLE
  5
3
330
0
100
AcDbSymbolTable
 70
     2
  0
STYLE
  5
11
330
3
100
AcDbSymbolTableRecord
100
AcDbTextStyleTableRecord
  2
STANDARD
 70
     0
 40
0.0
 41
1.0
 50
0.0
 71
     0
 42
64.0
  3
SIMPLEX.shx
  4
BIGFONT.shx
  0
STYLE
  5
129F
330
3
100
AcDbSymbolTableRecord
100
AcDbTextStyleTableRecord
  2
ME08
 70
     0
 40
0.0
 41
0.8
 50
0.0
 71
     0
 42
64.0
  3
SIMPLEX.shx
  4
BIGFONT.shx
  0
ENDTAB
  0
TABLE
  2
VIEW
  5
6
330
0
100
AcDbSymbolTable
 70
     1
  0
VIEW
  5
35
330
6
100
AcDbSymbolTableRecord
100
AcDbViewTableRecord
  2
ALL
 70
     0
 40
4508.021
 10
0.0
 20
41.30990399999999
 41
6252.632
 11
0.0
 21
0.0
 31
1.0
 12
0.0
 22
0.0
 32
0.0
 42
50.0
 43
0.0
 44
0.0
 50
0.0
 71
     0
281
     0
 72
     0
  0
ENDTAB
  0
TABLE
  2
UCS
  5
7
330
0
100
AcDbSymbolTable
 70
     0
  0
ENDTAB
  0
TABLE
  2
APPID
  5
9
330
0
100
AcDbSymbolTable
 70
    10
  0
APPID
  5
12
330
9
100
AcDbSymbolTableRecord
100
AcDbRegAppTableRecord
  2
ACAD
 70
     0
  0
APPID
  5
CA9
330
9
100
AcDbSymbolTableRecord
100
AcDbRegAppTableRecord
  2
ACAD_NAV_VCDISPLAY
 70
     0
  0
APPID
  5
CDD
330
9
100
AcDbSymbolTableRecord
100
AcDbRegAppTableRecord
  2
ACAD_MLEADERVER
 70
     0
  0
APPID
  5
CE7
330
9
100
AcDbSymbolTableRecord
100
AcDbRegAppTableRecord
  2
AcadAnnoPO
 70
     0
  0
APPID
  5
CE8
330
9
100
AcDbSymbolTableRecord
100
AcDbRegAppTableRecord
  2
ACAD_DSTYLE_DIMJAG
 70
     0
  0
APPID
  5
CE9
330
9
100
AcDbSymbolTableRecord
100
AcDbRegAppTableRecord
  2
ACAD_DSTYLE_DIMTALN
 70
     0
  0
APPID
  5
DB0
330
9
100
AcDbSymbolTableRecord
100
AcDbRegAppTableRecord
  2
ACAD_PSEXT
 70
     0
  0
APPID
  5
F3E
330
9
100
AcDbSymbolTableRecord
100
AcDbRegAppTableRecord
  2
ACAD_EXEMPT_FROM_CAD_STANDARDS
 70
     0
  0
APPID
  5
129E
330
9
100
AcDbSymbolTableRecord
100
AcDbRegAppTableRecord
  2
ACAD_DSTYLE_DIMBREAK
 70
     0
  0
APPID
  5
1ECD
330
9
100
AcDbSymbolTableRecord
100
AcDbRegAppTableRecord
  2
AcadAnnoMonitorAlertIconDisabled
 70
     0
  0
ENDTAB
  0
TABLE
  2
DIMSTYLE
  5
A
330
0
100
AcDbSymbolTable
 70
     2
100
AcDbDimStyleTable
 71
     2
340
12A0
340
18F
  0
DIMSTYLE
105
18F
330
A
100
AcDbSymbolTableRecord
100
AcDbDimStyleTableRecord
  2
STANDARD
 70
     0
 41
10.0
 42
10.0
 43
100.0
 44
10.0
 73
     0
 74
     0
 77
     1
 78
     8
140
45.0
147
10.0
172
     1
271
     2
272
     2
340
11
341
D6F
342
D6A
1001
ACAD_DSTYLE_DIMJAG
1070
   388
1040
1.5
1001
ACAD_DSTYLE_DIMTALN
1070
   392
1070
     0
  0
DIMSTYLE
105
12A0
102
{ACAD_REACTORS
330
E8A
330
E8B
330
E8C
330
E8D
330
ED3
330
EE0
330
1CB0
330
1DB7
330
1DB8
330
1E32
330
1ED7
102
}
330
A
100
AcDbSymbolTableRecord
100
AcDbDimStyleTableRecord
  2
STANDARD_ME08
 70
     0
 41
10.0
 42
10.0
 43
100.0
 44
10.0
 73
     0
 74
     0
 77
     1
 78
     8
140
45.0
147
10.0
172
     1
271
     2
272
     2
340
129F
341
D6F
342
D6A
1001
ACAD_DSTYLE_DIMBREAK
1070
   391
1040
0.125
1001
ACAD_DSTYLE_DIMJAG
1070
   388
1040
1.5
1001
ACAD_DSTYLE_DIMTALN
1070
   392
1070
     0
  0
ENDTAB
  0
TABLE
  2
BLOCK_RECORD
  5
1
330
0
100
AcDbSymbolTable
 70
    13
  0
BLOCK_RECORD
  5
1E
102
{ACAD_XDICTIONARY
360
9E2
102
}
330
1
100
AcDbSymbolTableRecord
100
AcDbBlockTableRecord
  2
*MODEL_SPACE
340
C87
  0
BLOCK_RECORD
  5
1A
102
{ACAD_XDICTIONARY
360
9E0
102
}
330
1
100
AcDbSymbolTableRecord
100
AcDbBlockTableRecord
  2
*PAPER_SPACE
340
C88
  0
BLOCK_RECORD
  5
D6A
330
1
100
AcDbSymbolTableRecord
100
AcDbBlockTableRecord
  2
_Origin
340
0
102
{BLKREFS
331
1E70
331
1E71
331
1F02
331
1F03
331
1F0B
331
1F0C
331
1F13
331
1F14
331
1E80
331
1E81
331
1E88
331
1E89
331
1E91
331
1E92
331
1E9A
331
1E9B
331
1EA3
331
1EA4
331
1EB5
331
1EB6
331
1EF0
331
1EF1
102
}
  0
BLOCK_RECORD
  5
D6F
330
1
100
AcDbSymbolTableRecord
100
AcDbBlockTableRecord
  2
_Open30
340
0
  0
BLOCK_RECORD
  5
E8F
330
1
100
AcDbSymbolTableRecord
100
AcDbBlockTableRecord
  2
*D2
340
0
  0
BLOCK_RECORD
  5
E99
330
1
100
AcDbSymbolTableRecord
100
AcDbBlockTableRecord
  2
*D3
340
0
  0
BLOCK_RECORD
  5
EA3
330
1
100
AcDbSymbolTableRecord
100
AcDbBlockTableRecord
  2
*D4
340
0
  0
BLOCK_RECORD
  5
EAD
330
1
100
AcDbSymbolTableRecord
100
AcDbBlockTableRecord
  2
*D5
340
0
  0
BLOCK_RECORD
  5
ED4
330
1
100
AcDbSymbolTableRecord
100
AcDbBlockTableRecord
  2
*D6
340
0
  0
BLOCK_RECORD
  5
EE1
330
1
100
AcDbSymbolTableRecord
100
AcDbBlockTableRecord
  2
*D7
340
0
  0
BLOCK_RECORD
  5
1CE6
330
1
100
AcDbSymbolTableRecord
100
AcDbBlockTableRecord
  2
*D8
340
0
  0
BLOCK_RECORD
  5
1DBB
330
1
100
AcDbSymbolTableRecord
100
AcDbBlockTableRecord
  2
*D9
340
0
  0
BLOCK_RECORD
  5
1DC7
330
1
100
AcDbSymbolTableRecord
100
AcDbBlockTableRecord
  2
*D10
340
0
  0
BLOCK_RECORD
  5
1E33
330
1
100
AcDbSymbolTableRecord
100
AcDbBlockTableRecord
  2
*D11
340
0
  0
BLOCK_RECORD
  5
1ED8
330
1
100
AcDbSymbolTableRecord
100
AcDbBlockTableRecord
  2
*D12
340
0
  0
ENDTAB
  0
ENDSEC
  0
SECTION
  2
BLOCKS
  0
BLOCK
  5
1F
330
1E
100
AcDbEntity
  8
0
100
AcDbBlockBegin
  2
*MODEL_SPACE
 70
     0
 10
0.0
 20
0.0
 30
0.0
  3
*MODEL_SPACE
  1

  0
ENDBLK
  5
20
330
1E
100
AcDbEntity
  8
0
100
AcDbBlockEnd
  0
BLOCK
  5
1B
330
1A
100
AcDbEntity
 67
     1
  8
0
100
AcDbBlockBegin
  2
*PAPER_SPACE
 70
     0
 10
0.0
 20
0.0
 30
0.0
  3
*PAPER_SPACE
  1

  0
ENDBLK
  5
1C
330
1A
100
AcDbEntity
 67
     1
  8
0
100
AcDbBlockEnd
  0
BLOCK
  5
D6D
330
D6A
100
AcDbEntity
  8
0
 62
     4
100
AcDbBlockBegin
  2
_Origin
 70
     0
 10
0.0
 20
0.0
 30
0.0
  3
_Origin
  1

  0
CIRCLE
  5
D6B
330
D6A
100
AcDbEntity
  8
0
  6
ByBlock
 62
     0
370
    -2
100
AcDbCircle
 10
0.0
 20
0.0
 30
0.0
 40
0.5
  0
LINE
  5
D6C
330
D6A
100
AcDbEntity
  8
0
  6
ByBlock
 62
     0
370
    -2
100
AcDbLine
 10
0.0
 20
0.0
 30
0.0
 11
-1.0
 21
0.0
 31
0.0
  0
ENDBLK
  5
D6E
330
D6A
100
AcDbEntity
  8
0
 62
     4
100
AcDbBlockEnd
  0
BLOCK
  5
D73
330
D6F
100
AcDbEntity
  8
0
 62
     4
100
AcDbBlockBegin
  2
_Open30
 70
     0
 10
0.0
 20
0.0
 30
0.0
  3
_Open30
  1

  0
LINE
  5
D70
330
D6F
100
AcDbEntity
  8
0
  6
ByBlock
 62
     0
370
    -2
100
AcDbLine
 10
-1.0
 20
0.26794919
 30
0.0
 11
0.0
 21
0.0
 31
0.0
  0
LINE
  5
D71
330
D6F
100
AcDbEntity
  8
0
  6
ByBlock
 62
     0
370
    -2
100
AcDbLine
 10
0.0
 20
0.0
 30
0.0
 11
-1.0
 21
-0.26794919
 31
0.0
  0
LINE
  5
D72
330
D6F
100
AcDbEntity
  8
0
  6
ByBlock
 62
     0
370
    -2
100
AcDbLine
 10
0.0
 20
0.0
 30
0.0
 11
-1.0
 21
0.0
 31
0.0
  0
ENDBLK
  5
D74
330
D6F
100
AcDbEntity
  8
0
 62
     4
100
AcDbBlockEnd
  0
BLOCK
  5
E90
330
E8F
100
AcDbEntity
  8
0
 62
     4
100
AcDbBlockBegin
  2
*D2
 70
     1
 10
0.0
 20
0.0
 30
0.0
  3
*D2
  1

  0
LINE
  5
1E6E
330
E8F
100
AcDbEntity
  8
SIZE
 62
     0
440
 16777216
370
    -2
100
AcDbLine
 10
-475.0
 20
475.0
 30
0.0
 11
-474.9999999999998
 21
1068.039016954273
 31
0.0
  0
LINE
  5
1E6F
330
E8F
100
AcDbEntity
  8
SIZE
 62
     0
440
 16777216
370
    -2
100
AcDbLine
 10
-484.9999999999998
 20
1058.039016954273
 30
0.0
 11
-1965.0
 21
1058.039016954273
 31
0.0
  0
INSERT
  5
1E70
330
E8F
100
AcDbEntity
  8
SIZE
 62
     0
440
 16777216
370
    -2
100
AcDbBlockReference
  2
_Origin
 10
-474.9999999999998
 20
1058.039016954273
 30
0.0
 41
10.0
 42
10.0
 43
10.0
  0
INSERT
  5
1E71
330
E8F
100
AcDbEntity
  8
SIZE
 62
     0
440
 16777216
370
    -2
100
AcDbBlockReference
  2
_Origin
 10
-1975.0
 20
1058.039016954273
 30
0.0
 41
10.0
 42
10.0
 43
10.0
 50
180.0
  0
MTEXT
  5
1E72
330
E8F
100
AcDbEntity
  8
SIZE
 62
     0
440
 16777216
100
AcDbMText
 10
-1225.0
 20
1090.539016954273
 30
0.0
 40
45.0
 41
0.0
 71
     5
 72
     1
  1
\A1;1500以上
  7
ME08
 73
     1
 44
1.0
  0
POINT
  5
1E73
330
E8F
100
AcDbEntity
  8
DEFPOINTS
 62
     0
440
 16777216
100
AcDbPoint
 10
-475.0
 20
465.0
 30
0.0
  0
POINT
  5
1E74
330
E8F
100
AcDbEntity
  8
DEFPOINTS
 62
     0
440
 16777216
100
AcDbPoint
 10
-1975.0
 20
-0.0000000000002274
 30
0.0
  0
POINT
  5
1E75
330
E8F
100
AcDbEntity
  8
DEFPOINTS
 62
     0
440
 16777216
100
AcDbPoint
 10
-1975.0
 20
1058.039016954273
 30
0.0
  0
ENDBLK
  5
E91
330
E8F
100
AcDbEntity
  8
0
 62
     4
100
AcDbBlockEnd
  0
BLOCK
  5
E9A
330
E99
100
AcDbEntity
  8
0
 62
     4
100
AcDbBlockBegin
  2
*D3
 70
     1
 10
0.0
 20
0.0
 30
0.0
  3
*D3
  1

  0
LINE
  5
1F11
330
E99
100
AcDbEntity
  8
SIZE
 62
     0
440
 16777216
370
    -2
100
AcDbLine
 10
475.0
 20
475.0
 30
0.0
 11
475.0
 21
1068.039016954273
 31
0.0
  0
LINE
  5
1F12
330
E99
100
AcDbEntity
  8
SIZE
 62
     0
440
 16777216
370
    -2
100
AcDbLine
 10
485.0
 20
1058.039016954273
 30
0.0
 11
1965.0
 21
1058.039016954273
 31
0.0
  0
INSERT
  5
1F13
330
E99
100
AcDbEntity
  8
SIZE
 62
     0
440
 16777216
370
    -2
100
AcDbBlockReference
  2
_Origin
 10
475.0
 20
1058.039016954273
 30
0.0
 41
10.0
 42
10.0
 43
10.0
 50
180.0
  0
INSERT
  5
1F14
330
E99
100
AcDbEntity
  8
SIZE
 62
     0
440
 16777216
370
    -2
100
AcDbBlockReference
  2
_Origin
 10
1975.0
 20
1058.039016954273
 30
0.0
 41
10.0
 42
10.0
 43
10.0
  0
MTEXT
  5
1F15
330
E99
100
AcDbEntity
  8
SIZE
 62
     0
440
 16777216
100
AcDbMText
 10
1225.0
 20
1090.539016954273
 30
0.0
 40
45.0
 41
0.0
 71
     5
 72
     1
  1
\A1;1500以上
  7
ME08
 73
     1
 44
1.0
  0
POINT
  5
1F16
330
E99
100
AcDbEntity
  8
DEFPOINTS
 62
     0
440
 16777216
100
AcDbPoint
 10
475.0
 20
465.0
 30
0.0
  0
POINT
  5
1F17
330
E99
100
AcDbEntity
  8
DEFPOINTS
 62
     0
440
 16777216
100
AcDbPoint
 10
1975.0
 20
0.0
 30
0.0
  0
POINT
  5
1F18
330
E99
100
AcDbEntity
  8
DEFPOINTS
 62
     0
440
 16777216
100
AcDbPoint
 10
1975.0
 20
1058.039016954273
 30
0.0
  0
ENDBLK
  5
E9B
330
E99
100
AcDbEntity
  8
0
 62
     4
100
AcDbBlockEnd
  0
BLOCK
  5
EA4
330
EA3
100
AcDbEntity
  8
0
 62
     4
100
AcDbBlockBegin
  2
*D4
 70
     1
 10
0.0
 20
0.0
 30
0.0
  3
*D4
  1

  0
LINE
  5
1E7E
330
EA3
100
AcDbEntity
  8
SIZE
 62
     0
440
 16777216
370
    -2
100
AcDbLine
 10
-475.0000000000001
 20
475.0000000000001
 30
0.0
 11
-768.9464115727278
 21
475.0000000000001
 31
0.0
  0
LINE
  5
1E7F
330
EA3
100
AcDbEntity
  8
SIZE
 62
     0
440
 16777216
370
    -2
100
AcDbLine
 10
-758.9464115727277
 20
485.0000000000001
 30
0.0
 11
-758.9464115727277
 21
1965.0
 31
0.0
  0
INSERT
  5
1E80
330
EA3
100
AcDbEntity
  8
SIZE
 62
     0
440
 16777216
370
    -2
100
AcDbBlockReference
  2
_Origin
 10
-758.9464115727277
 20
475.0000000000001
 30
0.0
 41
10.0
 42
10.0
 43
10.0
 50
270.0
  0
INSERT
  5
1E81
330
EA3
100
AcDbEntity
  8
SIZE
 62
     0
440
 16777216
370
    -2
100
AcDbBlockReference
  2
_Origin
 10
-758.9464115727277
 20
1975.000000000001
 30
0.0
 41
10.0
 42
10.0
 43
10.0
 50
90.0
  0
MTEXT
  5
1E82
330
EA3
100
AcDbEntity
  8
SIZE
 62
     0
440
 16777216
100
AcDbMText
 10
-791.4464115727272
 20
1441.881641465266
 30
0.0
 40
45.0
 41
0.0
 71
     5
 72
     1
  1
\A1;1500以上
  7
ME08
 11
0.0000000000000001
 21
1.0
 31
0.0
 73
     1
 44
1.0
  0
POINT
  5
1E83
330
EA3
100
AcDbEntity
  8
DEFPOINTS
 62
     0
440
 16777216
100
AcDbPoint
 10
-465.0000000000002
 20
475.0000000000001
 30
0.0
  0
POINT
  5
1E84
330
EA3
100
AcDbEntity
  8
DEFPOINTS
 62
     0
440
 16777216
100
AcDbPoint
 10
0.0000000000002419
 20
1975.000000000001
 30
0.0
  0
POINT
  5
1E85
330
EA3
100
AcDbEntity
  8
DEFPOINTS
 62
     0
440
 16777216
100
AcDbPoint
 10
-758.9464115727277
 20
1975.000000000001
 30
0.0
  0
ENDBLK
  5
EA5
330
EA3
100
AcDbEntity
  8
0
 62
     4
100
AcDbBlockEnd
  0
BLOCK
  5
EAE
330
EAD
100
AcDbEntity
  8
0
 62
     4
100
AcDbBlockBegin
  2
*D5
 70
     1
 10
0.0
 20
0.0
 30
0.0
  3
*D5
  1

  0
LINE
  5
1E86
330
EAD
100
AcDbEntity
  8
SIZE
 62
     0
440
 16777216
370
    -2
100
AcDbLine
 10
-475.0000000000001
 20
-475.0000000000001
 30
0.0
 11
-768.9464115727346
 21
-475.0000000000001
 31
0.0
  0
LINE
  5
1E87
330
EAD
100
AcDbEntity
  8
SIZE
 62
     0
440
 16777216
370
    -2
100
AcDbLine
 10
-758.9464115727345
 20
-1965.000000000001
 30
0.0
 11
-758.9464115727349
 21
-485.0000000000001
 31
0.0
  0
INSERT
  5
1E88
330
EAD
100
AcDbEntity
  8
SIZE
 62
     0
440
 16777216
370
    -2
100
AcDbBlockReference
  2
_Origin
 10
-758.9464115727345
 20
-1975.000000000001
 30
0.0
 41
10.0
 42
10.0
 43
10.0
 50
270.0
  0
INSERT
  5
1E89
330
EAD
100
AcDbEntity
  8
SIZE
 62
     0
440
 16777216
370
    -2
100
AcDbBlockReference
  2
_Origin
 10
-758.9464115727349
 20
-475.0000000000001
 30
0.0
 41
10.0
 42
10.0
 43
10.0
 50
90.0
  0
MTEXT
  5
1E8A
330
EAD
100
AcDbEntity
  8
SIZE
 62
     0
440
 16777216
100
AcDbMText
 10
-791.446411572735
 20
-1225.0
 30
0.0
 40
45.0
 41
0.0
 71
     5
 72
     1
  1
\A1;1500以上
  7
ME08
 11
0.0000000000000001
 21
1.0
 31
0.0
 73
     1
 44
1.0
  0
POINT
  5
1E8B
330
EAD
100
AcDbEntity
  8
DEFPOINTS
 62
     0
440
 16777216
100
AcDbPoint
 10
-0.0000000000002419
 20
-1975.000000000001
 30
0.0
  0
POINT
  5
1E8C
330
EAD
100
AcDbEntity
  8
DEFPOINTS
 62
     0
440
 16777216
100
AcDbPoint
 10
-465.0000000000003
 20
-475.0000000000001
 30
0.0
  0
POINT
  5
1E8D
330
EAD
100
AcDbEntity
  8
DEFPOINTS
 62
     0
440
 16777216
100
AcDbPoint
 10
-758.9464115727349
 20
-475.0000000000001
 30
0.0
  0
ENDBLK
  5
EAF
330
EAD
100
AcDbEntity
  8
0
 62
     4
100
AcDbBlockEnd
  0
BLOCK
  5
ED5
330
ED4
100
AcDbEntity
  8
0
100
AcDbBlockBegin
  2
*D6
 70
     1
 10
0.0
 20
0.0
 30
0.0
  3
*D6
  1

  0
LINE
  5
1E8E
330
ED4
100
AcDbEntity
  8
SIZE
 62
     0
440
 16777216
370
    -2
100
AcDbLine
 10
-475.0
 20
475.0
 30
0.0
 11
-474.9999999999998
 21
1068.039016954273
 31
0.0
  0
LINE
  5
1E8F
330
ED4
100
AcDbEntity
  8
SIZE
 62
     0
440
 16777216
370
    -2
100
AcDbLine
 10
475.0
 20
475.0
 30
0.0
 11
475.0
 21
1068.039016954273
 31
0.0
  0
LINE
  5
1E90
330
ED4
100
AcDbEntity
  8
SIZE
 62
     0
440
 16777216
370
    -2
100
AcDbLine
 10
-464.9999999999998
 20
1058.039016954273
 30
0.0
 11
465.0
 21
1058.039016954273
 31
0.0
  0
INSERT
  5
1E91
330
ED4
100
AcDbEntity
  8
SIZE
 62
     0
440
 16777216
370
    -2
100
AcDbBlockReference
  2
_Origin
 10
-474.9999999999998
 20
1058.039016954273
 30
0.0
 41
10.0
 42
10.0
 43
10.0
 50
180.0
  0
INSERT
  5
1E92
330
ED4
100
AcDbEntity
  8
SIZE
 62
     0
440
 16777216
370
    -2
100
AcDbBlockReference
  2
_Origin
 10
475.0
 20
1058.039016954273
 30
0.0
 41
10.0
 42
10.0
 43
10.0
  0
MTEXT
  5
1E93
330
ED4
100
AcDbEntity
  8
SIZE
 62
     0
440
 16777216
100
AcDbMText
 10
0.0000000000000588
 20
1090.539016954273
 30
0.0
 40
45.0
 41
0.0
 71
     5
 72
     1
  1
\A1;950
  7
ME08
 73
     1
 44
1.0
  0
POINT
  5
1E94
330
ED4
100
AcDbEntity
  8
DEFPOINTS
 62
     0
440
 16777216
100
AcDbPoint
 10
-475.0
 20
465.0
 30
0.0
  0
POINT
  5
1E95
330
ED4
100
AcDbEntity
  8
DEFPOINTS
 62
     0
440
 16777216
100
AcDbPoint
 10
475.0
 20
465.0
 30
0.0
  0
POINT
  5
1E96
330
ED4
100
AcDbEntity
  8
DEFPOINTS
 62
     0
440
 16777216
100
AcDbPoint
 10
475.0
 20
1058.039016954273
 30
0.0
  0
ENDBLK
  5
ED6
330
ED4
100
AcDbEntity
  8
0
100
AcDbBlockEnd
  0
BLOCK
  5
EE2
330
EE1
100
AcDbEntity
  8
0
100
AcDbBlockBegin
  2
*D7
 70
     1
 10
0.0
 20
0.0
 30
0.0
  3
*D7
  1

  0
LINE
  5
1E97
330
EE1
100
AcDbEntity
  8
SIZE
 62
     0
440
 16777216
370
    -2
100
AcDbLine
 10
-475.0000000000001
 20
475.0000000000001
 30
0.0
 11
-768.946411572734
 21
475.0000000000001
 31
0.0
  0
LINE
  5
1E98
330
EE1
100
AcDbEntity
  8
SIZE
 62
     0
440
 16777216
370
    -2
100
AcDbLine
 10
-475.0
 20
-475.0000000000001
 30
0.0
 11
-768.946411572734
 21
-475.0000000000001
 31
0.0
  0
LINE
  5
1E99
330
EE1
100
AcDbEntity
  8
SIZE
 62
     0
440
 16777216
370
    -2
100
AcDbLine
 10
-758.9464115727341
 20
465.0000000000002
 30
0.0
 11
-758.9464115727339
 21
-465.0000000000002
 31
0.0
  0
INSERT
  5
1E9A
330
EE1
100
AcDbEntity
  8
SIZE
 62
     0
440
 16777216
370
    -2
100
AcDbBlockReference
  2
_Origin
 10
-758.9464115727341
 20
475.0000000000001
 30
0.0
 41
10.0
 42
10.0
 43
10.0
 50
90.0
  0
INSERT
  5
1E9B
330
EE1
100
AcDbEntity
  8
SIZE
 62
     0
440
 16777216
370
    -2
100
AcDbBlockReference
  2
_Origin
 10
-758.9464115727339
 20
-475.0000000000001
 30
0.0
 41
10.0
 42
10.0
 43
10.0
 50
270.0
  0
MTEXT
  5
1E9C
330
EE1
100
AcDbEntity
  8
SIZE
 62
     0
440
 16777216
100
AcDbMText
 10
-791.4464115727339
 20
0.000000000000221
 30
0.0
 40
45.0
 41
0.0
 71
     5
 72
     1
  1
\A1;950
  7
ME08
 11
0.0000000000000001
 21
1.0
 31
0.0
 73
     1
 44
1.0
  0
POINT
  5
1E9D
330
EE1
100
AcDbEntity
  8
DEFPOINTS
 62
     0
440
 16777216
100
AcDbPoint
 10
-465.0000000000002
 20
475.0000000000001
 30
0.0
  0
POINT
  5
1E9E
330
EE1
100
AcDbEntity
  8
DEFPOINTS
 62
     0
440
 16777216
100
AcDbPoint
 10
-465.0
 20
-475.0000000000001
 30
0.0
  0
POINT
  5
1E9F
330
EE1
100
AcDbEntity
  8
DEFPOINTS
 62
     0
440
 16777216
100
AcDbPoint
 10
-758.9464115727339
 20
-475.0000000000001
 30
0.0
  0
ENDBLK
  5
EE3
330
EE1
100
AcDbEntity
  8
0
100
AcDbBlockEnd
  0
BLOCK
  5
1CE7
330
1CE6
100
AcDbEntity
  8
0
100
AcDbBlockBegin
  2
*D8
 70
     1
 10
0.0
 20
0.0
 30
0.0
  3
*D8
  1

  0
LINE
  5
1EA0
330
1CE6
100
AcDbEntity
  8
SIZE
 62
     0
440
 16777216
370
    -2
100
AcDbLine
 10
636.0763984000008
 20
219.2899376961169
 30
0.0
 11
783.1012381101062
 21
219.289937696117
 31
0.0
  0
LINE
  5
1EA1
330
1CE6
100
AcDbEntity
  8
SIZE
 62
     0
440
 16777216
370
    -2
100
AcDbLine
 10
636.0763984000008
 20
-160.5100623038833
 30
0.0
 11
783.1012381101062
 21
-160.5100623038832
 31
0.0
  0
LINE
  5
1EA2
330
1CE6
100
AcDbEntity
  8
SIZE
 62
     0
440
 16777216
370
    -2
100
AcDbLine
 10
773.1012381101066
 20
209.289937696117
 30
0.0
 11
773.1012381101066
 21
-150.5100623038833
 31
0.0
  0
INSERT
  5
1EA3
330
1CE6
100
AcDbEntity
  8
SIZE
 62
     0
440
 16777216
370
    -2
100
AcDbBlockReference
  2
_Origin
 10
773.1012381101066
 20
219.289937696117
 30
0.0
 41
10.0
 42
10.0
 43
10.0
 50
90.0
  0
INSERT
  5
1EA4
330
1CE6
100
AcDbEntity
  8
SIZE
 62
     0
440
 16777216
370
    -2
100
AcDbBlockReference
  2
_Origin
 10
773.1012381101066
 20
-160.5100623038832
 30
0.0
 41
10.0
 42
10.0
 43
10.0
 50
270.0
  0
MTEXT
  5
1EA5
330
1CE6
100
AcDbEntity
  8
SIZE
 62
     0
440
 16777216
100
AcDbMText
 10
740.6012381101064
 20
86.26238331044806
 30
0.0
 40
45.0
 41
0.0
 71
     5
 72
     1
  1
\A1;380
  7
ME08
 11
0.0000000000000001
 21
1.0
 31
0.0
 73
     1
 44
1.0
  0
POINT
  5
1EA6
330
1CE6
100
AcDbEntity
  8
DEFPOINTS
 62
     0
440
 16777216
100
AcDbPoint
 10
626.0763984000008
 20
219.2899376961169
 30
0.0
  0
POINT
  5
1EA7
330
1CE6
100
AcDbEntity
  8
DEFPOINTS
 62
     0
440
 16777216
100
AcDbPoint
 10
626.0763984000008
 20
-160.5100623038833
 30
0.0
  0
POINT
  5
1EA8
330
1CE6
100
AcDbEntity
  8
DEFPOINTS
 62
     0
440
 16777216
100
AcDbPoint
 10
773.1012381101066
 20
-160.5100623038832
 30
0.0
  0
ENDBLK
  5
1CE8
330
1CE6
100
AcDbEntity
  8
0
100
AcDbBlockEnd
  0
BLOCK
  5
1DBC
330
1DBB
100
AcDbEntity
  8
0
100
AcDbBlockBegin
  2
*D9
 70
     1
 10
0.0
 20
0.0
 30
0.0
  3
*D9
  1

  0
LINE
  5
1F08
330
1DBB
100
AcDbEntity
  8
SIZE
 62
     0
440
 16777216
370
    -2
100
AcDbLine
 10
820.0
 20
265.0000000000001
 30
0.0
 11
820.0
 21
773.7349017006128
 31
0.0
  0
LINE
  5
1F09
330
1DBB
100
AcDbEntity
  8
SIZE
 62
     0
440
 16777216
370
    -2
100
AcDbLine
 10
1270.0
 20
265.0000000000001
 30
0.0
 11
1270.0
 21
773.7349017006128
 31
0.0
  0
LINE
  5
1F0A
330
1DBB
100
AcDbEntity
  8
SIZE
 62
     0
440
 16777216
370
    -2
100
AcDbLine
 10
830.0
 20
763.7349017006126
 30
0.0
 11
1260.0
 21
763.7349017006126
 31
0.0
  0
INSERT
  5
1F0B
330
1DBB
100
AcDbEntity
  8
SIZE
 62
     0
440
 16777216
370
    -2
100
AcDbBlockReference
  2
_Origin
 10
820.0
 20
763.7349017006126
 30
0.0
 41
10.0
 42
10.0
 43
10.0
 50
180.0
  0
INSERT
  5
1F0C
330
1DBB
100
AcDbEntity
  8
SIZE
 62
     0
440
 16777216
370
    -2
100
AcDbBlockReference
  2
_Origin
 10
1270.0
 20
763.7349017006126
 30
0.0
 41
10.0
 42
10.0
 43
10.0
  0
MTEXT
  5
1F0D
330
1DBB
100
AcDbEntity
  8
SIZE
 62
     0
440
 16777216
100
AcDbMText
 10
1045.0
 20
796.2349017006126
 30
0.0
 40
45.0
 41
0.0
 71
     5
 72
     1
  1
\A1;450
  7
ME08
 73
     1
 44
1.0
  0
POINT
  5
1F0E
330
1DBB
100
AcDbEntity
  8
DEFPOINTS
 62
     0
440
 16777216
100
AcDbPoint
 10
820.0
 20
255.0000000000001
 30
0.0
  0
POINT
  5
1F0F
330
1DBB
100
AcDbEntity
  8
DEFPOINTS
 62
     0
440
 16777216
100
AcDbPoint
 10
1270.0
 20
255.0000000000001
 30
0.0
  0
POINT
  5
1F10
330
1DBB
100
AcDbEntity
  8
DEFPOINTS
 62
     0
440
 16777216
100
AcDbPoint
 10
1270.0
 20
763.7349017006126
 30
0.0
  0
ENDBLK
  5
1DBD
330
1DBB
100
AcDbEntity
  8
0
100
AcDbBlockEnd
  0
BLOCK
  5
1DC8
330
1DC7
100
AcDbEntity
  8
0
100
AcDbBlockBegin
  2
*D10
 70
     1
 10
0.0
 20
0.0
 30
0.0
  3
*D10
  1

  0
LINE
  5
1EB2
330
1DC7
100
AcDbEntity
  8
SIZE
 62
     0
440
 16777216
370
    -2
100
AcDbLine
 10
1280.0
 20
255.0000000000001
 30
0.0
 11
1543.720315014255
 21
255.0000000000002
 31
0.0
  0
LINE
  5
1EB3
330
1DC7
100
AcDbEntity
  8
SIZE
 62
     0
440
 16777216
370
    -2
100
AcDbLine
 10
1280.0
 20
-195.0000000000001
 30
0.0
 11
1543.720315014255
 21
-195.0000000000001
 31
0.0
  0
LINE
  5
1EB4
330
1DC7
100
AcDbEntity
  8
SIZE
 62
     0
440
 16777216
370
    -2
100
AcDbLine
 10
1533.720315014255
 20
245.0000000000001
 30
0.0
 11
1533.720315014255
 21
-185.0
 31
0.0
  0
INSERT
  5
1EB5
330
1DC7
100
AcDbEntity
  8
SIZE
 62
     0
440
 16777216
370
    -2
100
AcDbBlockReference
  2
_Origin
 10
1533.720315014255
 20
255.0000000000002
 30
0.0
 41
10.0
 42
10.0
 43
10.0
 50
90.0
  0
INSERT
  5
1EB6
330
1DC7
100
AcDbEntity
  8
SIZE
 62
     0
440
 16777216
370
    -2
100
AcDbBlockReference
  2
_Origin
 10
1533.720315014255
 20
-195.0000000000001
 30
0.0
 41
10.0
 42
10.0
 43
10.0
 50
270.0
  0
MTEXT
  5
1EB7
330
1DC7
100
AcDbEntity
  8
SIZE
 62
     0
440
 16777216
100
AcDbMText
 10
1501.220315014255
 20
29.99999999999961
 30
0.0
 40
45.0
 41
0.0
 71
     5
 72
     1
  1
\A1;450
  7
ME08
 11
0.0000000000000001
 21
1.0
 31
0.0
 73
     1
 44
1.0
  0
POINT
  5
1EB8
330
1DC7
100
AcDbEntity
  8
DEFPOINTS
 62
     0
440
 16777216
100
AcDbPoint
 10
1270.0
 20
255.0000000000001
 30
0.0
  0
POINT
  5
1EB9
330
1DC7
100
AcDbEntity
  8
DEFPOINTS
 62
     0
440
 16777216
100
AcDbPoint
 10
1270.0
 20
-195.0000000000001
 30
0.0
  0
POINT
  5
1EBA
330
1DC7
100
AcDbEntity
  8
DEFPOINTS
 62
     0
440
 16777216
100
AcDbPoint
 10
1533.720315014255
 20
-195.0000000000001
 30
0.0
  0
ENDBLK
  5
1DC9
330
1DC7
100
AcDbEntity
  8
0
100
AcDbBlockEnd
  0
BLOCK
  5
1E34
330
1E33
100
AcDbEntity
  8
0
100
AcDbBlockBegin
  2
*D11
 70
     1
 10
0.0
 20
0.0
 30
0.0
  3
*D11
  1

  0
LINE
  5
1EFF
330
1E33
100
AcDbEntity
  8
SIZE
 62
     0
440
 16777216
370
    -2
100
AcDbLine
 10
475.0
 20
475.0
 30
0.0
 11
475.0
 21
646.2669252457417
 31
0.0
  0
LINE
  5
1F00
330
1E33
100
AcDbEntity
  8
SIZE
 62
     0
440
 16777216
370
    -2
100
AcDbLine
 10
628.0
 20
222.3995762160005
 30
0.0
 11
628.0
 21
646.2669252457417
 31
0.0
  0
LINE
  5
1F01
330
1E33
100
AcDbEntity
  8
SIZE
 62
     0
440
 16777216
370
    -2
100
AcDbLine
 10
485.0
 20
636.2669252457417
 30
0.0
 11
618.0
 21
636.2669252457417
 31
0.0
  0
INSERT
  5
1F02
330
1E33
100
AcDbEntity
  8
SIZE
 62
     0
440
 16777216
370
    -2
100
AcDbBlockReference
  2
_Origin
 10
475.0
 20
636.2669252457417
 30
0.0
 41
10.0
 42
10.0
 43
10.0
 50
180.0
  0
INSERT
  5
1F03
330
1E33
100
AcDbEntity
  8
SIZE
 62
     0
440
 16777216
370
    -2
100
AcDbBlockReference
  2
_Origin
 10
628.0
 20
636.2669252457417
 30
0.0
 41
10.0
 42
10.0
 43
10.0
  0
MTEXT
  5
1F04
330
1E33
100
AcDbEntity
  8
SIZE
 62
     0
440
 16777216
100
AcDbMText
 10
551.4999999999998
 20
668.7669252457417
 30
0.0
 40
45.0
 41
0.0
 71
     5
 72
     1
  1
\A1;153
  7
ME08
 73
     1
 44
1.0
  0
POINT
  5
1F05
330
1E33
100
AcDbEntity
  8
DEFPOINTS
 62
     0
440
 16777216
100
AcDbPoint
 10
475.0
 20
465.0
 30
0.0
  0
POINT
  5
1F06
330
1E33
100
AcDbEntity
  8
DEFPOINTS
 62
     0
440
 16777216
100
AcDbPoint
 10
628.0
 20
212.3995762160005
 30
0.0
  0
POINT
  5
1F07
330
1E33
100
AcDbEntity
  8
DEFPOINTS
 62
     0
440
 16777216
100
AcDbPoint
 10
628.0
 20
636.2669252457417
 30
0.0
  0
ENDBLK
  5
1E35
330
1E33
100
AcDbEntity
  8
0
100
AcDbBlockEnd
  0
BLOCK
  5
1ED9
330
1ED8
100
AcDbEntity
  8
0
100
AcDbBlockBegin
  2
*D12
 70
     1
 10
0.0
 20
0.0
 30
0.0
  3
*D12
  1

  0
LINE
  5
1EED
330
1ED8
100
AcDbEntity
  8
SIZE
 62
     0
440
 16777216
370
    -2
100
AcDbLine
 10
475.0
 20
475.0
 30
0.0
 11
475.0
 21
773.7349017006128
 31
0.0
  0
LINE
  5
1EEE
330
1ED8
100
AcDbEntity
  8
SIZE
 62
     0
440
 16777216
370
    -2
100
AcDbLine
 10
820.0
 20
265.0
 30
0.0
 11
820.0
 21
773.7349017006128
 31
0.0
  0
LINE
  5
1EEF
330
1ED8
100
AcDbEntity
  8
SIZE
 62
     0
440
 16777216
370
    -2
100
AcDbLine
 10
485.0
 20
763.7349017006126
 30
0.0
 11
810.0
 21
763.7349017006126
 31
0.0
  0
INSERT
  5
1EF0
330
1ED8
100
AcDbEntity
  8
SIZE
 62
     0
440
 16777216
370
    -2
100
AcDbBlockReference
  2
_Origin
 10
475.0
 20
763.7349017006126
 30
0.0
 41
10.0
 42
10.0
 43
10.0
 50
180.0
  0
INSERT
  5
1EF1
330
1ED8
100
AcDbEntity
  8
SIZE
 62
     0
440
 16777216
370
    -2
100
AcDbBlockReference
  2
_Origin
 10
820.0
 20
763.7349017006126
 30
0.0
 41
10.0
 42
10.0
 43
10.0
  0
MTEXT
  5
1EF2
330
1ED8
100
AcDbEntity
  8
SIZE
 62
     0
440
 16777216
100
AcDbMText
 10
647.5
 20
796.2349017006126
 30
0.0
 40
45.0
 41
0.0
 71
     5
 72
     1
  1
\A1;265～345
  7
ME08
 73
     1
 44
1.0
  0
POINT
  5
1EF3
330
1ED8
100
AcDbEntity
  8
DEFPOINTS
 62
     0
440
 16777216
100
AcDbPoint
 10
475.0
 20
465.0
 30
0.0
  0
POINT
  5
1EF4
330
1ED8
100
AcDbEntity
  8
DEFPOINTS
 62
     0
440
 16777216
100
AcDbPoint
 10
820.0
 20
255.0
 30
0.0
  0
POINT
  5
1EF5
330
1ED8
100
AcDbEntity
  8
DEFPOINTS
 62
     0
440
 16777216
100
AcDbPoint
 10
820.0
 20
763.7349017006126
 30
0.0
  0
ENDBLK
  5
1EDA
330
1ED8
100
AcDbEntity
  8
0
100
AcDbBlockEnd
  0
ENDSEC
  0
SECTION
  2
ENTITIES
  0
LINE
  5
88A
330
1E
100
AcDbEntity
  8
DETAIL
100
AcDbLine
 10
-439.0
 20
-438.9999999999998
 30
0.0
 11
439.0
 21
-439.0
 31
0.0
  0
LINE
  5
88B
330
1E
100
AcDbEntity
  8
DETAIL
100
AcDbLine
 10
-316.5
 20
-316.5
 30
0.0
 11
316.5
 21
-316.5
 31
0.0
  0
LINE
  5
88C
330
1E
100
AcDbEntity
  8
DETAIL
100
AcDbLine
 10
-316.5
 20
316.5
 30
0.0
 11
316.4999999999998
 21
316.5
 31
0.0
  0
LINE
  5
88D
330
1E
100
AcDbEntity
  8
DETAIL
100
AcDbLine
 10
-439.0
 20
438.9999999999998
 30
0.0
 11
439.0
 21
439.0
 31
0.0
  0
POINT
  5
88E
330
1E
100
AcDbEntity
  8
ARRANGE
100
AcDbPoint
 10
0.0
 20
0.0
 30
0.0
  0
CIRCLE
  5
88F
330
1E
100
AcDbEntity
  8
ARRANGE
100
AcDbCircle
 10
0.0
 20
0.0
 30
0.0
 40
40.0
  0
LINE
  5
892
330
1E
100
AcDbEntity
  8
DETAIL
100
AcDbLine
 10
-258.9999999999999
 20
258.9999999999999
 30
0.0
 11
-258.9999999999999
 21
-258.9999999999997
 31
0.0
  0
LINE
  5
893
330
1E
100
AcDbEntity
  8
DETAIL
100
AcDbLine
 10
258.9999999999999
 20
258.9999999999997
 30
0.0
 11
258.9999999999997
 21
-258.9999999999999
 31
0.0
  0
LINE
  5
896
330
1E
100
AcDbEntity
  8
DETAIL
100
AcDbLine
 10
-465.0
 20
475.0
 30
0.0
 11
465.0
 21
475.0
 31
0.0
  0
LINE
  5
897
330
1E
100
AcDbEntity
  8
DETAIL
100
AcDbLine
 10
-465.0
 20
-475.0
 30
0.0
 11
465.0
 21
-475.0
 31
0.0
  0
LINE
  5
898
330
1E
100
AcDbEntity
  8
BASIS
100
AcDbLine
 10
-550.0
 20
0.0
 30
0.0
 11
550.0
 21
0.0
 31
0.0
  0
LINE
  5
899
330
1E
100
AcDbEntity
  8
DETAIL
100
AcDbLine
 10
-439.0
 20
438.9999999999998
 30
0.0
 11
-439.0
 21
-438.9999999999998
 31
0.0
  0
LINE
  5
89A
330
1E
100
AcDbEntity
  8
DETAIL
100
AcDbLine
 10
-316.5
 20
316.5
 30
0.0
 11
-316.5
 21
-316.5
 31
0.0
  0
LINE
  5
89C
330
1E
100
AcDbEntity
  8
DETAIL
100
AcDbLine
 10
258.9999999999999
 20
-0.0000000000000548
 30
0.0
 11
-258.9999999999999
 21
0.0000000000000548
 31
0.0
  0
LINE
  5
89D
330
1E
100
AcDbEntity
  8
DETAIL
100
AcDbLine
 10
258.9999999999999
 20
28.84999999999983
 30
0.0
 11
-258.9999999999999
 21
28.84999999999994
 31
0.0
  0
LINE
  5
89E
330
1E
100
AcDbEntity
  8
DETAIL
100
AcDbLine
 10
258.9999999999999
 20
57.69999999999998
 30
0.0
 11
-258.9999999999999
 21
57.7000000000001
 31
0.0
  0
LINE
  5
89F
330
1E
100
AcDbEntity
  8
DETAIL
100
AcDbLine
 10
258.9999999999999
 20
86.54999999999992
 30
0.0
 11
-258.9999999999999
 21
86.55000000000002
 31
0.0
  0
LINE
  5
8A0
330
1E
100
AcDbEntity
  8
DETAIL
100
AcDbLine
 10
258.9999999999999
 20
115.4
 30
0.0
 11
-258.9999999999999
 21
115.4000000000001
 31
0.0
  0
LINE
  5
8A1
330
1E
100
AcDbEntity
  8
DETAIL
100
AcDbLine
 10
258.9999999999999
 20
144.2499999999999
 30
0.0
 11
-258.9999999999999
 21
144.25
 31
0.0
  0
LINE
  5
8A2
330
1E
100
AcDbEntity
  8
DETAIL
100
AcDbLine
 10
258.9999999999999
 20
173.0999999999998
 30
0.0
 11
-258.9999999999999
 21
173.0999999999999
 31
0.0
  0
LINE
  5
8A3
330
1E
100
AcDbEntity
  8
DETAIL
100
AcDbLine
 10
258.9999999999998
 20
201.9499999999998
 30
0.0
 11
-258.9999999999999
 21
201.9499999999999
 31
0.0
  0
LINE
  5
8A4
330
1E
100
AcDbEntity
  8
DETAIL
100
AcDbLine
 10
258.9999999999999
 20
230.7999999999998
 30
0.0
 11
-258.9999999999999
 21
230.8
 31
0.0
  0
LINE
  5
8A6
330
1E
100
AcDbEntity
  8
DETAIL
100
AcDbLine
 10
258.9999999999999
 20
258.9999999999999
 30
0.0
 11
-258.9999999999999
 21
258.9999999999999
 31
0.0
  0
LINE
  5
8A9
330
1E
100
AcDbEntity
  8
DETAIL
100
AcDbLine
 10
-475.0
 20
465.0
 30
0.0
 11
-475.0
 21
-465.0
 31
0.0
  0
LINE
  5
8AA
330
1E
100
AcDbEntity
  8
BASIS
100
AcDbLine
 10
0.0
 20
550.0
 30
0.0
 11
0.0
 21
-550.0
 31
0.0
  0
LINE
  5
8B9
330
1E
100
AcDbEntity
  8
DETAIL
100
AcDbLine
 10
-316.5
 20
265.0
 30
0.0
 11
-439.0
 21
265.0
 31
0.0
  0
LINE
  5
8BA
330
1E
100
AcDbEntity
  8
DETAIL
100
AcDbLine
 10
-265.0
 20
439.0
 30
0.0
 11
-265.0
 21
316.5
 31
0.0
  0
LINE
  5
8BB
330
1E
100
AcDbEntity
  8
DETAIL
100
AcDbLine
 10
316.5
 20
316.5
 30
0.0
 11
316.5
 21
-316.5
 31
0.0
  0
LINE
  5
8BC
330
1E
100
AcDbEntity
  8
DETAIL
100
AcDbLine
 10
439.0
 20
439.0
 30
0.0
 11
439.0
 21
-439.0
 31
0.0
  0
LINE
  5
8BF
330
1E
100
AcDbEntity
  8
DETAIL
100
AcDbLine
 10
258.9999999999997
 20
-230.8
 30
0.0
 11
-258.9999999999999
 21
-230.7999999999998
 31
0.0
  0
LINE
  5
8C0
330
1E
100
AcDbEntity
  8
DETAIL
100
AcDbLine
 10
258.9999999999997
 20
-201.9499999999999
 30
0.0
 11
-258.9999999999999
 21
-201.9499999999998
 31
0.0
  0
LINE
  5
8C1
330
1E
100
AcDbEntity
  8
DETAIL
100
AcDbLine
 10
258.9999999999999
 20
-173.0999999999999
 30
0.0
 11
-258.9999999999999
 21
-173.0999999999998
 31
0.0
  0
LINE
  5
8C2
330
1E
100
AcDbEntity
  8
DETAIL
100
AcDbLine
 10
258.9999999999999
 20
-144.25
 30
0.0
 11
-258.9999999999999
 21
-144.2499999999999
 31
0.0
  0
LINE
  5
8C3
330
1E
100
AcDbEntity
  8
DETAIL
100
AcDbLine
 10
258.9999999999999
 20
-115.4000000000001
 30
0.0
 11
-258.9999999999999
 21
-115.4
 31
0.0
  0
LINE
  5
8C4
330
1E
100
AcDbEntity
  8
DETAIL
100
AcDbLine
 10
258.9999999999999
 20
-86.55000000000002
 30
0.0
 11
-258.9999999999999
 21
-86.54999999999992
 31
0.0
  0
LINE
  5
8C5
330
1E
100
AcDbEntity
  8
DETAIL
100
AcDbLine
 10
258.9999999999999
 20
-57.7000000000001
 30
0.0
 11
-258.9999999999999
 21
-57.69999999999998
 31
0.0
  0
LINE
  5
8C6
330
1E
100
AcDbEntity
  8
DETAIL
100
AcDbLine
 10
258.9999999999999
 20
-28.84999999999994
 30
0.0
 11
-258.9999999999999
 21
-28.84999999999983
 31
0.0
  0
LINE
  5
8C7
330
1E
100
AcDbEntity
  8
DETAIL
100
AcDbLine
 10
258.9999999999997
 20
-258.9999999999999
 30
0.0
 11
-258.9999999999999
 21
-258.9999999999997
 31
0.0
  0
LINE
  5
8C8
330
1E
100
AcDbEntity
  8
DETAIL
100
AcDbLine
 10
475.0
 20
465.0
 30
0.0
 11
475.0
 21
-465.0
 31
0.0
  0
LINE
  5
8D3
330
1E
100
AcDbEntity
  8
DETAIL
100
AcDbLine
 10
316.5
 20
265.0
 30
0.0
 11
439.0
 21
265.0
 31
0.0
  0
LINE
  5
8D4
330
1E
100
AcDbEntity
  8
DETAIL
100
AcDbLine
 10
265.0
 20
439.0
 30
0.0
 11
265.0
 21
316.5
 31
0.0
  0
LINE
  5
A35
330
1E
100
AcDbEntity
  8
DETAIL
100
AcDbLine
 10
418.25
 20
-329.4999999999999
 30
0.0
 11
439.0
 21
-356.0000000000002
 31
0.0
  0
LINE
  5
A37
330
1E
100
AcDbEntity
  8
DETAIL
100
AcDbLine
 10
338.7500000000001
 20
-418.25
 30
0.0
 11
356.0
 21
-439.0
 31
0.0
  0
LINE
  5
A41
330
1E
100
AcDbEntity
  8
DETAIL
100
AcDbLine
 10
372.4607864376269
 20
-375.2892135623731
 30
0.0
 11
342.7500000000001
 21
-405.0
 31
0.0
  0
LINE
  5
A46
330
1E
100
AcDbEntity
  8
DETAIL
100
AcDbLine
 10
439.0
 20
-418.25
 30
0.0
 11
418.2499999999998
 21
-439.0
 31
0.0
  0
LINE
  5
A53
330
1E
100
AcDbEntity
  8
DETAIL
100
AcDbLine
 10
338.7500000000001
 20
-418.25
 30
0.0
 11
342.7500000000001
 21
-405.0
 31
0.0
  0
LINE
  5
A73
330
1E
100
AcDbEntity
  8
DETAIL
100
AcDbLine
 10
375.2995294697154
 20
-372.4504705302846
 30
0.0
 11
418.25
 21
-329.4999999999999
 31
0.0
  0
LINE
  5
AC2
330
1E
100
AcDbEntity
  8
DETAIL
100
AcDbLine
 10
372.4607864376269
 20
-375.2892135623731
 30
0.0
 11
373.875
 21
-376.7034271247461
 31
0.0
  0
LINE
  5
AC3
330
1E
100
AcDbEntity
  8
DETAIL
100
AcDbLine
 10
375.2995294697154
 20
-372.4504705302846
 30
0.0
 11
376.7034271247461
 21
-373.8749999999998
 31
0.0
  0
LINE
  5
AC5
330
1E
100
AcDbEntity
  8
DETAIL
100
AcDbLine
 10
376.7137430320884
 20
-373.8646840926577
 30
0.0
 11
373.8646840926577
 21
-376.7137430320884
 31
0.0
  0
LINE
  5
ACB
330
1E
100
AcDbEntity
  8
DETAIL
100
AcDbLine
 10
-418.2499999999998
 20
-438.9999999999998
 30
0.0
 11
-438.9999999999998
 21
-418.2499999999998
 31
0.0
  0
LINE
  5
ACC
330
1E
100
AcDbEntity
  8
DETAIL
100
AcDbLine
 10
-372.4504705302846
 20
-375.2995294697154
 30
0.0
 11
-329.4999999999999
 21
-418.25
 31
0.0
  0
LINE
  5
ACD
330
1E
100
AcDbEntity
  8
DETAIL
100
AcDbLine
 10
-375.289213562373
 20
-372.460786437627
 30
0.0
 11
-376.7034271247461
 21
-373.875
 31
0.0
  0
LINE
  5
ACE
330
1E
100
AcDbEntity
  8
DETAIL
100
AcDbLine
 10
-375.289213562373
 20
-372.460786437627
 30
0.0
 11
-404.9999999999998
 21
-342.7500000000001
 31
0.0
  0
LINE
  5
ACF
330
1E
100
AcDbEntity
  8
DETAIL
100
AcDbLine
 10
-373.8646840926576
 20
-376.7137430320884
 30
0.0
 11
-376.7137430320884
 21
-373.8646840926577
 31
0.0
  0
LINE
  5
AD0
330
1E
100
AcDbEntity
  8
DETAIL
100
AcDbLine
 10
-372.4504705302846
 20
-375.2995294697154
 30
0.0
 11
-373.8749999999998
 21
-376.7034271247463
 31
0.0
  0
LINE
  5
AD1
330
1E
100
AcDbEntity
  8
DETAIL
100
AcDbLine
 10
-418.2499999999998
 20
-338.75
 30
0.0
 11
-404.9999999999998
 21
-342.7500000000001
 31
0.0
  0
LINE
  5
AD2
330
1E
100
AcDbEntity
  8
DETAIL
100
AcDbLine
 10
-418.2499999999998
 20
-338.75
 30
0.0
 11
-438.9999999999998
 21
-356.0
 31
0.0
  0
LINE
  5
AD3
330
1E
100
AcDbEntity
  8
DETAIL
100
AcDbLine
 10
-329.4999999999999
 20
-418.25
 30
0.0
 11
-356.0
 21
-438.9999999999998
 31
0.0
  0
LINE
  5
B40
330
1E
100
AcDbEntity
  8
DETAIL
100
AcDbLine
 10
418.25
 20
439.0
 30
0.0
 11
439.0
 21
418.25
 31
0.0
  0
LINE
  5
B41
330
1E
100
AcDbEntity
  8
DETAIL
100
AcDbLine
 10
418.25
 20
338.7500000000001
 30
0.0
 11
405.0
 21
342.7500000000001
 31
0.0
  0
LINE
  5
B42
330
1E
100
AcDbEntity
  8
DETAIL
100
AcDbLine
 10
418.25
 20
338.7500000000001
 30
0.0
 11
439.0
 21
356.0
 31
0.0
  0
LINE
  5
B43
330
1E
100
AcDbEntity
  8
DETAIL
100
AcDbLine
 10
375.2892135623732
 20
372.4607864376269
 30
0.0
 11
405.0
 21
342.7500000000001
 31
0.0
  0
LINE
  5
B44
330
1E
100
AcDbEntity
  8
DETAIL
100
AcDbLine
 10
372.4504705302846
 20
375.2995294697154
 30
0.0
 11
329.5000000000001
 21
418.25
 31
0.0
  0
LINE
  5
B45
330
1E
100
AcDbEntity
  8
DETAIL
100
AcDbLine
 10
373.8646840926577
 20
376.7137430320884
 30
0.0
 11
376.7137430320884
 21
373.8646840926577
 31
0.0
  0
LINE
  5
B46
330
1E
100
AcDbEntity
  8
DETAIL
100
AcDbLine
 10
372.4504705302846
 20
375.2995294697154
 30
0.0
 11
373.875
 21
376.7034271247461
 31
0.0
  0
LINE
  5
B47
330
1E
100
AcDbEntity
  8
DETAIL
100
AcDbLine
 10
375.2892135623732
 20
372.4607864376269
 30
0.0
 11
376.7034271247461
 21
373.875
 31
0.0
  0
LINE
  5
B48
330
1E
100
AcDbEntity
  8
DETAIL
100
AcDbLine
 10
329.5000000000001
 20
418.25
 30
0.0
 11
356.0000000000002
 21
439.0
 31
0.0
  0
LINE
  5
B49
330
1E
100
AcDbEntity
  8
DETAIL
100
AcDbLine
 10
-375.2995294697154
 20
372.4504705302846
 30
0.0
 11
-418.2500000000001
 21
329.4999999999999
 31
0.0
  0
LINE
  5
B4A
330
1E
100
AcDbEntity
  8
DETAIL
100
AcDbLine
 10
-418.2500000000001
 20
329.4999999999999
 30
0.0
 11
-439.0
 21
356.0
 31
0.0
  0
LINE
  5
B4B
330
1E
100
AcDbEntity
  8
DETAIL
100
AcDbLine
 10
-372.4607864376271
 20
375.289213562373
 30
0.0
 11
-342.7500000000001
 21
404.9999999999998
 31
0.0
  0
LINE
  5
B4C
330
1E
100
AcDbEntity
  8
DETAIL
100
AcDbLine
 10
-338.7500000000001
 20
418.2499999999998
 30
0.0
 11
-356.0000000000002
 21
438.9999999999998
 31
0.0
  0
LINE
  5
B4D
330
1E
100
AcDbEntity
  8
DETAIL
100
AcDbLine
 10
-338.7500000000001
 20
418.2499999999998
 30
0.0
 11
-342.7500000000001
 21
404.9999999999998
 31
0.0
  0
LINE
  5
B4E
330
1E
100
AcDbEntity
  8
DETAIL
100
AcDbLine
 10
-372.4607864376271
 20
375.289213562373
 30
0.0
 11
-373.8750000000002
 21
376.7034271247461
 31
0.0
  0
LINE
  5
B4F
330
1E
100
AcDbEntity
  8
DETAIL
100
AcDbLine
 10
-376.7137430320886
 20
373.8646840926576
 30
0.0
 11
-373.864684092658
 21
376.7137430320884
 31
0.0
  0
LINE
  5
B50
330
1E
100
AcDbEntity
  8
DETAIL
100
AcDbLine
 10
-375.2995294697154
 20
372.4504705302846
 30
0.0
 11
-376.7034271247465
 21
373.8749999999998
 31
0.0
  0
LINE
  5
B51
330
1E
100
AcDbEntity
  8
DETAIL
100
AcDbLine
 10
-439.0
 20
418.2499999999998
 30
0.0
 11
-418.25
 21
438.9999999999998
 31
0.0
  0
LINE
  5
B5C
330
1E
100
AcDbEntity
  8
DETAIL
100
AcDbLine
 10
-265.0
 20
-439.0
 30
0.0
 11
-265.0
 21
-316.5
 31
0.0
  0
LINE
  5
B5D
330
1E
100
AcDbEntity
  8
DETAIL
100
AcDbLine
 10
-316.5
 20
-265.0
 30
0.0
 11
-439.0
 21
-265.0
 31
0.0
  0
LINE
  5
B64
330
1E
100
AcDbEntity
  8
DETAIL
100
AcDbLine
 10
264.9999999999999
 20
-439.0
 30
0.0
 11
264.9999999999999
 21
-316.5
 31
0.0
  0
LINE
  5
B65
330
1E
100
AcDbEntity
  8
DETAIL
100
AcDbLine
 10
316.4999999999998
 20
-265.0
 30
0.0
 11
438.9999999999998
 21
-265.0
 31
0.0
  0
LINE
  5
BA3
330
1E
100
AcDbEntity
  8
OUTLINE
100
AcDbLine
 10
-465.0
 20
-475.0
 30
0.0
 11
465.0
 21
-475.0
 31
0.0
  0
LINE
  5
BA4
330
1E
100
AcDbEntity
  8
OUTLINE
100
AcDbLine
 10
-465.0
 20
475.0
 30
0.0
 11
465.0
 21
475.0
 31
0.0
  0
LINE
  5
BA9
330
1E
100
AcDbEntity
  8
OUTLINE
100
AcDbLine
 10
-475.0
 20
465.0
 30
0.0
 11
-475.0
 21
-465.0
 31
0.0
  0
LINE
  5
BC5
330
1E
100
AcDbEntity
  8
OUTLINE
100
AcDbLine
 10
475.0
 20
465.0
 30
0.0
 11
475.0
 21
-465.0
 31
0.0
  0
ARC
  5
DF6
330
1E
100
AcDbEntity
  8
OUTLINE
100
AcDbCircle
 10
-465.0
 20
465.0
 30
0.0
 40
10.0
100
AcDbArc
 50
90.0
 51
180.0
  0
ARC
  5
DF8
330
1E
100
AcDbEntity
  8
OUTLINE
100
AcDbCircle
 10
465.0
 20
465.0
 30
0.0
 40
10.0
100
AcDbArc
 50
0.0
 51
90.0
  0
ARC
  5
DF9
330
1E
100
AcDbEntity
  8
OUTLINE
100
AcDbCircle
 10
465.0
 20
-465.0
 30
0.0
 40
10.0
100
AcDbArc
 50
270.0
 51
0.0
  0
ARC
  5
DFA
330
1E
100
AcDbEntity
  8
OUTLINE
100
AcDbCircle
 10
-465.0
 20
-465.0
 30
0.0
 40
10.0
100
AcDbArc
 50
180.0
 51
270.0
  0
ARC
  5
DFB
330
1E
100
AcDbEntity
  8
DETAIL
100
AcDbCircle
 10
-465.0
 20
465.0
 30
0.0
 40
10.0
100
AcDbArc
 50
90.0
 51
180.0
  0
ARC
  5
DFC
330
1E
100
AcDbEntity
  8
DETAIL
100
AcDbCircle
 10
-465.0
 20
-465.0
 30
0.0
 40
10.0
100
AcDbArc
 50
180.0
 51
270.0
  0
ARC
  5
DFD
330
1E
100
AcDbEntity
  8
DETAIL
100
AcDbCircle
 10
465.0
 20
-465.0
 30
0.0
 40
10.0
100
AcDbArc
 50
270.0
 51
0.0
  0
ARC
  5
DFE
330
1E
100
AcDbEntity
  8
DETAIL
100
AcDbCircle
 10
465.0
 20
465.0
 30
0.0
 40
10.0
100
AcDbArc
 50
0.0
 51
90.0
  0
LINE
  5
E3D
330
1E
100
AcDbEntity
  8
SERVICESPACE
100
AcDbLine
 10
430.0
 20
430.0
 30
0.0
 11
430.0
 21
-430.0
 31
0.0
  0
LINE
  5
E3E
330
1E
100
AcDbEntity
  8
SERVICESPACE
100
AcDbLine
 10
-430.0
 20
430.0
 30
0.0
 11
-430.0
 21
-430.0
 31
0.0
  0
LINE
  5
E3F
330
1E
100
AcDbEntity
  8
SERVICESPACE
100
AcDbLine
 10
-430.0
 20
430.0
 30
0.0
 11
430.0
 21
430.0
 31
0.0
  0
LINE
  5
E40
330
1E
100
AcDbEntity
  8
SERVICESPACE
100
AcDbLine
 10
-430.0
 20
-430.0
 30
0.0
 11
430.0
 21
-430.0
 31
0.0
  0
LINE
  5
E86
330
1E
100
AcDbEntity
  8
SERVICESPACE
100
AcDbLine
 10
-1975.0
 20
1975.0
 30
0.0
 11
1975.0
 21
1975.0
 31
0.0
  0
LINE
  5
E87
330
1E
100
AcDbEntity
  8
SERVICESPACE
100
AcDbLine
 10
1975.0
 20
1975.0
 30
0.0
 11
1975.0
 21
-1975.0
 31
0.0
  0
LINE
  5
E88
330
1E
100
AcDbEntity
  8
SERVICESPACE
100
AcDbLine
 10
-1975.0
 20
-1975.0
 30
0.0
 11
1975.0
 21
-1975.0
 31
0.0
  0
LINE
  5
E89
330
1E
100
AcDbEntity
  8
SERVICESPACE
100
AcDbLine
 10
-1975.0
 20
1975.0
 30
0.0
 11
-1975.0
 21
-1975.000000000001
 31
0.0
  0
DIMENSION
  5
E8A
330
1E
100
AcDbEntity
  8
SIZE
100
AcDbDimension
  2
*D2
 10
-1975.0
 20
1058.039016954273
 30
0.0
 11
-1225.0
 21
1090.539016954273
 31
0.0
 70
    32
  1
<>以上
 71
     5
 42
1500.0
  3
STANDARD_ME08
100
AcDbAlignedDimension
 13
-475.0
 23
465.0
 33
0.0
 14
-1975.0
 24
-0.0000000000002274
 34
0.0
100
AcDbRotatedDimension
1001
ACAD
1000
DSTYLE
1002
{
1070
    76
1070
     1
1002
}
  0
DIMENSION
  5
E8B
330
1E
100
AcDbEntity
  8
SIZE
100
AcDbDimension
  2
*D3
 10
1975.0
 20
1058.039016954273
 30
0.0
 11
1225.0
 21
1058.039016954273
 31
0.0
 70
   160
  1
<>以上
 71
     5
 42
1500.0
  3
STANDARD_ME08
100
AcDbAlignedDimension
 13
475.0
 23
465.0
 33
0.0
 14
1975.0
 24
0.0
 34
0.0
100
AcDbRotatedDimension
1001
ACAD
1000
DSTYLE
1002
{
1070
    76
1070
     1
1002
}
  0
DIMENSION
  5
E8C
330
1E
100
AcDbEntity
  8
SIZE
100
AcDbDimension
  2
*D4
 10
-758.9464115727277
 20
1975.000000000001
 30
0.0
 11
-758.9464115727272
 21
1441.881641465266
 31
0.0
 70
   160
  1
<>以上
 71
     5
 42
1500.0
  3
STANDARD_ME08
100
AcDbAlignedDimension
 13
-464.9999999999998
 23
475.0
 33
0.0
 14
0.0000000000002419
 24
1975.0
 34
0.0
 50
90.0
100
AcDbRotatedDimension
1001
ACAD
1000
DSTYLE
1002
{
1070
    76
1070
     1
1002
}
  0
DIMENSION
  5
E8D
330
1E
100
AcDbEntity
  8
SIZE
100
AcDbDimension
  2
*D5
 10
-758.9464115727349
 20
-475.0000000000001
 30
0.0
 11
-791.446411572735
 21
-1225.0
 31
0.0
 70
    32
  1
<>以上
 71
     5
 42
1500.0
  3
STANDARD_ME08
100
AcDbAlignedDimension
 13
-0.0000000000002419
 23
-1975.0
 33
0.0
 14
-465.0
 24
-474.9999999999998
 34
0.0
 50
90.0
100
AcDbRotatedDimension
1001
ACAD
1000
DSTYLE
1002
{
1070
    75
1070
     1
1070
    76
1070
     0
1002
}
  0
TEXT
  5
E8E
330
1E
100
AcDbEntity
  8
SERVICESPACE
100
AcDbText
 10
-1975.0
 20
1975.0
 30
0.0
 40
45.0
  1
必要空間
 41
0.8
  7
ME08
100
AcDbText
  0
DIMENSION
  5
ED3
330
1E
100
AcDbEntity
  8
SIZE
100
AcDbDimension
  2
*D6
 10
475.0
 20
1058.039016954273
 30
0.0
 11
0.0000000000000588
 21
1090.539016954273
 31
0.0
 70
    32
 71
     5
 42
950.0
  3
STANDARD_ME08
100
AcDbAlignedDimension
 13
-475.0
 23
465.0
 33
0.0
 14
475.0
 24
465.0
 34
0.0
100
AcDbRotatedDimension
  0
DIMENSION
  5
EE0
330
1E
100
AcDbEntity
  8
SIZE
100
AcDbDimension
  2
*D7
 10
-758.9464115727339
 20
-475.0000000000001
 30
0.0
 11
-791.4464115727339
 21
0.000000000000221
 31
0.0
 70
    32
 71
     5
 42
950.0
  3
STANDARD_ME08
100
AcDbAlignedDimension
 13
-464.9999999999998
 23
475.0
 33
0.0
 14
-464.9999999999997
 24
-474.9999999999998
 34
0.0
 50
90.0
100
AcDbRotatedDimension
  0
TEXT
  5
1261
330
1E
100
AcDbEntity
  8
ETC
100
AcDbText
 10
2419.355730430629
 20
1903.254422258414
 30
0.0
 40
45.0
  1
PAC加湿器
  7
ME08
100
AcDbText
  0
TEXT
  5
1262
330
1E
100
AcDbEntity
  8
ETC
100
AcDbText
 10
2415.025151792848
 20
1803.951117254532
 30
0.0
 40
45.0
  1
SPAC7846
  7
ME08
100
AcDbText
  0
LINE
  5
1C23
330
1E
100
AcDbEntity
  8
DETAIL
  6
Continuous
100
AcDbLine
 10
650.1999999999998
 20
-123.2004237839994
 30
0.0
 11
657.1999999999998
 21
-116.2004237839994
 31
0.0
  0
LINE
  5
1C28
330
1E
100
AcDbEntity
  8
DETAIL
  6
Continuous
100
AcDbLine
 10
558.0900377460002
 20
-183.390311459378
 30
0.0
 11
558.0900377460002
 21
-163.2104237839992
 31
0.0
  0
LINE
  5
1C29
330
1E
100
AcDbEntity
  8
DETAIL
  6
Continuous
100
AcDbLine
 10
561.6631992000001
 20
-160.5004237839996
 30
0.0
 11
561.6631992000001
 21
-169.2104237839992
 31
0.0
  0
LINE
  5
1C2F
330
1E
100
AcDbEntity
  8
DETAIL
  6
Continuous
100
AcDbLine
 10
609.6631992000002
 20
-160.5004237839996
 30
0.0
 11
609.6631992000002
 21
-169.2104237839992
 31
0.0
  0
LINE
  5
1C30
330
1E
100
AcDbEntity
  8
DETAIL
  6
Continuous
100
AcDbLine
 10
619.2000000000007
 20
-160.5004237839996
 30
0.0
 11
619.2000000000007
 21
-163.2104237839992
 31
0.0
  0
LINE
  5
1C31
330
1E
100
AcDbEntity
  8
DETAIL
  6
Continuous
100
AcDbLine
 10
621.1263984000006
 20
-160.5004237839996
 30
0.0
 11
621.1263984000006
 21
-159.9004237839997
 31
0.0
  0
LINE
  5
1C32
330
1E
100
AcDbEntity
  8
DETAIL
  6
Continuous
100
AcDbLine
 10
621.1263984000006
 20
219.8995762160005
 30
0.0
 11
621.1263984000006
 21
221.2995762160006
 31
0.0
  0
LINE
  5
1C33
330
1E
100
AcDbEntity
  8
DETAIL
  6
Continuous
100
AcDbLine
 10
626.0763984000004
 20
219.8995762160005
 30
0.0
 11
626.0763984000004
 21
-159.9004237839997
 31
0.0
  0
LINE
  5
1C34
330
1E
100
AcDbEntity
  8
DETAIL
  6
Continuous
100
AcDbLine
 10
626.1263984000006
 20
-159.5004237839991
 30
0.0
 11
626.1263984000006
 21
220.2995762160011
 31
0.0
  0
LINE
  5
1C35
330
1E
100
AcDbEntity
  8
DETAIL
  6
Continuous
100
AcDbLine
 10
628.0
 20
212.3995762160005
 30
0.0
 11
628.0
 21
-151.600423783999
 31
0.0
  0
LINE
  5
1C36
330
1E
100
AcDbEntity
  8
DETAIL
  6
Continuous
100
AcDbLine
 10
649.1999999999998
 20
-5.200423783998981
 30
0.0
 11
649.1999999999998
 21
-123.2004237839994
 31
0.0
  0
LINE
  5
1C37
330
1E
100
AcDbEntity
  8
DETAIL
  6
Continuous
100
AcDbLine
 10
649.6999999999998
 20
-124.2004237839994
 30
0.0
 11
649.6999999999998
 21
-127.7004237839989
 31
0.0
  0
LINE
  5
1C38
330
1E
100
AcDbEntity
  8
DETAIL
  6
Continuous
100
AcDbLine
 10
650.0
 20
-4.200423783999434
 30
0.0
 11
650.0
 21
-4.220627886999176
 31
0.0
  0
LINE
  5
1C39
330
1E
100
AcDbEntity
  8
DETAIL
  6
Continuous
100
AcDbLine
 10
650.0
 20
-124.1802196809992
 30
0.0
 11
650.0
 21
-124.2004237839994
 31
0.0
  0
LINE
  5
1C3A
330
1E
100
AcDbEntity
  8
DETAIL
  6
Continuous
100
AcDbLine
 10
650.0
 20
-128.4145666269994
 30
0.0
 11
650.0
 21
-130.2004237839989
 31
0.0
  0
LINE
  5
1C3B
330
1E
100
AcDbEntity
  8
DETAIL
  6
Continuous
100
AcDbLine
 10
650.0
 20
-3.400423783999253
 30
0.0
 11
650.0
 21
1.779372113001273
 31
0.0
  0
LINE
  5
1C3C
330
1E
100
AcDbEntity
  8
DETAIL
  6
Continuous
100
AcDbLine
 10
650.1999999999998
 20
-124.2004237839994
 30
0.0
 11
650.1999999999998
 21
-123.2004237839994
 31
0.0
  0
LINE
  5
1C3D
330
1E
100
AcDbEntity
  8
DETAIL
  6
Continuous
100
AcDbLine
 10
650.1999999999998
 20
-5.200423783998981
 30
0.0
 11
650.1999999999998
 21
-4.200423783999434
 31
0.0
  0
LINE
  5
1C3E
330
1E
100
AcDbEntity
  8
DETAIL
  6
Continuous
100
AcDbLine
 10
657.6000000000004
 20
-4.200423783999434
 30
0.0
 11
657.6000000000004
 21
-3.400423783999253
 31
0.0
  0
LINE
  5
1C3F
330
1E
100
AcDbEntity
  8
DETAIL
  6
Continuous
100
AcDbLine
 10
657.6999999999998
 20
-4.200423783999434
 30
0.0
 11
657.6999999999998
 21
-3.700423783999438
 31
0.0
  0
LINE
  5
1C40
330
1E
100
AcDbEntity
  8
DETAIL
  6
Continuous
100
AcDbLine
 10
661.5
 20
-4.200423783999434
 30
0.0
 11
661.5
 21
-3.700423783999438
 31
0.0
  0
LINE
  5
1C41
330
1E
100
AcDbEntity
  8
DETAIL
  6
Continuous
100
AcDbLine
 10
661.5999999999992
 20
-4.200423783999434
 30
0.0
 11
661.5999999999992
 21
-3.400423783999253
 31
0.0
  0
LINE
  5
1C42
330
1E
100
AcDbEntity
  8
DETAIL
  6
Continuous
100
AcDbLine
 10
670.0
 20
-4.200423783999434
 30
0.0
 11
670.0
 21
-3.400423783999253
 31
0.0
  0
LINE
  5
1C43
330
1E
100
AcDbEntity
  8
DETAIL
  6
Continuous
100
AcDbLine
 10
671.8999999999996
 20
-4.200423783999434
 30
0.0
 11
671.8999999999996
 21
-3.700423783999438
 31
0.0
  0
LINE
  5
1C44
330
1E
100
AcDbEntity
  8
DETAIL
  6
Continuous
100
AcDbLine
 10
683.4000000000005
 20
-124.2004237839994
 30
0.0
 11
683.4000000000005
 21
-116.2004237839994
 31
0.0
  0
LINE
  5
1C45
330
1E
100
AcDbEntity
  8
DETAIL
  6
Continuous
100
AcDbLine
 10
683.4000000000005
 20
-12.20042378399898
 30
0.0
 11
683.4000000000005
 21
-4.200423783999434
 31
0.0
  0
LINE
  5
1C46
330
1E
100
AcDbEntity
  8
DETAIL
  6
Continuous
100
AcDbLine
 10
683.9000000000005
 20
-123.4004237839992
 30
0.0
 11
683.9000000000005
 21
-124.2004237839994
 31
0.0
  0
LINE
  5
1C47
330
1E
100
AcDbEntity
  8
DETAIL
  6
Continuous
100
AcDbLine
 10
683.9000000000005
 20
-5.000423783999162
 30
0.0
 11
683.9000000000005
 21
-4.200423783999434
 31
0.0
  0
LINE
  5
1C48
330
1E
100
AcDbEntity
  8
DETAIL
  6
Continuous
100
AcDbLine
 10
685.1999999999998
 20
-127.7004237839989
 30
0.0
 11
685.1999999999998
 21
-124.2004237839994
 31
0.0
  0
LINE
  5
1C49
330
1E
100
AcDbEntity
  8
DETAIL
  6
Continuous
100
AcDbLine
 10
686.2000000000007
 20
-42.50042378399916
 30
0.0
 11
686.2000000000007
 21
-43.0004237839996
 31
0.0
  0
LINE
  5
1C4A
330
1E
100
AcDbEntity
  8
DETAIL
  6
Continuous
100
AcDbLine
 10
686.2000000000007
 20
-85.4004237839997
 30
0.0
 11
686.2000000000007
 21
-85.90042378399926
 31
0.0
  0
LINE
  5
1C4B
330
1E
100
AcDbEntity
  8
DETAIL
  6
Continuous
100
AcDbLine
 10
686.3999999999996
 20
-85.4004237839997
 30
0.0
 11
686.3999999999996
 21
-43.0004237839996
 31
0.0
  0
LINE
  5
1C4C
330
1E
100
AcDbEntity
  8
DETAIL
  6
Continuous
100
AcDbLine
 10
687.1999999999997
 20
-127.4004237839997
 30
0.0
 11
687.1999999999997
 21
-1.000423783999619
 31
0.0
  0
LINE
  5
1C4D
330
1E
100
AcDbEntity
  8
DETAIL
  6
Continuous
100
AcDbLine
 10
687.8000000000001
 20
-127.4004237839997
 30
0.0
 11
687.8000000000001
 21
-1.000423783999619
 31
0.0
  0
LINE
  5
1C4E
330
1E
100
AcDbEntity
  8
DETAIL
  6
Continuous
100
AcDbLine
 10
688.0
 20
-9.000423783999162
 30
0.0
 11
688.0
 21
-59.50042378399916
 31
0.0
  0
LINE
  5
1C4F
330
1E
100
AcDbEntity
  8
DETAIL
  6
Continuous
100
AcDbLine
 10
688.0
 20
-68.90042378399925
 30
0.0
 11
688.0
 21
-119.4004237839992
 31
0.0
  0
LINE
  5
1C50
330
1E
100
AcDbEntity
  8
DETAIL
  6
Continuous
100
AcDbLine
 10
688.0884444189996
 20
-68.90042378399925
 30
0.0
 11
688.0884444189996
 21
-59.50042378399916
 31
0.0
  0
LINE
  5
1C51
330
1E
100
AcDbEntity
  8
DETAIL
  6
Continuous
100
AcDbLine
 10
688.1999999999997
 20
-123.2004237839994
 30
0.0
 11
688.1999999999997
 21
-68.80585535999921
 31
0.0
  0
LINE
  5
1C52
330
1E
100
AcDbEntity
  8
DETAIL
  6
Continuous
100
AcDbLine
 10
688.1999999999997
 20
-59.59499220799877
 30
0.0
 11
688.1999999999997
 21
-5.200423783998981
 31
0.0
  0
LINE
  5
1C53
330
1E
100
AcDbEntity
  8
DETAIL
  6
Continuous
100
AcDbLine
 10
689.0
 20
-123.2004237839994
 30
0.0
 11
689.0
 21
-67.96472982899899
 31
0.0
  0
LINE
  5
1C54
330
1E
100
AcDbEntity
  8
DETAIL
  6
Continuous
100
AcDbLine
 10
689.0
 20
-60.43611773899943
 30
0.0
 11
689.0
 21
-5.200423783998981
 31
0.0
  0
LINE
  5
1C58
330
1E
100
AcDbEntity
  8
DETAIL
  6
Continuous
100
AcDbLine
 10
650.1999999999998
 20
-5.200423783998981
 30
0.0
 11
657.1999999999998
 21
-12.20042378399898
 31
0.0
  0
ARC
  5
1C5A
330
1E
100
AcDbEntity
  8
DETAIL
  6
Continuous
100
AcDbCircle
 10
538.0900377460002
 20
-183.3903114593787
 30
0.0
 40
58.0
100
AcDbArc
 50
270.0000107054691
 51
358.5837276819547
  0
ARC
  5
1C5C
330
1E
100
AcDbEntity
  8
DETAIL
  6
Continuous
100
AcDbCircle
 10
538.0900377460002
 20
-183.390311459378
 30
0.0
 40
20.0
100
AcDbArc
 50
270.0000107054691
 51
0.0
  0
LINE
  5
1C60
330
1E
100
AcDbEntity
  8
DETAIL
  6
Continuous
100
AcDbLine
 10
561.6631992000001
 20
-169.2104237839992
 30
0.0
 11
609.6631992000002
 21
-169.2104237839992
 31
0.0
  0
LINE
  5
1C61
330
1E
100
AcDbEntity
  8
DETAIL
  6
Continuous
100
AcDbLine
 10
561.6631992000001
 20
-166.2104237839992
 30
0.0
 11
609.6631992000002
 21
-166.2104237839992
 31
0.0
  0
LINE
  5
1C63
330
1E
100
AcDbEntity
  8
DETAIL
  6
Continuous
100
AcDbLine
 10
609.6631992000002
 20
-163.2104237839992
 30
0.0
 11
619.2000000000007
 21
-163.2104237839992
 31
0.0
  0
LINE
  5
1C65
330
1E
100
AcDbEntity
  8
DETAIL
  6
Continuous
100
AcDbLine
 10
626.0763984000004
 20
-159.9004237839997
 30
0.0
 11
475.0
 21
-159.9004237839997
 31
0.0
  0
LINE
  5
1C66
330
1E
100
AcDbEntity
  8
DETAIL
  6
Continuous
100
AcDbLine
 10
626.1263984000006
 20
-159.5004237839991
 30
0.0
 11
626.0763984000004
 21
-159.5004237839991
 31
0.0
  0
LINE
  5
1C67
330
1E
100
AcDbEntity
  8
DETAIL
  6
Continuous
100
AcDbLine
 10
626.1263984000006
 20
-151.600423783999
 30
0.0
 11
628.0
 21
-151.600423783999
 31
0.0
  0
LINE
  5
1C68
330
1E
100
AcDbEntity
  8
DETAIL
  6
Continuous
100
AcDbLine
 10
650.0
 20
-130.2004237839989
 30
0.0
 11
628.0
 21
-130.2004237839989
 31
0.0
  0
LINE
  5
1C69
330
1E
100
AcDbEntity
  8
DETAIL
  6
Continuous
100
AcDbLine
 10
650.6999999999997
 20
-128.7004237839994
 30
0.0
 11
684.1999999999998
 21
-128.7004237839994
 31
0.0
  0
LINE
  5
1C6A
330
1E
100
AcDbEntity
  8
DETAIL
  6
Continuous
100
AcDbLine
 10
687.8000000000001
 20
-127.4004237839997
 30
0.0
 11
687.1999999999997
 21
-127.4004237839997
 31
0.0
  0
LINE
  5
1C6B
330
1E
100
AcDbEntity
  8
DETAIL
  6
Continuous
100
AcDbLine
 10
628.0
 20
-125.2004237839989
 30
0.0
 11
649.6999999999998
 21
-125.2004237839989
 31
0.0
  0
LINE
  5
1C6C
330
1E
100
AcDbEntity
  8
DETAIL
  6
Continuous
100
AcDbLine
 10
649.6999999999998
 20
-125.0004237839991
 30
0.0
 11
628.0
 21
-125.0004237839991
 31
0.0
  0
LINE
  5
1C6D
330
1E
100
AcDbEntity
  8
DETAIL
  6
Continuous
100
AcDbLine
 10
687.8000000000001
 20
-124.4004237839992
 30
0.0
 11
687.1999999999997
 21
-124.4004237839992
 31
0.0
  0
LINE
  5
1C6E
330
1E
100
AcDbEntity
  8
DETAIL
  6
Continuous
100
AcDbLine
 10
628.0
 20
-124.2004237839994
 30
0.0
 11
687.1999999999997
 21
-124.2004237839994
 31
0.0
  0
LINE
  5
1C6F
330
1E
100
AcDbEntity
  8
DETAIL
  6
Continuous
100
AcDbLine
 10
687.1999999999997
 20
-123.4004237839992
 30
0.0
 11
683.4000000000005
 21
-123.4004237839992
 31
0.0
  0
LINE
  5
1C70
330
1E
100
AcDbEntity
  8
DETAIL
  6
Continuous
100
AcDbLine
 10
689.0
 20
-123.2004237839994
 30
0.0
 11
687.8000000000001
 21
-123.2004237839994
 31
0.0
  0
LINE
  5
1C71
330
1E
100
AcDbEntity
  8
DETAIL
  6
Continuous
100
AcDbLine
 10
687.1999999999997
 20
-123.2004237839994
 30
0.0
 11
683.4000000000005
 21
-123.2004237839994
 31
0.0
  0
LINE
  5
1C72
330
1E
100
AcDbEntity
  8
DETAIL
  6
Continuous
100
AcDbLine
 10
650.1999999999998
 20
-123.2004237839994
 30
0.0
 11
649.1999999999998
 21
-123.2004237839994
 31
0.0
  0
LINE
  5
1C73
330
1E
100
AcDbEntity
  8
DETAIL
  6
Continuous
100
AcDbLine
 10
687.8000000000001
 20
-119.4004237839992
 30
0.0
 11
688.0
 21
-119.4004237839992
 31
0.0
  0
LINE
  5
1C74
330
1E
100
AcDbEntity
  8
DETAIL
  6
Continuous
100
AcDbLine
 10
628.0
 20
-119.2206278869991
 30
0.0
 11
649.1999999999998
 21
-119.2206278869991
 31
0.0
  0
LINE
  5
1C75
330
1E
100
AcDbEntity
  8
DETAIL
  6
Continuous
100
AcDbLine
 10
657.1999999999998
 20
-116.2004237839994
 30
0.0
 11
683.4000000000005
 21
-116.2004237839994
 31
0.0
  0
LINE
  5
1C76
330
1E
100
AcDbEntity
  8
DETAIL
  6
Continuous
100
AcDbLine
 10
686.2000000000007
 20
-85.90042378399926
 30
0.0
 11
687.1999999999997
 21
-85.90042378399926
 31
0.0
  0
LINE
  5
1C77
330
1E
100
AcDbEntity
  8
DETAIL
  6
Continuous
100
AcDbLine
 10
687.1999999999997
 20
-85.4004237839997
 30
0.0
 11
686.2000000000007
 21
-85.4004237839997
 31
0.0
  0
LINE
  5
1C78
330
1E
100
AcDbEntity
  8
DETAIL
  6
Continuous
100
AcDbLine
 10
687.1999999999997
 20
-82.40042378399968
 30
0.0
 11
686.3999999999996
 21
-82.40042378399968
 31
0.0
  0
LINE
  5
1C79
330
1E
100
AcDbEntity
  8
DETAIL
  6
Continuous
100
AcDbLine
 10
687.8000000000001
 20
-68.90042378399925
 30
0.0
 11
688.0884444189996
 21
-68.90042378399925
 31
0.0
  0
LINE
  5
1C7A
330
1E
100
AcDbEntity
  8
DETAIL
  6
Continuous
100
AcDbLine
 10
689.886607073
 20
-66.35042378399953
 30
0.0
 11
689.9085462250003
 21
-66.35042378399953
 31
0.0
  0
LINE
  5
1C7B
330
1E
100
AcDbEntity
  8
DETAIL
  6
Continuous
100
AcDbLine
 10
689.886607073
 20
-64.70042378399897
 30
0.0
 11
690.1966657399997
 21
-64.70042378399897
 31
0.0
  0
LINE
  5
1C7C
330
1E
100
AcDbEntity
  8
DETAIL
  6
Continuous
100
AcDbLine
 10
690.1966657399997
 20
-63.70042378399944
 30
0.0
 11
689.886607073
 21
-63.70042378399944
 31
0.0
  0
LINE
  5
1C7D
330
1E
100
AcDbEntity
  8
DETAIL
  6
Continuous
100
AcDbLine
 10
689.9085462250003
 20
-62.05042378399935
 30
0.0
 11
689.886607073
 21
-62.05042378399935
 31
0.0
  0
LINE
  5
1C7E
330
1E
100
AcDbEntity
  8
DETAIL
  6
Continuous
100
AcDbLine
 10
687.8000000000001
 20
-59.50042378399916
 30
0.0
 11
688.0884444189996
 21
-59.50042378399916
 31
0.0
  0
LINE
  5
1C7F
330
1E
100
AcDbEntity
  8
DETAIL
  6
Continuous
100
AcDbLine
 10
687.1999999999997
 20
-46.00042378399961
 30
0.0
 11
686.3999999999996
 21
-46.00042378399961
 31
0.0
  0
LINE
  5
1C80
330
1E
100
AcDbEntity
  8
DETAIL
  6
Continuous
100
AcDbLine
 10
687.1999999999997
 20
-43.0004237839996
 30
0.0
 11
686.2000000000007
 21
-43.0004237839996
 31
0.0
  0
LINE
  5
1C81
330
1E
100
AcDbEntity
  8
DETAIL
  6
Continuous
100
AcDbLine
 10
687.1999999999997
 20
-42.50042378399916
 30
0.0
 11
686.2000000000007
 21
-42.50042378399916
 31
0.0
  0
LINE
  5
1C82
330
1E
100
AcDbEntity
  8
DETAIL
  6
Continuous
100
AcDbLine
 10
657.1999999999998
 20
-12.20042378399898
 30
0.0
 11
683.4000000000005
 21
-12.20042378399898
 31
0.0
  0
LINE
  5
1C83
330
1E
100
AcDbEntity
  8
DETAIL
  6
Continuous
100
AcDbLine
 10
649.1999999999998
 20
-9.200423783999436
 30
0.0
 11
628.0
 21
-9.200423783999436
 31
0.0
  0
LINE
  5
1C84
330
1E
100
AcDbEntity
  8
DETAIL
  6
Continuous
100
AcDbLine
 10
687.8000000000001
 20
-9.000423783999162
 30
0.0
 11
688.0
 21
-9.000423783999162
 31
0.0
  0
LINE
  5
1C85
330
1E
100
AcDbEntity
  8
DETAIL
  6
Continuous
100
AcDbLine
 10
689.0
 20
-5.200423783998981
 30
0.0
 11
687.8000000000001
 21
-5.200423783998981
 31
0.0
  0
LINE
  5
1C86
330
1E
100
AcDbEntity
  8
DETAIL
  6
Continuous
100
AcDbLine
 10
650.1999999999998
 20
-5.200423783998981
 30
0.0
 11
649.1999999999998
 21
-5.200423783998981
 31
0.0
  0
LINE
  5
1C87
330
1E
100
AcDbEntity
  8
DETAIL
  6
Continuous
100
AcDbLine
 10
683.4000000000005
 20
-5.200423783998981
 30
0.0
 11
687.1999999999997
 21
-5.200423783998981
 31
0.0
  0
LINE
  5
1C88
330
1E
100
AcDbEntity
  8
DETAIL
  6
Continuous
100
AcDbLine
 10
683.4000000000005
 20
-5.000423783999162
 30
0.0
 11
687.1999999999997
 21
-5.000423783999162
 31
0.0
  0
LINE
  5
1C89
330
1E
100
AcDbEntity
  8
DETAIL
  6
Continuous
100
AcDbLine
 10
628.0
 20
-4.200423783999434
 30
0.0
 11
687.1999999999997
 21
-4.200423783999434
 31
0.0
  0
LINE
  5
1C8A
330
1E
100
AcDbEntity
  8
DETAIL
  6
Continuous
100
AcDbLine
 10
687.8000000000001
 20
-4.000423783999162
 30
0.0
 11
687.1999999999997
 21
-4.000423783999162
 31
0.0
  0
LINE
  5
1C8B
330
1E
100
AcDbEntity
  8
DETAIL
  6
Continuous
100
AcDbLine
 10
657.6999999999998
 20
-3.700423783999438
 30
0.0
 11
661.5
 21
-3.700423783999438
 31
0.0
  0
LINE
  5
1C8C
330
1E
100
AcDbEntity
  8
DETAIL
  6
Continuous
100
AcDbLine
 10
670.0
 20
-3.700423783999438
 30
0.0
 11
671.8999999999996
 21
-3.700423783999438
 31
0.0
  0
LINE
  5
1C8D
330
1E
100
AcDbEntity
  8
DETAIL
  6
Continuous
100
AcDbLine
 10
628.0
 20
-3.400423783999253
 30
0.0
 11
670.0
 21
-3.400423783999253
 31
0.0
  0
LINE
  5
1C8E
330
1E
100
AcDbEntity
  8
DETAIL
  6
Continuous
100
AcDbLine
 10
650.0
 20
-3.220627886998725
 30
0.0
 11
628.0
 21
-3.220627886998725
 31
0.0
  0
LINE
  5
1C8F
330
1E
100
AcDbEntity
  8
DETAIL
  6
Continuous
100
AcDbLine
 10
687.8000000000001
 20
-1.000423783999619
 30
0.0
 11
687.1999999999997
 21
-1.000423783999619
 31
0.0
  0
LINE
  5
1C90
330
1E
100
AcDbEntity
  8
DETAIL
  6
Continuous
100
AcDbLine
 10
628.0
 20
1.779372113001273
 30
0.0
 11
650.0
 21
1.779372113001273
 31
0.0
  0
LINE
  5
1C91
330
1E
100
AcDbEntity
  8
DETAIL
  6
Continuous
100
AcDbLine
 10
626.1263984000006
 20
212.3995762160005
 30
0.0
 11
628.0
 21
212.3995762160005
 31
0.0
  0
LINE
  5
1C92
330
1E
100
AcDbEntity
  8
DETAIL
  6
Continuous
100
AcDbLine
 10
626.0763984000004
 20
219.8995762160005
 30
0.0
 11
475.0
 21
219.8995762160004
 31
0.0
  0
LINE
  5
1C93
330
1E
100
AcDbEntity
  8
DETAIL
  6
Continuous
100
AcDbLine
 10
626.1263984000006
 20
220.2995762160011
 30
0.0
 11
621.1263984000006
 21
220.2995762160011
 31
0.0
  0
ARC
  5
1C95
330
1E
100
AcDbEntity
  8
DETAIL
  6
Continuous
100
AcDbCircle
 10
684.1999999999998
 20
-64.20042378399944
 30
0.0
 40
6.099999999999997
100
AcDbArc
 50
20.63779350239772
 51
50.39807291888511
  0
ARC
  5
1C96
330
1E
100
AcDbEntity
  8
DETAIL
  6
Continuous
100
AcDbCircle
 10
684.1999999999998
 20
-64.20042378399944
 30
0.0
 40
6.099999999999997
100
AcDbArc
 50
309.6019270811149
 51
339.3622064976023
  0
ARC
  5
1C97
330
1E
100
AcDbEntity
  8
DETAIL
  6
Continuous
100
AcDbCircle
 10
684.1999999999998
 20
-64.20042378399944
 30
0.0
 40
6.079473660999997
100
AcDbArc
 50
9.467488217804023
 51
20.7106696202952
  0
ARC
  5
1C98
330
1E
100
AcDbEntity
  8
DETAIL
  6
Continuous
100
AcDbCircle
 10
684.1999999999998
 20
-64.20042378399944
 30
0.0
 40
6.079473660999997
100
AcDbArc
 50
339.2893303797047
 51
350.532511782196
  0
ARC
  5
1C99
330
1E
100
AcDbEntity
  8
DETAIL
  6
Continuous
100
AcDbCircle
 10
684.1999999999998
 20
-64.20042378399944
 30
0.0
 40
5.708546224999999
100
AcDbArc
 50
354.9751398853971
 51
5.024860114602886
  0
ARC
  5
1C9F
330
1E
100
AcDbEntity
  8
DETAIL
  6
Continuous
100
AcDbCircle
 10
650.6999999999997
 20
-127.7004237839989
 30
0.0
 40
1.0
100
AcDbArc
 50
180.0
 51
270.0
  0
ARC
  5
1CA0
330
1E
100
AcDbEntity
  8
DETAIL
  6
Continuous
100
AcDbCircle
 10
684.1999999999998
 20
-127.7004237839989
 30
0.0
 40
1.0
100
AcDbArc
 50
270.0
 51
0.0
  0
ARC
  5
1CA1
330
1E
100
AcDbEntity
  8
DETAIL
  6
Continuous
100
AcDbCircle
 10
650.1999999999998
 20
-123.2004237839994
 30
0.0
 40
1.0
100
AcDbArc
 50
180.0
 51
270.0
  0
ARC
  5
1CA2
330
1E
100
AcDbEntity
  8
DETAIL
  6
Continuous
100
AcDbCircle
 10
650.1999999999998
 20
-5.200423783998981
 30
0.0
 40
1.0
100
AcDbArc
 50
90.0
 51
180.0
  0
ARC
  5
1CA3
330
1E
100
AcDbEntity
  8
DETAIL
  6
Continuous
100
AcDbCircle
 10
650.1999999999998
 20
-123.2004237839994
 30
0.0
 40
0.2
100
AcDbArc
 50
180.0
 51
270.0
  0
ARC
  5
1CA4
330
1E
100
AcDbEntity
  8
DETAIL
  6
Continuous
100
AcDbCircle
 10
650.1999999999998
 20
-5.200423783998981
 30
0.0
 40
0.2
100
AcDbArc
 50
90.0
 51
180.0
  0
SPLINE
  5
1CA5
330
1E
100
AcDbEntity
  8
DETAIL
  6
Continuous
100
AcDbSpline
210
0.0
220
0.0
230
1.0
 70
     8
 71
     3
 72
    11
 73
     7
 74
     0
 42
0.0000001
 43
0.0000000001
 40
0.0
 40
0.0
 40
0.0
 40
0.0
 40
0.3781506182999999
 40
0.6969824462
 40
0.9095274039999999
 40
1.0
 40
1.0
 40
1.0
 40
1.0
 10
690.1966657399997
 20
-63.20042378399943
 30
0.0
 10
690.2067928039996
 20
-63.26435363599943
 30
0.0
 10
690.2254583499996
 20
-63.38218494799935
 30
0.0
 10
690.22813855
 20
-63.53325320899943
 30
0.0
 10
690.2385919379995
 20
-63.64651955799923
 30
0.0
 10
690.2063055589998
 20
-63.68802994299925
 30
0.0
 10
690.1966657399997
 20
-63.70042378399944
 30
0.0
  0
SPLINE
  5
1CA6
330
1E
100
AcDbEntity
  8
DETAIL
  6
Continuous
100
AcDbSpline
210
0.0
220
0.0
230
1.0
 70
     8
 71
     3
 72
    11
 73
     7
 74
     0
 42
0.0000001
 43
0.0000000001
 40
0.0
 40
0.0
 40
0.0
 40
0.0
 40
0.0894486329
 40
0.303043652
 40
0.6218635414
 40
1.0
 40
1.0
 40
1.0
 40
1.0
 10
690.1966657399997
 20
-64.70042378399897
 30
0.0
 10
690.2062377519996
 20
-64.71264512099947
 30
0.0
 10
690.2386668179997
 20
-64.75404988699961
 30
0.0
 10
690.2281123809999
 20
-64.86745969699882
 30
0.0
 10
690.2254686760008
 20
-65.01864813599945
 30
0.0
 10
690.2067964359994
 20
-65.13648883799918
 30
0.0
 10
690.1966657399997
 20
-65.20042378399899
 30
0.0
  0
SPLINE
  5
1CAB
330
1E
100
AcDbEntity
  8
DETAIL
  6
Continuous
100
AcDbSpline
210
0.0
220
0.0
230
1.0
 70
     8
 71
     3
 72
    28
 73
    24
 74
     0
 42
0.0000001
 43
0.0000000001
 40
0.0
 40
0.0
 40
0.0
 40
0.0
 40
0.0515645266
 40
0.1031439143
 40
0.1897054297
 40
0.2765347133
 40
0.3201541455
 40
0.3639766721
 40
0.385985863
 40
0.4080733712
 40
0.4302373768
 40
0.4524469865
 40
0.4968867473
 40
0.5412131159
 40
0.5853218526
 40
0.6292002409000002
 40
0.6401473765
 40
0.6510889078000001
 40
0.6620254753000001
 40
0.6729503592000004
 40
0.6947627791
 40
0.7165624874
 40
0.7495280348862961
 40
0.7495280348862961
 40
0.7495280348862961
 40
0.7495280348862961
 10
652.3803622519999
 20
-169.8502721459992
 30
0.0
 10
651.2823230580006
 20
-170.8477942889992
 30
0.0
 10
649.0859281989997
 20
-172.8431260539989
 30
0.0
 10
644.9122491250008
 20
-176.360962950999
 30
0.0
 10
639.7870944940002
 20
-180.3188428729993
 30
0.0
 10
634.6005852280004
 20
-183.8037852089989
 30
0.0
 10
630.2902188950001
 20
-186.3658954019995
 30
0.0
 10
627.5218496489998
 20
-187.8679057729994
 30
0.0
 10
625.2627031410002
 20
-189.0054111019992
 30
0.0
 10
623.5423952600004
 20
-189.8267015479989
 30
0.0
 10
621.7990434890007
 20
-190.612103238999
 30
0.0
 10
619.4444914260002
 20
-191.6044725669992
 30
0.0
 10
616.4541156790001
 20
-192.7275822279987
 30
0.0
 10
612.7964487600002
 20
-193.847748378999
 30
0.0
 10
609.0823885690006
 20
-194.6971295319992
 30
0.0
 10
606.2600840630002
 20
-195.0974408239988
 30
0.0
 10
604.3741940740001
 20
-195.250205784999
 30
0.0
 10
603.4312740529992
 20
-195.3031796049992
 30
0.0
 10
602.4879441080003
 20
-195.3318440259993
 30
0.0
 10
601.2314591210006
 20
-195.3377813799995
 30
0.0
 10
599.6627209209999
 20
-195.2862479409993
 30
0.0
 10
597.4661165020242
 20
-195.1109526336621
 30
0.0
 10
595.9036464485323
 20
-194.899809063678
 30
0.0
 10
594.9676153682697
 20
-194.7455377372959
 30
0.0
  0
SPLINE
  5
1CAC
330
1E
100
AcDbEntity
  8
DETAIL
  6
Continuous
100
AcDbSpline
210
0.0
220
0.0
230
1.0
 70
     8
 71
     3
 72
    12
 73
     8
 74
     0
 42
0.0000001
 43
0.0000000001
 40
0.0
 40
0.0
 40
0.0
 40
0.0
 40
0.2110268772
 40
0.4228003681000001
 40
0.5416784681
 40
0.6581094906000004
 40
0.7388916586704564
 40
0.7388916586704564
 40
0.7388916586704564
 40
0.7388916586704564
 10
656.1626767510006
 20
-164.5702229139994
 30
0.0
 10
651.3007156490003
 20
-169.1186924939991
 30
0.0
 10
641.5595918030001
 20
-178.2317241419994
 30
0.0
 10
626.9354572729999
 20
-187.3165007819995
 30
0.0
 10
613.8624983460004
 20
-192.6483113469992
 30
0.0
 10
603.9340799250773
 20
-194.4951640404449
 30
0.0
 10
597.7159395808364
 20
-193.9748344138864
 30
0.0
 10
595.191546150577
 20
-193.5597626698421
 30
0.0
  0
SPLINE
  5
1CAD
330
1E
100
AcDbEntity
  8
DETAIL
  6
Continuous
100
AcDbSpline
210
0.0
220
0.0
230
1.0
 70
     8
 71
     3
 72
    12
 73
     8
 74
     0
 42
0.0000001
 43
0.0000000001
 40
0.0
 40
0.0
 40
0.0
 40
0.0
 40
0.0616112446
 40
0.1228491468
 40
0.3726147703
 40
0.6190876561
 40
1.0
 40
1.0
 40
1.0
 40
1.0
 10
668.3984386149996
 20
-128.7004237839994
 30
0.0
 10
668.4837970150002
 20
-129.1601078919991
 30
0.0
 10
668.6539965609997
 20
-130.0766905869993
 30
0.0
 10
669.0637999059998
 20
-132.8745431069994
 30
0.0
 10
665.8241449850001
 20
-137.1066184479993
 30
0.0
 10
665.4650657050003
 20
-143.766695309999
 30
0.0
 10
664.4856159360005
 20
-148.4558583979994
 30
0.0
 10
663.655047313
 20
-151.2322108299993
 30
0.0
  0
SPLINE
  5
1CAE
330
1E
100
AcDbEntity
  8
DETAIL
  6
Continuous
100
AcDbSpline
210
0.0
220
0.0
230
1.0
 70
     8
 71
     3
 72
    11
 73
     7
 74
     0
 42
0.0000001
 43
0.0000000001
 40
0.0
 40
0.0
 40
0.0
 40
0.0
 40
0.2272641309
 40
0.4708760451
 40
0.6323150148
 40
0.6788461640936305
 40
0.6788461640936305
 40
0.6788461640936305
 40
0.6788461640936305
 10
667.1753054129992
 20
-128.7004237839994
 30
0.0
 10
662.79100268
 20
-141.2580011949996
 30
0.0
 10
661.0350354719993
 20
-167.276459813999
 30
0.0
 10
631.5623321889997
 20
-189.7328680959992
 30
0.0
 10
608.4878910850467
 20
-196.6532327342172
 30
0.0
 10
597.1791357202622
 20
-196.40083457719
 30
0.0
 10
594.6699228498817
 20
-196.1463532291275
 30
0.0
  0
SPLINE
  5
1CAF
330
1E
100
AcDbEntity
  8
DETAIL
  6
Continuous
100
AcDbSpline
210
0.0
220
0.0
230
1.0
 70
     8
 71
     3
 72
    24
 73
    20
 74
     0
 42
0.0000001
 43
0.0000000001
 40
0.0
 40
0.0
 40
0.0
 40
0.0
 40
0.0174146129
 40
0.0966175643
 40
0.1369032427
 40
0.1776713201
 40
0.218919779
 40
0.2606220728
 40
0.3027348516
 40
0.3452065207
 40
0.3665647459
 40
0.3879933506
 40
0.4094788158
 40
0.4309851108
 40
0.473897663
 40
0.5164549613000001
 40
0.5584242199000001
 40
0.599648941
 40
0.6264672948375029
 40
0.6264672948375029
 40
0.6264672948375029
 40
0.6264672948375029
 10
663.655047313
 20
-151.2322108299993
 30
0.0
 10
663.4172986410002
 20
-152.0269363759991
 30
0.0
 10
661.9910104210001
 20
-156.4040205249996
 30
0.0
 10
659.1581229789998
 20
-162.3095519889996
 30
0.0
 10
654.9237279990002
 20
-168.6470246289989
 30
0.0
 10
651.2678266969997
 20
-173.1735140649996
 30
0.0
 10
647.1891101720002
 20
-177.4152789989991
 30
0.0
 10
642.7235350569999
 20
-181.3448660729993
 30
0.0
 10
637.9076089649998
 20
-184.933639356999
 30
0.0
 10
633.6391543449997
 20
-187.6117162479993
 30
0.0
 10
630.0848814030005
 20
-189.5561852559992
 30
0.0
 10
627.3488270080006
 20
-190.9137470099988
 30
0.0
 10
624.5540268880004
 20
-192.1632228439991
 30
0.0
 10
620.7631084650001
 20
-193.6772936159993
 30
0.0
 10
615.9306109879999
 20
-195.2716298449997
 30
0.0
 10
610.0318090640002
 20
-196.6699279889992
 30
0.0
 10
604.1069202730002
 20
-197.5062282319993
 30
0.0
 10
598.8739885033004
 20
-197.7059402873349
 30
0.0
 10
595.6421519411121
 20
-197.5217473589203
 30
0.0
 10
594.3734100989939
 20
-197.3968098288591
 30
0.0
  0
DIMENSION
  5
1CB0
330
1E
100
AcDbEntity
  8
SIZE
100
AcDbDimension
  2
*D8
 10
773.1012381101066
 20
-160.5100623038832
 30
0.0
 11
773.1012381101062
 21
86.26238331044806
 31
0.0
 70
   160
 71
     5
 42
379.8000000000001
  3
STANDARD_ME08
100
AcDbAlignedDimension
 13
626.0763984000004
 23
219.2899376961169
 33
0.0
 14
626.0763984000004
 24
-160.5100623038832
 34
0.0
 50
90.0
100
AcDbRotatedDimension
1001
ACAD
1000
DSTYLE
1002
{
1070
   271
1070
     0
1002
}
  0
LINE
  5
1CB4
330
1E
100
AcDbEntity
  8
OUTLINE
100
AcDbLine
 10
621.1263984000006
 20
221.2995762160006
 30
0.0
 11
621.1263984000006
 21
220.2995762160011
 31
0.0
  0
LINE
  5
1CB5
330
1E
100
AcDbEntity
  8
OUTLINE
100
AcDbLine
 10
621.1263984000006
 20
220.2995762160011
 30
0.0
 11
626.1263984000006
 21
220.2995762160011
 31
0.0
  0
LINE
  5
1CB6
330
1E
100
AcDbEntity
  8
OUTLINE
100
AcDbLine
 10
626.1263984000006
 20
220.2995762160011
 30
0.0
 11
626.1263984000006
 21
212.3995762160005
 31
0.0
  0
LINE
  5
1CB7
330
1E
100
AcDbEntity
  8
OUTLINE
100
AcDbLine
 10
626.1263984000006
 20
212.3995762160005
 30
0.0
 11
628.0
 21
212.3995762160005
 31
0.0
  0
LINE
  5
1CB8
330
1E
100
AcDbEntity
  8
OUTLINE
100
AcDbLine
 10
628.0
 20
212.3995762160005
 30
0.0
 11
628.0
 21
1.779372113001273
 31
0.0
  0
LINE
  5
1CB9
330
1E
100
AcDbEntity
  8
OUTLINE
100
AcDbLine
 10
628.0
 20
1.779372113001273
 30
0.0
 11
650.0
 21
1.779372113001273
 31
0.0
  0
LINE
  5
1CBA
330
1E
100
AcDbEntity
  8
OUTLINE
100
AcDbLine
 10
650.0
 20
1.779372113001273
 30
0.0
 11
650.0
 21
-3.400423783999253
 31
0.0
  0
LINE
  5
1CBB
330
1E
100
AcDbEntity
  8
OUTLINE
100
AcDbLine
 10
650.0
 20
-3.400423783999253
 30
0.0
 11
670.0
 21
-3.400423783999253
 31
0.0
  0
LINE
  5
1CBC
330
1E
100
AcDbEntity
  8
OUTLINE
100
AcDbLine
 10
670.0
 20
-3.400423783999253
 30
0.0
 11
670.0
 21
-4.200423783999434
 31
0.0
  0
LINE
  5
1CBD
330
1E
100
AcDbEntity
  8
OUTLINE
100
AcDbLine
 10
670.0
 20
-4.200423783999434
 30
0.0
 11
687.1999999999997
 21
-4.200423783999438
 31
0.0
  0
LINE
  5
1CBE
330
1E
100
AcDbEntity
  8
OUTLINE
100
AcDbLine
 10
687.1999999999997
 20
-4.200423783999438
 30
0.0
 11
687.1999999999997
 21
-1.000423783999619
 31
0.0
  0
LINE
  5
1CBF
330
1E
100
AcDbEntity
  8
OUTLINE
100
AcDbLine
 10
687.1999999999997
 20
-1.000423783999619
 30
0.0
 11
687.8000000000001
 21
-1.000423783999621
 31
0.0
  0
LINE
  5
1CC0
330
1E
100
AcDbEntity
  8
OUTLINE
100
AcDbLine
 10
687.8000000000001
 20
-1.000423783999621
 30
0.0
 11
687.8000000000001
 21
-5.200423783998981
 31
0.0
  0
LINE
  5
1CC1
330
1E
100
AcDbEntity
  8
OUTLINE
100
AcDbLine
 10
687.8000000000001
 20
-5.200423783998981
 30
0.0
 11
689.0
 21
-5.200423783998983
 31
0.0
  0
LINE
  5
1CC2
330
1E
100
AcDbEntity
  8
OUTLINE
100
AcDbLine
 10
689.0
 20
-5.200423783998983
 30
0.0
 11
689.0
 21
-123.2004237839994
 31
0.0
  0
LINE
  5
1CC3
330
1E
100
AcDbEntity
  8
OUTLINE
100
AcDbLine
 10
689.0
 20
-123.2004237839994
 30
0.0
 11
687.8000000000001
 21
-123.2004237839994
 31
0.0
  0
LINE
  5
1CC4
330
1E
100
AcDbEntity
  8
OUTLINE
100
AcDbLine
 10
687.8000000000001
 20
-123.2004237839994
 30
0.0
 11
687.8000000000001
 21
-127.4004237839997
 31
0.0
  0
LINE
  5
1CC5
330
1E
100
AcDbEntity
  8
OUTLINE
100
AcDbLine
 10
687.8000000000001
 20
-127.4004237839997
 30
0.0
 11
687.1999999999997
 21
-127.4004237839997
 31
0.0
  0
LINE
  5
1CC6
330
1E
100
AcDbEntity
  8
OUTLINE
100
AcDbLine
 10
687.1999999999997
 20
-127.4004237839997
 30
0.0
 11
687.1999999999997
 21
-124.2004237839994
 31
0.0
  0
LINE
  5
1CC7
330
1E
100
AcDbEntity
  8
OUTLINE
100
AcDbLine
 10
687.1999999999997
 20
-124.2004237839994
 30
0.0
 11
685.1999999999998
 21
-124.2004237839994
 31
0.0
  0
LINE
  5
1CC8
330
1E
100
AcDbEntity
  8
OUTLINE
100
AcDbLine
 10
685.1999999999998
 20
-124.2004237839994
 30
0.0
 11
685.1999999999998
 21
-127.7004237839994
 31
0.0
  0
LINE
  5
1CCC
330
1E
100
AcDbEntity
  8
OUTLINE
100
AcDbLine
 10
561.6631992000001
 20
-163.2104237839992
 30
0.0
 11
561.6631992000001
 21
-169.2104237839992
 31
0.0
  0
LINE
  5
1CCD
330
1E
100
AcDbEntity
  8
OUTLINE
100
AcDbLine
 10
561.6631992000001
 20
-169.2104237839992
 30
0.0
 11
609.6631992000002
 21
-169.2104237839992
 31
0.0
  0
LINE
  5
1CCE
330
1E
100
AcDbEntity
  8
OUTLINE
100
AcDbLine
 10
609.6631992000002
 20
-169.2104237839992
 30
0.0
 11
609.6631992000002
 21
-163.2104237839992
 31
0.0
  0
LINE
  5
1CCF
330
1E
100
AcDbEntity
  8
OUTLINE
100
AcDbLine
 10
609.6631992000002
 20
-163.2104237839992
 30
0.0
 11
619.2000000000007
 21
-163.2104237839992
 31
0.0
  0
LINE
  5
1CD0
330
1E
100
AcDbEntity
  8
OUTLINE
100
AcDbLine
 10
619.2000000000007
 20
-163.2104237839992
 30
0.0
 11
619.2000000000007
 21
-160.5004237839996
 31
0.0
  0
LINE
  5
1CD1
330
1E
100
AcDbEntity
  8
OUTLINE
100
AcDbLine
 10
619.2000000000007
 20
-160.5004237839996
 30
0.0
 11
621.1263984000006
 21
-160.5004237839996
 31
0.0
  0
LINE
  5
1CD2
330
1E
100
AcDbEntity
  8
OUTLINE
100
AcDbLine
 10
621.1263984000006
 20
-160.5004237839996
 30
0.0
 11
621.1263984000006
 21
-159.9004237839997
 31
0.0
  0
LINE
  5
1CD3
330
1E
100
AcDbEntity
  8
OUTLINE
100
AcDbLine
 10
621.1263984000006
 20
-159.9004237839997
 30
0.0
 11
626.0763984000004
 21
-159.9004237839997
 31
0.0
  0
LINE
  5
1CD4
330
1E
100
AcDbEntity
  8
OUTLINE
100
AcDbLine
 10
626.0763984000004
 20
-159.9004237839997
 30
0.0
 11
626.0763984000004
 21
-159.5004237839991
 31
0.0
  0
LINE
  5
1CD5
330
1E
100
AcDbEntity
  8
OUTLINE
100
AcDbLine
 10
626.0763984000004
 20
-159.5004237839991
 30
0.0
 11
626.1263984000006
 21
-159.5004237839991
 31
0.0
  0
LINE
  5
1CD6
330
1E
100
AcDbEntity
  8
OUTLINE
100
AcDbLine
 10
626.1263984000006
 20
-159.5004237839991
 30
0.0
 11
626.1263984000006
 21
-151.600423783999
 31
0.0
  0
LINE
  5
1CD7
330
1E
100
AcDbEntity
  8
OUTLINE
100
AcDbLine
 10
626.1263984000006
 20
-151.600423783999
 30
0.0
 11
628.0
 21
-151.600423783999
 31
0.0
  0
LINE
  5
1CD8
330
1E
100
AcDbEntity
  8
OUTLINE
100
AcDbLine
 10
628.0
 20
-151.600423783999
 30
0.0
 11
628.0
 21
-130.2004237839989
 31
0.0
  0
LINE
  5
1CD9
330
1E
100
AcDbEntity
  8
OUTLINE
100
AcDbLine
 10
628.0
 20
-130.2004237839989
 30
0.0
 11
650.0
 21
-130.2004237839989
 31
0.0
  0
LINE
  5
1CDA
330
1E
100
AcDbEntity
  8
OUTLINE
100
AcDbLine
 10
650.0
 20
-130.2004237839989
 30
0.0
 11
650.0
 21
-128.4145666269994
 31
0.0
  0
LINE
  5
1CDB
330
1E
100
AcDbEntity
  8
OUTLINE
100
AcDbLine
 10
650.6999999999997
 20
-128.7004237839994
 30
0.0
 11
684.1999999999998
 21
-128.7004237839994
 31
0.0
  0
ARC
  5
1CDC
330
1E
100
AcDbEntity
  8
OUTLINE
100
AcDbCircle
 10
650.6999999999997
 20
-127.7004237839994
 30
0.0
 40
1.0
100
AcDbArc
 50
225.5729959992089
 51
270.0
  0
ARC
  5
1CDD
330
1E
100
AcDbEntity
  8
OUTLINE
100
AcDbCircle
 10
684.1999999999998
 20
-127.7004237839994
 30
0.0
 40
1.0
100
AcDbArc
 50
270.0
 51
0.0
  0
ARC
  5
1CDF
330
1E
100
AcDbEntity
  8
OUTLINE
100
AcDbCircle
 10
538.0900377460002
 20
-183.390311459378
 30
0.0
 40
20.0
100
AcDbArc
 50
270.0000107054691
 51
0.0
  0
ARC
  5
1CE1
330
1E
100
AcDbEntity
  8
OUTLINE
100
AcDbCircle
 10
538.0900377460002
 20
-183.3903335240344
 30
0.0
 40
58.0
100
AcDbArc
 50
270.0
 51
0.0
  0
LINE
  5
1CE2
330
1E
100
AcDbEntity
  8
OUTLINE
100
AcDbLine
 10
558.0900377460002
 20
-163.2104237839992
 30
0.0
 11
558.0900377460002
 21
-183.390311459378
 31
0.0
  0
LINE
  5
1CE3
330
1E
100
AcDbEntity
  8
OUTLINE
100
AcDbLine
 10
596.0900377460002
 20
-169.2104237839992
 30
0.0
 11
596.0900377460002
 21
-183.3903335240344
 31
0.0
  0
LINE
  5
1CFB
330
1E
100
AcDbEntity
  8
OUTLINE
100
AcDbLine
 10
475.0
 20
221.2995762160006
 30
0.0
 11
621.1263984000006
 21
221.2995762160006
 31
0.0
  0
LINE
  5
1CFC
330
1E
100
AcDbEntity
  8
DETAIL
  6
Continuous
100
AcDbLine
 10
475.0
 20
221.2995762160006
 30
0.0
 11
621.1263984000006
 21
221.2995762160006
 31
0.0
  0
LINE
  5
1CFF
330
1E
100
AcDbEntity
  8
DETAIL
  6
Continuous
100
AcDbLine
 10
475.0
 20
-160.5004237839996
 30
0.0
 11
621.1263984000006
 21
-160.5004237839996
 31
0.0
  0
LINE
  5
1D00
330
1E
100
AcDbEntity
  8
OUTLINE
100
AcDbLine
 10
475.0
 20
-163.2104237839992
 30
0.0
 11
561.6631992000001
 21
-163.2104237839992
 31
0.0
  0
LINE
  5
1D01
330
1E
100
AcDbEntity
  8
DETAIL
  6
Continuous
100
AcDbLine
 10
475.0
 20
-163.2104237839992
 30
0.0
 11
561.6631992000001
 21
-163.2104237839992
 31
0.0
  0
LINE
  5
1D02
330
1E
100
AcDbEntity
  8
OUTLINE
100
AcDbLine
 10
474.9999999999998
 20
-203.3903232475025
 30
0.0
 11
538.0900414829211
 21
-203.3903114593777
 31
0.0
  0
LINE
  5
1D03
330
1E
100
AcDbEntity
  8
DETAIL
  6
Continuous
100
AcDbLine
 10
474.9999999999998
 20
-203.3903232475025
 30
0.0
 11
538.0900414829211
 21
-203.3903114593777
 31
0.0
  0
LINE
  5
1D04
330
1E
100
AcDbEntity
  8
DETAIL
  6
Continuous
100
AcDbLine
 10
475.0
 20
-241.3903232475028
 30
0.0
 11
538.0900485830705
 21
-241.3903114593777
 31
0.0
  0
LINE
  5
1D05
330
1E
100
AcDbEntity
  8
OUTLINE
100
AcDbLine
 10
475.0
 20
-241.3903335240345
 30
0.0
 11
538.0900377460002
 21
-241.3903335240345
 31
0.0
  0
LINE
  5
1D32
330
1E
100
AcDbEntity
  8
NOTE
100
AcDbLine
 10
538.0900377460002
 20
-241.3903335240343
 30
0.0
 11
760.5189192897815
 21
-618.8146124965647
 31
0.0
  0
TEXT
  5
1D33
330
1E
100
AcDbEntity
  8
NOTE
100
AcDbText
 10
780.3835429676619
 20
-602.3711120842872
 30
0.0
 40
45.0
  1
D VP-20
 41
0.8
  7
ME08
100
AcDbText
  0
LINE
  5
1D34
330
1E
100
AcDbEntity
  8
NOTE
100
AcDbLine
 10
760.5189192897815
 20
-618.8146124965647
 30
0.0
 11
1020.486513341035
 21
-618.8146124965647
 31
0.0
  0
LWPOLYLINE
  5
1D35
330
1E
100
AcDbEntity
  8
NOTE
100
AcDbPolyline
 90
        3
 70
     0
 43
0.0
 10
568.6101129643102
 20
-267.2461838825833
 10
538.0900377460002
 20
-241.3903335240343
 10
551.5932727924637
 20
-279.0421948371596
  0
LINE
  5
1D40
330
1E
100
AcDbEntity
  8
DETAIL
100
AcDbLine
 10
596.0723193602269
 20
-184.8238451382613
 30
0.0
 11
596.0723193602269
 21
-169.2104237839992
 31
0.0
  0
LINE
  5
1D41
330
1E
100
AcDbEntity
  8
NOTE
100
AcDbLine
 10
332.5905996413712
 20
-475.0
 30
0.0
 11
419.4038720123621
 21
-618.8146124965647
 31
0.0
  0
TEXT
  5
1D42
330
1E
100
AcDbEntity
  8
NOTE
100
AcDbText
 10
433.5226150205286
 20
-602.3711120842872
 30
0.0
 40
45.0
  1
適応機種
 41
0.8
  7
ME08
100
AcDbText
  0
LINE
  5
1D43
330
1E
100
AcDbEntity
  8
NOTE
100
AcDbLine
 10
419.4038720123621
 20
-618.8146124965647
 30
0.0
 11
611.7715564957777
 21
-618.8146124965647
 31
0.0
  0
LWPOLYLINE
  5
1D44
330
1E
100
AcDbEntity
  8
NOTE
100
AcDbPolyline
 90
        3
 70
     0
 43
0.0
 10
360.6237814535925
 20
-503.5331510103225
 10
332.5905996413712
 20
-475.0
 10
342.6014714550611
 20
-513.7270249643927
  0
LINE
  5
1DB2
330
1E
100
AcDbEntity
  8
BASIS
  6
CENTER
100
AcDbLine
 10
1324.990455282776
 20
30.0
 30
0.0
 11
460.8261395652916
 21
30.0
 31
0.0
  0
LINE
  5
1DB3
330
1E
100
AcDbEntity
  8
SERVICESPACE
100
AcDbLine
 10
820.0
 20
255.0000000000001
 30
0.0
 11
820.0
 21
-194.9999999999999
 31
0.0
  0
LINE
  5
1DB4
330
1E
100
AcDbEntity
  8
SERVICESPACE
100
AcDbLine
 10
820.0
 20
255.0
 30
0.0
 11
1270.0
 21
255.0
 31
0.0
  0
LINE
  5
1DB5
330
1E
100
AcDbEntity
  8
SERVICESPACE
100
AcDbLine
 10
820.0
 20
-194.9999999999999
 30
0.0
 11
1270.0
 21
-195.0
 31
0.0
  0
LINE
  5
1DB6
330
1E
100
AcDbEntity
  8
SERVICESPACE
100
AcDbLine
 10
1270.0
 20
255.0
 30
0.0
 11
1270.0
 21
-195.0
 31
0.0
  0
DIMENSION
  5
1DB7
330
1E
100
AcDbEntity
  8
SIZE
100
AcDbDimension
  2
*D9
 10
1270.0
 20
763.7349017006126
 30
0.0
 11
1045.0
 21
763.7349017006126
 31
0.0
 70
   160
 71
     5
 42
450.0
  3
STANDARD_ME08
100
AcDbAlignedDimension
 13
820.0
 23
255.0000000000001
 33
0.0
 14
1270.0
 24
255.0000000000001
 34
0.0
100
AcDbRotatedDimension
  0
DIMENSION
  5
1DB8
330
1E
100
AcDbEntity
  8
SIZE
100
AcDbDimension
  2
*D10
 10
1533.720315014255
 20
-195.0000000000001
 30
0.0
 11
1533.720315014255
 21
29.99999999999961
 31
0.0
 70
   160
 71
     5
 42
450.0
  3
STANDARD_ME08
100
AcDbAlignedDimension
 13
1270.0
 23
255.0
 33
0.0
 14
1270.0
 24
-195.0
 34
0.0
 50
90.0
100
AcDbRotatedDimension
  0
LINE
  5
1DB9
330
1E
100
AcDbEntity
  8
SERVICESPACE
100
AcDbLine
 10
820.0
 20
255.0
 30
0.0
 11
1270.0
 21
-195.0
 31
0.0
  0
LINE
  5
1DBA
330
1E
100
AcDbEntity
  8
SERVICESPACE
100
AcDbLine
 10
1270.0
 20
255.0
 30
0.0
 11
820.0
 21
-194.9999999999999
 31
0.0
  0
DIMENSION
  5
1E32
330
1E
100
AcDbEntity
  8
SIZE
100
AcDbDimension
  2
*D11
 10
628.0
 20
636.2669252457417
 30
0.0
 11
551.4999999999998
 21
636.2669252457417
 31
0.0
 70
   160
 71
     5
 42
153.0
  3
STANDARD_ME08
100
AcDbAlignedDimension
 13
475.0
 23
465.0
 33
0.0
 14
628.0
 24
212.3995762160005
 34
0.0
100
AcDbRotatedDimension
  0
DIMENSION
  5
1ED7
330
1E
100
AcDbEntity
  8
SIZE
100
AcDbDimension
  2
*D12
 10
820.0
 20
763.7349017006126
 30
0.0
 11
647.5
 21
796.2349017006126
 31
0.0
 70
    32
  1
265～<>
 71
     5
 42
345.0
  3
STANDARD_ME08
100
AcDbAlignedDimension
 13
475.0
 23
465.0
 33
0.0
 14
820.0
 24
255.0
 34
0.0
100
AcDbRotatedDimension
  0
LINE
  5
1F23
330
1E
100
AcDbEntity
  8
NOTE
100
AcDbLine
 10
1170.0
 20
255.0000000000002
 30
0.0
 11
1422.540843572475
 21
636.2669252457417
 31
0.0
  0
LINE
  5
1F24
330
1E
100
AcDbEntity
  8
NOTE
100
AcDbLine
 10
1422.540843572475
 20
636.2669252457417
 30
0.0
 11
1647.698690059154
 21
636.2669252457417
 31
0.0
  0
TEXT
  5
1F25
330
1E
100
AcDbEntity
  8
NOTE
100
AcDbText
 10
1435.143301269646
 20
648.6068592457416
 30
0.0
 40
45.0
  1
天井点検口
 41
0.8
  7
ME08
100
AcDbText
  0
LWPOLYLINE
  5
1F26
330
1E
100
AcDbEntity
  8
NOTE
100
AcDbPolyline
 90
        3
 70
     0
 43
0.0
 10
1201.029018
 20
280.242821
 10
1170.0
 20
255.0000000000002
 10
1184.250507
 20
292.375434
  0
ENDSEC
  0
SECTION
  2
OBJECTS
  0
DICTIONARY
  5
C
330
0
100
AcDbDictionary
281
     1
  3
ACAD_CIP_PREVIOUS_PRODUCT_INFO
350
C89
  3
ACAD_COLOR
350
C6C
  3
ACAD_DETAILVIEWSTYLE
350
C85
  3
ACAD_GROUP
350
D
  3
ACAD_LAYOUT
350
19
  3
ACAD_MATERIAL
350
C3A
  3
ACAD_MLEADERSTYLE
350
C81
  3
ACAD_MLINESTYLE
350
16
  3
ACAD_PLOTSETTINGS
350
18
  3
ACAD_PLOTSTYLENAME
350
E
  3
ACAD_SCALELIST
350
C6F
  3
ACAD_SECTIONVIEWSTYLE
350
C83
  3
ACAD_TABLESTYLE
350
C6D
  3
ACAD_VISUALSTYLE
350
C53
  3
ACDB_RECOMPOSE_DATA
350
2039
  3
AcDbVariableDictionary
350
C9E
  0
DICTIONARY
  5
D81
330
2
100
AcDbDictionary
280
     1
281
     1
  3
ACAD_LAYERSTATES
360
D82
  0
DICTIONARY
  5
C8A
330
10
100
AcDbDictionary
280
     1
281
     1
  3
ADSK_XREC_LAYER_RECONCILED
360
C8B
  0
DICTIONARY
  5
C8C
330
22
100
AcDbDictionary
280
     1
281
     1
  3
ADSK_XREC_LAYER_RECONCILED
360
C8D
  0
DICTIONARY
  5
C8E
330
29
100
AcDbDictionary
280
     1
281
     1
  3
ADSK_XREC_LAYER_RECONCILED
360
C8F
  0
DICTIONARY
  5
C90
330
2A
100
AcDbDictionary
280
     1
281
     1
  3
ADSK_XREC_LAYER_RECONCILED
360
C91
  0
DICTIONARY
  5
C92
330
2B
100
AcDbDictionary
280
     1
281
     1
  3
ADSK_XREC_LAYER_RECONCILED
360
C93
  0
DICTIONARY
  5
C96
330
2D
100
AcDbDictionary
280
     1
281
     1
  3
ADSK_XREC_LAYER_RECONCILED
360
C97
  0
DICTIONARY
  5
C9C
330
31
100
AcDbDictionary
280
     1
281
     1
  3
ADSK_XREC_LAYER_RECONCILED
360
C9D
  0
DICTIONARY
  5
DAB
330
DAA
100
AcDbDictionary
280
     1
281
     1
  0
DICTIONARY
  5
DAF
330
DAE
100
AcDbDictionary
280
     1
281
     1
  0
DICTIONARY
  5
9E2
330
1E
100
AcDbDictionary
280
     1
281
     1
  3
ACAD_LAYOUTSELFREF
360
C35
  3
ACAD_SORTENTS
360
DF7
  0
DICTIONARY
  5
9E0
330
1A
100
AcDbDictionary
280
     1
281
     1
  3
ACAD_LAYOUTSELFREF
360
C34
  0
XRECORD
  5
C89
102
{ACAD_REACTORS
330
C
102
}
330
C
100
AcDbXrecord
280
     1
300
ACDLT
300
2021
300
87396ACDLT_2021_0F
  0
DICTIONARY
  5
C6C
102
{ACAD_REACTORS
330
C
102
}
330
C
100
AcDbDictionary
281
     1
  0
DICTIONARY
  5
C85
102
{ACAD_REACTORS
330
C
102
}
330
C
100
AcDbDictionary
281
     1
  3
Imperial24
350
C86
  0
DICTIONARY
  5
D
102
{ACAD_REACTORS
330
C
102
}
330
C
100
AcDbDictionary
281
     1
  0
DICTIONARY
  5
19
102
{ACAD_REACTORS
330
C
102
}
330
C
100
AcDbDictionary
281
     1
  3
Model
350
C87
  3
レイアウト1
350
C88
  0
DICTIONARY
  5
C3A
102
{ACAD_REACTORS
330
C
102
}
330
C
100
AcDbDictionary
281
     1
  3
ByBlock
350
C43
  3
ByLayer
350
C3B
  3
Global
350
C4B
  0
DICTIONARY
  5
C81
102
{ACAD_REACTORS
330
C
102
}
330
C
100
AcDbDictionary
281
     1
  3
Standard
350
C82
  0
DICTIONARY
  5
16
102
{ACAD_REACTORS
330
C
102
}
330
C
100
AcDbDictionary
281
     1
  3
STANDARD
350
17
  0
DICTIONARY
  5
18
102
{ACAD_REACTORS
330
C
102
}
330
C
100
AcDbDictionary
281
     1
  0
ACDBDICTIONARYWDFLT
  5
E
102
{ACAD_REACTORS
330
C
102
}
330
C
100
AcDbDictionary
281
     1
  3
Normal
350
F
100
AcDbDictionaryWithDefault
340
F
  0
DICTIONARY
  5
C6F
102
{ACAD_REACTORS
330
C
102
}
330
C
100
AcDbDictionary
281
     1
  3
A0
350
C70
  3
A1
350
C71
  3
A2
350
C72
  3
A3
350
C73
  3
A4
350
C74
  3
A5
350
C75
  3
A6
350
C76
  3
A7
350
C77
  3
A8
350
C78
  3
A9
350
C79
  3
B0
350
C7A
  3
B1
350
C7B
  3
B2
350
C7C
  3
B3
350
C7D
  3
B4
350
C7E
  3
B5
350
C7F
  3
B6
350
C80
  0
DICTIONARY
  5
C83
102
{ACAD_REACTORS
330
C
102
}
330
C
100
AcDbDictionary
281
     1
  3
Imperial24
350
C84
  0
DICTIONARY
  5
C6D
102
{ACAD_REACTORS
330
C
102
}
330
C
100
AcDbDictionary
281
     1
  3
Standard
350
C6E
  0
DICTIONARY
  5
C53
102
{ACAD_REACTORS
330
C
102
}
330
C
100
AcDbDictionary
281
     1
  3
2dWireframe
350
C59
  3
Basic
350
C58
  3
Brighten
350
C5F
  3
ColorChange
350
C63
  3
Conceptual
350
C5C
  3
Dim
350
C5E
  3
EdgeColorOff
350
C6B
  3
Facepattern
350
C62
  3
Flat
350
C54
  3
FlatWithEdges
350
C55
  3
Gouraud
350
C56
  3
GouraudWithEdges
350
C57
  3
Hidden
350
C5B
  3
JitterOff
350
C69
  3
Linepattern
350
C61
  3
OverhangOff
350
C6A
  3
Realistic
350
C5D
  3
Shaded
350
C68
  3
Shaded with edges
350
C67
  3
Shades of Gray
350
C64
  3
Sketchy
350
C65
  3
Thicken
350
C60
  3
Wireframe
350
C5A
  3
X-Ray
350
C66
  0
XRECORD
  5
2039
102
{ACAD_REACTORS
330
C
102
}
330
C
100
AcDbXrecord
280
     1
 90
        1
330
C6E
  0
DICTIONARY
  5
C9E
102
{ACAD_REACTORS
330
C
102
}
330
C
100
AcDbDictionary
281
     1
  3
CANNOSCALE
350
CA4
  3
CMLEADERSTYLE
350
CA0
  3
CTABLESTYLE
350
C9F
  3
CVIEWDETAILSTYLE
350
CA1
  3
CVIEWSECTIONSTYLE
350
CA2
  3
LAYEREVAL
350
CA6
  3
LAYERNOTIFY
350
CA7
  3
LIGHTINGUNITS
350
CA5
  3
LOFTANG1
350
2035
  3
LOFTANG2
350
2036
  3
MSLTSCALE
350
CA3
  3
XCLIPFRAME
350
2037
  0
DICTIONARY
  5
D82
102
{ACAD_REACTORS
330
D81
102
}
330
D81
100
AcDbDictionary
281
     1
  0
XRECORD
  5
C8B
102
{ACAD_REACTORS
330
C8A
102
}
330
C8A
100
AcDbXrecord
280
     1
290
     1
  0
XRECORD
  5
C8D
102
{ACAD_REACTORS
330
C8C
102
}
330
C8C
100
AcDbXrecord
280
     1
290
     1
  0
XRECORD
  5
C8F
102
{ACAD_REACTORS
330
C8E
102
}
330
C8E
100
AcDbXrecord
280
     1
290
     1
  0
XRECORD
  5
C91
102
{ACAD_REACTORS
330
C90
102
}
330
C90
100
AcDbXrecord
280
     1
290
     1
  0
XRECORD
  5
C93
102
{ACAD_REACTORS
330
C92
102
}
330
C92
100
AcDbXrecord
280
     1
290
     1
  0
XRECORD
  5
C97
102
{ACAD_REACTORS
330
C96
102
}
330
C96
100
AcDbXrecord
280
     1
290
     1
  0
XRECORD
  5
C9D
102
{ACAD_REACTORS
330
C9C
102
}
330
C9C
100
AcDbXrecord
280
     1
290
     1
  0
XRECORD
  5
C35
102
{ACAD_REACTORS
330
9E2
102
}
330
9E2
100
AcDbXrecord
280
     1
340
1E
  0
SORTENTSTABLE
  5
DF7
102
{ACAD_REACTORS
330
9E2
102
}
330
9E2
100
AcDbSortentsTable
330
1E
331
897
  5
898
331
898
  5
89A
331
899
  5
89C
331
89A
  5
89D
331
89C
  5
89E
331
89D
  5
89F
331
89E
  5
8A0
331
89F
  5
8A1
331
8A0
  5
8A2
331
8A1
  5
8A3
331
8A2
  5
8A4
331
8A3
  5
8A5
331
8A4
  5
8A6
331
8A6
  5
8A8
331
8A9
  5
8AB
331
8AA
  5
8AD
331
8B9
  5
8BC
331
8BA
  5
8BE
331
8BB
  5
8BF
331
8BC
  5
8C0
331
8BF
  5
8C2
331
8C0
  5
8C3
331
8C1
  5
8C4
331
8C2
  5
8C5
331
8C3
  5
8C6
331
8C4
  5
8C7
331
8C5
  5
8C8
331
8C6
  5
8C9
331
8C7
  5
8CA
331
8C8
  5
8D3
331
8D3
  5
A35
331
8D4
  5
A37
331
A35
  5
A53
331
A37
  5
A73
331
A41
  5
AC2
331
A46
  5
AC3
331
A53
  5
AC5
331
A73
  5
ACB
331
AC2
  5
ACC
331
AC3
  5
ACD
331
AC5
  5
ACE
331
ACB
  5
ACF
331
ACC
  5
AD0
331
ACD
  5
AD1
331
ACE
  5
AD2
331
ACF
  5
AD3
331
AD0
  5
B40
331
AD1
  5
B41
331
AD2
  5
B42
331
AD3
  5
B43
331
B40
  5
B44
331
B41
  5
B45
331
B42
  5
B46
331
B43
  5
B47
331
B44
  5
B48
331
B45
  5
B49
331
B46
  5
B4A
331
B47
  5
B4B
331
B48
  5
B4C
331
B49
  5
B4D
331
B4A
  5
B4E
331
B4B
  5
B4F
331
B4C
  5
B50
331
B4D
  5
B51
331
B4E
  5
B5C
331
B4F
  5
B5D
331
B50
  5
B64
331
B51
  5
B65
331
B5C
  5
BA3
331
B5D
  5
BA4
331
B64
  5
BA9
331
B65
  5
BC5
331
BA3
  5
DF6
331
BA4
  5
DFA
331
BA9
  5
DFB
331
BC5
  5
DFD
331
DF6
  5
DFC
331
DF8
  5
DFE
331
DFA
  5
DF8
331
DFB
  5
8AC
331
DFC
  5
899
331
DFD
  5
8D4
331
DFE
  5
897
331
1C5A
  5
1C5B
331
1C5C
  5
1C5E
331
1C60
  5
1C62
331
1C61
  5
1C63
331
1C63
  5
1C66
331
1C65
  5
1C69
331
1C66
  5
1C6B
331
1C67
  5
1C6C
331
1C68
  5
1C6D
331
1C69
  5
1C6E
331
1C6A
  5
1C6F
331
1C6B
  5
1C70
331
1C6C
  5
1C71
331
1C6D
  5
1C72
331
1C6E
  5
1C73
331
1C6F
  5
1C74
331
1C70
  5
1C75
331
1C71
  5
1C76
331
1C72
  5
1C77
331
1C73
  5
1C78
331
1C74
  5
1C79
331
1C75
  5
1C7A
331
1C76
  5
1C7B
331
1C77
  5
1C7C
331
1C78
  5
1C7D
331
1C79
  5
1C7E
331
1C7A
  5
1C7F
331
1C7B
  5
1C80
331
1C7C
  5
1C81
331
1C7D
  5
1C82
331
1C7E
  5
1C83
331
1C7F
  5
1C84
331
1C80
  5
1C85
331
1C81
  5
1C86
331
1C82
  5
1C87
331
1C83
  5
1C88
331
1C84
  5
1C89
331
1C85
  5
1C8A
331
1C86
  5
1C8B
331
1C87
  5
1C8C
331
1C88
  5
1C8D
331
1C89
  5
1C8E
331
1C8A
  5
1C8F
331
1C8B
  5
1C90
331
1C8C
  5
1C91
331
1C8D
  5
1C92
331
1C8E
  5
1C94
331
1C8F
  5
1C96
331
1C90
  5
1C97
331
1C91
  5
1C98
331
1C92
  5
1C99
331
1C93
  5
1C9A
331
1C95
  5
1C9C
331
1C96
  5
1C9D
331
1C97
  5
1C9E
331
1C98
  5
1C9F
331
1C99
  5
1CA0
331
1C9F
  5
1CA6
331
1CA0
  5
1CA7
331
1CA1
  5
1CA8
331
1CA2
  5
1CA9
331
1CA3
  5
1CAA
331
1CA4
  5
1CAB
331
1CA5
  5
1CAC
331
1CA6
  5
1CAD
331
1CAB
  5
1CB4
331
1CAC
  5
1CB6
331
1CAD
  5
1CB7
331
1CAE
  5
1CB8
331
1CAF
  5
1CB9
331
1CB0
  5
1CBA
331
1CB4
  5
1CBC
331
1CB5
  5
1CBD
331
1CB6
  5
1CBE
331
1CB7
  5
1CBF
331
1CB8
  5
1CC0
331
1CB9
  5
1CC1
331
1CBA
  5
1CC2
331
1CBB
  5
1CC3
331
1CBC
  5
1CC4
331
1CBD
  5
1CC5
331
1CBE
  5
1CC6
331
1CBF
  5
1CC7
331
1CC0
  5
1CC8
331
1CC1
  5
1CCB
331
1CC2
  5
1CCC
331
1CC3
  5
1CCD
331
1CC4
  5
1CCE
331
1CC5
  5
1CCF
331
1CC6
  5
1CD0
331
1CC7
  5
1CD1
331
1CC8
  5
1CD2
331
1CCC
  5
1CD5
331
1CCD
  5
1CD6
331
1CCE
  5
1CD7
331
1CCF
  5
1CD8
331
1CD0
  5
1CD9
331
1CD1
  5
1CDA
331
1CD2
  5
1CDB
331
1CD3
  5
1CDC
331
1CD4
  5
1CDD
331
1CD5
  5
1CDE
331
1CD6
  5
1CDF
331
1CD7
  5
1CE0
331
1CD8
  5
1CE1
331
1CD9
  5
1CE2
331
1CDA
  5
1CE3
331
1CDB
  5
1CFB
331
1CDC
  5
1CFC
331
1CDD
  5
1CFD
331
1CDF
  5
1D00
331
1CE1
  5
1D03
331
1CE2
  5
1D04
331
1CE3
  5
1D05
331
1CFB
  5
1CBB
331
1CFC
  5
1C9B
331
1CFF
  5
1C68
331
1D00
  5
1CD4
331
1D01
  5
1C65
331
1D02
  5
1CFF
331
1D03
  5
1C5D
331
1D04
  5
1C5A
331
1D05
  5
1D02
  0
XRECORD
  5
C34
102
{ACAD_REACTORS
330
9E0
102
}
330
9E0
100
AcDbXrecord
280
     1
340
1A
  0
ACDBDETAILVIEWSTYLE
  5
C86
102
{ACAD_XDICTIONARY
360
206D
102
}
102
{ACAD_REACTORS
330
C85
102
}
330
C85
100
AcDbModelDocViewStyle
 70
     0
  3
Imperial24
290
     0
100
AcDbDetailViewStyle
 70
     0
 71
     0
 90
        3
 71
     1
340
11
 62
   256
 40
0.24
340
0
 62
   256
 40
0.24
300

 40
0.36
280
     3
 71
     2
340
15
 90
       25
 62
   256
 71
     3
340
11
 62
   256
 40
0.24
 90
        1
 40
0.75
 90
        1
300
%<\AcVar ViewType \f "%tc1">% %<\AcVar ViewDetailId>%\PSCALE %<\AcVar ViewScale \f "%sn">%
 71
     4
340
15
 90
       25
 62
   256
340
15
 90
       25
 62
   256
280
     0
  0
LAYOUT
  5
C87
102
{ACAD_REACTORS
330
19
102
}
330
19
100
AcDbPlotSettings
  1

  2
C:\Users\okazakz.MEENT01\AppData\Roaming\Autodesk\AutoCAD LT 2019\R25\jpn\plotters\AutoCAD PDF (General Documentation).pc3
  4

  6

 40
0.0
 41
0.0
 42
0.0
 43
0.0
 44
0.0
 45
0.0
 46
0.0
 47
0.0
 48
0.0
 49
0.0
140
0.0
141
0.0
142
1.0
143
1.0
 70
  1712
 72
     0
 73
     0
 74
     0
  7

 75
     0
147
1.0
 76
     0
 77
     2
 78
   300
148
0.0
149
0.0
100
AcDbLayout
  1
Model
 70
     1
 71
     0
 10
0.0
 20
0.0
 11
12.0
 21
9.0
 12
0.0
 22
0.0
 32
0.0
 14
0.0
 24
0.0
 34
0.0
 15
0.0
 25
0.0
 35
0.0
146
0.0
 13
0.0
 23
0.0
 33
0.0
 16
1.0
 26
0.0
 36
0.0
 17
0.0
 27
1.0
 37
0.0
 76
     0
330
1E
331
C13
  0
LAYOUT
  5
C88
102
{ACAD_REACTORS
330
19
102
}
330
19
100
AcDbPlotSettings
  1

  2
C:\Users\okazakz.MEENT01\AppData\Roaming\Autodesk\AutoCAD LT 2019\R25\jpn\plotters\AutoCAD PDF (General Documentation).pc3
  4

  6

 40
0.0
 41
0.0
 42
0.0
 43
0.0
 44
0.0
 45
0.0
 46
0.0
 47
0.0
 48
0.0
 49
0.0
140
0.0
141
0.0
142
1.0
143
1.0
 70
   688
 72
     0
 73
     0
 74
     5
  7

 75
    16
147
1.0
 76
     0
 77
     2
 78
   300
148
0.0
149
0.0
100
AcDbLayout
  1
レイアウト1
 70
     1
 71
     1
 10
0.0
 20
0.0
 11
12.0
 21
9.0
 12
0.0
 22
0.0
 32
0.0
 14
1.000000000000000E+20
 24
1.000000000000000E+20
 34
1.000000000000000E+20
 15
-1.000000000000000E+20
 25
-1.000000000000000E+20
 35
-1.000000000000000E+20
146
0.0
 13
0.0
 23
0.0
 33
0.0
 16
1.0
 26
0.0
 36
0.0
 17
0.0
 27
1.0
 37
0.0
 76
     0
330
1A
  0
MATERIAL
  5
C43
102
{ACAD_XDICTIONARY
360
C44
102
}
102
{ACAD_REACTORS
330
C3A
102
}
330
C3A
100
AcDbMaterial
  1
ByBlock
 72
     0
 43
0.0208333333333333
 43
0.0
 43
0.0
 43
0.0
 43
0.0
 43
0.0208333333333333
 43
0.0
 43
0.0
 43
0.0
 43
0.0
 43
1.0
 43
0.0
 43
0.0
 43
0.0
 43
0.0
 43
1.0
 77
     0
 47
0.0208333333333333
 47
0.0
 47
0.0
 47
0.0
 47
0.0
 47
0.0208333333333333
 47
0.0
 47
0.0
 47
0.0
 47
0.0
 47
1.0
 47
0.0
 47
0.0
 47
0.0
 47
0.0
 47
1.0
171
     0
 49
0.0208333333333333
 49
0.0
 49
0.0
 49
0.0
 49
0.0
 49
0.0208333333333333
 49
0.0
 49
0.0
 49
0.0
 49
0.0
 49
1.0
 49
0.0
 49
0.0
 49
0.0
 49
0.0
 49
1.0
175
     0
142
0.0208333333333333
142
0.0
142
0.0
142
0.0
142
0.0
142
0.0208333333333333
142
0.0
142
0.0
142
0.0
142
0.0
142
1.0
142
0.0
142
0.0
142
0.0
142
0.0
142
1.0
179
     0
144
0.0208333333333333
144
0.0
144
0.0
144
0.0
144
0.0
144
0.0208333333333333
144
0.0
144
0.0
144
0.0
144
0.0
144
1.0
144
0.0
144
0.0
144
0.0
144
0.0
144
1.0
147
0.0208333333333333
147
0.0
147
0.0
147
0.0
147
0.0
147
0.0208333333333333
147
0.0
147
0.0
147
0.0
147
0.0
147
1.0
147
0.0
147
0.0
147
0.0
147
0.0
147
1.0
  0
MATERIAL
  5
C3B
102
{ACAD_XDICTIONARY
360
C3C
102
}
102
{ACAD_REACTORS
330
C3A
102
}
330
C3A
100
AcDbMaterial
  1
ByLayer
 72
     0
 43
0.0208333333333333
 43
0.0
 43
0.0
 43
0.0
 43
0.0
 43
0.0208333333333333
 43
0.0
 43
0.0
 43
0.0
 43
0.0
 43
1.0
 43
0.0
 43
0.0
 43
0.0
 43
0.0
 43
1.0
 77
     0
 47
0.0208333333333333
 47
0.0
 47
0.0
 47
0.0
 47
0.0
 47
0.0208333333333333
 47
0.0
 47
0.0
 47
0.0
 47
0.0
 47
1.0
 47
0.0
 47
0.0
 47
0.0
 47
0.0
 47
1.0
171
     0
 49
0.0208333333333333
 49
0.0
 49
0.0
 49
0.0
 49
0.0
 49
0.0208333333333333
 49
0.0
 49
0.0
 49
0.0
 49
0.0
 49
1.0
 49
0.0
 49
0.0
 49
0.0
 49
0.0
 49
1.0
175
     0
142
0.0208333333333333
142
0.0
142
0.0
142
0.0
142
0.0
142
0.0208333333333333
142
0.0
142
0.0
142
0.0
142
0.0
142
1.0
142
0.0
142
0.0
142
0.0
142
0.0
142
1.0
179
     0
144
0.0208333333333333
144
0.0
144
0.0
144
0.0
144
0.0
144
0.0208333333333333
144
0.0
144
0.0
144
0.0
144
0.0
144
1.0
144
0.0
144
0.0
144
0.0
144
0.0
144
1.0
147
0.0208333333333333
147
0.0
147
0.0
147
0.0
147
0.0
147
0.0208333333333333
147
0.0
147
0.0
147
0.0
147
0.0
147
1.0
147
0.0
147
0.0
147
0.0
147
0.0
147
1.0
  0
MATERIAL
  5
C4B
102
{ACAD_XDICTIONARY
360
C4C
102
}
102
{ACAD_REACTORS
330
C3A
102
}
330
C3A
100
AcDbMaterial
  1
Global
 72
     0
 43
0.0208333333333333
 43
0.0
 43
0.0
 43
0.0
 43
0.0
 43
0.0208333333333333
 43
0.0
 43
0.0
 43
0.0
 43
0.0
 43
1.0
 43
0.0
 43
0.0
 43
0.0
 43
0.0
 43
1.0
 77
     0
 47
0.0208333333333333
 47
0.0
 47
0.0
 47
0.0
 47
0.0
 47
0.0208333333333333
 47
0.0
 47
0.0
 47
0.0
 47
0.0
 47
1.0
 47
0.0
 47
0.0
 47
0.0
 47
0.0
 47
1.0
171
     0
 49
0.0208333333333333
 49
0.0
 49
0.0
 49
0.0
 49
0.0
 49
0.0208333333333333
 49
0.0
 49
0.0
 49
0.0
 49
0.0
 49
1.0
 49
0.0
 49
0.0
 49
0.0
 49
0.0
 49
1.0
175
     0
142
0.0208333333333333
142
0.0
142
0.0
142
0.0
142
0.0
142
0.0208333333333333
142
0.0
142
0.0
142
0.0
142
0.0
142
1.0
142
0.0
142
0.0
142
0.0
142
0.0
142
1.0
179
     0
144
0.0208333333333333
144
0.0
144
0.0
144
0.0
144
0.0
144
0.0208333333333333
144
0.0
144
0.0
144
0.0
144
0.0
144
1.0
144
0.0
144
0.0
144
0.0
144
0.0
144
1.0
147
0.0208333333333333
147
0.0
147
0.0
147
0.0
147
0.0
147
0.0208333333333333
147
0.0
147
0.0
147
0.0
147
0.0
147
1.0
147
0.0
147
0.0
147
0.0
147
0.0
147
1.0
  0
MLEADERSTYLE
  5
C82
102
{ACAD_REACTORS
330
C81
102
}
330
C81
100
AcDbMLeaderStyle
170
     2
171
     1
172
     0
 90
        2
 40
0.0
 41
0.0
173
     1
 91
-1056964608
340
13
 92
       -2
290
     1
 42
0.09
291
     1
 43
0.36
  3
Standard
 44
0.18
300

342
11
174
     1
178
     6
175
     1
176
     0
 93
-1056964608
 45
0.18
292
     0
297
     0
 46
0.18
 94
-1056964608
 47
1.0
 49
1.0
140
1.0
293
     1
141
0.0
294
     1
177
     0
142
1.0
295
     0
296
     0
143
0.125
1001
ACAD_MLEADERVER
1070
     2
  0
MLINESTYLE
  5
17
102
{ACAD_REACTORS
330
16
102
}
330
16
100
AcDbMlineStyle
  2
STANDARD
 70
     0
  3

 62
   256
 51
90.0
 52
90.0
 71
     2
 49
0.5
 62
   256
  6
BYLAYER
 49
-0.5
 62
   256
  6
BYLAYER
  0
ACDBPLACEHOLDER
  5
F
102
{ACAD_REACTORS
330
E
102
}
330
E
  0
SCALE
  5
C70
102
{ACAD_REACTORS
330
C6F
102
}
330
C6F
100
AcDbScale
 70
     0
300
1:1
140
1.0
141
1.0
290
     1
  0
SCALE
  5
C71
102
{ACAD_REACTORS
330
C6F
102
}
330
C6F
100
AcDbScale
 70
     0
300
1/128" = 1'-0"
140
0.0078125
141
12.0
290
     0
  0
SCALE
  5
C72
102
{ACAD_REACTORS
330
C6F
102
}
330
C6F
100
AcDbScale
 70
     0
300
1/64" = 1'-0"
140
0.015625
141
12.0
290
     0
  0
SCALE
  5
C73
102
{ACAD_REACTORS
330
C6F
102
}
330
C6F
100
AcDbScale
 70
     0
300
1/32" = 1'-0"
140
0.03125
141
12.0
290
     0
  0
SCALE
  5
C74
102
{ACAD_REACTORS
330
C6F
102
}
330
C6F
100
AcDbScale
 70
     0
300
1/16" = 1'-0"
140
0.0625
141
12.0
290
     0
  0
SCALE
  5
C75
102
{ACAD_REACTORS
330
C6F
102
}
330
C6F
100
AcDbScale
 70
     0
300
3/32" = 1'-0"
140
0.09375
141
12.0
290
     0
  0
SCALE
  5
C76
102
{ACAD_REACTORS
330
C6F
102
}
330
C6F
100
AcDbScale
 70
     0
300
1/8" = 1'-0"
140
0.125
141
12.0
290
     0
  0
SCALE
  5
C77
102
{ACAD_REACTORS
330
C6F
102
}
330
C6F
100
AcDbScale
 70
     0
300
3/16" = 1'-0"
140
0.1875
141
12.0
290
     0
  0
SCALE
  5
C78
102
{ACAD_REACTORS
330
C6F
102
}
330
C6F
100
AcDbScale
 70
     0
300
1/4" = 1'-0"
140
0.25
141
12.0
290
     0
  0
SCALE
  5
C79
102
{ACAD_REACTORS
330
C6F
102
}
330
C6F
100
AcDbScale
 70
     0
300
3/8" = 1'-0"
140
0.375
141
12.0
290
     0
  0
SCALE
  5
C7A
102
{ACAD_REACTORS
330
C6F
102
}
330
C6F
100
AcDbScale
 70
     0
300
1/2" = 1'-0"
140
0.5
141
12.0
290
     0
  0
SCALE
  5
C7B
102
{ACAD_REACTORS
330
C6F
102
}
330
C6F
100
AcDbScale
 70
     0
300
3/4" = 1'-0"
140
0.75
141
12.0
290
     0
  0
SCALE
  5
C7C
102
{ACAD_REACTORS
330
C6F
102
}
330
C6F
100
AcDbScale
 70
     0
300
1" = 1'-0"
140
1.0
141
12.0
290
     0
  0
SCALE
  5
C7D
102
{ACAD_REACTORS
330
C6F
102
}
330
C6F
100
AcDbScale
 70
     0
300
1-1/2" = 1'-0"
140
1.5
141
12.0
290
     0
  0
SCALE
  5
C7E
102
{ACAD_REACTORS
330
C6F
102
}
330
C6F
100
AcDbScale
 70
     0
300
3" = 1'-0"
140
3.0
141
12.0
290
     0
  0
SCALE
  5
C7F
102
{ACAD_REACTORS
330
C6F
102
}
330
C6F
100
AcDbScale
 70
     0
300
6" = 1'-0"
140
6.0
141
12.0
290
     0
  0
SCALE
  5
C80
102
{ACAD_REACTORS
330
C6F
102
}
330
C6F
100
AcDbScale
 70
     0
300
1'-0" = 1'-0"
140
12.0
141
12.0
290
     0
  0
ACDBSECTIONVIEWSTYLE
  5
C84
102
{ACAD_XDICTIONARY
360
206B
102
}
102
{ACAD_REACTORS
330
C83
102
}
330
C83
100
AcDbModelDocViewStyle
 70
     0
  3
Imperial24
290
     0
100
AcDbSectionViewStyle
 70
     0
 71
     0
 90
       78
 71
     1
340
11
 62
   256
 40
0.24
340
0
340
0
 62
   256
 40
0.24
300
I, O, Q, S, X, Z
 40
0.48
 90
        3
 40
0.18
 90
        1
 71
     2
340
15
 90
       25
 62
   256
340
15
 90
       50
 62
   256
 40
0.24
 40
0.0
 40
0.24
 71
     3
340
11
 62
   256
 40
0.24
 90
        1
 40
0.75
 90
        1
300
%<\AcVar ViewType \f "%tc1">% %<\AcVar ViewSectionStartId>%-%<\AcVar ViewSectionEndId>%\PSCALE %<\AcVar ViewScale \f "%sn">%
 71
     4
 62
   256
 62
   257
300
ANSI31
 40
1.0
 90
        0
290
     0
290
     0
 90
        6
 40
0.0
 40
1.570796326794896
 40
0.2617993877991494
 40
1.308996938995747
 40
-0.2617993877991494
 40
1.832595714594044
  0
TABLESTYLE
  5
C6E
102
{ACAD_XDICTIONARY
360
CAA
102
}
102
{ACAD_REACTORS
330
C6D
102
}
330
C6D
100
AcDbTableStyle
  3
Standard
 70
     0
 71
     0
 40
0.06
 41
0.06
280
     0
281
     0
  7
STANDARD
140
0.18
170
     2
 62
     0
 63
     7
283
     0
274
    -2
284
     1
 64
     0
275
    -2
285
     1
 65
     0
276
    -2
286
     1
 66
     0
277
    -2
287
     1
 67
     0
278
    -2
288
     1
 68
     0
279
    -2
289
     1
 69
     0
  7
STANDARD
140
0.25
170
     5
 62
     0
 63
     7
283
     0
274
    -2
284
     1
 64
     0
275
    -2
285
     1
 65
     0
276
    -2
286
     1
 66
     0
277
    -2
287
     1
 67
     0
278
    -2
288
     1
 68
     0
279
    -2
289
     1
 69
     0
  7
STANDARD
140
0.18
170
     5
 62
     0
 63
     7
283
     0
274
    -2
284
     1
 64
     0
275
    -2
285
     1
 65
     0
276
    -2
286
     1
 66
     0
277
    -2
287
     1
 67
     0
278
    -2
288
     1
 68
     0
279
    -2
289
     1
 69
     0
  0
VISUALSTYLE
  5
C59
102
{ACAD_XDICTIONARY
360
2044
102
}
102
{ACAD_REACTORS
330
C53
102
}
330
C53
100
AcDbVisualStyle
  2

 70
     4
 71
     0
 72
     2
 73
     0
 90
        0
 40
-0.6
 41
-30.0
 62
     5
 63
     7
421
 16777215
 74
     1
 91
        4
 64
     7
 65
   257
 75
     1
175
     1
 42
1.0
 92
        0
 66
   257
 43
1.0
 76
     1
 77
     6
 78
     2
 67
     7
 79
     5
170
     0
171
     0
290
     0
174
     0
 93
        1
 44
0.0
173
     0
291
     0
 45
0.0
1001
ACAD
1000
AcDbSavedByObjectVersion
1070
     0
  0
VISUALSTYLE
  5
C58
102
{ACAD_XDICTIONARY
360
2042
102
}
102
{ACAD_REACTORS
330
C53
102
}
330
C53
100
AcDbVisualStyle
  2

 70
     7
 71
     1
 72
     0
 73
     1
 90
        0
 40
-0.6
 41
-30.0
 62
     5
 63
     7
421
 16777215
 74
     0
 91
        4
 64
     7
 65
   257
 75
     1
175
     1
 42
1.0
 92
        8
 66
     7
 43
1.0
 76
     1
 77
     6
 78
     2
 67
     7
 79
     5
170
     0
171
     0
290
     0
174
     0
 93
        1
 44
0.0
173
     0
291
     1
 45
0.0
1001
ACAD
1000
AcDbSavedByObjectVersion
1070
     0
  0
VISUALSTYLE
  5
C5F
102
{ACAD_XDICTIONARY
360
2050
102
}
102
{ACAD_REACTORS
330
C53
102
}
330
C53
100
AcDbVisualStyle
  2

 70
    12
 71
     2
 72
     2
 73
     0
 90
        0
 40
-0.6
 41
-30.0
 62
     5
 63
     7
421
 16777215
 74
     1
 91
        4
 64
     7
 65
   257
 75
     1
175
     1
 42
1.0
 92
        8
 66
     7
 43
1.0
 76
     1
 77
     6
 78
     2
 67
     7
 79
     5
170
     0
171
     0
290
     0
174
     0
 93
        1
 44
50.0
173
     0
291
     1
 45
0.0
1001
ACAD
1000
AcDbSavedByObjectVersion
1070
     0
  0
VISUALSTYLE
  5
C63
102
{ACAD_XDICTIONARY
360
2058
102
}
102
{ACAD_REACTORS
330
C53
102
}
330
C53
100
AcDbVisualStyle
  2

 70
    16
 71
     2
 72
     2
 73
     3
 90
        0
 40
-0.6
 41
-30.0
 62
     5
 63
     8
421
  8421504
 74
     1
 91
        4
 64
     7
 65
   257
 75
     1
175
     1
 42
1.0
 92
        8
 66
     8
424
  8421504
 43
1.0
 76
     1
 77
     6
 78
     2
 67
     7
 79
     5
170
     0
171
     0
290
     0
174
     0
 93
        1
 44
0.0
173
     0
291
     1
 45
0.0
1001
ACAD
1000
AcDbSavedByObjectVersion
1070
     0
  0
VISUALSTYLE
  5
C5C
102
{ACAD_XDICTIONARY
360
204A
102
}
102
{ACAD_REACTORS
330
C53
102
}
330
C53
100
AcDbVisualStyle
  2

 70
     9
 71
     3
 72
     2
 73
     0
 90
        0
 40
-0.6
 41
-30.0
 62
     5
 63
     7
421
 16777215
 74
     2
 91
        2
 64
     7
 65
   257
 75
     1
175
     1
 42
179.0
 92
        8
 66
     7
 43
1.0
 76
     1
 77
     6
 78
     2
 67
     7
 79
     3
170
     0
171
     0
290
     0
174
     0
 93
        1
 44
0.0
173
     0
291
     0
 45
0.0
1001
ACAD
1000
AcDbSavedByObjectVersion
1070
     0
  0
VISUALSTYLE
  5
C5E
102
{ACAD_XDICTIONARY
360
204E
102
}
102
{ACAD_REACTORS
330
C53
102
}
330
C53
100
AcDbVisualStyle
  2

 70
    11
 71
     2
 72
     2
 73
     0
 90
        0
 40
-0.6
 41
-30.0
 62
     5
 63
     7
421
 16777215
 74
     1
 91
        4
 64
     7
 65
   257
 75
     1
175
     1
 42
1.0
 92
        8
 66
     7
 43
1.0
 76
     1
 77
     6
 78
     2
 67
     7
 79
     5
170
     0
171
     0
290
     0
174
     0
 93
        1
 44
-50.0
173
     0
291
     1
 45
0.0
1001
ACAD
1000
AcDbSavedByObjectVersion
1070
     0
  0
VISUALSTYLE
  5
C6B
102
{ACAD_XDICTIONARY
360
2068
102
}
102
{ACAD_REACTORS
330
C53
102
}
330
C53
100
AcDbVisualStyle
  2

 70
    22
 71
     2
 72
     2
 73
     0
 90
        0
 40
-0.6
 41
-30.0
 62
     5
 63
     7
421
 16777215
 74
     1
 91
        4
 64
     7
 65
   257
 75
     1
175
     1
 42
1.0
 92
        8
 66
     7
 43
1.0
 76
     1
 77
     6
 78
     2
 67
     7
 79
     5
170
     0
171
     0
290
     0
174
     0
 93
        1
 44
0.0
173
     0
291
     1
 45
0.0
1001
ACAD
1000
AcDbSavedByObjectVersion
1070
     0
  0
VISUALSTYLE
  5
C62
102
{ACAD_XDICTIONARY
360
2056
102
}
102
{ACAD_REACTORS
330
C53
102
}
330
C53
100
AcDbVisualStyle
  2

 70
    15
 71
     2
 72
     2
 73
     0
 90
        0
 40
-0.6
 41
-30.0
 62
     5
 63
     7
421
 16777215
 74
     1
 91
        4
 64
     7
 65
   257
 75
     1
175
     1
 42
1.0
 92
        8
 66
     7
 43
1.0
 76
     1
 77
     6
 78
     2
 67
     7
 79
     5
170
     0
171
     0
290
     0
174
     0
 93
        1
 44
0.0
173
     0
291
     1
 45
0.0
1001
ACAD
1000
AcDbSavedByObjectVersion
1070
     0
  0
VISUALSTYLE
  5
C54
102
{ACAD_XDICTIONARY
360
203A
102
}
102
{ACAD_REACTORS
330
C53
102
}
330
C53
100
AcDbVisualStyle
  2

 70
     0
 71
     2
 72
     1
 73
     1
 90
        2
 40
-0.6
 41
30.0
 62
     5
 63
     7
421
 16777215
 74
     0
 91
        0
 64
     7
 65
   257
 75
     1
175
     1
 42
1.0
 92
        8
 66
     7
 43
1.0
 76
     1
 77
     6
 78
     2
 67
     7
 79
     5
170
     0
171
     0
290
     0
174
     0
 93
       13
 44
0.0
173
     0
291
     1
 45
0.0
1001
ACAD
1000
AcDbSavedByObjectVersion
1070
     0
  0
VISUALSTYLE
  5
C55
102
{ACAD_XDICTIONARY
360
203C
102
}
102
{ACAD_REACTORS
330
C53
102
}
330
C53
100
AcDbVisualStyle
  2

 70
     1
 71
     2
 72
     1
 73
     1
 90
        2
 40
-0.6
 41
30.0
 62
     5
 63
     7
421
 16777215
 74
     1
 91
        0
 64
     7
 65
   257
 75
     1
175
     1
 42
1.0
 92
        0
 66
   257
 43
1.0
 76
     1
 77
     6
 78
     2
 67
     7
 79
     5
170
     0
171
     0
290
     0
174
     0
 93
       13
 44
0.0
173
     0
291
     1
 45
0.0
1001
ACAD
1000
AcDbSavedByObjectVersion
1070
     0
  0
VISUALSTYLE
  5
C56
102
{ACAD_XDICTIONARY
360
203E
102
}
102
{ACAD_REACTORS
330
C53
102
}
330
C53
100
AcDbVisualStyle
  2

 70
     2
 71
     2
 72
     2
 73
     1
 90
        2
 40
-0.6
 41
30.0
 62
     5
 63
     7
421
 16777215
 74
     0
 91
        0
 64
     7
 65
   257
 75
     1
175
     1
 42
1.0
 92
        0
 66
     7
 43
1.0
 76
     1
 77
     6
 78
     2
 67
     7
 79
     5
170
     0
171
     0
290
     0
174
     0
 93
       13
 44
0.0
173
     0
291
     1
 45
0.0
1001
ACAD
1000
AcDbSavedByObjectVersion
1070
     0
  0
VISUALSTYLE
  5
C57
102
{ACAD_XDICTIONARY
360
2040
102
}
102
{ACAD_REACTORS
330
C53
102
}
330
C53
100
AcDbVisualStyle
  2

 70
     3
 71
     2
 72
     2
 73
     1
 90
        2
 40
-0.6
 41
30.0
 62
     5
 63
     7
421
 16777215
 74
     1
 91
        0
 64
     7
 65
   257
 75
     1
175
     1
 42
1.0
 92
        0
 66
   257
 43
1.0
 76
     1
 77
     6
 78
     2
 67
     7
 79
     5
170
     0
171
     0
290
     0
174
     0
 93
       13
 44
0.0
173
     0
291
     1
 45
0.0
1001
ACAD
1000
AcDbSavedByObjectVersion
1070
     0
  0
VISUALSTYLE
  5
C5B
102
{ACAD_XDICTIONARY
360
2048
102
}
102
{ACAD_REACTORS
330
C53
102
}
330
C53
100
AcDbVisualStyle
  2

 70
     6
 71
     1
 72
     2
 73
     2
 90
        0
 40
-0.6
 41
-30.0
 62
     5
 63
     7
421
 16777215
 74
     2
 91
        2
 64
     7
 65
   257
 75
     2
175
     1
 42
40.0
 92
        0
 66
   257
 43
1.0
 76
     1
 77
     6
 78
     2
 67
     7
 79
     3
170
     0
171
     0
290
     0
174
     0
 93
        1
 44
0.0
173
     0
291
     0
 45
0.0
1001
ACAD
1000
AcDbSavedByObjectVersion
1070
     0
  0
VISUALSTYLE
  5
C69
102
{ACAD_XDICTIONARY
360
2064
102
}
102
{ACAD_REACTORS
330
C53
102
}
330
C53
100
AcDbVisualStyle
  2

 70
    20
 71
     2
 72
     2
 73
     0
 90
        0
 40
-0.6
 41
-30.0
 62
     5
 63
     7
421
 16777215
 74
     1
 91
        4
 64
     7
 65
   257
 75
     1
175
     1
 42
1.0
 92
       10
 66
     7
 43
1.0
 76
     1
 77
     6
 78
     2
 67
     7
 79
     5
170
     0
171
     0
290
     0
174
     0
 93
        1
 44
0.0
173
     0
291
     1
 45
0.0
1001
ACAD
1000
AcDbSavedByObjectVersion
1070
     0
  0
VISUALSTYLE
  5
C61
102
{ACAD_XDICTIONARY
360
2054
102
}
102
{ACAD_REACTORS
330
C53
102
}
330
C53
100
AcDbVisualStyle
  2

 70
    14
 71
     2
 72
     2
 73
     0
 90
        0
 40
-0.6
 41
-30.0
 62
     5
 63
     7
421
 16777215
 74
     1
 91
        4
 64
     7
 65
   257
 75
     7
175
     7
 42
1.0
 92
        8
 66
     7
 43
1.0
 76
     1
 77
     6
 78
     2
 67
     7
 79
     5
170
     0
171
     0
290
     0
174
     0
 93
        1
 44
0.0
173
     0
291
     1
 45
0.0
1001
ACAD
1000
AcDbSavedByObjectVersion
1070
     0
  0
VISUALSTYLE
  5
C6A
102
{ACAD_XDICTIONARY
360
2066
102
}
102
{ACAD_REACTORS
330
C53
102
}
330
C53
100
AcDbVisualStyle
  2

 70
    21
 71
     2
 72
     2
 73
     0
 90
        0
 40
-0.6
 41
-30.0
 62
     5
 63
     7
421
 16777215
 74
     1
 91
        4
 64
     7
 65
   257
 75
     1
175
     1
 42
1.0
 92
        9
 66
     7
 43
1.0
 76
     1
 77
     6
 78
     2
 67
     7
 79
     5
170
     0
171
     0
290
     0
174
     0
 93
        1
 44
0.0
173
     0
291
     1
 45
0.0
1001
ACAD
1000
AcDbSavedByObjectVersion
1070
     0
  0
VISUALSTYLE
  5
C5D
102
{ACAD_XDICTIONARY
360
204C
102
}
102
{ACAD_REACTORS
330
C53
102
}
330
C53
100
AcDbVisualStyle
  2

 70
     8
 71
     2
 72
     3
 73
     0
 90
        2
 40
-0.6
 41
30.0
 62
     5
 63
     7
421
 16777215
 74
     0
 91
        0
 64
     7
 65
   257
 75
     1
175
     1
 42
1.0
 92
        8
 66
   257
 43
1.0
 76
     1
 77
     6
 78
     2
 67
     7
 79
     3
170
     0
171
     0
290
     0
174
     0
 93
       13
 44
0.0
173
     0
291
     0
 45
0.0
1001
ACAD
1000
AcDbSavedByObjectVersion
1070
     0
  0
VISUALSTYLE
  5
C68
102
{ACAD_XDICTIONARY
360
2062
102
}
102
{ACAD_REACTORS
330
C53
102
}
330
C53
100
AcDbVisualStyle
  2

 70
    27
 71
     2
 72
     2
 73
     1
 90
        2
 40
-0.6
 41
30.0
 62
     5
 63
     7
421
 16777215
 74
     0
 91
        4
 64
     7
 65
   257
 75
     1
175
     1
 42
1.0
 92
        8
 66
   257
 43
1.0
 76
     1
 77
     6
 78
     2
 67
     8
425
  7895160
 79
     3
170
     0
171
     0
290
     0
174
     0
 93
        5
 44
0.0
173
     0
291
     0
 45
0.0
1001
ACAD
1000
AcDbSavedByObjectVersion
1070
     0
  0
VISUALSTYLE
  5
C67
102
{ACAD_XDICTIONARY
360
2060
102
}
102
{ACAD_REACTORS
330
C53
102
}
330
C53
100
AcDbVisualStyle
  2

 70
    26
 71
     2
 72
     2
 73
     1
 90
        2
 40
-0.6
 41
30.0
 62
     5
 63
     7
421
 16777215
 74
     1
 91
        2
 64
     7
 65
   257
 75
     2
175
     1
 42
1.0
 92
        8
 66
   257
 43
1.0
 76
     1
 77
     6
 78
     2
 67
     7
 79
     3
170
     0
171
     0
290
     0
174
     0
 93
        5
 44
0.0
173
     0
291
     0
 45
0.0
1001
ACAD
1000
AcDbSavedByObjectVersion
1070
     0
  0
VISUALSTYLE
  5
C64
102
{ACAD_XDICTIONARY
360
205A
102
}
102
{ACAD_REACTORS
330
C53
102
}
330
C53
100
AcDbVisualStyle
  2

 70
    23
 71
     2
 72
     2
 73
     3
 90
        0
 40
-0.6
 41
-30.0
 62
     5
 63
     7
421
 16777215
 74
     2
 91
        2
 64
     7
 65
     7
 75
     1
175
     1
 42
40.0
 92
        8
 66
     7
 43
1.0
 76
     1
 77
     6
 78
     2
 67
     7
 79
     3
170
     0
171
     0
290
     0
174
     0
 93
        1
 44
0.0
173
     0
291
     0
 45
0.0
1001
ACAD
1000
AcDbSavedByObjectVersion
1070
     0
  0
VISUALSTYLE
  5
C65
102
{ACAD_XDICTIONARY
360
205C
102
}
102
{ACAD_REACTORS
330
C53
102
}
330
C53
100
AcDbVisualStyle
  2

 70
    24
 71
     1
 72
     2
 73
     2
 90
        0
 40
-0.6
 41
-30.0
 62
     5
 63
     7
421
 16777215
 74
     2
 91
        2
 64
     7
 65
     7
 75
     1
175
     1
 42
40.0
 92
       11
 66
     7
 43
1.0
 76
     1
 77
     6
 78
     2
 67
     7
 79
     6
170
     0
171
     0
290
     0
174
     0
 93
        1
 44
0.0
173
     0
291
     0
 45
0.0
1001
ACAD
1000
AcDbSavedByObjectVersion
1070
     0
  0
VISUALSTYLE
  5
C60
102
{ACAD_XDICTIONARY
360
2052
102
}
102
{ACAD_REACTORS
330
C53
102
}
330
C53
100
AcDbVisualStyle
  2

 70
    13
 71
     2
 72
     2
 73
     0
 90
        0
 40
-0.6
 41
-30.0
 62
     5
 63
     7
421
 16777215
 74
     1
 91
        4
 64
     7
 65
   257
 75
     1
175
     1
 42
1.0
 92
       12
 66
     7
 43
1.0
 76
     1
 77
     6
 78
     2
 67
     7
 79
     5
170
     0
171
     0
290
     0
174
     0
 93
        1
 44
0.0
173
     0
291
     1
 45
0.0
1001
ACAD
1000
AcDbSavedByObjectVersion
1070
     0
  0
VISUALSTYLE
  5
C5A
102
{ACAD_XDICTIONARY
360
2046
102
}
102
{ACAD_REACTORS
330
C53
102
}
330
C53
100
AcDbVisualStyle
  2

 70
     5
 71
     0
 72
     2
 73
     0
 90
        0
 40
-0.6
 41
-30.0
 62
     5
 63
     7
421
 16777215
 74
     1
 91
        4
 64
     7
 65
   257
 75
     1
175
     1
 42
1.0
 92
        0
 66
   257
 43
1.0
 76
     1
 77
     6
 78
     2
 67
     7
 79
     3
170
     0
171
     0
290
     0
174
     0
 93
        1
 44
0.0
173
     0
291
     0
 45
0.0
1001
ACAD
1000
AcDbSavedByObjectVersion
1070
     0
  0
VISUALSTYLE
  5
C66
102
{ACAD_XDICTIONARY
360
205E
102
}
102
{ACAD_REACTORS
330
C53
102
}
330
C53
100
AcDbVisualStyle
  2

 70
    25
 71
     2
 72
     2
 73
     1
 90
        1
 40
0.5
 41
-30.0
 62
     5
 63
     7
421
 16777215
 74
     1
 91
        0
 64
     7
 65
   257
 75
     1
175
     1
 42
1.0
 92
        8
 66
     7
 43
1.0
 76
     1
 77
     6
 78
     2
 67
     7
 79
     3
170
     0
171
     0
290
     0
174
     0
 93
       13
 44
0.0
173
     0
291
     0
 45
0.0
1001
ACAD
1000
AcDbSavedByObjectVersion
1070
     0
  0
DICTIONARYVAR
  5
CA4
102
{ACAD_REACTORS
330
C9E
102
}
330
C9E
100
DictionaryVariables
280
     0
  1
1:1
  0
DICTIONARYVAR
  5
CA0
102
{ACAD_REACTORS
330
C9E
102
}
330
C9E
100
DictionaryVariables
280
     0
  1
STANDARD
  0
DICTIONARYVAR
  5
C9F
102
{ACAD_REACTORS
330
C9E
102
}
330
C9E
100
DictionaryVariables
280
     0
  1
STANDARD
  0
DICTIONARYVAR
  5
CA1
102
{ACAD_REACTORS
330
C9E
102
}
330
C9E
100
DictionaryVariables
280
     0
  1
Imperial24
  0
DICTIONARYVAR
  5
CA2
102
{ACAD_REACTORS
330
C9E
102
}
330
C9E
100
DictionaryVariables
280
     0
  1
Imperial24
  0
DICTIONARYVAR
  5
CA6
102
{ACAD_REACTORS
330
C9E
102
}
330
C9E
100
DictionaryVariables
280
     0
  1
1
  0
DICTIONARYVAR
  5
CA7
102
{ACAD_REACTORS
330
C9E
102
}
330
C9E
100
DictionaryVariables
280
     0
  1
15
  0
DICTIONARYVAR
  5
CA5
102
{ACAD_REACTORS
330
C9E
102
}
330
C9E
100
DictionaryVariables
280
     0
  1
0
  0
DICTIONARYVAR
  5
2035
102
{ACAD_REACTORS
330
C9E
102
}
330
C9E
100
DictionaryVariables
280
     0
  1
1.570796
  0
DICTIONARYVAR
  5
2036
102
{ACAD_REACTORS
330
C9E
102
}
330
C9E
100
DictionaryVariables
280
     0
  1
1.570796
  0
DICTIONARYVAR
  5
CA3
102
{ACAD_REACTORS
330
C9E
102
}
330
C9E
100
DictionaryVariables
280
     0
  1
0
  0
DICTIONARYVAR
  5
2037
102
{ACAD_REACTORS
330
C9E
102
}
330
C9E
100
DictionaryVariables
280
     0
  1
2
  0
DICTIONARY
  5
206D
330
C86
100
AcDbDictionary
280
     1
281
     1
  3
ACAD_XREC_ROUNDTRIP
360
206E
  0
DICTIONARY
  5
C44
330
C43
100
AcDbDictionary
280
     1
281
     1
  3
ACAD_XREC_ROUNDTRIP
360
CF1
  3
BUMPTILE
360
C46
  3
DIFFUSETILE
360
C45
  3
OPACITYTILE
360
C49
  3
REFLECTIONTILE
360
C48
  3
REFRACTIONTILE
360
C4A
  3
SPECULARTILE
360
C47
  0
DICTIONARY
  5
C3C
330
C3B
100
AcDbDictionary
280
     1
281
     1
  3
ACAD_XREC_ROUNDTRIP
360
CF0
  3
BUMPTILE
360
C3E
  3
DIFFUSETILE
360
C3D
  3
OPACITYTILE
360
C41
  3
REFLECTIONTILE
360
C40
  3
REFRACTIONTILE
360
C42
  3
SPECULARTILE
360
C3F
  0
DICTIONARY
  5
C4C
330
C4B
100
AcDbDictionary
280
     1
281
     1
  3
ACAD_XREC_ROUNDTRIP
360
CF2
  3
BUMPTILE
360
C4E
  3
DIFFUSETILE
360
C4D
  3
FBXASSET
360
CE6
  3
OPACITYTILE
360
C51
  3
REFLECTIONTILE
360
C50
  3
REFRACTIONTILE
360
C52
  3
SPECULARTILE
360
C4F
  0
DICTIONARY
  5
206B
330
C84
100
AcDbDictionary
280
     1
281
     1
  3
ACAD_XREC_ROUNDTRIP
360
206C
  0
DICTIONARY
  5
CAA
330
C6E
100
AcDbDictionary
280
     1
281
     1
  3
ACAD_ROUNDTRIP_2008_TABLESTYLE_CELLSTYLEMAP
360
2038
  3
ACAD_XREC_ROUNDTRIP
360
206A
  0
DICTIONARY
  5
2044
330
C59
100
AcDbDictionary
280
     1
281
     1
  3
ACAD_XREC_ROUNDTRIP
360
2045
  0
DICTIONARY
  5
2042
330
C58
100
AcDbDictionary
280
     1
281
     1
  3
ACAD_XREC_ROUNDTRIP
360
2043
  0
DICTIONARY
  5
2050
330
C5F
100
AcDbDictionary
280
     1
281
     1
  3
ACAD_XREC_ROUNDTRIP
360
2051
  0
DICTIONARY
  5
2058
330
C63
100
AcDbDictionary
280
     1
281
     1
  3
ACAD_XREC_ROUNDTRIP
360
2059
  0
DICTIONARY
  5
204A
330
C5C
100
AcDbDictionary
280
     1
281
     1
  3
ACAD_XREC_ROUNDTRIP
360
204B
  0
DICTIONARY
  5
204E
330
C5E
100
AcDbDictionary
280
     1
281
     1
  3
ACAD_XREC_ROUNDTRIP
360
204F
  0
DICTIONARY
  5
2068
330
C6B
100
AcDbDictionary
280
     1
281
     1
  3
ACAD_XREC_ROUNDTRIP
360
2069
  0
DICTIONARY
  5
2056
330
C62
100
AcDbDictionary
280
     1
281
     1
  3
ACAD_XREC_ROUNDTRIP
360
2057
  0
DICTIONARY
  5
203A
330
C54
100
AcDbDictionary
280
     1
281
     1
  3
ACAD_XREC_ROUNDTRIP
360
203B
  0
DICTIONARY
  5
203C
330
C55
100
AcDbDictionary
280
     1
281
     1
  3
ACAD_XREC_ROUNDTRIP
360
203D
  0
DICTIONARY
  5
203E
330
C56
100
AcDbDictionary
280
     1
281
     1
  3
ACAD_XREC_ROUNDTRIP
360
203F
  0
DICTIONARY
  5
2040
330
C57
100
AcDbDictionary
280
     1
281
     1
  3
ACAD_XREC_ROUNDTRIP
360
2041
  0
DICTIONARY
  5
2048
330
C5B
100
AcDbDictionary
280
     1
281
     1
  3
ACAD_XREC_ROUNDTRIP
360
2049
  0
DICTIONARY
  5
2064
330
C69
100
AcDbDictionary
280
     1
281
     1
  3
ACAD_XREC_ROUNDTRIP
360
2065
  0
DICTIONARY
  5
2054
330
C61
100
AcDbDictionary
280
     1
281
     1
  3
ACAD_XREC_ROUNDTRIP
360
2055
  0
DICTIONARY
  5
2066
330
C6A
100
AcDbDictionary
280
     1
281
     1
  3
ACAD_XREC_ROUNDTRIP
360
2067
  0
DICTIONARY
  5
204C
330
C5D
100
AcDbDictionary
280
     1
281
     1
  3
ACAD_XREC_ROUNDTRIP
360
204D
  0
DICTIONARY
  5
2062
330
C68
100
AcDbDictionary
280
     1
281
     1
  3
ACAD_XREC_ROUNDTRIP
360
2063
  0
DICTIONARY
  5
2060
330
C67
100
AcDbDictionary
280
     1
281
     1
  3
ACAD_XREC_ROUNDTRIP
360
2061
  0
DICTIONARY
  5
205A
330
C64
100
AcDbDictionary
280
     1
281
     1
  3
ACAD_XREC_ROUNDTRIP
360
205B
  0
DICTIONARY
  5
205C
330
C65
100
AcDbDictionary
280
     1
281
     1
  3
ACAD_XREC_ROUNDTRIP
360
205D
  0
DICTIONARY
  5
2052
330
C60
100
AcDbDictionary
280
     1
281
     1
  3
ACAD_XREC_ROUNDTRIP
360
2053
  0
DICTIONARY
  5
2046
330
C5A
100
AcDbDictionary
280
     1
281
     1
  3
ACAD_XREC_ROUNDTRIP
360
2047
  0
DICTIONARY
  5
205E
330
C66
100
AcDbDictionary
280
     1
281
     1
  3
ACAD_XREC_ROUNDTRIP
360
205F
  0
XRECORD
  5
206E
102
{ACAD_REACTORS
330
206D
102
}
330
206D
100
AcDbXrecord
280
     1
102
DISPLAYNAME
  1
Imperial24
102
FLAGS
 90
        0
  0
XRECORD
  5
CF1
102
{ACAD_REACTORS
330
C44
102
}
330
C44
100
AcDbXrecord
280
     1
102
MATERIAL
148
0.0
149
0.0
149
0.0
 93
        0
 94
      127
282
     0
 72
     0
 77
     0
171
     0
175
     0
179
     0
273
     0
  0
XRECORD
  5
C46
102
{ACAD_REACTORS
330
C44
102
}
330
C44
100
AcDbXrecord
280
     1
270
     1
271
     1
  0
XRECORD
  5
C45
102
{ACAD_REACTORS
330
C44
102
}
330
C44
100
AcDbXrecord
280
     1
270
     1
271
     1
  0
XRECORD
  5
C49
102
{ACAD_REACTORS
330
C44
102
}
330
C44
100
AcDbXrecord
280
     1
270
     1
271
     1
  0
XRECORD
  5
C48
102
{ACAD_REACTORS
330
C44
102
}
330
C44
100
AcDbXrecord
280
     1
270
     1
271
     1
  0
XRECORD
  5
C4A
102
{ACAD_REACTORS
330
C44
102
}
330
C44
100
AcDbXrecord
280
     1
270
     1
271
     1
  0
XRECORD
  5
C47
102
{ACAD_REACTORS
330
C44
102
}
330
C44
100
AcDbXrecord
280
     1
270
     1
271
     1
  0
XRECORD
  5
CF0
102
{ACAD_REACTORS
330
C3C
102
}
330
C3C
100
AcDbXrecord
280
     1
102
MATERIAL
148
0.0
149
0.0
149
0.0
 93
        0
 94
      127
282
     0
 72
     0
 77
     0
171
     0
175
     0
179
     0
273
     0
  0
XRECORD
  5
C3E
102
{ACAD_REACTORS
330
C3C
102
}
330
C3C
100
AcDbXrecord
280
     1
270
     1
271
     1
  0
XRECORD
  5
C3D
102
{ACAD_REACTORS
330
C3C
102
}
330
C3C
100
AcDbXrecord
280
     1
270
     1
271
     1
  0
XRECORD
  5
C41
102
{ACAD_REACTORS
330
C3C
102
}
330
C3C
100
AcDbXrecord
280
     1
270
     1
271
     1
  0
XRECORD
  5
C40
102
{ACAD_REACTORS
330
C3C
102
}
330
C3C
100
AcDbXrecord
280
     1
270
     1
271
     1
  0
XRECORD
  5
C42
102
{ACAD_REACTORS
330
C3C
102
}
330
C3C
100
AcDbXrecord
280
     1
270
     1
271
     1
  0
XRECORD
  5
C3F
102
{ACAD_REACTORS
330
C3C
102
}
330
C3C
100
AcDbXrecord
280
     1
270
     1
271
     1
  0
XRECORD
  5
CF2
102
{ACAD_REACTORS
330
C4C
102
}
330
C4C
100
AcDbXrecord
280
     1
102
MATERIAL
148
0.0
149
0.0
149
0.0
 93
        0
 94
      127
282
     0
 72
     0
 77
     0
171
     0
175
     0
179
     0
273
     0
  0
XRECORD
  5
C4E
102
{ACAD_REACTORS
330
C4C
102
}
330
C4C
100
AcDbXrecord
280
     1
270
     1
271
     1
  0
XRECORD
  5
C4D
102
{ACAD_REACTORS
330
C4C
102
}
330
C4C
100
AcDbXrecord
280
     1
270
     1
271
     1
  0
XRECORD
  5
CE6
102
{ACAD_REACTORS
330
C4C
102
}
330
C4C
100
AcDbXrecord
280
     1
 70
     1
 90
652598616
 71
     1
  1
A819387A-F9EF-43A6-8D2F-573824F76622
311
504B0304140006080800CE818E500D6510CB13010000A80100004F00000033384332454631462D454344382D343432322D423444382D3135434441454530394542442F4173736574446174612F446566696E6974696F6E4974657261746F7250726F706572746965732E62696E7550C14EC3300C0D1C401C101AE20338700D
311
ED92B4499110A44DC2890B7C00CA4AD82A65DDB4B4E2BA233FC52F70DAFF80338A3481B0F46CE7D9B19FFC8610FA1C0C52B40758833F8678E75AB76AEAC77AE6E6161D44C62F26D65F40266569A4A429668A31CC34E5B8C828C59CA742519595DCE4FBD0770850EEC5F6BE8B23EF9B503BEF6DEB167D180131EC389FDB0E76
311
597F193F1D2114C31A807E0A214E9A7E2B8A225F01F6797975634370DD75424545B4191BAC2B25306384E0924136CE2A25B54E0B5DAAE4C18545BFAA5D48A418175470894DA10D6654E658286270C6A920CCF03C2724E9667D3CCD599431696DE3933419243C2DDB29D07F6CF796BBC55B7848C0C7E9C996DE8CDEB7F13FF7
311
7BCE17504B0304140006080800CE818E503EF53E62FE000000300200004500000033384332454631462D454344382D343432322D423444382D3135434441454530394542442F4173736574446174612F496E7374616E636550726F706572746965732E62696EEB606060F80F0540260323103700495E20ED9E9A975A94991C
311
9C9C919A9BA8021470B430B434B63077D475B37475D335317634D3B5703172D3353537B63032713337333332624768046931363471713532B5D435353131D635313332D475727372D13534373670367376B67474B5042A03DBCBA019D37FE8ABC6157B20CD04146B0062181F4C03F940F0C11EA29A8141C08141002C042654
311
1C106CAC2CA046088033B02A030AC2157C6006F21A8018AAF50194E6010A610250382264E08660284CD9E98021862280A91564B406929A0FF62C401E28B6F88038B83CB1243943D7A928312F25350524830E4257FD5F158A2E08E6E392095D75B5411B430700504B0304140006080800CE818E5088E57597CD3F0000904100
311
006B00000033384332454631462D454344382D343432322D423444382D3135434441454530394542442F5265736F75726365732F41383139333837412D463945462D343341362D384432462D3537333832344637363632322F7468756D626E61696C2F302F67656E657269635F706E67355B773CD4FF1FBF73E71C0E67EF75
311
76C9DEF3EC995D46C6A1EC5046649CBDF79E192942562825CE965D8A868C2842C8DE9FDFD1F7E7F138F7078FCF6B3F5FCFD7EBFDFEC41B196891913091804020321D6D7513FC77D8C5070EC3FFEE51B21F068154CC75D455CC028A3EA68992803810109FDDE5D5CEC5521B28A1B422BF80741695D5B529DA1C2D058AD2388B
311
DA9F476F7C2CADC939304173DBF48A452BF8A700C0C70C3D121C1AA15A5270C22E2B9E28763651F7DA0D12CE11077B2ECD0D560B5E3DE2368B1E65C5E1C87384A4CC5F2D9FB8BE39E9B77C753783A37998F5CEF1B4FEE553463245C9712270880DF339E0B882A6BA713D865F6F384C842D440934EF264F4A304F8DE4EEFA1E
311
2BF5E2D91F5ADD9613D6E31DDB33ED31DB1D7916CAF091286EA3D31B9CFECB78BB0060245B943C4C040119FF780A74DD308BA9D028678674EB5504ECF284EE814DAED07440BAF649BE4B55DA2890F4D73E2D489A59EE54FDB0A85B59F2F52C4858A02705C4815A792B0C4A996A2023ECB195073E115E3E3647F64243A8338F
311
2000BCB58DA5692C7E7C3D413F963FEDF3CF00FBB0F831A9D51360FECA43819F527B89FA260EB63C5DA676830AA3626A3693B23F1A17A0DFFCE3EE164E31B5365EDF0C89EF64D8E38AB0BA9A1117D7C3A0EC44F44F4023095E80BA610DE336D0F99593A88BFC5306E72DF98F7FD132ED95878DF2964EA7E43071359FD83B2B
311
DF9C6B5BDF768F0F3C0FC351199526F53D9460A34511F75D1B63E488178569472C91A94497807A3FD4A390C6558F26D416365C3656DE6E769DA9D8FC73774E1709812842DD8EF96AED1960F79D21B395CDDFE6F92CB4EB962A4668C76990E2EF29798C8941D67DA50F4A5F947872460F1F6FDB794E8A29FD7AC0C0D6E07143
311
39CE258FB17AE8535221E3464A10F29A0BE5EEECEFC5675926A89F49EB14E5711894F6586DB5754EB4D5DA9C6437EBA57DB97A24F8B8A8DB295FFD73266CF57E82694DF5166DDF93573AFE9C9C5EB05F8FEF8E89E0A8917B0B3724DB7BEBB53252581EFC3E38166BA131A3A5B42FE2AD00A769BBFA4458D2DE7822F8C4F63D
311
0B8E21B285AE13325F3410A435C648C9D91FDEB109E73CEDA7BC796961AF79175E1A3CE4C5E8B0D009B0C9E29EFD98BC8E97554E3D8D838424E270F7685226E5AC268E021EDE3522D583E8F20C0BDE2959EF5BBFEEDAB32FE9A3ED0E39F211A86AA9DEBFC68182EDED132AB8BB794442D2D7EA9F4D8BFF52BC4D55BB165124
311
EE90A42D101E67BBBB292FFB4F66DE5BF2300E44546757DA7CEF8932BFC9F92A0707953491A55C5A5ACEDABD9FA1AEA01BAC3DC5A24E22E7C47213493996EFBC369D086ED9397C9BA6C7F9855C7BD5E15BFC8C53DB3D2A4C5901A57ACD2FBDF4D1676E95338B2C2BCE65FDA4C64F5FEFDC7D9CA5AA1FCF11E193F2FDABF0F4
311
916BF13FB916A224380E6462A9815F2300DC49CC4DF8D055CEF76462F4B7A7ACA7365C2707891370BC1D0AA6203C44CCAB47084FEC057F27FFCD57F89B8B9852459798A675C66BD7CE572CAF71FF7E6D7ECF7BF62CAB7B3F1107DCD04DC55A3F9961700286141C94A4F771FEB2BCDA2DDEE0CB0BAE402FF1DB0100F8E475DF
311
FFC074DDB4498AB7D186A7654DDB1CB680D703D47CEB4E72F8CB13D86A4AA68116E26387B93FD6738779B34FEDB8E517EDF2BAF28D9BE93A1D3A164320E07D42E514725C29515FF361754213EDE06B079A2E99EB1CA82A02019EADEEB87B9AF005BD04BBCECB14AACD6B24EFBE482194A97DD32400685FF1FEF1544D1B14EF
311
B1E7F08E6D2CD2AF52DE757F35F5E62332EE88EA26417AD5C3E0E319D68F25414E6D672BD4522B278C57D18F0113921C71D96527E091F00CEB15AE23D24667369BD3CEFA10C7549D930890BA4366F4EBC55F01F746109F98ABCDD5A3EE06619C6AD78AB33E48E4C9BD21BF7478B385EC05C4F8987E2C1BFA0A60EBEDAA0AE0
311
B015C2720ECE180FB6F2DEFBEB822D96338C9B63822183BBF52FB664A7AE57003AABCE512BF77E7E31BDA2E739AC4C131657DDFE5225E900FB56CC01CDE808FA4A9C9DA16AC679656BB64796283D89812B8F91136AE18EE5EBBAF47A73BE3C153EB5D4CD491B4BFB4FE690A4CF9ABA08C0D8AA64220C438C96EA6CA80B58FE
311
5761E697B3A292EB9FBDA502FA863E49FE694ADDFFF9D62C520BDD1A22014147A0903A05B9B729F54272EF83931FEEC057BFF8C8055C279EAC5C0011804828734024F6CFA319C9CC6867C727184465CD9BB7ED386AFFD96B294A85E3802FAE47244602D8273615952B98C4F23F7EAE4463D9D638EEE374A20959E0FE519C4C
311
FB0FBFE5DD80C2AA3F9DB961D1BDE57E67C9BB47B77FDD74EE3094F5DBBE3EBC1FBDB7393F5116263009E2EFE1AF9A221B2AE234C902BF70E9F280ED23E73908361565964333A3F01D0B006AF32FB21AA1316744B489D5A198E85299241735BE559675130955C902A8ED761FC0DBE337A9F91919AF5CE32AF902ADF9AB2615
311
E00E8A94586BA1A90839B61832FF1BFB76D2EFADE6DB1BA04CCAD3DA649E7E2A0219F592E22F2AD54847EEA8E42271011E9074F8F3DD9FBA6CDF88FFC9FC7E811AD1CA8F4557CE4AFC7BBEDCF0114A48689F20A584520C74DA8127124B767E2FB91A6B186246727BE63C9445BAE02088D58B8EFDC0F1072407CD9B89A13F63
311
03B4A928F593AD489B58E6869325790ADC406036C591729FE14021F94B7796BB11848D463536A092A26F077F94639F7CEEE2A724C66EC885F4A24F8B8A0AC321F8FD149BA529460FAA34E4663C02D41FDF80BCA222D42F0ABFF8490F4FA74C673807C2051D8E467B47B616072860069A9A303ABA9B319D58404461401B0A0F
311
9BE5E1E151C14BC33B32ABE03DDE91708DFAEB15E7C0D593C86BB7D7EC17BE56E57975F077BFD5525F3A1A361D584A75E08CF29FC7B44B2B3085014F3A5A14517377C3F6B8F37E59514C3B12F8AACDEDDA4DFC49BE5710101534CD6FB6DE15B50F11A09472AABA727F0C49D9CB906B158030065F48EB3625E010CEC1D511D0
311
053474B11E6A4F01C0D6EF1BED3A944FDEC70E0DDCDC756C86545910E0DAE3BE3AA9A404574C2995CD5CAF9549226BC94B4F4F0F5F9086F418F6B32346464610D8BC7391D3C3A3CCF04CFC1FB2A3A3170E369511868F14EEA4E5E438CC73DB1F3248AA94B6B2FF33B222FF3D1E7BF146CAD229770158063BCE4F5391964DF6
311
2F7E52A7BE0EEA829C9E13C4C147D6F93FE59E111DAB5E4594D6F3CD1AD375EE039930EFE5AF2BB2D41C83C7DABD8C659BAFBE8FAB392CA634F3D15C1D945DB4588D2B0824A4EC928AAC565557CA2F0DAA588CA5BE30B3A8004F7BF005E96CBF891D7F18112A3619FDF530DC8AA64954258E1811789B5189B49B4EB53F5F89
311
F7D37523894F3EB57B373763C91E502F52CC99EB7BDDF933FC324C4FFC2561DFFA7339FAFDD0A4BFBE6D3A8FF9ED1FC49898139864602458968913181918F719CCF5A68B2EE9C1FF050E34E63107003B8120FA982C21B30A874E4F5E4B38D5A8290C4B8D9BE48A0BE31EA995BDC37AC6DE90BA17D259DEF53605D55922FEB1
311
855D915B659FBEB350EE0DFB2F9F766E1C84CC8964B75D08667445EAB966015F63A18A9E0A325C1B3DC628C0D3CB60F767FA93CC65F25458BD23C3B312716E5F40E5858AC06EBA9AB14F95DB99147B832069201541D09A0D856E12C629CF32683760EE855537D1901988D5EBC156676C7DD51D7207CF3267AF1D76C2AD8673
311
15E44618015313A98B19941C696FED3461CAA9B5415F918556D7802EDACEFD6B2E45853A9735DFC9DBF7E440F9319F8B6805A973BCCDC76C069A9144E51F187EDCC12FC31B5DEAAF0A76137199B106EC84ADA6B6EE697D4E6A96E007417F4E880E8B1E89B4BCE9D81EF611E2ED8F0C1A6C25F620FAFAAB656A7C42D464880E
311
8AFAB0E0FC8EA38CA9A8AEEAEE3E4648BA4680270A89743CDD3E6C6CBF34B7B640EFA285ABC7EA0A1E28F3CC963D114A80123EE66D0AF7D5380EB41909B605AB4765B709B808590458157E69BA1378FEC4B48CAF6A730E3BE3C5EF2DD1A5EAF94B1DDE50CEB55DDFD7EE9A16747FA4B223359FB1FCC69E1194892BABB93A1D
311
5C4E807AC0EA2E30180811E77A2291F6E7F7FAA5E0F60215BC6024E48DE436C511F0628B8CA189982D4D83CCA17D305A7E923C37941CFDFDCD93ACAF735EF5F0E61BBD3E6C41A59B242790D3A3BAC7064DCD89AA2E37214EC839820949D5CAA31E240D2948E48F690298974A96BA9A8432BC90F5071D6537C9666EA4564796
311
B7AFFFA548077BEEA75F63083435074BA182F3699557397F71548383FDA8CA34D99B981E72835ECDA5DDDC151315173D05A21F651AAF8524E88209E2E7A737ED1045800CE3390050BCFB8BE588DF111617874C62575039CA588EEFDEFEFE319B739DE2EDC147092A262611E159650E787917885EF08F1F51B8F2D8A71D60B5
311
8B190FEF9541A1BE94BC19FEA50784DA1419FE4B0FB51B8D36B5FF8E1286FD8AF42B91E59A5F1CC4D60174E764045FD8C57B18209B217F89A62252BD20BE0E63E12B8E8F029FE19E0E8D0870F58721A557082250D5424F7909369376E41666C0EE77CD87CB283F661D5FB6D0DA023CB67320A20DC7BE661E9E1BFE5463085C
311
557DA1FF9BE835733766C3D139F2CF9E2208873AD0EB4814DE9E6BF2CAF81614D4D43906ED1C05A3265CABBFE192770FC2F64F940CB6B17B5F166F133C9AEEAD2641807C3E69515171DD74C4A85311513D6EC9530B3B601B6BA3EBFF3B5C3D2F7D69765141E345F75433953D013ADDF8F6AA7DC3F4A7563FE5C7D367937E29
311
00D7EAD0F9FC9A4A1A9B5BDF1FEF08532660C01C5D6DE22199AA774383E306DAB87E301ABB7D213887F9869D4942D0D71E94B27EDF216A318BD488D45DF84529EF575AF3C3938C0AAA0215B01994153E2054A0B894DA5C784980633AAD48576957CF4AEAEAFADC7C587368551C73DBE1E57C58AC713303A8BFC258BD04B517
311
24459FF9E24C03A81E0E0679CEB9B348C0DC998FEB9C6D6EFA77D247CC8F92D3848599ED89A23218D0636465AD1CEEB7DC140D7426F83491C4E8E8281C2FB35240918FFECE880CA2A42D70E8B20B34DF5221C7DB0CF90ECCB9C745B37A47E9B716FF7A97B7A252C1F3814DC7B1E1A7F72B8751D524EF7CAE45B0C73B3BE7D0
311
8ED39781B380DDFC9AA4A4749C9493DB5BAD07A6EA6C092FBD0E85DB004DF06B8C9D3089C5320187E4CE1846158C7EA7DDAE8AD9AFFF21AA3A1026BB06A259845E8232DEE62811A4DA9CEAB3A4887320B76E2AE5615EAB7BDF738CBDD01F1E64064BC13D9EC53576751CA8CACD58B3CEB0E6CA585BD089B2A59B9FC1014033
311
87AADBDBE70586B93D64BF3AD4453EF9C3B6A93817E8346991798601344F79A83C51F3D50F7BF2683A3605F51A72449489E0EE6169C749C60B1035651103AEE24D24E51A759C840DD3FC6504DA6FE107510E447B43461C79D22970B75DE5E1BD3007D1AFC619A4A4A69B5626AF5E9B8374E20677F77E2F8E73DF868E8BEC7E
311
BA7B6A75EEF7205E1AB9486CB642741D6E03FF13FCCEDB1C4AC129886268B01CDF4B124AF797CF784F3C6DEC97A17D4B558070A0F1C04DA4FF9BDBF34159AEFE958479824B3F58EBD1E19088A2AFDE501B6F2052368A3FD0E650A179EFAB1561E1D27527077136E652676C3670F42DCB3352F48F6BC86D2C3B0051727E41A0
311
A4DC6CE2BE9D47F5CAA2935A3C0539AF080665997194ABECD723B08129CC5B6B21D2E7D54CD4D12610E7E9FB8306771A89576C7A982002775ED44F3F744CF21EEBB27A631671D921938AAEE3EB0D19CD1E083727F607823E817BF599DCED5394E37EEBC2E88782E638920CA641EF74D4CDFCDEF06F4278ECB18E31E7E9876F
311
2D783C8BF429C75395F57E98C2B495A3DA077EB3AC3C158608B6B57FE3EA48484D9A480096FCEE0DE880950E7E5A5714131C5C41AAA29FD19AE81AC145FA1B9E85C7169A5AB837B213493DF7E9AA4B5FBF9CDEB36EBD21EF1181B7CF7366AB2A951D01E37AF4EB835D1BE8C117CFBE7625D2EBCDB0B20C5A4B45CED0BCDE3E
311
E8DA9DA78C2E21DEAAFFD1197E463C33CC6A80FB785669B856EFF7A8CCCA2841B5A5369173320B1170C368B2748D81062EA0296E5E2D95D7667A4A46D98A6FF475C76AAB0A8C8D45E226FAFC9FE0133EA9F60111F99CA81ACE03A1D14C89E8B0D69079C91464FA1D99E651D0EAF606F345C42A8A1AA9BA391031582B96D5B4
311
176A77AADB01F12FD298A75DEEBB2C82F0B8650E880722F8DDD90C56A7A058E5FDEF1AC93545BA27367C76F5D8F9690CB6F8DAE141EDD7971F0FB548A2AE435F224D6E5954CA155512F7332029D5A1230854B79F258EC5FFDB09F5F6343A8EB193229B7F7E79B3E48F8E183860B38C8269D1B53738FF1E0BACF6AADA6D4869
311
E9DE708E79B5DADCC09B1BC76F649731CFAF59A83FD8BAE4C749D66FA87A3810D4D62FFE826FA400C0F325D2BC0F3CA35F5847B82A2ACC7961745C823E4D863D54460AF792CE6F79B5C7A33B25C3AEA6CDE15A919B6367D781E9D44F61BF828672594A3E1D9EDD6DF179A81F27EAC05B936575D73E05C209DDD2115CFB705D
311
F9BBF3C911589B3640735E9E618FC9C36A7326C82B2205E244C55D56FDB9D5DC93CE958D4BF8174D2B3DA54CB3C09F2C2A6DFF73D23B2197355761AD421EC581284A7EF8DE2CE3497C0C804D49B41DFD6A7360844E5BEFFB495CFCDB97A4595911CDBA623274CE852B5E278AF0BEB1770E9D37CD977B2766A7DED0E94B840E
311
1E95E8C77DE5CB6354AF7871427C28ADBEEF7BA0A28E19DE9ACD75F379FE373EAE6DDDAE3834692F9C2B03B4FCA8FCA9ABE8EEEBEBB725B88A7C90941E850682CA04061A7DF0CE82ED49BFAFFD42C309818FAE14755CAAE78B0F73243ECCCAD7DF58FCB9CDFAE7A4D3E6671A613639130D056C8383C8F4FCF4808C331E544D
311
D26E4755D09EA05253B3049A1E32587CC25D72E073E2CD96D04A71BBCB0038FEC3F53D254199C3CDC67CD66640269431860225392B2CB3ECD0B4498AAE78BA1994246AE1EE78F2EDFB79F6C6CB6B5E279C4D373FBC21CB2698C9ACBBEB6A4BB6B39E16AB0E421CCBFC7654D81ED86022F9BB522146F9F4772E2D0E4FA70120
311
C95A85A417BF5078B232F4754363EB1750B2AC2148EB46B1EA72AD9B4D23ADCBC589D70106C3EC2ABEEED84DFE28E718C6C83502C28E9FDD3B09DA0A6F6F7B72B706A31C9E2A331EE70DA56A083D2177BFD63C55B11D8D949FAFCF90B23A1E24B9B5018B9A17E99F2890EC302F330FE7936E2C23F0D237EC8916F5166AB84B
311
62A21BB0B950146962D754F92CC2C8877BED8FC7B7B25726DD19545392570B3A2C66B58F027BEF412E552D12A588C4A3CC5C3193FCB3485EFFF700D0B9EEC077754A33DC1FB9E25AF814628F91DDFECB667D3F7690803F38D13F8AE39353523BB08FC6760144AFA2CE28236F65EDBB3D5F59A57D612B99E3D7E5F8A851666B
311
F9B5A6658EFC96EEB37A378ABB0EB3FDDF1303AF32C41BD1C8560745D7BD81066B0D6313359CF488563D3BA3F8E2185D1FAA3EBA1397C9D0E3DD232180A4DCADB6AF25DB3AC3CC26589C8239E66E81547BC7E2F328F9884764CA37EB5DBE390DFC03A5246B456A7C3684C4377D0EEF9A350680FA9A077E8B2957B489E09AB1
311
AD41316944C2254B5984830F691C93CAA767EECF976FA5647538830B5E63236A6F0365C1E0F3E327F24FE35EDDBD7360B0F7374837409F7A6311BECC12B7026D4FA1AE204FA3F5FE904B1F420C7A9044AE58E403E7C4848E7DA25DC9EDAC79DD756FAA26B9EA83ACE8A214A2612A22AFA19DAE7DBAC5F8CDE1292A485F98DA
311
C731A29FE01A3966E96BCB9FB5A4C8830E1B9AF0C54B87FBE221A097036E5D28D1F869F810C06A9BB0AC0612F69AEBAF893C6E7AD59460208BAB3A6B09CA4F6BDDAB8CF0D1F84B72487498395A70DCD754796E271099A567A55CF242BBED64696378BB6CF25EF0FCDB589F3A82F1116D010A9AB9FA4358809EE0C973A2B422
311
9BAA876A70B03AB49CBA7FBE71DB1832FFD32F9BF2C8E98075CACAFB36921235D0F552B6A67E94E094097A5D7DF681B40623DA535ADA7A9AD8E9A62407D7C9A5AE51D62A17A83A23728DE86BB56115804D3F2675F2C6B87541A0FC497BF0CA86420F558C9859EBE9FAD62747E323E3AADC03FDCDDFE7407B09DA90B44E3185
311
723C5381EAEF589765E2F7A099BA46695BAD60CEF3491B8A171F5F56444F7CE9455312C3498C74173AEA0214EC029833B34B650CBB5A5508D5091665309642791708ECF27CF11DB3D797D6CFE474453BD4BFADB768094B2147814D81C7CBAF8228DCAF5564B5891F5EF6A860EB2E323CB82AB868D8EA048880D63B0DE5341F
311
1B3D53297B928A11E15F25E5148990F710747C3509ED14909C552EBE3973246FCE55D00564D8310BC3EBC5085D08D806799B77D6C57FDF5E55837F9E934F09C03C729271B64F12D0A9F9E938107CAF7BF1EC8CF1BB9B42363D33070F4CACB425E605DDB0A34A12BB936DE286B9887A4E2E558F0886498BFF49C311D96C277C
311
F6A9FC0D75AD0ECC5226D7E0E3572012E56D7FDE4410CEC7A6D0F997F225A2055B8B92E3956E875AE4993CB3D4C9063AF98FD45E1BAB165640A43439A2C9181A7C355B297C0A0CCFFAE19B6FA3C2BA238A885FBC98B8F6DAF4B94B97304878DF4D8BFF6A4AEDF79E90ED4E68F00CD7299F4E0D83E35601AF0CBEF18C1E870E
311
74758FA91F5131075004DB3CFCF09AE1DABC11957FD9808C92E8A678CE9DBE40DDA0E0D1D505AAFBCBA208232BFB6FB3704E8985E61ADE53DE74152F5C7DE74B1DEDCD37DC3E8FB30D7EBA8B9EFFC3606BF90B8D438279CB7709FC7C00D327F41817EEA71CD9E49FE9C8C9A81C70915D9F0F15958EC5AA4C3BBFAF46986B90
311
F188BDB24B89DE3C6F29EC3E6F66D84856EE96A35E657CA41B41EFD8DBFA16AD6E91439EA92B40B21C053249F51AE50EB0B24C770FFAF40DF12C8436366819C48E36547D4E7B72FE2BBF10828583057814A668BDF183F6B2E58DFB151103E56303E63D00F39C27C4661605DB644D19175D02E3F0241E8FC3458D17AAAADB11
311
7CE9EEA690D0DB01E634878C04C2C9310B69FCAB831151E3AD293BEF6E46B0ABCECB50F5939B39C613D41E81FAE8D34CAE3C4566B761D37185FE864AC32FCB71AEF39DAA5BAB88609BB980CD2F07A8F941653B529567726E2B2A58D079DD57E1E5E31426CF184A04D7B03B985F276D47406AF276FE32E3328BA866EB1FD39B
311
EF57863A317634AA5FE467409B3873F5069EF0D71AF00AD189D17BA1974ECDB2D623E9E14086386A6AAB5807825C37B015BFE892AFD154920EC437EB945D958E18622E1E0FE2FA06557CE4BB9BBD05A2D40E774DA2B65473791E314B7D6C886820B2FCFE4AA272B3B8B15E7344A145E8AF919B5454D89D36D413E87211186B
311
F6F645E5EC94DCCE8E1C799022E4EC9BC86D7A0F2AFB1FC4B2CE48F84B3F49ECE65BAD24CADCC07EFF39AB06BE9E6B27A059938EA7208838455383DDBCFCD967DDE4650EF92A14FF933C975DB20BD7FEEBC4487576485963D757D16340D9599FEB362F775F38CA4185A86F74B629C81B133644A3B18FD056E997E0734F9BE2
311
6D11C0AAFC669E2AC9FC41D281F8B2E1C35AE27BCE05F3DA295488096688719D974DF1B5D182DB7792288697F8763CFB43562C1CDEE11C4AABD5C22B6E33F6F389CFC3477C5919DC0D533F8A7A1846B7ADB60ABDC26C43D0CFC8910B7C15EE22675BD02702ED39DB77A87A192CA7A543E6205B979B9F5A6B512A3CA799E198
311
B2D5797C0AF8D1D872CA455D4D431A7879D4DD76110B5FF7F4176B54477A9EB5E4A5D11214FDA585F0382751D8E2582BA5D2075053298FEB8F1537304E32CB22C2E2B693DC0A760B1DFCA751BDC445AFDCBB12820ED85F6D5298933C7EF1211E9E057684056CDA3FEF3BB6052355E162DF27C59E965A8DDB7F9437EB72CDDA
311
3A090DE65A5B2F50326247B7EC67B73ACC7047FC9B353D6EE990F772207C6EC52B39DC2F3C0754821DAB559F7C1809C7D0DD5B0499D0442E0A6E391B3D5DB46D11E731E6794EC77523FBDAA242ED67F9FA1FB684255671F63C9BCFE6E7E896D51001A6113EF2298BA494E0B0980D1FA5B9D60796554C02256B1E0345FB7C61
311
86B6A19D2DCA270416262845FA4F42DB5D9B0A0B6F07FCA2E56C242522E001E0CEB734AF310FC8BFB57E38E03AACE93B3326A2197891E68452B26A6307FDABFEE0223D3C03C3C73D2D5BC054C8311F12004CAE488E5C29287F8156A2CAA4AD0D7BE6B97264E4139F437CE73ADF52E5134C52B819777C18B323A5924E4F67AF
311
D13B1CDC3A61793A79FAF5C0CEB718E441071E797C6DCCB9EFCF7E4A1E9F3DF3C2F9C9E8294E9586868788C972857FB0556D7A26941A7EEB9B580AD78EC40B85DC906B4120A563CA3B87797ED612D3B035962BB75F6515A393F4CB057F564CDF54F2E5A024514E6A1F901DB80C7E70B1FC05E356A7E72FABF4775B3E3FB8F7
311
0A2A8E7B6A94542BB304157978CCC999E707A29CC795E67A59CC546A5D47B368954CA7B6E75EC9E1F6FC73CE3B4F71F8CB1A6B15923D61EAAEB14626AAA9D04A26EB9C66CD1BE86CA31A5D8703DE04CD1EBCE4F5CCB62F93909AD11E55799A781A956ED27D3E738F4538CB04ADABC7DAEF20BC35BA6A90BCC1DC61BA05F20D
311
8832FFB9BC9B15E2DB838A0AFBB7E0C82A562127E0446894F427794C3037186F622BF24DE1B00AA10A23BFA47B2A180D6DA5AD6F7326FEB8C100C2D7142EB2A0B2A9D1008A09BA343D70E054AB69E2A7EDB783CBD92537FAF4A44D1296AC2792729104B3276C276C951D0CF3CF3F1E6B017720A7B8505A5FF9589365979678
311
C36F1BAF759EAF57C60F1FF5FE9DCF5F8E764FF25A2D06CF25117A8FED51884C13B2B750DB0E4F5E3D64124FCF11F0AD8F1CC3B3DA4B38ED22BF1CB2585EE6BFEBBA63FBFD44F9537B9B37BDD6B358720F98A8125AED4349CCFEB0E135F19E208A04CA7E2B10711185D72E381F448036EF57C9F874E54A971CA37A639E986A
311
C0226DC5AA00D5B14FEA9192234B3DE617814FC221C92F33F1D392F297731B567FD98FD91D989379AF567A65B8ADF177591DB90FBEA99BF4ED11B16E50A0AB1DBF1156D034BBE04D69D08F939D8E92BF525A1DDAFF80ECBC95D8F45D3FDD289FD23F7D8B452F8EBB34EC082DEEE68E18EDDF072060FAD2AB1504DD4879BF67
311
099FC58F6E9DEFBF645D16334A3E9A127C6F1AF6132CF287E433B43A0EE93812B4AA0B194E03EE3FF91EF9C6ED0074A2F6EB18A96A7C9890B1FCDA1F2095E944DB911ED54C60DF16FB74C8CE9BDC7C54C4F14078CF73C2FFF1F1BBCCD7CF64F71407EA1683DBC410D226627F66E509060D5C0AFD611DE681D509DB8DD12FB1
311
265B03C6F5C55FF4C30BD94187FF692B4F152982502F193098A789526A038AB529A52BC0DC4FB6285CBAC10A8B8DB75DCD9BDABBB221E27D1F8DA9F5EE5926A1C8AA9BA9BC09239C6A7F12914EA3B59EFF7AAEC3FFCCE56F1C5C2980AD072793527565E774F4631DB178CEEC691B1F367BEA0CF2907E1D6B854D527065979D
311
DEF002D8B2ACEA7CE21AE297737EDE1D45B31233B73FEA35BCFDD0B09721FDBAF6432681F2FD10C3E9EFB246FD6E854B344ACC9D8A0EEF876A7314B49B6A499FC650B099D650DBFEC7638ADFD245E2B7839DA5AC5F7D5623FC0ECEEC8653FC9B2BDD1AD4D00A566FBA7186DD3C9CD26512551637498CADB950FEC71ADB9A55
311
24285DE328B8EC7EC75D2345AEC6A27C42AF6D9B92155315C80DBFCABBB7DA0FAE425C4FB896B15C9BFAC4FE67DF5A23D30C93DA4D8F36FB15D100050DA6062E22AEC5F4DAC4F6FEEF97AE05DE63C6D38F9E068A20BC5E3B6BCD75320C5090924E7F93640A7735B1A43451C2D91EE62C6238B797349E59890AF3A520DF4A87
311
095F3ABEC2E61F0593416CE46CDCBE0E00E2523FCCD04408588B5B6C9DB6459C786CE378770B54F51DA3A5E1DF2A3349BEAAC234A6CF8993B598B3B25B4B113E353A4D750FA7534749430F3EBF2512E7EA3FD43C6AB9A1F765A58463B306721A15D224FAFE8C6F5E3432D57EE697DA0DD5A9D4866A8BCCAAA9DFF1F0604785
311
1408FEC060471D0E3EB86BFAF46E4B5E60311DC3E3CEA147C75CF971BE74689507154FF2D2E92F15CDB2B9182B11459FD8ACAC5A85F174BC94A7F4EE4C4F5CAFA7C02E37BF0BC77B7DCD0C047BC316F562A01A441AFA7931CC84A28CB9F4AA367EB515778F29BFE61195FA671F4352E5E46E3A64773F1F76EE5EB36D7BCE9B
311
CEAD837A4D77F8DB8C92AEEF6711920D7C7D0F76B0FD0EB7AB83724CD35BCA7D36DDDF5FBB7FF6F04A91F3E2BB3B8F1A43CD659639507FF6331C5F697BCC782AE57D757A27D97F1AB9E0AEDB43F92F1B2AACDF5FEC8ADBAF9F814E2027003BA2F9E144B1938A7A04050AE5D953B82C45619165C813A10E76DD6906B3C16438
311
064D14CDA713AEC420034613E1AC7241904A49FBF87409AFB1FCB9B72FE7933A87D8FBEDACECE4EDCF6A4FE9FB94D5DEB74FAB7CFEAE17EE965DF980DCCA2D04134994F9A2E94D2265DA4FE6AA7B7AC15FACAC2B5ABBCD7DFF542C5314FDAB2E1B9D8B65220B8E2B638BE008E8DCA22678C820C5053664D15E89F2D735B51A
311
84955E81A443545E9FF787BE0FA700A76D136C27DA179A7C6E8939E01BE756E19CB292798063D8B97F44E8A27BCF3A614FEB8BE974A718E86F7EC99B53CA35FA24F61F2B07266684623A3D4CF073E511F3A10A8FDAFAF0078C577F4DF9D339FE7862E5FA47CF4344209E5BF76D783B1B48E152AD281B15FCB934DCDA49CEC5
311
706B1EE8B460F435324A5CAD154725E21AB8044B75A557A79F6C807B9340AA3D92503E866F4274412926C8C504E4D5EF8C0E68DD0B028781A6B4054F11CF18941F101C57CCC796773ABC8DED9CD91FE5788806C05E548895354AEAC96546D55B0E94A59F148D061F42AA398D822CDECA4CDE79E13469BDCC44FDC990F366BA
311
5978C15F97ED80CBFD73B0CD9B8B83A4F6845BDFBFAF034019473FB9A63BD55D3A4A7284757071574029A4D016DCCBE95DD679EF3C4880BF169422F8C89B68A988D2B13793CAED4F74DE7486C72DC94DF46B8E93D8E02EFCB1FF9B3BA10C8AE7F653DF94F4AF466CDDCEF5776687F7C4C14B63E4EED1719DC2EC482D7DBCC7
311
AE518CDE3D5FF86D39000EC3673C0044E1D308BF05F74D1B5F033A7D1BE7F74BC55BBE3E4A20F920946CA0271EB17BD2B80E5660ACB8A29A79F5E4BBA49D4D945B6EEF4A7EFEAA65E5555BBB57A7E15D2F83C69F30BBB978D2B39F1F26FC097424D39BB33CA3D87ABF64E307938B685BAD44F71556A30B7E712CA4FE600613
311
C3E554B69ADE949A7CFE214DF1FFF05CB82151EC6FC31950239F94CF7AD39DC473F6EA356E5EC2C4EFA04383CEFE985A127484366FBEE3C0EC4FEA363E4F6632AE781392FD45D67B63FB8DF70E82734F431FD3443172A0E30A83D60982D55FA6A2CF86DBA8382502ACC6CDEF3B907982EED1160E14863FA242F9757347E154
311
4275CCDCF71ECD5F8621CBEA326B8BA884AD7F825781923E66971F04010D574C541D8427A438A37EEF8AF88240EED7362C953F5A81DE2D56109CDE2524EA0F5D2F87308C0C47BD97AD605878AB8589E17CA83930CB5E0DCCD75853D68B1AB136594926DE426C367428E9334AFAFF90ECE221BB5DC9E5BB53D2CDEF954EAA9C
311
D814F0E5725F1965DD458E5F8487683AD86B9D0076BE3EE91EB1CECC5331A67A3F79D8B27587C12EC2A6A70474749F27B4C0BBAFB94B34189E88DC18964BE4121B9137FD516C7755356E50D6714E31ACD222621EBBCD1CFF81D87479056A9DA0E0B8EA19D24CF937DA89F78E8650CCBDC110AAB6C4E46DCBFD0446BA9E2060
311
E81F314AC2031E88135E5476AC0160EF5C0DD2EEF1B8B5CB2D198BE9A554A9093B5F7D7E4B5407DDFCA1D9C152FD97F55BFFFDFE802954DFEC8995B983E28AC92F1971E28F531DC407A1280EB125F64A72E617EFB27DFBCEDCDA2D6F2BDADA36873EE46B9BE1782998C63DA7182BC383FB6FD15DA472B175D7E8B4FC88F38D
311
6E07FEAA3FA3CBB8F6B449ECF14D2175E5C5CCA3A42ABF24CA6C9395AF74535F4DDB38CB84F56614B0FD32D7E19CA5CF988DB4449C40E23DF2B16772594554579094450F56F253CD25EA7F77366FB1CFE79696C428BB64D5A41E986189427E5E4D7E2DAE3D5BB4972B3DC44EAABDDDD63A2264ECFA5C786EB0EE1FDC5BE34F
311
A0F08376869FD1E61EA06CAE15191135445EE8F0394161C3266A596AA035572BB0C8876180D8B9C77D307DF9DCDF7365ABDA6F3A2366436457A4DFC1F259666569A9E4A79C817BDD5610E5200FCE894A358EC72858D50EF67545DA81C6FACE3D457BAF70367E1E6BDD9A952FB4F56247F58F523B97E640246051A72F79BE42
311
FFA0B3187F63097F91C48B868586F714B0EBD5A00A8412C1236E1298F60C72BE6C96B82B404CADAA304AE9F303176B14BA53FBC2D5E86377E35542019E24D97B96A49B2C0E5006E7795954DEAF5DA58958839043C6C70BD3B1B33B6DC5C31316D8A6923F142E26F6711A2258AF977DDF1F970ECC4F1F2B434B96D81BEB6E89
311
BF3BBB3C7C8CC80505070723D6D7D7D3C8CA27CA164A26024FED94B12A86031867241DA53D929636DA600F050BC40CE48B8BA03D69224720DEE2ED2127390BDF5E6EA64527BBD4C4C63FA76BB801FEEC0E61218EC98A8A86CD8313781617877E66692839B9468CF4DB8E50A73986E558E309C0D6F676F921BE02F1185454DC
311
75B111572FF9D27D85EA14C05AD7271225B391C4275659CA4A43759D0BA44639BE4C30A84DB7F67A41399FB95CBF923B1B1672ABC807C1590557FB18D811983FA97F5E609516D62281D38B1281F68FC75528C35E4CD7DF0F7DBB5E5DD69C414EBEA2F4A5B241B996BA77AE6C772E367408C633EA3E438B68563EA8BE7667F3
311
A4C4FDEEA52ABD78A2820F443B7914A15F180018D231E64519C56A12F6CA7C8DAE18F06F6B769DBF92329EF6A5D18FBCE600F36BD8E8198DE5CDAA96181F3A756EBA5501CEE58F497EA4F418A2B82565B9BCC611713C0B708CCA1F398B78C5F7D03B3437CC18F13061F55C7BEDADD5ACB1DB0E36D3CE47FF6EA1A563A57E96
311
49EA5D14D1A50EAA457463381C073777EF1600607BAF6428A7DDC079D47A204EF1E1F1F0589FB054D45E02CE623B3823C317C601E589E22B1E88B448524B86A82828E32345EC18AE17214B42F8C41C6D428016D9BA31DDCB47572561E5A402E5BA4FCE55F78AF7268524AA04130F3A20BA5D1E9F9948EA48FC8F5314FDB35E
311
21898198060034ACE5E3E2BBCA34092518F275190AF65F45867FF0900AA4B81F25427414C372BF51DC29AA855C5428EE1EEDD6B849AD60F6E73475C2D2523F8A2772C840A478DED18A8C5C91B085F255DC4F54EA7AA8947354FD17ECF8FB3B4A0DE7B483CAF3A1165EE05BBA413E5C1FEF3DE1D6B8F2F3F3251C17D9FCAB48
311
A9AAF63AC773A0E413BBC46A9ADF84A566FC920E4D8C52C9769EE3301CADEEEDD92B312E02E2A7E35B7F1E7D203FE5A7D75578B06E99D0E46FFADB8FDA17ED8880390DA29094202D6F645F76F6F96409CDA05495A96E84B04A00D1A6C6C81D7F3DE9376E828CCF144EE50E364ACCE7237EA0BFB5607ED1AC3CFE73794E5B61
311
739D14DF1743441B1AC98F00ECEDE9E7301FA29755FBEFA68C91EF2B314CF510537EF1ABFC9A762496280B546F5EDAAF8A5B387D469FC9A878A92828C88608453ACEC6094DCA54111E7AD5B2663DFE2DD151B7F123B9F4FEF8EE36AB125FD7AD52A59B1B765B3E3F73E3F73DEA93875004D2AFFE3CDE9493B87A9904DD0520
311
28949041A91DC0E1BA47BA714343FD5B25E0A6A09503AFC17C790058A836A324FE31D7893512E28230332F153181C1E018E1124EBE1BA262AA428A518237D1EA7275E48C5C561BD19ED6912EDD8367DA0F31E40EEAE9683DA9257525AEA7B632B97119E17145A90231768A4F3B9120FF32E8319B015E3CBE26F1A754177D81
311
85345817C096B0CE443A955D13AC15E1FB5DEEA0239EC32A3C92241A237B0B02FFCB4F93CF2B02570C8D192E2F2A68CEEB42F12E6F8CEEFF46C251E22B4341C56FB08CCE550E7A9D6F4D6564B9EA52A83D5BF2C6E03FA19D2775E15A8A7ACF30A13C259EE7F5EF2AC3BA354F1500E1A07FC63FB4686E2F12EC69719F9ECF5F
311
E3F35598DF2CE944008CE78F0911BA5BE5D0A34E0098FF038669C26030BA9B300303039852A8F6F496341737CA7E0D2E3AAA36DE0A70AA7D9CA0D54D9AD84B18A44C9E625475E1C97B93BEBB38DCE7D227E67A2D00F531436136355F243D1FC0D712C5765754FA22FCFFAE97919161F46D6E61ACB37D83777B385889770B50
311
765B127768443A5C4D3A4E35A3151111F146B7CA116F918A049F1C272F2CD7976C69A0068773451659A97E0F4A08FE604C3FF6CE7385DB19F4D3ABC8A0D80DA8A42096AC377DB49382B36E270B6FA7570188B4B7D1DDDDA82ACA487CCA5D38BD3BD039ADBAFA4ACFF27809239B722081E2EB9F145320553D183F28471C388B
311
C8814E5045676767AB58A8E72D1CED2CA731379515D2E533E4CF0B39DFC625F97AC4836831A4DE330E87A8126FA17EBE583D614E71E22A8DBF2825599743E0640037303E8E1B1E8EA4E1ABFA4F62907B5E4E0E5DCFDAB417C36C6848A2B8D15F1E505434C0707E16B1CFC2A1C36A42BBF55734F8F4301DDC2A5110CEE8C074
311
7F69519265012A2174BF4E955ECD4FDE095A3ABC70536B7AD0B9D7892F81287D667C108703C9B66A221E9A0929D030008F77FF6F5D2108EF5706FC87A3069B976F7C9FC3239D13D283CDEA83597461079FEEE049B0F392889898B7D87D31F8D60ED7B56B91823A8E4EDDB36C6172ECEE42BD42B12CD67994FA0F0DFAE93893
311
56F4CD4425A4B8AA55CBF7ECD585C6A2C2316791E43D5C06841ADBB226A87FD61515FFBB0167B74E56BD7F3E90A57A97FEDCBDF483A0D6699A8C0849CAEB4947FAA90D8E332D9DEBD9F4738C37DA0CAF9CF3DAA68BCB67C420459C7A64498D6E848E5CADE92BB6901F607AA331104A67F7CD650EE169B1DAE94D2C31C2F993
311
632259B6957E246EFE4C5481107B07118607700040E5812A2A2A38DA0076875258C753F60E0F2662C748EDD5F3F3686B8FC3BD6FE631ECCAA1E8B1C1E565AD117E54893E79F4672E32F9E46B2A183DFDCF3EECB4D4D077DBEA0DA254D256045109670050129E9B9B1A9E4A11344D61497A992778095151510C4BB7EF2009B6
311
3AA4360635312E4CF668B7E0D3D85A8688E2BD83B569439892ADB63461930D428E0DE42E4AC57CE48DA5CC1449530D8BD3D6A0F08DF20C8E8F570F2CFFFCEA286E30969B4654D498A58D9DA782E19FE3F002181838925592C4A1EF0B332D88B61A92C644547BED490D3A42CFFAB70E36D961F694F6307F72FF15A1C79D5B1B
311
5CEFD353D9E2B52566DEC8F8F09CB3E8359C0F68EBBB7898243E34E12A015B2685AB303C04D3A9E00671FF3DFF0A184E4A2ABEB2B666AF5B3A209C73D8EF29DCDB069C9F391EEE9DD0F74C7BCDE16F8F02E3B8816122BBEB50665775B600549D8BB33A54A6BF940C028118BC6878C79958D6784F9DEAA6E26748386FFAF8D0
311
D0101E2847B6563F5D8DC1D78F787BE00E2C941AE12148D4A81599FE8F68D4DA5CDED75530ADE138240300EE13B0FC13A1687FED6774662C05A2B7DFB186732F0D7A93545D8B0A6390AE5054D9CB582DA846D7A061B3358B45E2B52DDE63E114397EDB7E09233A579155D795BE76102CF277F4DF8B188C4F2879BEAE3C0834
311
7124BF9ED23B128259FE107D31E34A652F090B30B39E0D9AF917B76A2806135621A8A60681F16AF216514BBD02711585B5B1AE823F4B2D0369EA5B6BCB863072727FFC871CA6C9AB79A814D989057E9470A3D238BC87CBB4A0EA49AFE2B86F22E499793CAA9047080450166BDC357524561E258C77CB697F1ABB32562CF87C
311
3B7AA12F911EF19FB3E5C02222E887D08202A60A17151F5E053A86B437771088B4FEE14D652C43E8D939995D34545E12E2FF93D4E366EAD25F10CB7DED141563C3D0C447AF06078A91135FD4B9611583CB4BF3BD167F2399CEAB0E0100F8FFC305F00F1711717173138B4B48C83022295DE657EFEDD97F238ECA80F528AFB4
311
F8D67AD4E2594B9A3AA86D7487EFC313BA95745C186F0CDD84CC12DC9CB0424B42203D351FD9C0A3AF10CC7F388E0329279087386421F194F4A29464C1DEF7EF8BE515E4A199DCD5B909342598D8FE6A231F71336248D5CEC5454455C7BE383B3BC7B260FED27F703FDC39A170F3827239102F59D4DEE7FEF82EAA1A5E4BA9
311
4DCC4CC44E7E2EDE20F24244E4454369D2E87C3F823F193FD4FD27E1C23984B01898D15ABC20711A8A558054951A6AE280096BA36CBA439603B7B0B4C45F248C14B2383B4B5CD8ECECE4FF859AD4A6CA2326D020EF090F4041D28DB66E5256B56232CC52829DE8060BAE6BBF37D4B7469B822454FE93210A3E8D15E69FFCF0
311
1123222611C51C4FD0A041A0CFA2471CF6BE38D2B20FA4C3525B5B8B586759475CF80ADFE67A284AC24651E52B8E683D24C2622642F27E7C3C22783BCF63648BC398BD6CD0D9C97E7E7E3EACB6126DB7A6C1FD9F1031302EE67ED96F22B77C7CA0239BB324207559B105E4693EB26EC46182A92C9C0DBD24F29B31C5C5AC1F
311
84300E0E17CEEAC15F5736FA4A98971E2F1423BFCD68D4BBD5F86E74B40A369F39507C88FCDB35D2DD8DEBEA4AF999E23CF2816D204200DF6E611781B9884C1AC8888B4DE397320472959434323A5A36B22A8E1F721A270DF3BD65E4A31C11FF048AFB0D8B7B6881423793963A23CFCE935FC189ED36FAE35C46DA3574C979
311
E4394BE52084F3081837BE033396D2EBD80F1F691B273F660D2B32FA27A33B1DE4ADA5F0FA4651511102DFA410DDA86E065272CA314D5249DF91B06BB92807B28EFD54F08F7B525252782CD276DD02E6B0319B13DF87B1F6361AD6B28FC0D711CF445429B9E5A433CD493051C49A9E03DDB1B147D880253514A5DED8800901
311
8620EE229101C041950E2D8AA8E1F5F5438E0C0C0C60EEDEE9E3E0C051948C69F84BB7B2A48A1F3C8EB9E6864687F4F4F6F6E2FA87608ADAF9C5E117B7C1A737E710769DA1D15ECE6A84502AA855398712D5FB51BE92E4EF824969CE18278798AC303C2C7980DD2500ADF8FB1E6D6C2FAAFF9987178923334A244758BAA01A
311
9A1B70FA5097D01E1CC2A58DAD0EC94CE6430AA9B0C10D75E3C6BAC670EFBADEE1607739CE0FC18A2587E3EC3058562014C64219C69BC269082D5C2F4A659278D585755912176D78A1B641719C2A394CED495A1AC5D583FD2F5EDD93308EA7EAE8A6DD396598BDBD3D4CFED62D18A5BDFDE0DD5C80D1A89BA62697B131AE7C
311
E9A6594138582F1B37D68F1749AC7CB67A70695D48A4A056AC1FBD4E82358CEAE38F54B95A9016F9000F9879C0D9D131768635CA798895F27D6F1614F11F2838A83611AA51C9A3DDB539D42979C29F10465655C17BEC3E2760B80DCBF609198C7B171A531905F3EC218D696025975E986C6B4C666666787271F202805577DD
311
5A3EF0CAFAF91B62DC4B2DB4217A7606282F31D8DDBC290593BAA93EA6353AFA9939B877978481E15CFC9F2755CDC00C538F63A4BA3E80AE009B73CA0185687D339A507D165B74290D6EE46D5C58148F020C3668ABE9EF2F7549170DC80DB41FFC1D678FF19AEB10C7133832B104B80F691B3138F97A92D26E551F1F110400
311
D45AC71A9B9AC41A1A1B1DAEED0B0810638EFFB511D46B121C6FEA0F38CD00E03CFFEB9713FE1F9C263E4DDEC160D0497FA9A132BA608584057FB15380825DE6C7FC3C667EE947D488A09898D8E939C4953BF4EC9836344D2CC6B2971B2A21A572B06096F4982D2CC7232D46E8EA69DC83722E267754D777F97F96D5DA74E1
311
E75178084D0E70F12AD33E5F71EF2AFA599B2BEBF60A5BE475F444F240CBFE8143C334E7ED9150FEEFEF7EB020C4DBED388DD1D6A167A76F3CBF119B578AE8CFA7736ACAFA4440A1C47185638A0D2F3EB5BDDEFDA958FB13CE4AA4923D5BF840392D45544329525749734866684BF7F8D9D54D892E19BCA9F829A0F8BFCBEE
311
A6CFDFC61D74EA1A645ED7A1FF241739F15694BD835B66FEC5677E40FE69BD3F91AE402F036537218A401CB0828604AD189E575015C6F3F6BBC8AC79CF6C70653847254B31551EFCBEB5978B9DB85D58D0FA41A9DFE9C624834AA04949D24B5AE6D299E072D152D12097920F14AA92C31C3B97E28B6C2E6E9C23D63043ECBB
311
C0A60FDF5BD0C33C127EA8A3308B8B6AFFEB28B4455BF6E7AF4FC6222728357EB8E46E85053E6A8843AB23295BF838ABDA94658FEF3F832F147046B4ACD6F7D48E8FCC9618582961C898D1C7A253C91BFECBDA6BA18A1FCF70755DCCEE2222F41B76D23CA98D0CB3D95F0CF66D57FFF65E2A90F5DF40FC3187621E981BD0BC
311
1D992787212688976B94A8F0C6EF646624B570B78E068826F87CE27041A95C9A4871FF65CC17FCB1639629AD6A9517000D63AC231F3D741CB8430777E7ECF80CE7A3F73C0F162F7E56AA71F4DA80A33CD6ACEE78E2C11FAC03DAFCE929B106F8F6B3ED2DC71FF994BD9CEF4E9A94896EF1B6E2B7B4978168BCF0847A3D2A4F
311
1B0500B926E634B174548E9FBAD27153FB5FC36799B1E6C7C38A94E1F9E996796D7B485E635D5287A2AE76FBD11A341DB3F8F810385BB7296391973DC6C37C452A9305AEBBE0CDB6C566DB59FE60C8E94B1FD090354BF51439FFD1B48D725228FFA88C84F686F547107A7A235665A4593B7C34D748C1AC8D56DD5DA861EEFB
311
ADDECBBD65117E65851F90351AEB65F0EFCFF4BCFEF24CB7A5879699FAC437A7AF9099186CF006BB923A59E37D7A36A29FD8D2CBB914A5E9D0A8FD212FBF796AE9A67958FF1D5D8B85F78F96219D4714EB919929241B6C018AAE0C02069F8D919961EC5DDFBFB7573E3AC8E08BFB7C8534BE6DE045B3CD63DBD71F7638BA23
311
09CAE398EA3A7D8F98BBBC7AEB367EFA5CFA27A9F8F2F52FE878058E6209C026453F8E7E8A237DFC389E9590F6059B397CFD65183BBF936E86896612A5B5FEE49DAC8455D026218AFEBEC12B3523A45B57B82C9C97E02ACFA1184DB18E48CF615DBF39C3CC6F0B4AE6BBEEA2E39D944E290302FA3DE33FA7E40296E2EF7BF1
311
CD855BBECFAD0FD622BEE9746FC4FDFDE545AE6E3BC234CADF83A0FB76DFB145BF3828AE3436368AC24989454F8FF70A177672C711CAA1A76107218CF948CA01F873520E7A2B118EBB161ABAD432932029628B6761590C98AB590C8C8C79798CE9F715BA696E839E9131A4BB68BE923F1747FBFF165331FFDD4D05997ACD16
311
8F12CA75348DAC04C7F509FE83898A8B421181AF492861CE81E4A2DD0A30850CFA95E05F097FF70F9E777310D584A75BA7018922E271DAB1D785671157685B7D383D3E074DDB4F1E44EF04B07BAAC75A062077C54B9752C738C9D804D402E02851F3F89605AF189738C18C021D2139EAF72513824E10DDD3047BACC8521ED7
311
E98B257D1166903B1B08FA6F918FD7E162913FEC7D0EF4787E29C35FBA8C6E2C9C20E9AB30AE42CA2A01A090E7D010C1B5BF9CEE2A304BF3A987FB40D836979B79E18D70F257DA61E808472DD85B82761825779D6B90CAEB0F23360C6F80A7D7D77545E95B3DFF0CF96A827F9B5BCECD2C9698718417EF80FEEDEE938AFF55
311
859D0D540B7FE09435583A6F04874A0C7E8CF234DF4879722000167F5872CEC6BF3EF7E5A8CC8121E6A359227C8A29C95212F9F735BC72A887D56B8F309FC525BFB4FD767AAEC4AEFF249CFBBD2DE1AB9969A6155C7D8DABC307E47324C1F916C7BCFF40ABA5644E9FFB9238D19ADADA49D9610F01ABBA57E4DFCBDCCBB2B9
311
3C8953206C91DE01B0E2651A6D6C31721915B31F7B7CBCE55466F6D70402788FA91D73BE4ADCBA99A35F17D6B83383704917D6833F0FA3CD45C926ADB8BC17999A4A0AFBCE2541F7B8CF4C2F5FBA611B3E626D64407CB32C122DFF4EF8674D6EDBB86C8F7C6A16D50FA685E2CCA34F8F7D1D8265BB0042E9D7F1F666F7BE5F
311
AA5184DF58E12122A42EF02F461B3F369AC746F96528AD208512AB56844CF75B97F352DF7995024FB02855385854F3798670D01CAC771AC3E1889EC25F61A20C1F8CAB46898817F9C47E2CDA1F286BF2F358298709FE567C91133E2638C8B53975E753EA8BFD3578B5F7186B7BF084EBA3F77BAC3132A5779902EC22AF2D2E
311
79F42D324E083386DAEE9810D1B44A5DAA54513C7A71E52A4AB9257D975B621308FE4D2141CC3DCFE946C154A3C1DFCCA7629EC69ACFA831634ADDA93C0388D2A9A2DDAFCF957C6995BCE7FBB6DC4EBAE79E63EB08E9A25F52F67076F7093CA545CA3053B5BF576DEAD4E0017143C5F759F32B2D6F145B52B67B48909B7C7F
311
CA6586EE385A2189C16932CB6DDFD9152AE317C430492A578ED27B72D85D40C7C93C097939E1B50F4D67F05334FE9DC362C30B7FF561B95259138ECFD9274C8D695C31B14D4EAA9F3D7FA8DDF652F8C5DEFA23284C799B7D94416DEE81E05A866302DC70192A5368EA65E1CED8BF107A1E2D3119A71E85DC1A7B0C1E93274C
311
E04DD0F2ABC8AC7C987FDB002B6F81757B43502EF7A0D92E416494FAEEA4C9C090CD9557AA4D532F4996A272B94355C5A0E4974EEA9627476F30809B94D8D8D860062E02204643BEC7D0438AF800FC7E2B26955D595421E83C69E1A07E0E3122285835F014AD538188CF9737CE76D464A353FA55A001AB2526B84E98508369
311
3BC76FE211CA1D000679C889E3C009832C87E1AC2EDD05C302557422DF0800E316FCAC86978A371F025A6C7DAA9F333E7BD160403A1A06EA75AA9888FF01504B0304140006080800CE818E5028BB58AF800100009E0500003D00000033384332454631462D454344382D343432322D423444382D3135434441454530394542
311
442F536368656D61732F436F6D6D6F6E536368656D612E786D6CBD544D4FC23018BEFB2B96DE15493C78601010A34B880709DEDFB52FD0D8B54BD70DF6EFED3AC0B12E6442E2716BFB3CEFF3D18E26FB440405EA8C2B1992E1C323095052C5B8DC842437EBFB673219DF8DA659866649B798C078B48AE6410122242F2A4994
311
AC7F93815DF85C049C8564CA0A901499DD886B2EB9B1E02448F358701A9235880C49A0119892A20C89D1B9FD768815CAD268CB5E0355B40B1E47F3E37A2020464BED06AA57CE8FCC20C3C3446D46761A2632A8C1283D07031EFF2AE7CCB1BFEEE916E406DFAC8E36FFD99A9D60A6944090EEDC3B670C7DC13DE86B6B2C5C24
311
0D6E503BB85ACD579D513F1B9F9A69DC9CC22AFA80C426D40AF0B21EA168559156B6276F0F726A6BFF04DCD513A87A62CAD41FB24FCB2858B3952E3D852084DA25B9303C15687973CC8E8AAE11DF2836C38C6A9E765E8C1BA1BFB1DC29CDFE518C8B5A7655A4ED7E77291ABEB80DBD82EC866ADE1B8D05AF9E35CF09D7A061
311
F38A986D9EC412B8F0F65E5D81534D9B231D1E5A8FE577A241F3A5FD01504B0304140006080800CE818E50670136ADA9040000B41400003E00000033384332454631462D454344382D343432322D423444382D3135434441454530394542442F536368656D61732F47656E65726963536368656D612E786D6CDD586D6FE336
311
0CFEBE5F21F87BD3245B0E2D90F4905CD12E1F8A0CCDF5BE0A8AAC24DAE417C872DAECD78FD48BE3D44EE3B5C3E16E010EE75A34C5877C48911A7F7E4914D9095DC82C9D44835E3F2222E5592CD3CD242ACDFAE22AFA7CF3CB785A14C22CF95624EC66FC34BF253BA626D1BD488596DCBD8F2E6FC6335608B7F428D258E807
311
664080A98384D9E75E22F16B2CCF05D32CE502359492C878124DE31DBE89612BB196A934605E44F272A5249F446BA60A11112D589CA56A3F898C2EE16F6B136C595C7AC3C2FF076D3D808BDBC824572211A961A8D96E393F7AF5806BEA91EDDFB1ABFB769EB08DE8BCDFE27EF98E9DE0ABCE3BFCA1C54E8AE777ECE2BFFC92
311
A94C87EDE6A9111BA1ADE75C74BF391275D33FAAC5FABF89F1D33C9836CB3225980B2A479BE96A4FB3D59F821BCF11CF1FC55602586C7191D99E2C9C0CF2B8A662E3484E59466361985485D7E248E7953C01F19DA23B9D256461B6E09C40FF02D1DEA98C19EBAFBA4659184B7D47DEDF22E2F53DB017721B164F5B84596169
311
7F0C699AAC2410982C385725A6361A500F59CD848221F103A8C1A7CA84A55F407794695C905C688E69B111550ACA946B9B4785FC1BDE0E229240B62665328986D5B32C400CEDD88188F35AC25EBCD40836F47F35E5C0EA4B6F767B50568CFFB5665C505E2AD5EA8A9997205F50A2350EAB32C9294B0024108429953DF32C4D
311
812E226658F78A490408362A94987E6F787DFCBBBABAAEDC36758ADEE9B58B41BF0F35D87BB1E991E02BF0B513748E6C0AA2EB2CE56EC68E97585643D82DE284E51DE03E4E22B00738761F1E66E1616A03EE093B0327B6BB9797262B0DCD72C6A5817ADAC1C3C0A3909CF6639B404D18B15CAF4B3C09CEAA4414BD5F0723F0
311
59ED37048E7A64271711EDC9C5230F58FBDA5DE00DA512CF04BA6671A0D201A83D2EC81D2EB552C7E5CD1BF9D6913567B2CD53A659AC362A2B200B440195E2ACBBD167A32A86F7874F7F00686DB55D163481DADE5E417E979BAD827FC6B2B0AD8A6AB1567038E466EB4B10C4C2F3F71196A09260938125FDAB8662456EAD68
311
AB2F7C1DFF709C874887B76A4355564F017256531BF73D7D754A40E23401DA38EFC907CF8D8E3C1E5E7505D8E432C60BE1EDA01E5166683F169B6EAC6EC046153F66C2BE0679FD3F407982ABFA28F92E0E457501938D96B12090869079360D3F947CA8BBC3D9FCE1ECF3C676C9BE80EB67CABE004FC290F8E26BE6A0371AD6
311
CE66781C408A1FAA8CFFA63DD93A94CD5E1F3BA6A3DFB05B34E1247BB3949E3C332105035203136EA14AE89FF99E3E0B3C4EFE65C581A3A3D2D0EE84EFDB22B49DA31A07059E69B81628A8ED1228B63E42C3D840C3C01F460D1F331FE199821B03F22CCDB6DBF074B49566B12C3B3626074EA1B130B4596BDBFBB642A83595
311
4A9509E5769234228129889952870EEE13F494954AD7A27EAD09411BDEEC5B6B6AD752C11509F826EF4007E86281B1AE63750FD09DBA87A34EF4CE2A75F3E85960004EA6B519F4806609E8C91CD18380BD81691D9F2CB5730631E6DDBAFBC30E96D3E1D3D67EE8FB72BAD92AD4C1FD3CEDFBD2681858ED6583CA3853294B80
311
AF67AECFAC6418D08164D5FD1E52E8B546BCC77B87C6E9D1655FFD384FB26A28AADD82E04B9C64EBF78FFF00504B0304140006080800CE818E508DFFFC99640100009B0300004500000033384332454631462D454344382D343432322D423444382D3135434441454530394542442F536368656D61732F52656E6465724D61
311
74657269616C536368656D612E786D6CA5535D6BC230147DDFAF08799F5FDB600FADA20EA430D968A7AF12D36B1B481349529DFF7EF9A85A718860DFDA73EFB987734EA3D16FC5D10E946652C4B8DFE9610482CA9C8922C6B5D93CBFE3D1F0291A6B0D26A3255464182D920FB4233CC629881CD49C18508CF000E3EE309A10
311
0D61622AAB4A8A33B2483F11CB639C545B0E1508438C3D3C0361192846DB7ACD198DF186700D182920B914FC1063A36AFBEE8FBA03FFD3CC1D1F4FC9E151A2AF59F628C5B7821D83FDFD3489305080F2EE04BF962195FB285E9D2DD352320A9E827AE357594914E42B1F5FE35F83688F60C4C91A6C946ED0668E8F244BC2EB
311
0BA6E3BCCFC0B6A4B507F9F9F8D51EB315D9BA9E08D308E89F96931666E577837E2B4172199C68C4FE306156D47DF51C698C7B9D97FE5BEFE2190C3C38BB054E6E8163FB039CB4B993C80BF18D969203116D6BBD26238B821F9BB909AD6D9C71B85BCD8C33D66FEA3D31B4BC0AD45BEA46BBEDDFEC0F504B03041400060808
311
00CE818E504EBF22D151000000570000004700000033384332454631462D454344382D343432322D423444382D3135434441454530394542442F4173736574446174612F41737365745461626C654F66436F6E74656E74732E62696E5361606070B430B434B63077D475B37475D335317634D3B5703172D3353537B6303271
311
33373333321202AACB4D2C492DCA4CCC492C28484D2C4ACC4B4E050A82012F90744FCD03CA26072767A4E6260200504B0304140006080800CE818E50C55C663656000000680000004500000033384332454631462D454344382D343432322D423444382D3135434441454530394542442F4173736574446174612F53747265
311
616D56657273696F6E5461626C652E696E665D8CBD0A80300C06F73E4B29FE6CDD8A2E82A083B8B7F209014925C9FBA3AEAEC7DD2555D896CB85E51C2A1BD834F6A1F56EC4494C4695278364ABB24ABD2146F88CCEBB89D5321FF8F3F43D672A3B44DF3CB6A1710F504B0304140006080800CE818E50B8BD2D8337010000A2
311
0400003600000033384332454631462D454344382D343432322D423444382D3135434441454530394542442F4173736574446174612F636E782E786D6CCD94314FC3301085FF4A648931761255082AC71582A51348540C6C57E7D25A75ECC8BE20F8F7D86D0650115387AEA7EFEE9E9FFC4EAE3E075B7C6088C6BB96D5BC62
311
053AED3BE3762D9BA82FEF58B15232784F3F30563818B065B9CC94DC053F8D73A9C31E269BABD6B8C35C7C881169035B8BCFFDA377848E222BB485185B16F51E07E03091EF301E780704BCE601A39F82C63489CC80F3241D10083BA69AAAA9CA6A51D68B4D7DBBAC17CBE6FE5D8A4C2AB9F5DECEBC49CB821F6F9A4A9FF632
311
5549910125A760662ABF86A9BF54F2AD71522452C94821B93277D0D7983A601CADD140C93CE1352195094218A438C14A8AECC22F2F9EB037CEE496759206E4C34B1288810C5EA127FFA9BDBC376B17099CC66B76E45CE3E57D783DFEA2B7532C8FB9B9BEB49C6BE4C6F517C88A389E93149D7C5DD437504B03041400060808
311
00CE818E507E299D5AE7000000600100006700000033384332454631462D454344382D343432322D423444382D3135434441454530394542442F5265736F75726365732F41383139333837412D463945462D343341362D384432462D3537333832344637363632322F7468756D626E61696C2F302F636E782E786D6C4D90C1
311
6EC4200C447F2542EA318144ABAA5D11F627F6D44BE5126F8A966004A66AFFBED072D8D358E327CB33FAF27DF8E10B53761456314F4A0C182C6D2EECAB287C1B5FC470313A11F10326860007AEA2D9C2E83D5189DDDAF006C537D7BB70EFE68E0193B3EF31EC62B01E725E45B69F78C0048569C37C9F366098E62961A6922C
311
D603EC0EEC076C4260DC8459D4A246751AE7D3757E3ECFA7F3F2FAA665238DFE20F29D778131517C5A94A53A86FA8FD2B2014697E43AD54208F3F09C96756974E654F377887F62852046EF2C70AD499265E4B142088796FFB0D1B2E5ADF25746D5D68DF905504B0304140006080800CE818E50A233C2345D00000080000000
311
6500000033384332454631462D454344382D343432322D423444382D3135434441454530394542442F5265736F75726365732F41383139333837412D463945462D343341362D384432462D3537333832344637363632322F7468756D626E61696C2F636E782E786D6C4D8B490E80201004BF42E6EE76F3C0F216234B883063
311
108CCF170C074F95AE5473F5C4C06E932E4F28601967600677D21E9D8092EDB002539227A2FCCB80E1168D80A6417297A89C5D6963B7129A0D1E8F2EE73AA7B62BBEB8B27DE50B504B0304140006080800CE818E50BE89762363000000880000005B00000033384332454631462D454344382D343432322D423444382D3135
311
434441454530394542442F5265736F75726365732F41383139333837412D463945462D343341362D384432462D3537333832344637363632322F636E782E786D6C4DCC3B0E80201004D0AB90EDFD75167CCE820A4A845D83603CBE602CAC26799919AEEEE0D965E2E908050C6D0FCCE04C8BC355404EB6198129C92351FAD5
311
80A10E464065907C8D948F8F166375F655BDC3FDC3B4E530A176BE7057BDC43B2A593FE403504B0304140006080800CE818E503F32F8FB7E000000A30000003600000033384332454631462D454344382D343432322D423444382D3135434441454530394542442F5265736F75726365732F636E782E786D6C4D8CD10AC220
311
18465F45FE7BABE95207EA10CAF718CD0D69D361337AFC3476D1D50787EF1CD97FD605BD5D7AF9181434A70B20171E71F4615690F7090B40BD9629C6FDEF06280CAB5350316839A798B7038D6E1AF252E9E2C3F38046341D15DC60DBDD2D6EA96158DC88C5574E05692D678C90629CAB52E6D72B5BF3FA0B504B0304140006
311
080800CE818E509438B8E60B010000550300003400000033384332454631462D454344382D343432322D423444382D3135434441454530394542442F536368656D61732F636E782E786D6CCD93BD4E042114855F6542623903339918DD306C616165A35676087777C90277C28FD1B717568ADDC44E8BEDE0E4CBCD39072EDF
311
7E3ADB7D408806FD42C681910EBC426DFC7E2139EDFA3BD26D050F88E90C239D970E16526522F83E605E9BA46127B3ADAA35FED8C407740EFD8B3A8093A45356C6B89078BA0E3227D4108F8396490EE31020620E0ACA84641CB4092A804CA08998D8C47A36F7E3FC3ADE6EC67933DDBF715A49C1DF116DE38D4F1070BD9998
311
C272F4C510E3B40282E7601A55531071EE6E287D705A08C1630AA58546A6AFB590725DAD513295B2E809FC6104A735EC45E447F0108CBAD6CC17F6FE2DF433780DE1A9BC5430D25E6BF6DF5CFEAD027ADA80F20DEA42886F504B0304140006080800CE818E50E3603EBE7A000000C20000002C00000033384332454631462D
311
454344382D343432322D423444382D3135434441454530394542442F636E782E786D6C6DCD410EC2201085E1AB90D9DBEACE05D09878023D01A1D34A8419C380F1F82DA68B9AB8FDFEC93C3D7C52546FCC12980C9CBA232824CF63A0D9402DD3E10C6AB03A3397DD192872090D3406ABE7CCF5B5D18893ABB1690CF4DCF022
311
82E5EA8A5BB96FFE536F285CB347F95BEFFE81C9ED5AFF9D5B1FB575BB00504B0304140006080800CE818E50481B953D7E000000A300000007000000636E782E786D6C4D8CD10AC22018855F45FE7B6B9A81813A9ABAF718CD0D69D361337AFC3476D1D577F838E788F6B32EE8EDD2CBC720819C1A402E3CE2E8C32C21EF13
311
E6805A25528CFB5F0D50185627A16A50624E316F871ADD34E4A5DAC587E7212F5C53DB931E5B6D38668C52DCB192C8559BBBB5CDCD76A62CCE7552F0FB2BACF7EA0B504B0304140006080800CE818E50CA1DF9C9A900000073010000130000005B436F6E74656E745F54797065735D2E786D6CA590410EC2300C04BF12E5DE
311
BA70400835E500FC800F84E0B411AD13252E2ABF27A55740421CEDDDD9B55CEFA7A117778CC979527255565220197F75D42A39B22DB652EC9BFAFC089844F65252B2630E3B80643A1C742A7D40CA8AF571D09CC7D842D0E6A65B8475556DC07862242E78CE904D7D44ABC79EC569CAEBA537E3521C16DF5CA5A40EA1774673
311
3E0B6615DE7217475F386F18B9481C510F1F021CD9FF027EA0E1F5C4E609504B0304140006080800CE818E503DEE336E64000000790000001B0000006175746F6465736B2D64657369676E2D7061636B6167652E786D6C35CBC10E83200C00D05F21DCA56CA76D41FC96062B120735B69A7DBE268BB7777961F8D5AF396893
311
C2ADB70FE7ADA196782C2DF776D7A97B5933C430F15651E5469C55D70F80A4992A3ADC954792C525AE70A1E4D6AD9816CC044FEFDF01FE3FDE907802504B0304140006080800CE818E50687D73CBF8000000960100003700000033384332454631462D454344382D343432322D423444382D3135434441454530394542442F
311
4173736574446174612F636F72652E786D6C8550CB6E833010FC15B47703E65922E30844FB053DF566D90EB1126CE447D5CFAF9D50A93DF5B4ABD999D9DD21E7AFED9E7D4AEB94D123E0BC844C6A6E84D2EB08C15FD00B64674AAC31FE170D32CD363942828192D59AB01F1037DA4B9D506D843C40E69CF490F17B6C4670FC
311
2A3796B3E023C3DDF29DF11B5B658EF3278F92109438A44A44377551D2029DEBA599DE4A8C96BA9C50D3CE0B1A9AAE4333AE5EFB6168E7BE6F4991C49478B5FD6CE756322F05D0AAAC4A54360837EFB83BE1E6540D1FA4484C4A9CB7F1E76369FA0EE894AE5E9867A4784EFFB8865DFCEF1A94F67575B83E150E288E473E06
311
941429A5581E11C69A12A5DF504B0304140006080800CE818E503048CB79F30000008E0100006800000033384332454631462D454344382D343432322D423444382D3135434441454530394542442F5265736F75726365732F41383139333837412D463945462D343341362D384432462D3537333832344637363632322F74
311
68756D626E61696C2F302F636F72652E786D6C8550CB6EC32010FC156BEFD8E0671D61A2586EBFA0A7DE1010072506CB40D5CF2FC4AED49E7ADAD5ECCCECEED0F3D7F2C83ED5E6B43503901C43A68CB0529B7980E0AFE805B233A39BB5FE170D32C31735408281D179B3613D20618D5726A1C64A7580DC39E521138FD80CE0
311
C44D2D3CE7C14786BBE72B17773EAB9CE43B8FD110B43CA45A46377DD56A033656537D79C3044D15BEA0BA1927D4D76D8B4652BE767DDF8C5DD7D0228919F57AF9D92E36C5BD92C04A5C62846B44EA77D29E487D2AFB0F5A2426A3CE6FF1E76369FA0E18A6C58EFE710BABFCDF2D68E3ABF270DB150E1889C73D078C16299D
311
589ED1C59A9264DF504B0304140006080800CE818E5008B342C9FA000000960100006600000033384332454631462D454344382D343432322D423444382D3135434441454530394542442F5265736F75726365732F41383139333837412D463945462D343341362D384432462D3537333832344637363632322F7468756D62
311
6E61696C2F636F72652E786D6C8550CB6E833010FC15B47783CDB344C65110ED17F4D49B6B1C62056C84EDA89F5F3B50A93DF5B4ABD999D9DDA1E7AF654E1E72B3CAE80E488A21915A9851E9A903EFAEE8059233A39B31EE170D12CD17D9418481D169337E3D2061B4933AA2DA8CF200B9B5D24122E6D07460C54D2E3CE5DE
311
0586BDA72B17773EC994A43B8F51EFD57848D518DCD455C90D585F0CE5E50D133414F882CAAA1F505BD635EA49FEDAB46DD5374D45B32866D4A9E567BBD82477720496E31C235C2252BE93FA44CA53DE7ED02C3219B56E0B3F1F4BE377C0DCCD2F9F9AAB9966FBF48FAB5FC7FF5DBDD2AEC80FD75D61819170E473C0681653
311
0AE51961A83151F60D504B0304140006080800CE818E5018A6F2210E010000B10100005C00000033384332454631462D454344382D343432322D423444382D3135434441454530394542442F5265736F75726365732F41383139333837412D463945462D343341362D384432462D3537333832344637363632322F636F7265
311
2E786D6C8590CD6E842014855FC5DC3D2A887F1364A2717C82AEBA23CA5832234C049A3E7E61C626EDAAAB4B0EE7F0710F3B7F6DF7E453EE5619DD014E7348A49ECDA2F4DA817757D44072E66C37C6FDB241A2C5263B883270B6EEC63F0E6936DA491D556D167988C25AE92099EFE1D0819D3FE42652E15D70D85BFA10F34D
311
AC32C5E9CBC799F76A39A26A09AFA9AB923BF0A118693FE5188D45DE235A0E236A6955A101934BDDB6E550D725CB629833A7B61FFABC4BE1E4029CE42447394598BEE1EA84E989B4EF2C8B4ECEACDBC3CE07346E07BC6F705B34758FA6F632215AF4156A4632A1B22E1A42A7BAAA0861D92BF807E81FCBFF40AFB42BC8017C
311
252C701CFEFFBCE02C8B0586F16C37CC5836FF06504B0304140006080800CE818E50FC211496FB000000960100003700000033384332454631462D454344382D343432322D423444382D3135434441454530394542442F5265736F75726365732F636F72652E786D6C8550CB6E833010FC15B47703264E2891711444FB0155
311
4FBD5966935A0936F2A3EAE7D70E546A4F3DED6A76667677F8E96BBE179FE8BCB6A6075AD650A05176D2E6DA430C17F204C54970676DF84583C2C8197BC830087E75362E1BA4AC0968326AEC841B28BDC70085BAA7A607AF3E7096A58C2131FCAD5CA4BAC92B96B45C7982C7A8A74DAAA7E4A62F1A1D886137B2F34B4DC9B8
311
ABCF84ED879174EC7020036D9EDBAEDB0F6DBBE755160B1EF4FCB35D39940127104DDDD4A46684B2377A3852766CBA775E65A6E03EB8F4F3B6347F07E215BD8D4EA1E7D53AFDE31A97E97FD7A84DD8359BEBAAF020683AF23110BCCA29A5F28830D59CA8F806504B0304140006080800CE818E50BAFFCDC1F7000000940100
311
003500000033384332454631462D454344382D343432322D423444382D3135434441454530394542442F536368656D61732F636F72652E786D6C8550C16E842010FD1533775414DDBA41366B6C7FA03DF54680B5645730024D3FBFA036694F3DCDE4CD7B6F661EBD7CCD8FEC53AD4E5BD303CE4BC89411566A33F510FC0D3D
311
41766174B5D6FFA24166F8AC7A4830303AAD362C0724ACF1CA24D458A90E903BA73C64E2119B1E9CF85033CF79F091E1EEF9C2C59D4F2AC7F9CE6334042D0FA996D14DDFB45A810DF548AE2F2546635D5E1169861175A46DD180ABE753D735C3E9D4D0228919F57AFED92E56C5BD92C0AAB22A514910266FB83D6372AEBA77
311
5A2426A3CEAFF1E76369FA0ED8EB76A7A3C53EFBE31916F9BF67D0C6D7D5E1B92B1C301C4FDC068C1629A358B600634D79B26F504B0304140006080800CE818E50A840E91D02010000D80100002D00000033384332454631462D454344382D343432322D423444382D3135434441454530394542442F636F72652E786D6C95
311
914D6EC3201085AF62CDDE3F60522511266A6CE7045D7547CDC44589C1025CF5F885DA55DB5DBB62F4F8DEC09BE1A7F7E99EBDA1F3DA9A064851418666B04A9BB181255CF33D6427C19DB5E10706999113369064107C7476993769B026A049AAB10A37517A8F01B2E11E8B06FCF08A932CE41222E16FC52C879B1CB120C5CA
311
091EF4F4651D1CCA800A04AD6895572C27EC893C1C093BD2C3332F1329F8A24DA8E9F6184E2FA8323B871809C4AEE6E57A1DB145AB0DD22A7E525F353A10F5BEA5FD855CF2BEEDF6396394E667162BB26BBBC7BEAF0EFDB98B4DA259701F5C1CCDD6240DE1AFF6D5F82BDA32AB7F465B1D1E04F90E55A6390B5E7E2E219E69
311
27E203504B0304140006080800CE818E5067C7843307010000B201000008000000636F72652E786D6C8D504D6F842014FC2BE4DD51F0B36E90CD1ADB5FD0536F54584B56C1086EDA7F5F586DD2DE7A7A6466DE9B61D8F9739ED05DAD4E5BD3024D082065062BB5195BD8FC153F013A73B65AEB7FC9001931AB16220C9C8DAB
311
DD96031AACF1CA44D458A90E5038A73CA0610A8F16DCF0A1669188CD0785BB258B186E6254094D761D675ECF3FABC3AA84571278463282498169F14AAB132D4E59F3C6D2A8E46CDBB43CACB40CEEFAAAD50ABCCBFBE2F24228EE7372C145D9F5B829AA0A77347BAE9BA6ECEABA64695CE6CCF935FCF93812727AE4C43DFAB2
311
74A7387BB7763A04219444D64C5FC0094B23F127F4B6C87F84D6C6E7D97170DF70C06908F42082716C308C47BD61C6B6F937504B01021400140006080800CE818E500D6510CB13010000A80100004F000000000000000000000000000000000033384332454631462D454344382D343432322D423444382D31354344414545
311
30394542442F4173736574446174612F446566696E6974696F6E4974657261746F7250726F706572746965732E62696E504B01021400140006080800CE818E503EF53E62FE0000003002000045000000000000000000000000008001000033384332454631462D454344382D343432322D423444382D313543444145453039
311
4542442F4173736574446174612F496E7374616E636550726F706572746965732E62696E504B01021400140006080800CE818E5088E57597CD3F0000904100006B00000000000000000000000000E102000033384332454631462D454344382D343432322D423444382D3135434441454530394542442F5265736F75726365
311
732F41383139333837412D463945462D343341362D384432462D3537333832344637363632322F7468756D626E61696C2F302F67656E657269635F706E67504B01021400140006080800CE818E5028BB58AF800100009E0500003D000000000000000000000000003743000033384332454631462D454344382D343432322D
311
423444382D3135434441454530394542442F536368656D61732F436F6D6D6F6E536368656D612E786D6C504B01021400140006080800CE818E50670136ADA9040000B41400003E000000000000000000000000001245000033384332454631462D454344382D343432322D423444382D3135434441454530394542442F5363
311
68656D61732F47656E65726963536368656D612E786D6C504B01021400140006080800CE818E508DFFFC99640100009B0300004500000000000000000000000000174A000033384332454631462D454344382D343432322D423444382D3135434441454530394542442F536368656D61732F52656E6465724D617465726961
311
6C536368656D612E786D6C504B01021400140006080800CE818E504EBF22D151000000570000004700000000000000000000000000DE4B000033384332454631462D454344382D343432322D423444382D3135434441454530394542442F4173736574446174612F41737365745461626C654F66436F6E74656E74732E6269
311
6E504B01021400140006080800CE818E50C55C663656000000680000004500000000000000000000000000944C000033384332454631462D454344382D343432322D423444382D3135434441454530394542442F4173736574446174612F53747265616D56657273696F6E5461626C652E696E66504B010214001400060808
311
00CE818E50B8BD2D8337010000A204000036000000000000000000000000004D4D000033384332454631462D454344382D343432322D423444382D3135434441454530394542442F4173736574446174612F636E782E786D6C504B01021400140006080800CE818E507E299D5AE70000006001000067000000000000000000
311
00000000D84E000033384332454631462D454344382D343432322D423444382D3135434441454530394542442F5265736F75726365732F41383139333837412D463945462D343341362D384432462D3537333832344637363632322F7468756D626E61696C2F302F636E782E786D6C504B01021400140006080800CE818E50
311
A233C2345D0000008000000065000000000000000000000000004450000033384332454631462D454344382D343432322D423444382D3135434441454530394542442F5265736F75726365732F41383139333837412D463945462D343341362D384432462D3537333832344637363632322F7468756D626E61696C2F636E78
311
2E786D6C504B01021400140006080800CE818E50BE89762363000000880000005B000000000000000000000000002451000033384332454631462D454344382D343432322D423444382D3135434441454530394542442F5265736F75726365732F41383139333837412D463945462D343341362D384432462D353733383234
311
4637363632322F636E782E786D6C504B01021400140006080800CE818E503F32F8FB7E000000A300000036000000000000000000000000000052000033384332454631462D454344382D343432322D423444382D3135434441454530394542442F5265736F75726365732F636E782E786D6C504B01021400140006080800CE
311
818E509438B8E60B010000550300003400000000000000000000000000D252000033384332454631462D454344382D343432322D423444382D3135434441454530394542442F536368656D61732F636E782E786D6C504B01021400140006080800CE818E50E3603EBE7A000000C20000002C00000000000000000000000000
311
2F54000033384332454631462D454344382D343432322D423444382D3135434441454530394542442F636E782E786D6C504B01021400140006080800CE818E50481B953D7E000000A30000000700000000000000000000000000F3540000636E782E786D6C504B01021400140006080800CE818E50CA1DF9C9A90000007301
311
00001300000000000000000000000000965500005B436F6E74656E745F54797065735D2E786D6C504B01021400140006080800CE818E503DEE336E64000000790000001B00000000000000000000000000705600006175746F6465736B2D64657369676E2D7061636B6167652E786D6C504B01021400140006080800CE818E
311
50687D73CBF80000009601000037000000000000000000000000000D57000033384332454631462D454344382D343432322D423444382D3135434441454530394542442F4173736574446174612F636F72652E786D6C504B01021400140006080800CE818E503048CB79F30000008E01000068000000000000000000000000
311
005A58000033384332454631462D454344382D343432322D423444382D3135434441454530394542442F5265736F75726365732F41383139333837412D463945462D343341362D384432462D3537333832344637363632322F7468756D626E61696C2F302F636F72652E786D6C504B01021400140006080800CE818E5008B3
311
42C9FA000000960100006600000000000000000000000000D359000033384332454631462D454344382D343432322D423444382D3135434441454530394542442F5265736F75726365732F41383139333837412D463945462D343341362D384432462D3537333832344637363632322F7468756D626E61696C2F636F72652E
311
786D6C504B01021400140006080800CE818E5018A6F2210E010000B10100005C00000000000000000000000000515B000033384332454631462D454344382D343432322D423444382D3135434441454530394542442F5265736F75726365732F41383139333837412D463945462D343341362D384432462D35373338323446
311
37363632322F636F72652E786D6C504B01021400140006080800CE818E50FC211496FB000000960100003700000000000000000000000000D95C000033384332454631462D454344382D343432322D423444382D3135434441454530394542442F5265736F75726365732F636F72652E786D6C504B01021400140006080800
311
CE818E50BAFFCDC1F7000000940100003500000000000000000000000000295E000033384332454631462D454344382D343432322D423444382D3135434441454530394542442F536368656D61732F636F72652E786D6C504B01021400140006080800CE818E50A840E91D02010000D80100002D0000000000000000000000
311
0000735F000033384332454631462D454344382D343432322D423444382D3135434441454530394542442F636F72652E786D6C504B01021400140006080800CE818E5067C7843307010000B20100000800000000000000000000000000C0600000636F72652E786D6C504B0506000000001A001A00210B0000ED6100000000
310
504B0304140006080800CE818E50000000000000000000000000370000006662782F39433339323233462D323041462D343437332D413936432D3437394641314237463638362F617474726962757465732E62696E504B0304140006080800CE818E50000000000000000000000000350000006662782F3943333932323346
310
2D323041462D343437332D413936432D3437394641314237463638362F76657274696365732E62696E504B0304140006080800CE818E50F270F1330600000004000000360000006662782F39433339323233462D323041462D343437332D413936432D3437394641314237463638362F747269616E676C65732E62696E6366
310
60600000504B0304140006080800CE818E5088E57597CD3F000090410000420000006662782F39433339323233462D323041462D343437332D413936432D3437394641314237463638362F7265736F75726365732F322F305F67656E657269632E706E67355B773CD4FF1FBF73E71C0E67EF7576C9DEF3EC995D46C6A1EC50
310
46649CBDF79E192942562825CE965D8A868C2842C8DE9FDFD1F7E7F138F7078FCF6B3F5FCFD7EBFDFEC41B196891913091804020321D6D7513FC77D8C5070EC3FFEE51B21F068154CC75D455CC028A3EA68992803810109FDDE5D5CEC5521B28A1B422BF80741695D5B529DA1C2D058AD2388BDA9F476F7C2CADC939304173
310
DBF48A452BF8A700C0C70C3D121C1AA15A5270C22E2B9E28763651F7DA0D12CE11077B2ECD0D560B5E3DE2368B1E65C5E1C87384A4CC5F2D9FB8BE39E9B77C753783A37998F5CEF1B4FEE553463245C9712270880DF339E0B882A6BA713D865F6F384C842D440934EF264F4A304F8DE4EEFA1E2BF5E2D91F5ADD9613D6E31D
310
DB33ED31DB1D7916CAF091286EA3D31B9CFECB78BB0060245B943C4C040119FF780A74DD308BA9D028678674EB5504ECF284EE814DAED07440BAF649BE4B55DA2890F4D73E2D489A59EE54FDB0A85B59F2F52C4858A02705C4815A792B0C4A996A2023ECB195073E115E3E3647F64243A8338F2000BCB58DA5692C7E7C3D41
310
3F963FEDF3CF00FBB0F831A9D51360FECA43819F527B89FA260EB63C5DA676830AA3626A3693B23F1A17A0DFFCE3EE164E31B5365EDF0C89EF64D8E38AB0BA9A1117D7C3A0EC44F44F4023095E80BA610DE336D0F99593A88BFC5306E72DF98F7FD132ED95878DF2964EA7E43071359FD83B2BDF9C6B5BDF768F0F3C0FC351
310
199526F53D9460A34511F75D1B63E488178569472C91A94497807A3FD4A390C6558F26D416365C3656DE6E769DA9D8FC73774E1709812842DD8EF96AED1960F79D21B395CDDFE6F92CB4EB962A4668C76990E2EF29798C8941D67DA50F4A5F947872460F1F6FDB794E8A29FD7AC0C0D6E0714339CE258FB17AE8535221E346
310
4A10F29A0BE5EEECEFC5675926A89F49EB14E5711894F6586DB5754EB4D5DA9C6437EBA57DB97A24F8B8A8DB295FFD73266CF57E82694DF5166DDF93573AFE9C9C5EB05F8FEF8E89E0A8917B0B3724DB7BEBB53252581EFC3E38166BA131A3A5B42FE2AD00A769BBFA4458D2DE7822F8C4F63D0B8E21B285AE13325F3410A4
310
35C648C9D91FDEB109E73CEDA7BC796961AF79175E1A3CE4C5E8B0D009B0C9E29EFD98BC8E97554E3D8D838424E270F7685226E5AC268E021EDE3522D583E8F20C0BDE2959EF5BBFEEDAB32FE9A3ED0E39F211A86AA9DEBFC68182EDED132AB8BB794442D2D7EA9F4D8BFF52BC4D55BB165124EE90A42D101E67BBBB292FFB
310
4F66DE5BF2300E44546757DA7CEF8932BFC9F92A0707953491A55C5A5ACEDABD9FA1AEA01BAC3DC5A24E22E7C47213493996EFBC369D086ED9397C9BA6C7F9855C7BD5E15BFC8C53DB3D2A4C5901A57ACD2FBDF4D1676E95338B2C2BCE65FDA4C64F5FEFDC7D9CA5AA1FCF11E193F2FDABF0F4916BF13FB916A224380E6462
310
A9815F2300DC49CC4DF8D055CEF76462F4B7A7ACA7365C2707891370BC1D0AA6203C44CCAB47084FEC057F27FFCD57F89B8B9852459798A675C66BD7CE572CAF71FF7E6D7ECF7BF62CAB7B3F1107DCD04DC55A3F9961700286141C94A4F771FEB2BCDA2DDEE0CB0BAE402FF1DB0100F8E475DFFFC074DDB4498AB7D186A765
310
4DDB1CB680D703D47CEB4E72F8CB13D86A4AA68116E26387B93FD6738779B34FEDB8E517EDF2BAF28D9BE93A1D3A164320E07D42E514725C29515FF361754213EDE06B079A2E99EB1CA82A02019EADEEB87B9AF005BD04BBCECB14AACD6B24EFBE482194A97DD32400685FF1FEF1544D1B14EFB1E7F08E6D2CD2AF52DE757F
310
35F5E62332EE88EA26417AD5C3E0E319D68F25414E6D672BD4522B278C57D18F0113921C71D96527E091F00CEB15AE23D24667369BD3CEFA10C7549D930890BA4366F4EBC55F01F746109F98ABCDD5A3EE06619C6AD78AB33E48E4C9BD21BF7478B385EC05C4F8987E2C1BFA0A60EBEDAA0AE0B015C2720ECE180FB6F2DEFB
310
EB822D96338C9B63822183BBF52FB664A7AE57003AABCE512BF77E7E31BDA2E739AC4C131657DDFE5225E900FB56CC01CDE808FA4A9C9DA16AC679656BB64796283D89812B8F91136AE18EE5EBBAF47A73BE3C153EB5D4CD491B4BFB4FE690A4CF9ABA08C0D8AA64220C438C96EA6CA80B58FE5761E697B3A292EB9FBDA502
310
FA863E49FE694ADDFFF9D62C520BDD1A22014147A0903A05B9B729F54272EF83931FEEC057BFF8C8055C279EAC5C0011804828734024F6CFA319C9CC6867C727184465CD9BB7ED386AFFD96B294A85E3802FAE47244602D8273615952B98C4F23F7EAE4463D9D638EEE374A20959E0FE519C4CFB0FBFE5DD80C2AA3F9DB961
310
D1BDE57E67C9BB47B77FDD74EE3094F5DBBE3EBC1FBDB7393F5116263009E2EFE1AF9A221B2AE234C902BF70E9F280ED23E73908361565964333A3F01D0B006AF32FB21AA1316744B489D5A198E85299241735BE559675130955C902A8ED761FC0DBE337A9F91919AF5CE32AF902ADF9AB2615E00E8A94586BA1A90839B618
310
32FF1BFB76D2EFADE6DB1BA04CCAD3DA649E7E2A0219F592E22F2AD54847EEA8E42271011E9074F8F3DD9FBA6CDF88FFC9FC7E811AD1CA8F4557CE4AFC7BBEDCF0114A48689F20A584520C74DA8127124B767E2FB91A6B186246727BE63C9445BAE02088D58B8EFDC0F1072407CD9B89A13F6303B4A928F593AD489B58E686
310
9325790ADC406036C591729FE14021F94B7796BB11848D463536A092A26F077F94639F7CEEE2A724C66EC885F4A24F8B8A0AC321F8FD149BA529460FAA34E4663C02D41FDF80BCA222D42F0ABFF8490F4FA74C673807C2051D8E467B47B616072860069A9A303ABA9B319D58404461401B0A0F9BE5E1E151C14BC33B32ABE0
310
3DDE91708DFAEB15E7C0D593C86BB7D7EC17BE56E57975F077BFD5525F3A1A361D584A75E08CF29FC7B44B2B3085014F3A5A14517377C3F6B8F37E59514C3B12F8AACDEDDA4DFC49BE5710101534CD6FB6DE15B50F11A09472AABA727F0C49D9CB906B158030065F48EB3625E010CEC1D511D0053474B11E6A4F01C0D6EF1B
310
ED3A944FDEC70E0DDCDC756C86545910E0DAE3BE3AA9A404574C2995CD5CAF9549226BC94B4F4F0F5F9086F418F6B32346464610D8BC7391D3C3A3CCF04CFC1FB2A3A3170E369511868F14EEA4E5E438CC73DB1F3248AA94B6B2FF33B222FF3D1E7BF146CAD229770158063BCE4F5391964DF62F7E52A7BE0EEA829C9E13C4
310
C147D6F93FE59E111DAB5E4594D6F3CD1AD375EE039930EFE5AF2BB2D41C83C7DABD8C659BAFBE8FAB392CA634F3D15C1D945DB4588D2B0824A4EC928AAC565557CA2F0DAA588CA5BE30B3A8004F7BF005E96CBF891D7F18112A3619FDF530DC8AA64954258E1811789B5189B49B4EB53F5F89F7D37523894F3EB57B373763
310
C91E502F52CC99EB7BDDF933FC324C4FFC2561DFFA7339FAFDD0A4BFBE6D3A8FF9ED1FC49898139864602458968913181918F719CCF5A68B2EE9C1FF050E34E63107003B8120FA982C21B30A874E4F5E4B38D5A8290C4B8D9BE48A0BE31EA995BDC37AC6DE90BA17D259DEF53605D55922FEB1855D915B659FBEB350EE0DFB
310
2F9F766E1C84CC8964B75D08667445EAB966015F63A18A9E0A325C1B3DC628C0D3CB60F767FA93CC65F25458BD23C3B312716E5F40E5858AC06EBA9AB14F95DB99147B832069201541D09A0D856E12C629CF32683760EE855537D1901988D5EBC156676C7DD51D7207CF3267AF1D76C2AD867315E44618015313A98B19941C
310
696FED3461CAA9B5415F918556D7802EDACEFD6B2E45853A9735DFC9DBF7E440F9319F8B6805A973BCCDC76C069A9144E51F187EDCC12FC31B5DEAAF0A76137199B106EC84ADA6B6EE697D4E6A96E007417F4E880E8B1E89B4BCE9D81EF611E2ED8F0C1A6C25F620FAFAAB656A7C42D464880E8AFAB0E0FC8EA38CA9A8AEEA
310
EE3E4648BA4680270A89743CDD3E6C6CBF34B7B640EFA285ABC7EA0A1E28F3CC963D114A80123EE66D0AF7D5380EB41909B605AB4765B709B808590458157E69BA1378FEC4B48CAF6A730E3BE3C5EF2DD1A5EAF94B1DDE50CEB55DDFD7EE9A16747FA4B223359FB1FCC69E1194892BABB93A1D5C4E807AC0EA2E30180811E7
310
7A2291F6E7F7FAA5E0F60215BC6024E48DE436C511F0628B8CA189982D4D83CCA17D305A7E923C37941CFDFDCD93ACAF735EF5F0E61BBD3E6C41A59B242790D3A3BAC7064DCD89AA2E37214EC839820949D5CAA31E240D2948E48F690298974A96BA9A8432BC90F5071D6537C9666EA4564796B7AFFFA548077BEEA75F6308
310
3435074BA182F3699557397F71548383FDA8CA34D99B981E72835ECDA5DDDC151315173D05A21F651AAF8524E88209E2E7A737ED1045800CE3390050BCFB8BE588DF111617874C62575039CA588EEFDEFEFE319B739DE2EDC147092A262611E159650E787917885EF08F1F51B8F2D8A71D60B58B190FEF9541A1BE94BC19FE
310
A50784DA1419FE4B0FB51B8D36B5FF8E1286FD8AF42B91E59A5F1CC4D60174E764045FD8C57B18209B217F89A62252BD20BE0E63E12B8E8F029FE19E0E8D0870F58721A557082250D5424F7909369376E41666C0EE77CD87CB283F661D5FB6D0DA023CB67320A20DC7BE661E9E1BFE5463085C557DA1FF9BE835733766C3D1
310
39F2CF9E2208873AD0EB4814DE9E6BF2CAF81614D4D43906ED1C05A3265CABBFE192770FC2F64F940CB6B17B5F166F133C9AEEAD2641807C3E69515171DD74C4A85311513D6EC9530B3B601B6BA3EBFF3B5C3D2F7D69765141E345F75433953D013ADDF8F6AA7DC3F4A7563FE5C7D367937E2900D7EAD0F9FC9A4A1A9B5BDF
310
1FEF08532660C01C5D6DE22199AA774383E306DAB87E301ABB7D213887F9869D4942D0D71E94B27EDF216A318BD488D45DF84529EF575AF3C3938C0AAA0215B01994153E2054A0B894DA5C784980633AAD48576957CF4AEAEAFADC7C587368551C73DBE1E57C58AC713303A8BFC258BD04B51724459FF9E24C03A81E0E0679
310
CEB9B348C0DC998FEB9C6D6EFA77D247CC8F92D3848599ED89A23218D0636465AD1CEEB7DC140D7426F83491C4E8E8281C2FB35240918FFECE880CA2A42D70E8B20B34DF5221C7DB0CF90ECCB9C745B37A47E9B716FF7A97B7A252C1F3814DC7B1E1A7F72B8751D524EF7CAE45B0C73B3BE7D08ED39781B380DDFC9AA4A474
310
9C9493DB5BAD07A6EA6C092FBD0E85DB004DF06B8C9D3089C5320187E4CE1846158C7EA7DDAE8AD9AFFF21AA3A1026BB06A259845E8232DEE62811A4DA9CEAB3A4887320B76E2AE5615EAB7BDF738CBDD01F1E64064BC13D9EC53576751CA8CACD58B3CEB0E6CA585BD089B2A59B9FC101403387AADBDBE70586B93D64BF3A
310
D4453EF9C3B6A93817E8346991798601344F79A83C51F3D50F7BF2683A3605F51A72449489E0EE6169C749C60B1035651103AEE24D24E51A759C840DD3FC6504DA6FE107510E447B43461C79D22970B75DE5E1BD3007D1AFC619A4A4A69B5626AF5E9B8374E20677F77E2F8E73DF868E8BEC7EBA7B6A75EEF7205E1AB9486C
310
B642741D6E03FF13FCCEDB1C4AC129886268B01CDF4B124AF797CF784F3C6DEC97A17D4B558070A0F1C04DA4FF9BDBF34159AEFE958479824B3F58EBD1E19088A2AFDE501B6F2052368A3FD0E650A179EFAB1561E1D27527077136E652676C3670F42DCB3352F48F6BC86D2C3B0051727E41A0A4DC6CE2BE9D47F5CAA2935A
310
3C0539AF080665997194ABECD723B08129CC5B6B21D2E7D54CD4D12610E7E9FB8306771A89576C7A982002775ED44F3F744CF21EEBB27A631671D921938AAEE3EB0D19CD1E083727F607823E817BF599DCED5394E37EEBC2E88782E638920CA641EF74D4CDFCDEF06F4278ECB18E31E7E9876F2D783C8BF429C75395F57E98
310
C2B495A3DA077EB3AC3C158608B6B57FE3EA48484D9A480096FCEE0DE880950E7E5A5714131C5C41AAA29FD19AE81AC145FA1B9E85C7169A5AB837B213493DF7E9AA4B5FBF9CDEB36EBD21EF1181B7CF7366AB2A951D01E37AF4EB835D1BE8C117CFBE7625D2EBCDB0B20C5A4B45CED0BCDE3EE8DA9DA78C2E21DEAAFFD119
310
7E463C33CC6A80FB785669B856EFF7A8CCCA2841B5A5369173320B1170C368B2748D81062EA0296E5E2D95D7667A4A46D98A6FF475C76AAB0A8C8D45E226FAFC9FE0133EA9F60111F99CA81ACE03A1D14C89E8B0D69079C91464FA1D99E651D0EAF606F345C42A8A1AA9BA391031582B96D5B4176A77AADB01F12FD298A75D
310
EEBB2C82F0B8650E880722F8DDD90C56A7A058E5FDEF1AC93545BA27367C76F5D8F9690CB6F8DAE141EDD7971F0FB548A2AE435F224D6E5954CA155512F7332029D5A1230854B79F258EC5FFDB09F5F6343A8EB193229B7F7E79B3E48F8E183860B38C8269D1B53738FF1E0BACF6AADA6D4869E9DE708E79B5DADCC09B1BC7
310
6F649731CFAF59A83FD8BAE4C749D66FA87A3810D4D62FFE826FA400C0F325D2BC0F3CA35F5847B82A2ACC7961745C823E4D863D54460AF792CE6F79B5C7A33B25C3AEA6CDE15A919B6367D781E9D44F61BF828672594A3E1D9EDD6DF179A81F27EAC05B936575D73E05C209DDD2115CFB705DF9BBF3C911589B3640735E9E
310
618FC9C36A7326C82B2205E244C55D56FDB9D5DC93CE958D4BF8174D2B3DA54CB3C09F2C2A6DFF73D23B2197355761AD421EC581284A7EF8DE2CE3497C0C804D49B41DFD6A7360844E5BEFFB495CFCDB97A4595911CDBA623274CE852B5E278AF0BEB1770E9D37CD977B2766A7DED0E94B840E1E95E8C77DE5CB6354AF7871
310
427C28ADBEEF7BA0A28E19DE9ACD75F379FE373EAE6DDDAE3834692F9C2B03B4FCA8FCA9ABE8EEEBEBB725B88A7C90941E850682CA04061A7DF0CE82ED49BFAFFD42C309818FAE14755CAAE78B0F73243ECCCAD7DF58FCB9CDFAE7A4D3E6671A613639130D056C8383C8F4FCF4808C331E544DD26E4755D09EA05253B3049A
310
1E32587CC25D72E073E2CD96D04A71BBCB0038FEC3F53D254199C3CDC67CD66640269431860225392B2CB3ECD0B4498AAE78BA1994246AE1EE78F2EDFB79F6C6CB6B5E279C4D373FBC21CB2698C9ACBBEB6A4BB6B39E16AB0E421CCBFC7654D81ED86022F9BB522146F9F4772E2D0E4FA70120C95A85A417BF5078B232F475
310
4363EB1750B2AC2148EB46B1EA72AD9B4D23ADCBC589D70106C3EC2ABEEED84DFE28E718C6C83502C28E9FDD3B09DA0A6F6F7B72B706A31C9E2A331EE70DA56A083D2177BFD63C55B11D8D949FAFCF90B23A1E24B9B5018B9A17E99F2890EC302F330FE7936E2C23F0D237EC8916F5166AB84B62A21BB0B950146962D754F9
310
2CC2C8877BED8FC7B7B25726DD19545392570B3A2C66B58F027BEF412E552D12A588C4A3CC5C3193FCB3485EFFF700D0B9EEC077754A33DC1FB9E25AF814628F91DDFECB667D3F7690803F38D13F8AE39353523BB08FC6760144AFA2CE28236F65EDBB3D5F59A57D612B99E3D7E5F8A851666BF9B5A6658EFC96EEB37A378A
310
BB0EB3FDDF1303AF32C41BD1C8560745D7BD81066B0D6313359CF488563D3BA3F8E2185D1FAA3EBA1397C9D0E3DD232180A4DCADB6AF25DB3AC3CC26589C8239E66E81547BC7E2F328F9884764CA37EB5DBE390DFC03A5246B456A7C3684C4377D0EEF9A350680FA9A077E8B2957B489E09AB1AD41316944C2254B5984830F
310
691C93CAA767EECF976FA5647538830B5E63236A6F0365C1E0F3E327F24FE35EDDBD7360B0F7374837409F7A6311BECC12B7026D4FA1AE204FA3F5FE904B1F420C7A9044AE58E403E7C4848E7DA25DC9EDAC79DD756FAA26B9EA83ACE8A214A2612A22AFA19DAE7DBAC5F8CDE1292A485F98DAC731A29FE01A3966E96BCB9F
310
B5A4C8830E1B9AF0C54B87FBE221A097036E5D28D1F869F810C06A9BB0AC0612F69AEBAF893C6E7AD59460208BAB3A6B09CA4F6BDDAB8CF0D1F84B72487498395A70DCD754796E271099A567A55CF242BBED64696378BB6CF25EF0FCDB589F3A82F1116D010A9AB9FA4358809EE0C973A2B4229BAA876A70B03AB49CBA7FBE
310
71DB1832FFD32F9BF2C8E98075CACAFB36921235D0F552B6A67E94E094097A5D7DF681B40623DA535ADA7A9AD8E9A62407D7C9A5AE51D62A17A83A23728DE86BB56115804D3F2675F2C6B87541A0FC497BF0CA86420F558C9859EBE9FAD62747E323E3AADC03FDCDDFE7407B09DA90B44E3185723C5381EAEF589765E2F7A0
310
99BA46695BAD60CEF3491B8A171F5F56444F7CE9455312C3498C74173AEA0214EC029833B34B650CBB5A5508D5091665309642791708ECF27CF11DB3D797D6CFE474453BD4BFADB768094B2147814D81C7CBAF8228DCAF5564B5891F5EF6A860EB2E323CB82AB868D8EA048880D63B0DE5341F1B3D53297B928A11E15F25E5
310
148990F710747C3509ED14909C552EBE3973246FCE55D00564D8310BC3EBC5085D08D806799B77D6C57FDF5E55837F9E934F09C03C729271B64F12D0A9F9E938107CAF7BF1EC8CF1BB9B42363D33070F4CACB425E605DDB0A34A12BB936DE286B9887A4E2E558F0886498BFF49C311D96C277CF6A9FC0D75AD0ECC5226D7E0
310
E3572012E56D7FDE4410CEC7A6D0F997F225A2055B8B92E3956E875AE4993CB3D4C9063AF98FD45E1BAB165640A43439A2C9181A7C355B297C0A0CCFFAE19B6FA3C2BA238A885FBC98B8F6DAF4B94B97304878DF4D8BFF6A4AEDF79E90ED4E68F00CD7299F4E0D83E35601AF0CBEF18C1E870E74758FA91F5131075004DB3C
310
FCF09AE1DABC11957FD9808C92E8A678CE9DBE40DDA0E0D1D505AAFBCBA208232BFB6FB3704E8985E61ADE53DE74152F5C7DE74B1DEDCD37DC3E8FB30D7EBA8B9EFFC3606BF90B8D438279CB7709FC7C00D327F41817EEA71CD9E49FE9C8C9A81C70915D9F0F15958EC5AA4C3BBFAF46986B90F188BDB24B89DE3C6F29EC3E
310
6F66D84856EE96A35E657CA41B41EFD8DBFA16AD6E91439EA92B40B21C053249F51AE50EB0B24C770FFAF40DF12C8436366819C48E36547D4E7B72FE2BBF10828583057814A668BDF183F6B2E58DFB151103E56303E63D00F39C27C4661605DB644D19175D02E3F0241E8FC3458D17AAAADB117CE9EEA690D0DB01E634878C
310
04C2C9310B69FCAB831151E3AD293BEF6E46B0ABCECB50F5939B39C613D41E81FAE8D34CAE3C4566B761D37185FE864AC32FCB71AEF39DAA5BAB88609BB980CD2F07A8F941653B529567726E2B2A58D079DD57E1E5E31426CF184A04D7B03B985F276D47406AF276FE32E3328BA866EB1FD39BEF57863A317634AA5FE46740
310
9B3873F5069EF0D71AF00AD189D17BA1974ECDB2D623E9E14086386A6AAB5807825C37B015BFE892AFD154920EC437EB945D958E18622E1E0FE2FA06557CE4BB9BBD05A2D40E774DA2B65473791E314B7D6C886820B2FCFE4AA272B3B8B15E7344A145E8AF919B5454D89D36D413E87211186BF6F645E5EC94DCCE8E1C7990
310
22E4EC9BC86D7A0F2AFB1FC4B2CE48F84B3F49ECE65BAD24CADCC07EFF39AB06BE9E6B27A059938EA7208838455383DDBCFCD967DDE4650EF92A14FF933C975DB20BD7FEEBC4487576485963D757D16340D9599FEB362F775F38CA4185A86F74B629C81B133644A3B18FD056E997E0734F9BE26D11C0AAFC669E2AC9FC41D2
310
81F8B2E1C35AE27BCE05F3DA295488096688719D974DF1B5D182DB7792288697F8763CFB43562C1CDEE11C4AABD5C22B6E33F6F389CFC3477C5919DC0D533F8A7A1846B7ADB60ABDC26C43D0CFC8910B7C15EE22675BD02702ED39DB77A87A192CA7A543E6205B979B9F5A6B512A3CA799E198B2D5797C0AF8D1D872CA455D
310
4D431A7879D4DD76110B5FF7F4176B54477A9EB5E4A5D11214FDA585F0382751D8E2582BA5D2075053298FEB8F1537304E32CB22C2E2B693DC0A760B1DFCA751BDC445AFDCBB12820ED85F6D5298933C7EF1211E9E057684056CDA3FEF3BB6052355E162DF27C59E965A8DDB7F9437EB72CDDA3A090DE65A5B2F50326247B7
310
EC67B73ACC7047FC9B353D6EE990F772207C6EC52B39DC2F3C0754821DAB559F7C1809C7D0DD5B0499D0442E0A6E391B3D5DB46D11E731E6794EC77523FBDAA242ED67F9FA1FB684255671F63C9BCFE6E7E896D51001A6113EF2298BA494E0B0980D1FA5B9D60796554C02256B1E0345FB7C6186B6A19D2DCA270416262845
310
FA4F42DB5D9B0A0B6F07FCA2E56C242522E001E0CEB734AF310FC8BFB57E38E03AACE93B3326A2197891E68452B26A6307FDABFEE0223D3C03C3C73D2D5BC054C8311F12004CAE488E5C29287F8156A2CAA4AD0D7BE6B97264E4139F437CE73ADF52E5134C52B819777C18B323A5924E4F67AFD13B1CDC3A61793A79FAF5C0
310
CEB718E441071E797C6DCCB9EFCF7E4A1E9F3DF3C2F9C9E8294E9586868788C972857FB0556D7A26941A7EEB9B580AD78EC40B85DC906B4120A563CA3B87797ED612D3B035962BB75F6515A393F4CB057F564CDF54F2E5A024514E6A1F901DB80C7E70B1FC05E356A7E72FABF4775B3E3FB8F70A2A8E7B6A94542BB3041579
310
78CCC999E707A29CC795E67A59CC546A5D47B368954CA7B6E75EC9E1F6FC73CE3B4F71F8CB1A6B15923D61EAAEB14626AAA9D04A26EB9C66CD1BE86CA31A5D8703DE04CD1EBCE4F5CCB62F93909AD11E55799A781A956ED27D3E738F4538CB04ADABC7DAEF20BC35BA6A90BCC1DC61BA05F20D8832FFB9BC9B15E2DB838A0A
310
FBB7E0C82A562127E0446894F427794C3037186F622BF24DE1B00AA10A23BFA47B2A180D6DA5AD6F7326FEB8C100C2D7142EB2A0B2A9D1008A09BA343D70E054AB69E2A7EDB783CBD92537FAF4A44D1296AC2792729104B3276C276C951D0CF3CF3F1E6B017720A7B8505A5FF9589365979678C36F1BAF759EAF57C60F1FF5
310
FE9DCF5F8E764FF25A2D06CF25117A8FED51884C13B2B750DB0E4F5E3D64124FCF11F0AD8F1CC3B3DA4B38ED22BF1CB2585EE6BFEBBA63FBFD44F9537B9B37BDD6B358720F98A8125AED4349CCFEB0E135F19E208A04CA7E2B10711185D72E381F448036EF57C9F874E54A971CA37A639E986AC0226DC5AA00D5B14FEA9192
310
234B3DE617814FC221C92F33F1D392F297731B567FD98FD91D989379AF567A65B8ADF177591DB90FBEA99BF4ED11B16E50A0AB1DBF1156D034BBE04D69D08F939D8E92BF525A1DDAFF80ECBC95D8F45D3FDD289FD23F7D8B452F8EBB34EC082DEEE68E18EDDF072060FAD2AB1504DD4879BF67099FC58F6E9DEFBF645D1633
310
4A3E9A127C6F1AF6132CF287E433B43A0EE93812B4AA0B194E03EE3FF91EF9C6ED0074A2F6EB18A96A7C9890B1FCDA1F2095E944DB911ED54C60DF16FB74C8CE9BDC7C54C4F14078CF73C2FFF1F1BBCCD7CF64F71407EA1683DBC410D226627F66E509060D5C0AFD611DE681D509DB8DD12FB1265B03C6F5C55FF4C30BD941
310
87FF692B4F152982502F193098A789526A038AB529A52BC0DC4FB6285CBAC10A8B8DB75DCD9BDABBB221E27D1F8DA9F5EE5926A1C8AA9BA9BC09239C6A7F12914EA3B59EFF7AAEC3FFCCE56F1C5C2980AD072793527565E774F4631DB178CEEC691B1F367BEA0CF2907E1D6B854D527065979DDEF002D8B2ACEA7CE21AE297
310
737EDE1D45B31233B73FEA35BCFDD0B09721FDBAF6432681F2FD10C3E9EFB246FD6E854B344ACC9D8A0EEF876A7314B49B6A499FC650B099D650DBFEC7638ADFD245E2B7839DA5AC5F7D5623FC0ECEEC8653FC9B2BDD1AD4D00A566FBA7186DD3C9CD26512551637498CADB950FEC71ADB9A5524285DE328B8EC7EC75D2345
310
AEC6A27C42AF6D9B92155315C80DBFCABBB7DA0FAE425C4FB896B15C9BFAC4FE67DF5A23D30C93DA4D8F36FB15D100050DA6062E22AEC5F4DAC4F6FEEF97AE05DE63C6D38F9E068A20BC5E3B6BCD75320C5090924E7F93640A7735B1A43451C2D91EE62C6238B797349E59890AF3A520DF4A87095F3ABEC2E61F0593416CE4
310
6CDCBE0E00E2523FCCD04408588B5B6C9DB6459C786CE378770B54F51DA3A5E1DF2A3349BEAAC234A6CF8993B598B3B25B4B113E353A4D750FA7534749430F3EBF2512E7EA3FD43C6AB9A1F765A58463B306721A15D224FAFE8C6F5E3432D57EE697DA0DD5A9D4866A8BCCAAA9DFF1F06047851408FEC060471D0E3EB86BFA
310
F46E4B5E60311DC3E3CEA147C75CF971BE74689507154FF2D2E92F15CDB2B9182B11459FD8ACAC5A85F174BC94A7F4EE4C4F5CAFA7C02E37BF0BC77B7DCD0C047BC316F562A01A441AFA7931CC84A28CB9F4AA367EB515778F29BFE61195FA671F4352E5E46E3A64773F1F76EE5EB36D7BCE9BCEAD837A4D77F8DB8C92AEEF
310
6711920D7C7D0F76B0FD0EB7AB83724CD35BCA7D36DDDF5FBB7FF6F04A91F3E2BB3B8F1A43CD659639507FF6331C5F697BCC782AE57D757A27D97F1AB9E0AEDB43F92F1B2AACDF5FEC8ADBAF9F814E2027003BA2F9E144B1938A7A04050AE5D953B82C45619165C813A10E76DD6906B3C16438064D14CDA713AEC420034613
310
E1AC7241904A49FBF87409AFB1FCB9B72FE7933A87D8FBEDACECE4EDCF6A4FE9FB94D5DEB74FAB7CFEAE17EE965DF980DCCA2D04134994F9A2E94D2265DA4FE6AA7B7AC15FACAC2B5ABBCD7DFF542C5314FDAB2E1B9D8B65220B8E2B638BE008E8DCA22678C820C5053664D15E89F2D735B51A84955E81A443545E9FF787BE
310
0FA700A76D136C27DA179A7C6E8939E01BE756E19CB292798063D8B97F44E8A27BCF3A614FEB8BE974A718E86F7EC99B53CA35FA24F61F2B07266684623A3D4CF073E511F3A10A8FDAFAF0078C577F4DF9D339FE7862E5FA47CF4344209E5BF76D783B1B48E152AD281B15FCB934DCDA49CEC5706B1EE8B460F435324A5CAD
310
154725E21AB8044B75A557A79F6C807B9340AA3D92503E866F4274412926C8C504E4D5EF8C0E68DD0B028781A6B4054F11CF18941F101C57CCC796773ABC8DED9CD91FE5788806C05E548895354AEAC96546D55B0E94A59F148D061F42AA398D822CDECA4CDE79E13469BDCC44FDC990F366BA5978C15F97ED80CBFD73B0CD
310
9B8B83A4F6845BDFBFAF034019473FB9A63BD55D3A4A7284757071574029A4D016DCCBE95DD679EF3C4880BF169422F8C89B68A988D2B13793CAED4F74DE7486C72DC94DF46B8E93D8E02EFCB1FF9B3BA10C8AE7F653DF94F4AF466CDDCEF5776687F7C4C14B63E4EED1719DC2EC482D7DBCC7AE518CDE3D5FF86D39000EC3
310
673C0044E1D308BF05F74D1B5F033A7D1BE7F74BC55BBE3E4A20F920946CA0271EB17BD2B80E5660ACB8A29A79F5E4BBA49D4D945B6EEF4A7EFEAA65E5555BBB57A7E15D2F83C69F30BBB978D2B39F1F26FC097424D39BB33CA3D87ABF64E307938B685BAD44F71556A30B7E712CA4FE600613C3E554B69ADE949A7CFE214D
310
F1FFF05CB82151EC6FC31950239F94CF7AD39DC473F6EA356E5EC2C4EFA04383CEFE985A127484366FBEE3C0EC4FEA363E4F6632AE781392FD45D67B63FB8DF70E82734F431FD3443172A0E30A83D60982D55FA6A2CF86DBA8382502ACC6CDEF3B907982EED1160E14863FA242F9757347E1544275CCDCF71ECD5F8621CBEA
310
326B8BA884AD7F825781923E66971F04010D574C541D8427A438A37EEF8AF88240EED7362C953F5A81DE2D56109CDE2524EA0F5D2F87308C0C47BD97AD605878AB8589E17CA83930CB5E0DCCD75853D68B1AB136594926DE426C367428E9334AFAFF90ECE221BB5DC9E5BB53D2CDEF954EAA9CD814F0E5725F1965DD458E5F
310
8487683AD86B9D0076BE3EE91EB1CECC5331A67A3F79D8B27587C12EC2A6A70474749F27B4C0BBAFB94B34189E88DC18964BE4121B9137FD516C7755356E50D6714E31ACD222621EBBCD1CFF81D87479056A9DA0E0B8EA19D24CF937DA89F78E8650CCBDC110AAB6C4E46DCBFD0446BA9E2060E81F314AC2031E88135E5476
310
AC0160EF5C0DD2EEF1B8B5CB2D198BE9A554A9093B5F7D7E4B5407DDFCA1D9C152FD97F55BFFFDFE802954DFEC8995B983E28AC92F1971E28F531DC407A1280EB125F64A72E617EFB27DFBCEDCDA2D6F2BDADA36873EE46B9BE1782998C63DA7182BC383FB6FD15DA472B175D7E8B4FC88F38D6E07FEAA3FA3CBB8F6B449EC
310
F14D2175E5C5CCA3A42ABF24CA6C9395AF74535F4DDB38CB84F56614B0FD32D7E19CA5CF988DB4449C40E23DF2B16772594554579094450F56F253CD25EA7F77366FB1CFE79696C428BB64D5A41E986189427E5E4D7E2DAE3D5BB4972B3DC44EAABDDDD63A2264ECFA5C786EB0EE1FDC5BE34FA0F08376869FD1E61EA06CAE
310
15191135445EE8F0394161C3266A596AA035572BB0C8876180D8B9C77D307DF9DCDF7365ABDA6F3A2366436457A4DFC1F259666569A9E4A79C817BDD5610E5200FCE894A358EC72858D50EF67545DA81C6FACE3D457BAF70367E1E6BDD9A952FB4F56247F58F523B97E640246051A72F79BE42FFA0B3187F63097F91C48B86
310
8586F714B0EBD5A00A8412C1236E1298F60C72BE6C96B82B404CADAA304AE9F303176B14BA53FBC2D5E86377E35542019E24D97B96A49B2C0E5006E7795954DEAF5DA58958839043C6C70BD3B1B33B6DC5C31316D8A6923F142E26F6711A2258AF977DDF1F970ECC4F1F2B434B96D81BEB6E89BF3BBB3C7C8CC80505070723
310
D6D7D7D3C8CA27CA164A26024FED94B12A86031867241DA53D929636DA600F050BC40CE48B8BA03D69224720DEE2ED2127390BDF5E6EA64527BBD4C4C63FA76BB801FEEC0E61218EC98A8A86CD8313781617877E66692839B9468CF4DB8E50A73986E558E309C0D6F676F921BE02F1185454DC75B111572FF9D27D85EA14C0
310
5AD7271225B391C4275659CA4A43759D0BA44639BE4C30A84DB7F67A41399FB95CBF923B1B1672ABC807C1590557FB18D811983FA97F5E609516D62281D38B1281F68FC75528C35E4CD7DF0F7DBB5E5DD69C414EBEA2F4A5B241B996BA77AE6C772E367408C633EA3E438B68563EA8BE7667F3A4C4FDEEA52ABD78A2820F44
310
3B7914A15F180018D231E64519C56A12F6CA7C8DAE18F06F6B769DBF92329EF6A5D18FBCE600F36BD8E8198DE5CDAA96181F3A756EBA5501CEE58F497EA4F418A2B82565B9BCC611713C0B708CCA1F398B78C5F7D03B3437CC18F13061F55C7BEDADD5ACB1DB0E36D3CE47FF6EA1A563A57E9649EA5D14D1A50EAA45746338
310
1C073777EF1600607BAF6428A7DDC079D47A204EF1E1F1F0589FB054D45E02CE623B3823C317C601E589E22B1E88B448524B86A82828E32345EC18AE17214B42F8C41C6D428016D9BA31DDCB47572561E5A402E5BA4FCE55F78AF7268524AA04130F3A20BA5D1E9F9948EA48FC8F5314FDB35E21898198060034ACE5E3E2BB
310
CA34092518F275190AF65F45867FF0900AA4B81F25427414C372BF51DC29AA855C5428EE1EEDD6B849AD60F6E73475C2D2523F8A2772C840A478DED18A8C5C91B085F255DC4F54EA7AA8947354FD17ECF8FB3B4A0DE7B483CAF3A1165EE05BBA413E5C1FEF3DE1D6B8F2F3F3251C17D9FCAB48A9AAF63AC773A0E413BBC46A
310
9ADF84A566FC920E4D8C52C9769EE3301CADEEEDD92B312E02E2A7E35B7F1E7D203FE5A7D75578B06E99D0E46FFADB8FDA17ED8880390DA29094202D6F645F76F6F96409CDA05495A96E84B04A00D1A6C6C81D7F3DE9376E828CCF144EE50E364ACCE7237EA0BFB5607ED1AC3CFE73794E5B61739D14DF1743441B1AC98F00
310
ECEDE9E7301FA29755FBEFA68C91EF2B314CF510537EF1ABFC9A762496280B546F5EDAAF8A5B387D469FC9A878A92828C88608453ACEC6094DCA54111E7AD5B2663DFE2DD151B7F123B9F4FEF8EE36AB125FD7AD52A59B1B765B3E3F73E3F73DEA93875004D2AFFE3CDE9493B87A9904DD052028949041A91DC0E1BA47BA71
310
4343FD5B25E0A6A09503AFC17C790058A836A324FE31D7893512E28230332F153181C1E018E1124EBE1BA262AA428A518237D1EA7275E48C5C561BD19ED6912EDD8367DA0F31E40EEAE9683DA9257525AEA7B632B97119E17145A90231768A4F3B9120FF32E8319B015E3CBE26F1A754177D8185345817C096B0CE443A955D
310
13AC15E1FB5DEEA0239EC32A3C92241A237B0B02FFCB4F93CF2B02570C8D192E2F2A68CEEB42F12E6F8CEEFF46C251E22B4341C56FB08CCE550E7A9D6F4D6564B9EA52A83D5BF2C6E03FA19D2775E15A8A7ACF30A13C259EE7F5EF2AC3BA354F1500E1A07FC63FB4686E2F12EC69719F9ECF5FE3F35598DF2CE944008CE78F
310
0911BA5BE5D0A34E0098FF038669C26030BA9B300303039852A8F6F496341737CA7E0D2E3AAA36DE0A70AA7D9CA0D54D9AD84B18A44C9E625475E1C97B93BEBB38DCE7D227E67A2D00F531436136355F243D1FC0D712C5765754FA22FCFFAE97919161F46D6E61ACB37D83777B385889770B50765B127768443A5C4D3A4E35
310
A3151111F146B7CA116F918A049F1C272F2CD7976C69A0068773451659A97E0F4A08FE604C3FF6CE7385DB19F4D3ABC8A0D80DA8A42096AC377DB49382B36E270B6FA7570188B4B7D1DDDDA82ACA487CCA5D38BD3BD039ADBAFA4ACFF27809239B722081E2EB9F145320553D183F28471C388BC8814E5045676767AB58A8E7
310
2D1CED2CA731379515D2E533E4CF0B39DFC625F97AC4836831A4DE330E87A8126FA17EBE583D614E71E22A8DBF2825599743E0640037303E8E1B1E8EA4E1ABFA4F62907B5E4E0E5DCFDAB417C36C6848A2B8D15F1E505434C0707E16B1CFC2A1C36A42BBF55734F8F4301DDC2A5110CEE8C0747F69519265012A2174BF4E95
310
5ECD4FDE095A3ABC70536B7AD0B9D7892F81287D667C108703C9B66A221E9A0929D030008F77FF6F5D2108EF5706FC87A3069B976F7C9FC3239D13D283CDEA83597461079FEEE049B0F392889898B7D87D31F8D60ED7B56B91823A8E4EDDB36C6172ECEE42BD42B12CD67994FA0F0DFAE9389356F4CD4425A4B8AA55CBF7EC
310
D585C6A2C2316791E43D5C06841ADBB226A87FD61515FFBB0167B74E56BD7F3E90A57A97FEDCBDF483A0D6699A8C0849CAEB4947FAA90D8E332D9DEBD9F4738C37DA0CAF9CF3DAA68BCB67C420459C7A64498D6E848E5CADE92BB6901F607AA331104A67F7CD650EE169B1DAE94D2C31C2F993632259B6957E246EFE4C5481
310
107B07118607700040E5812A2A2A38DA0076875258C753F60E0F2662C748EDD5F3F3686B8FC3BD6FE631ECCAA1E8B1C1E565AD117E54893E79F4672E32F9E46B2A183DFDCF3EECB4D4D077DBEA0DA254D256045109670050129E9B9B1A9E4A11344D61497A992778095151510C4BB7EF2009B63AA4360635312E4CF668B7E0
310
D3D85A8688E2BD83B569439892ADB63461930D428E0DE42E4AC57CE48DA5CC1449530D8BD3D6A0F08DF20C8E8F570F2CFFFCEA286E30969B4654D498A58D9DA782E19FE3F002181838925592C4A1EF0B332D88B61A92C644547BED490D3A42CFFAB70E36D961F694F6307F72FF15A1C79D5B1B5CEFD353D9E2B52566DEC8F8
310
F09CB3E8359C0F68EBBB7898243E34E12A015B2685AB303C04D3A9E00671FF3DFF0A184E4A2ABEB2B666AF5B3A209C73D8EF29DCDB069C9F391EEE9DD0F74C7BCDE16F8F02E3B8816122BBEB50665775B600549D8BB33A54A6BF940C028118BC6878C79958D6784F9DEAA6E26748386FFAF8D0D0101E2847B6563F5D8DC1D7
310
8F787BE00E2C941AE12148D4A81599FE8F68D4DA5CDED75530ADE138240300EE13B0FC13A1687FED6774662C05A2B7DFB186732F0D7A93545D8B0A6390AE5054D9CB582DA846D7A061B3358B45E2B52DDE63E114397EDB7E09233A579155D795BE76102CF277F4DF8B188C4F2879BEAE3C08347124BF9ED23B128259FE107D
310
31E34A652F090B30B39E0D9AF917B76A2806135621A8A60681F16AF216514BBD02711585B5B1AE823F4B2D0369EA5B6BCB863072727FFC871CA6C9AB79A814D989057E9470A3D238BC87CBB4A0EA49AFE2B86F22E499793CAA9047080450166BDC357524561E258C77CB697F1ABB32562CF87C3B7AA12F911EF19FB3E5C022
310
22E887D08202A60A17151F5E053A86B437771088B4FEE14D652C43E8D939995D34545E12E2FF93D4E366EAD25F10CB7DED141563C3D0C447AF06078A91135FD4B9611583CB4BF3BD167F2399CEAB0E0100F8FFC305F00F1711717173138B4B48C83022295DE657EFEDD97F238ECA80F528AFB4F8D67AD4E2594B9A3AA86D74
310
87EFC313BA95745C186F0CDD84CC12DC9CB0424B42203D351FD9C0A3AF10CC7F388E0329279087386421F194F4A29464C1DEF7EF8BE515E4A199DCD5B909342598D8FE6A231F71336248D5CEC5454455C7BE383B3BC7B260FED27F703FDC39A170F3827239102F59D4DEE7FEF82EAA1A5E4BA94DCC4CC44E7E2EDE20F24244
310
E4454369D2E87C3F823F193FD4FD27E1C23984B01898D15ABC20711A8A558054951A6AE280096BA36CBA439603B7B0B4C45F248C14B2383B4B5CD8ECECE4FF859AD4A6CA2326D020EF090F4041D28DB66E5256B56232CC52829DE8060BAE6BBF37D4B7469B822454FE93210A3E8D15E69FFCF01123222611C51C4FD0A041A0
310
CFA2471CF6BE38D2B20FA4C3525B5B8B586759475CF80ADFE67A284AC24651E52B8E683D24C2622642F27E7C3C22783BCF63648BC398BD6CD0D9C97E7E7E3EACB6126DB7A6C1FD9F1031302EE67ED96F22B77C7CA0239BB324207559B105E4693EB26EC46182A92C9C0DBD24F29B31C5C5AC1F84300E0E17CEEAC15F5736FA
310
4A98971E2F1423BFCD68D4BBD5F86E74B40A369F39507C88FCDB35D2DD8DEBEA4AF999E23CF2816D204200DF6E611781B9884C1AC8888B4DE397320472959434323A5A36B22A8E1F721A270DF3BD65E4A31C11FF048AFB0D8B7B6881423793963A23CFCE935FC189ED36FAE35C46DA3574C979E4394BE52084F3081837BE03
310
3396D2EBD80F1F691B273F660D2B32FA27A33B1DE4ADA5F0FA4651511102DFA410DDA86E065272CA314D5249DF91B06BB92807B28EFD54F08F7B525252782CD276DD02E6B0319B13DF87B1F6361AD6B28FC0D711CF445429B9E5A433CD493051C49A9E03DDB1B147D880253514A5DED88009018620EE229101C041950E2D8A
310
A8E1F5F5438E0C0C0C60EEDEE9E3E0C051948C69F84BB7B2A48A1F3C8EB9E6864687F4F4F6F6E2FA87608ADAF9C5E117B7C1A737E710769DA1D15ECE6A84502AA855398712D5FB51BE92E4EF824969CE18278798AC303C2C7980DD2500ADF8FB1E6D6C2FAAFF9987178923334A244758BAA01A9A1B70FA5097D01E1CC2A58D
310
AD0EC94CE6430AA9B0C10D75E3C6BAC670EFBADEE1607739CE0FC18A2587E3EC3058562014C64219C69BC269082D5C2F4A659278D585755912176D78A1B641719C2A394CED495A1AC5D583FD2F5EDD93308EA7EAE8A6DD396598BDBD3D4CFED62D18A5BDFDE0DD5C80D1A89BA62697B131AE7CE9A6594138582F1B37D68F17
310
49AC7CB67A70695D48A4A056AC1FBD4E82358CEAE38F54B95A9016F9000F9879C0D9D131768635CA798895F27D6F1614F11F2838A83611AA51C9A3DDB539D42979C29F10465655C17BEC3E2760B80DCBF609198C7B171A531905F3EC218D696025975E986C6B4C666666787271F202805577DD5A3EF0CAFAF91B62DC4B2DB4
310
217A7606282F31D8DDBC290593BAA93EA6353AFA9939B877978481E15CFC9F2755CDC00C538F63A4BA3E80AE009B73CA0185687D339A507D165B74290D6EE46D5C58148F020C3668ABE9EF2F7549170DC80DB41FFC1D678FF19AEB10C7133832B104B80F691B3138F97A92D26E551F1F110400D45AC71A9B9AC41A1A1B1DAE
310
ED0B0810638EFFB511D46B121C6FEA0F38CD00E03CFFEB9713FE1F9C263E4DDEC160D0497FA9A132BA608584057FB15380825DE6C7FC3C667EE947D488A09898D8E939C4953BF4EC9836344D2CC6B2971B2A21A572B06096F4982D2CC7232D46E8EA69DC83722E267754D777F97F96D5DA74E1E75178084D0E70F12AD33E5F
310
71EF2AFA599B2BEBF60A5BE475F444F240CBFE8143C334E7ED9150FEEFEF7EB020C4DBED388DD1D6A167A76F3CBF119B578AE8CFA7736ACAFA4440A1C47185638A0D2F3EB5BDDEFDA958FB13CE4AA4923D5BF840392D45544329525749734866684BF7F8D9D54D892E19BCA9F829A0F8BFCBEEA6CFDFC61D74EA1A645ED7A1
310
FF241739F15694BD835B66FEC5677E40FE69BD3F91AE402F036537218A401CB0828604AD189E575015C6F3F6BBC8AC79CF6C70653847254B31551EFCBEB5978B9DB85D58D0FA41A9DFE9C624834AA04949D24B5AE6D299E072D152D12097920F14AA92C31C3B97E28B6C2E6E9C23D63043ECBBC0A60FDF5BD0C33C127EA8A3
310
308B8B6AFFEB28B4455BF6E7AF4FC6222728357EB8E46E85053E6A8843AB23295BF838ABDA94658FEF3F832F147046B4ACD6F7D48E8FCC9618582961C898D1C7A253C91BFECBDA6BA18A1FCF70755DCCEE2222F41B76D23CA98D0CB3D95F0CF66D57FFF65E2A90F5DF40FC3187621E981BD0BC1D992787212688976B94A8F0
310
C6EF646624B570B78E068826F87CE27041A95C9A4871FF65CC17FCB1639629AD6A9517000D63AC231F3D741CB8430777E7ECF80CE7A3F73C0F162F7E56AA71F4DA80A33CD6ACEE78E2C11FAC03DAFCE929B106F8F6B3ED2DC71FF994BD9CEF4E9A94896EF1B6E2B7B4978168BCF0847A3D2A4F1B0500B926E634B174548E9F
310
BAD27153FB5FC36799B1E6C7C38A94E1F9E996796D7B485E635D5287A2AE76FBD11A341DB3F8F810385BB7296391973DC6C37C452A9305AEBBE0CDB6C566DB59FE60C8E94B1FD090354BF51439FFD1B48D725228FFA88C84F686F547107A7A235665A4593B7C34D748C1AC8D56DD5DA861EEFBADDECBBD65117E65851F9035
310
1AEB65F0EFCFF4BCFEF24CB7A5879699FAC437A7AF9099186CF006BB923A59E37D7A36A29FD8D2CBB914A5E9D0A8FD212FBF796AE9A67958FF1D5D8B85F78F96219D4714EB919929241B6C018AAE0C02069F8D919961EC5DDFBFB7573E3AC8E08BFB7C8534BE6DE045B3CD63DBD71F7638BA2309CAE398EA3A7D8F98BBBC7A
310
EB367EFA5CFA27A9F8F2F52FE878058E6209C026453F8E7E8A237DFC389E9590F6059B397CFD65183BBF936E86896612A5B5FEE49DAC8455D026218AFEBEC12B3523A45B57B82C9C97E02ACFA1184DB18E48CF615DBF39C3CC6F0B4AE6BBEEA2E39D944E290302FA3DE33FA7E40296E2EF7BF1CD855BBECFAD0FD622BEE974
310
6FC4FDFDE545AE6E3BC234CADF83A0FB76DFB145BF3828AE3436368AC24989454F8FF70A177672C711CAA1A76107218CF948CA01F873520E7A2B118EBB161ABAD432932029628B6761590C98AB590C8C8C79798CE9F715BA696E839E9131A4BB68BE923F1747FBFF165331FFDD4D05997ACD168F12CA75348DAC04C7F509FE
310
83898A8B421181AF492861CE81E4A2DD0A30850CFA95E05F097FF70F9E777310D584A75BA7018922E271DAB1D785671157685B7D383D3E074DDB4F1E44EF04B07BAAC75A062077C54B9752C738C9D804D402E02851F3F89605AF189738C18C021D2139EAF72513824E10DDD3047BACC8521ED7E98B257D1166903B1B08FA6F
310
918FD7E162913FEC7D0EF4787E29C35FBA8C6E2C9C20E9AB30AE42CA2A01A090E7D010C1B5BF9CEE2A304BF3A987FB40D836979B79E18D70F257DA61E808472DD85B82761825779D6B90CAEB0F23360C6F80A7D7D77545E95B3DFF0CF96A827F9B5BCECD2C9698718417EF80FEEDEE938AFF55859D0D540B7FE09435583A6F
310
04874A0C7E8CF234DF4879722000167F5872CEC6BF3EF7E5A8CC8121E6A359227C8A29C95212F9F735BC72A887D56B8F309FC525BFB4FD767AAEC4AEFF249CFBBD2DE1AB9969A6155C7D8DABC307E47324C1F916C7BCFF40ABA5644E9FFB9238D19ADADA49D9610F01ABBA57E4DFCBDCCBB2B93C8953206C91DE01B0E2651A
310
6D6C31721915B31F7B7CBCE55466F6D70402788FA91D73BE4ADCBA99A35F17D6B83383704917D6833F0FA3CD45C926ADB8BC17999A4A0AFBCE2541F7B8CF4C2F5FBA611B3E626D64407CB32C122DFF4EF8674D6EDBB86C8F7C6A16D50FA685E2CCA34F8F7D1D8265BB0042E9D7F1F666F7BE5FAA5184DF58E12122A42EF02F
310
461B3F369AC746F96528AD208512AB56844CF75B97F352DF7995024FB02855385854F3798670D01CAC771AC3E1889EC25F61A20C1F8CAB46898817F9C47E2CDA1F286BF2F358298709FE567C91133E2638C8B53975E753EA8BFD3578B5F7186B7BF084EBA3F77BAC3132A5779902EC22AF2D2E79F42D324E083386DAEE9810
310
D1B44A5DAA54513C7A71E52A4AB9257D975B621308FE4D2141CC3DCFE946C154A3C1DFCCA7629EC69ACFA831634ADDA93C0388D2A9A2DDAFCF957C6995BCE7FBB6DC4EBAE79E63EB08E9A25F52F67076F7093CA545CA3053B5BF576DEAD4E0017143C5F759F32B2D6F145B52B67B48909B7C7FCA6586EE385A2189C16932CB
310
6DDFD9152AE317C430492A578ED27B72D85D40C7C93C097939E1B50F4D67F05334FE9DC362C30B7FF561B95259138ECFD9274C8D695C31B14D4EAA9F3D7FA8DDF652F8C5DEFA23284C799B7D94416DEE81E05A866302DC70192A5368EA65E1CED8BF107A1E2D3119A71E85DC1A7B0C1E93274CE04DD0F2ABC8AC7C987FDB00
310
2B6F81757B43502EF7A0D92E416494FAEEA4C9C090CD9557AA4D532F4996A272B94355C5A0E4974EEA9627476F30809B94D8D8D860062E02204643BEC7D0438AF800FC7E2B26955D595421E83C69E1A07E0E3122285835F014AD538188CF9737CE76D464A353FA55A001AB2526B84E985083693BC76FE211CA1D000679C889
310
E3C009832C87E1AC2EDD05C302557422DF0800E316FCAC86978A371F025A6C7DAA9F333E7BD160403A1A06EA75AA9888FF01504B0304140006080800CE818E5051464CB48900000043010000360000006662782F39433339323233462D323041462D343437332D413936432D3437394641314237463638362F646972656374
310
6F72792E786D6C9D8F310EC2300C45AF127987122606C71DD918B841D4B851A43646695A717C52A85029031293A5A76FBF6FACEF7DA7264E43906840EF0FA03836E242F406C6DCEE4EA06AC22492573150D1F66C60C640E8938CB705396EEDD86DE9B5042FE27813D640EA63BB001C722AF6E55CB61E4863F58284D5D3F53D
310
D715CE1C3985E63FD7F1B7EBDD617E9F1E504B0304140006080800CE818E50A1A3AA2543070000541C0000340000006662782F39433339323233462D323041462D343437332D413936432D3437394641314237463638362F6F626A656374732E786D6CDD595B6FE23814FE2B56F665F7210949B88E28230A4385469D190D9A
310
D5BE452618EA6D6E729296EEAFDF63C70E711A209D8BB4DA562AD4B18FCFF9CEFD64FAFE1885E889B08C26F18DE1583D0391384876343EDC1845BE37C7067A3F43539624796D9F81621C911B832F1BB3E98125452A9776648F8BB0B9BABAFD0B6501898981821067D98D91050F24C2162EF26447B2476B87736C1DF647CBB1
310
CA8D3AD903C3E943E3AA143312E7C02AACC7404572E0E8FF8248F66C6AF30DDA36AFDB36F7C2365B08AE334AE32CC771F08AABC675EE19AE1AD7794E7FF9C11D4CCC41BFEF99FDA1EB98B7ABDBA5E98CBCDE62B8584CE61F26069A4DB74912560A4849BC032DBE1833676AF32795F8128536BE83248E4920D16CDBB023922E
310
255913130D584788565348296B6DC1EB28FC996D9D40D158D2D056C2A9CFBAF526DBBF0184AC8B95B28C702BCF7206BA96D897FED09BDAE5AAA6179AA108E784511CA2906E1966A020D85A2A4823C3BD8593421C33A14545AFCE2B18F6755F6AE3725F8421F75F63263CCD077F24792638A3FF1076E2BE7E1BF004D21634CE
310
C752D8FC25051293A92D16CB679E2B1F9640A27D880F602D2026DFE4B90DBC163C16AC97C6ECE36A7BDCF0F8D07E79CA9294B09C5B9E7066E9774A8335D302E3EB004A89ABAEBB132A5F01FA4F807CC50B9A82E6183DF68F7D253BC371B64F5804DA413D64F6E04F0FF1AFAFBE4DEDEAF00C212D569EC314DCF62761AA89A1
310
DD5D8374367D02A34F982785DB0438049BBEA731F77330141426B004F17EBF3D1AB33504535884533804E9E1776AF3AF083E4A3A106F1A1A6A0BBF1D14A51CA6E967275DDD81CD301A54AAD2643C87EFE0A7E03B5F6E3E6E0AB6C701B9978EBD247B1AD31C92693B431AE89ACB7F5B7F121E7917265B1C9E4E6B9B02B8E690
310
F0B8D1A2968D540B127A014E781A2E352356EE29787B18E298244526D7DBE254908409F3B72F7EE9C2AD77FDA96CA0BC4C1A406B2C83E41E309A724C8C99D4561508AD9AA0606198490B3C945AF5B74594FA384A8A9887DAD7A6D8E403E20CB744A02AA829C3565EABC8EEE87E5F6410BC5A492E3420A53F2BC2A585F7218E
310
B5F1CBC89E6148A249EC53C8C1E02CAD37681754E05DE63923E1DEA7615844FE9E869047FC08A767E87794A09EB91EC9CB73C276AD0475CB523EA96C88032E815520A96C55C67CA953469E282F33453E53D940DB21EB5063D63F932E78A668015419A330F3F9D89978E3D1DC5C4D3EACCCBE371F9AE3A5BB3207236FECF657
310
A3E1D0759B7CAA6855CF77A04A5EE668FE973F14D136C63484075C6CBC4BDFBD17D9F3C686D0684F16DEC475BD95E9F6E670777FE499F3C97061F64793D5DCB91DAD86E3A1CD4896142C2099EDDA3D5F99641A1FCE71A5B87B1D43A1ACB99EEC94BE9AC2FC8F63683327684AFCAF06D12A76B514845D83283FDA0CA13878E4
310
29CA0FA0EA6B759F46106DF2D116E7DE18977B96D7133F8E33717B13773C190C3A863D71D30F47BA361902E83C8BDC4F521CD0BC3DA53690E9C8F29BB28BE53983121BF5D77511E0D579B562EA7266924CF934C207E2EF31EF2B5A42E935895BB3DE214CB28CC624137DE1AB7AB141B36741F9A567E916B3A5991F911C7F8F
310
C58A46A3E10510CD431F3AD89CCF10AED611950BC89EE51C45DE2F43AA17F2BFF8198ED2B0EC8DAF61E054294875456D16CA99E6573C817DFA38F77B3B22461DD7A857ECAB8AA2556B4DEA93EF267F061E5509FD4278D415DD8B2D6BE04CF8CF18C2D070E078C351A58A6B68A9CB72DEFB850574ABC18BFF4CE8E1A15371DA
310
4D2BB532AF2CC4731241EB8BF38275F2D8214493A67BC9C8D07089DA4D6F2C2845CFA7BA3EB84C347DE74AE2DA3550BBD21866639D04792545AB110B5D8839201F77BDC1B32F2ABB4EF58723E62FAFB2EBEE178981D1751CA0C22E43B08C3F5A1DDE5AA96B3554F68CF30042E9467C9AB7E0113BB23B35731AB9B6B25ED5B4
310
D72AEE350FA9114C79318FB4F7FC4BF81583AAA1E3CEECBBB2D0B3CBF5354F6D160CB44F7C684CEBB43EDF6D1A5460A5F3E92F1C23F2DCA0205717BC83BE40EADBFA3427685090127D5B5F38FE9FE84294026BA337982067494861904F76E84012C8DF30AAE8D0A1B08864222F83F1CA20A5DE227438FD54CE6173BC0DD5E9
310
E001C3303B94FD5B11C0201572E68D21D7D16F303AE5D34B31D0B21EA1759331CC4005A33706586C4EA143B3B6300213034741BD31E204C7C6F18167FCF254F5FFE9184707A2D249AE6A4F175CA4649A3341299C8A770B50F7950F66D3EF175DB183700E5FB7455E09735A38492341502F114AE16052F828E13D424971592E
310
C7127B34483A4DF32FDA4149D5CC313B88917C0DEFF9F28BCDA7E9EBCF280D8B0357E7A58E59A364F24E3D2CCAC9D5140C438A99625E452EDED95F5802AFA522B4A26004E8F7E378F887BD48A22889CB257B2E5F6EA1CD03BCAADAD96A4C08AD7FCF19DB6272205F05F85B9C110BEFB2475800D532CAE7A925C49A0154D1B4
310
66004A235C17704CDBBF5E22591DD5A62AF5B0CBE111EF011038127FFFC3DDA6BEA136B4045F00AEC4C3D317B530B5190CCE67FF02504B0304140006080800CE818E5004876EFFE1000000550100003C0000006662782F39433339323233462D323041462D343437332D413936432D3437394641314237463638362F726573
310
6F75726365732F322F636E782E786D6C4D90CD6A042110845F6510721C7F8621248BE3BEC49E72598CF64E64D51EFC09C9DB47370672EAA6EAA3A92E79FE0A7EFA84941DC68D08CAC904D1A07571DF482DB7F9854C67251362F9879129EA001BE93251724F588F2159B8E9EABBEA5DBC0F915F7788909CB91E712793F13AE7
310
8D64F30141535D0B5AC8776A75D154D004196B32D04E1417609C300974014BD4C2173EF37516EB453C9FC47A5A5EDF24EBA492EF887EF02E1648783C2DDC605B634BC425EB809235B941F5379AF1178FB67892355BC95C52EB6060E5FB68980B7A07F6407E5D25597FB28D47036DF642D40F504B0304140006080800CE818E
310
50FF15A4A45D000000800000003A0000006662782F39433339323233462D323041462D343437332D413936432D3437394641314237463638362F7265736F75726365732F636E782E786D6C4D8B3B0E80201005AF42B6F75B59F0390B113044D83508C6E30BC6C26AF226F3B8BA6360974DA7271430F523308B2B198F9B8092
310
5DB700539227A2FCCB80A18E5640D320F996A81C9F32D6E9129A0D1EF74FCE750E6D57BC7165FBCA07504B0304140006080800CE818E5074495F7C4201000056050000300000006662782F39433339323233462D323041462D343437332D413936432D3437394641314237463638362F636E782E786D6CCD94C14A03311086
310
5F650978DCCDEE52444B36050F3E8107F196CD4ED7D86CB22413B16F6F52D35691A287427B0B932FF0FF337F86AD3E265DBC83F3CA9A8E34554D0A30D20ECA8C1D09B82EEF48B1E2CC598BDF305218314147529970363A1BE65C1A602D824E55ADCC261705A2537D40F0A4905A78DF112F5F611295086807F09B6A1028AAA6
310
72E06D7012E27B5413E4F7D2814018086FEBB62EEB45D92C9E9ADB65B358B6F72F8C2692B3DE5A9D7965109C9D6FDA5ADA7834514ECD6802380B4E652A7920FCA8ADEA956134DE73E6A35E33660EB773E2E6592B2930368A5A89806584404C8C7EC19CD1E4F887EFC787E7A386781A940389D66D2FD686E6541B0ED2AA9888
310
FF756107FE65DEF66FD1F2E5E67ED270167636BBFBE4FA18DDDF4988791266D4D7F8010ED2CE9FFFB85850C96B34BD577626CF74B702E3E0D346E49F504B0304140006080800CE818E500BAE1E1F7E000000A30000000B0000006662782F636E782E786D6C4D8CD10A832018465F45FE7BB752D1042B5CE07BC4B290990E97
310
638F3F1D5DECEA83C3778E1A3FBB476F9B5E2E861EDA4B03C8867B5C5CD87AC8C78A3B40E3A0528CC7DF0D509877DB43C530A82DC5FC3CD162D739FB4ABD0B8F13CA894A42A8C1A4D106332628D6924F980969747B138677BC18D7AA94F9F5CAD6FCF005504B0304140006080800CE818E50A6D797065F0000008200000007
310
000000636E782E786D6C4DCB3B0E80201045D1AD90E9FD7516806B51190811670C8A61F982B1B0BAC9C97B72CA7B1037C6D3332918DA1E04D2CAC69353902EDB8C20262D23F3F59B81A079470595414B17391D1F19B4730A5583A7ED43BBE4025D9592775E5ADFFA01504B0304140006080800CE818E50ECFD112DA8000000
310
26010000130000005B436F6E74656E745F54797065735D2E786D6C7D4F4B0EC22010BD0A61DF525D18634ABB506FE00510A79458060253536F2FD89D5197F3FED3F68B9BD80362B21E25DFD40D6780DADF2C1AC9671AAA3D677DD75E9E0112CB5A4C928F44E12044D22338956A1F003333F8E814E5331A1194BE2B0362DB34
310
3BA13D122055543278D79E6050F344ECBC6478EDCD76CE8EABAE5449AE4298AC56946789C28AAFBEABC53F3EAF09A84A1441B91F0101CD4780756578C173A578FFDDBD00504B0304140006080800CE818E503DEE336E64000000790000001B0000006175746F6465736B2D64657369676E2D7061636B6167652E786D6C35CB
310
C10E83200C00D05F21DCA56CA76D41FC96062B120735B69A7DBE268BB7777961F8D5AF396893C2ADB70FE7ADA196782C2DF776D7A97B5933C430F15651E5469C55D70F80A4992A3ADC954792C525AE70A1E4D6AD9816CC044FEFDF01FE3FDE907802504B0304140006080800CE818E5003FD789CF40000008E0100003D0000
310
006662782F39433339323233462D323041462D343437332D413936432D3437394641314237463638362F7265736F75726365732F322F636F72652E786D6C8550CB6EC32010FC156BEFD8E0F8514798C84DEA2FE8A9378489831283C5A3EAE71762576A4FBDECAE86995976E8E96B79649FD23A65740F24C790492DCCA4F4DC
310
43F057F402D989516B8CFF45834CF345F690606074B626AC3B248CF65227549B49EE20774E7AC8C4230E3D3871930BCF79F091E1EEF9CAC59DCF3227F9C663340435ED523545377555D2026BBACB79786D6B5437438BAA4335A2616C6369EBF10D9F5B7CE96A5A2431A35E2D3FDB8595DCCB0958894B8C708548F54E9A23A9
310
8E65F7418BC464D4791B6FDE97A6EB229D161BFAC72DACD3FF6E41697F2877B74DE18091F8B9E703A3454A27B66774B1A724D937504B0304140006080800CE818E50D03EAAB8F9000000960100003B0000006662782F39433339323233462D323041462D343437332D413936432D3437394641314237463638362F7265736F
310
75726365732F636F72652E786D6C8550CB6E833010FC15B477C0101E25328E6852BEA0A7DE2CB32156828DFCA8FAF9B50395DA532F5E6B76667677E8E96B79249F68ACD4AA87222390A0127A926AEEC1BB6BFA02C98951A3B5FB458344F1057B8830303A1BEDD71D125A395411557AC21DE4D6A283443CC2A7072B6EB8F08C
310
7B1718F69EAD5CDCF98C59916D3C46BD97D32E9553709357890658D35DCEC36B5BA77533B46975A8C67418DBF0B4F5F846CE2DB97435CDA3985127979FE9C2207738012B49495252A545F55E34C7A23A96DD07CD239351EB4CB8791F1AAF0366D06A6F045A9A6FDD3FAE7E9DFE77F552B943B9BB6E0A0BAC084B3E1B8CE631
310
A5509E11861A1365DF504B0304140006080800CE818E50450F2A29F2000000B1010000310000006662782F39433339323233462D323041462D343437332D413936432D3437394641314237463638362F636F72652E786D6C8D50CB6EC32010FC156BEFD806233B8E30911BC95FD0536F08131725068B47D5CF2FC4AED4DE72
310
5A343BC3CC0EBB7CAF8FE24B39AFAD1900973514CA483B6BB30C10C30D9DA0B870E6AC0D7F685018B1AA01320C9C2DCEC6ED80A43541998C1A3BAB0314DEAB00857CA4C7005E7EAA55942286C4F0F77213F22E1655E272E77116F4FA2B954E89A066E0A42635AA29C2F41DB7674CCFA4FF6055667216A39E0F2B3D27777DD3
310
CA01EFAF4D4F483321528F13A2B46BD0D8B75744BB7E1AF15B37B5A7965559CC990F2EDD7C7C92AF7B55BE0BFF658EDBFC42666D42430EC35DE181E394E7B9E0ACCA05A6F16C37CD5C36FF01504B0304140006080800CE818E50FEAED6CD54010000DD0200000C0000006662782F636F72652E786D6C8D52CB6E833010FC15
310
E43BCF406822E3284D9A2FE8A937C738C40AD8C8D8289FDF350F510E4D2B2463CDEECEEC8C8C0FCFA6F67AAE3BA16481E220421E974C95425605B2E6E6BF21EF40B056CAFC68439EA40D2F908311C19556B69D20A6A4E1D2A152957C0269D771833C56C3A5401DBBF38606D41AE8E81E414BD983563C8883B18F606B45398D
310
8A12D8C44D708DC876773E1DDFF3CCCFB6C7DC4F37E9C53F5E7238F2ECF2119DF2E8BCCB70E8860936A299D599E6D4F01291244A223F4AFD38FD8CB7FB38DD27BB2F1CBA4E823BA3C1F324EADC2172BB3E7138E22B3EDB967FF35921CD2699F8C6890E9118D61B0A04872E1FF80DE1AD330461C8CFD06B3D5B7800D4736694
310
4EA1522ABB947A5A5B0ED491377C381CABC03C10FCC693BCE079CD01415159C16AD4C0F56A8D535FEFD472EDF7E6E949A51B5A2FCB8D2B2EE722B4B2348F33552BFD9FE9D9EA1C66E81E26F906504B0304140006080800CE818E50B9EAAEC409010000B201000008000000636F72652E786D6C8D50CB6E833010FC156BEF80
310
213C4A641CD1A47C414FBDB9D8A156C0467E44EDDFD70E546A6FBD78AD99D99DD925A7CF65467761ACD4AA833CC580841A35976AEAC0BB6BF204E84489D1DAFD9201526C111D441828998CF6EB0E8D5A39A122AA34173BC8AC150ED038874F0776FC100B4B997741616FE9CAC61B9B449AA79B8E1227979FD6D108E604075A
310
E00227B84CF2F235AF8F79792CDA3792452525DE4BBE5B491EDCE5550A03B46E2FE7FEB9A992AAEE9BA43C9443D20F4D789A6A78C1E7065FDA8A64B19912EB4CD8791F12723A64D93DFA926CA32879D77ADE052114475ACD5F4031C922F127B45FF93F424BE50EC53E70EBB040F310E84104E378C1501EE70D355E9B7E0350
310
4B01021400140006080800CE818E500000000000000000000000003700000000000000000000000000000000006662782F39433339323233462D323041462D343437332D413936432D3437394641314237463638362F617474726962757465732E62696E504B01021400140006080800CE818E500000000000000000000000
310
003500000000000000000000000000550000006662782F39433339323233462D323041462D343437332D413936432D3437394641314237463638362F76657274696365732E62696E504B01021400140006080800CE818E50F270F13306000000040000003600000000000000000000000000A80000006662782F3943333932
310
3233462D323041462D343437332D413936432D3437394641314237463638362F747269616E676C65732E62696E504B01021400140006080800CE818E5088E57597CD3F0000904100004200000000000000000000000000020100006662782F39433339323233462D323041462D343437332D413936432D3437394641314237
310
463638362F7265736F75726365732F322F305F67656E657269632E706E67504B01021400140006080800CE818E5051464CB4890000004301000036000000000000000000000000002F4100006662782F39433339323233462D323041462D343437332D413936432D3437394641314237463638362F6469726563746F72792E
310
786D6C504B01021400140006080800CE818E50A1A3AA2543070000541C000034000000000000000000000000000C4200006662782F39433339323233462D323041462D343437332D413936432D3437394641314237463638362F6F626A656374732E786D6C504B01021400140006080800CE818E5004876EFFE10000005501
310
00003C00000000000000000000000000A14900006662782F39433339323233462D323041462D343437332D413936432D3437394641314237463638362F7265736F75726365732F322F636E782E786D6C504B01021400140006080800CE818E50FF15A4A45D000000800000003A00000000000000000000000000DC4A000066
310
62782F39433339323233462D323041462D343437332D413936432D3437394641314237463638362F7265736F75726365732F636E782E786D6C504B01021400140006080800CE818E5074495F7C42010000560500003000000000000000000000000000914B00006662782F39433339323233462D323041462D343437332D41
310
3936432D3437394641314237463638362F636E782E786D6C504B01021400140006080800CE818E500BAE1E1F7E000000A30000000B00000000000000000000000000214D00006662782F636E782E786D6C504B01021400140006080800CE818E50A6D797065F000000820000000700000000000000000000000000C84D0000
310
636E782E786D6C504B01021400140006080800CE818E50ECFD112DA80000002601000013000000000000000000000000004C4E00005B436F6E74656E745F54797065735D2E786D6C504B01021400140006080800CE818E503DEE336E64000000790000001B00000000000000000000000000254F00006175746F6465736B2D
310
64657369676E2D7061636B6167652E786D6C504B01021400140006080800CE818E5003FD789CF40000008E0100003D00000000000000000000000000C24F00006662782F39433339323233462D323041462D343437332D413936432D3437394641314237463638362F7265736F75726365732F322F636F72652E786D6C504B
310
01021400140006080800CE818E50D03EAAB8F9000000960100003B00000000000000000000000000115100006662782F39433339323233462D323041462D343437332D413936432D3437394641314237463638362F7265736F75726365732F636F72652E786D6C504B01021400140006080800CE818E50450F2A29F2000000
310
B10100003100000000000000000000000000635200006662782F39433339323233462D323041462D343437332D413936432D3437394641314237463638362F636F72652E786D6C504B01021400140006080800CE818E50FEAED6CD54010000DD0200000C00000000000000000000000000A45300006662782F636F72652E78
310
6D6C504B01021400140006080800CE818E50B9EAAEC409010000B2010000080000000000000000000000000022550000636F72652E786D6C504B050600000000120012002D060000515600000000
  0
XRECORD
  5
C51
102
{ACAD_REACTORS
330
C4C
102
}
330
C4C
100
AcDbXrecord
280
     1
270
     1
271
     1
  0
XRECORD
  5
C50
102
{ACAD_REACTORS
330
C4C
102
}
330
C4C
100
AcDbXrecord
280
     1
270
     1
271
     1
  0
XRECORD
  5
C52
102
{ACAD_REACTORS
330
C4C
102
}
330
C4C
100
AcDbXrecord
280
     1
270
     1
271
     1
  0
XRECORD
  5
C4F
102
{ACAD_REACTORS
330
C4C
102
}
330
C4C
100
AcDbXrecord
280
     1
270
     1
271
     1
  0
XRECORD
  5
206C
102
{ACAD_REACTORS
330
206B
102
}
330
206B
100
AcDbXrecord
280
     1
102
DISPLAYNAME
  1
Imperial24
102
FLAGS
 90
        0
  0
CELLSTYLEMAP
  5
2038
102
{ACAD_REACTORS
330
CAA
102
}
330
CAA
100
AcDbCellStyleMap
 90
        3
300
CELLSTYLE
  1
TABLEFORMAT_BEGIN
 90
        5
170
     1
 91
        0
 92
    32768
 62
   257
 93
        1
300
CONTENTFORMAT
  1
CONTENTFORMAT_BEGIN
 90
        0
 91
        0
 92
      512
 93
        0
300

 40
0.0
140
1.0
 94
        5
 62
     0
340
11
144
0.25
309
CONTENTFORMAT_END
171
     1
301
MARGIN
  1
CELLMARGIN_BEGIN
 40
0.06
 40
0.06
 40
0.06
 40
0.06
 40
0.18
 40
0.18
309
CELLMARGIN_END
 94
        6
 95
        1
302
GRIDFORMAT
  1
GRIDFORMAT_BEGIN
 90
        0
 91
        1
 62
     0
 92
       -2
340
0
 93
        0
 40
0.045
309
GRIDFORMAT_END
 95
        2
302
GRIDFORMAT
  1
GRIDFORMAT_BEGIN
 90
        0
 91
        1
 62
     0
 92
       -2
340
0
 93
        0
 40
0.045
309
GRIDFORMAT_END
 95
        4
302
GRIDFORMAT
  1
GRIDFORMAT_BEGIN
 90
        0
 91
        1
 62
     0
 92
       -2
340
0
 93
        0
 40
0.045
309
GRIDFORMAT_END
 95
        8
302
GRIDFORMAT
  1
GRIDFORMAT_BEGIN
 90
        0
 91
        1
 62
     0
 92
       -2
340
0
 93
        0
 40
0.045
309
GRIDFORMAT_END
 95
       16
302
GRIDFORMAT
  1
GRIDFORMAT_BEGIN
 90
        0
 91
        1
 62
     0
 92
       -2
340
0
 93
        0
 40
0.045
309
GRIDFORMAT_END
 95
       32
302
GRIDFORMAT
  1
GRIDFORMAT_BEGIN
 90
        0
 91
        1
 62
     0
 92
       -2
340
0
 93
        0
 40
0.045
309
GRIDFORMAT_END
309
TABLEFORMAT_END
  1
CELLSTYLE_BEGIN
 90
        1
 91
        1
300
_TITLE
309
CELLSTYLE_END
300
CELLSTYLE
  1
TABLEFORMAT_BEGIN
 90
        5
170
     1
 91
        0
 92
        0
 62
   257
 93
        1
300
CONTENTFORMAT
  1
CONTENTFORMAT_BEGIN
 90
        0
 91
        0
 92
      512
 93
        0
300

 40
0.0
140
1.0
 94
        5
 62
     0
340
11
144
0.18
309
CONTENTFORMAT_END
171
     1
301
MARGIN
  1
CELLMARGIN_BEGIN
 40
0.06
 40
0.06
 40
0.06
 40
0.06
 40
0.18
 40
0.18
309
CELLMARGIN_END
 94
        6
 95
        1
302
GRIDFORMAT
  1
GRIDFORMAT_BEGIN
 90
        0
 91
        1
 62
     0
 92
       -2
340
0
 93
        0
 40
0.045
309
GRIDFORMAT_END
 95
        2
302
GRIDFORMAT
  1
GRIDFORMAT_BEGIN
 90
        0
 91
        1
 62
     0
 92
       -2
340
0
 93
        0
 40
0.045
309
GRIDFORMAT_END
 95
        4
302
GRIDFORMAT
  1
GRIDFORMAT_BEGIN
 90
        0
 91
        1
 62
     0
 92
       -2
340
0
 93
        0
 40
0.045
309
GRIDFORMAT_END
 95
        8
302
GRIDFORMAT
  1
GRIDFORMAT_BEGIN
 90
        0
 91
        1
 62
     0
 92
       -2
340
0
 93
        0
 40
0.045
309
GRIDFORMAT_END
 95
       16
302
GRIDFORMAT
  1
GRIDFORMAT_BEGIN
 90
        0
 91
        1
 62
     0
 92
       -2
340
0
 93
        0
 40
0.045
309
GRIDFORMAT_END
 95
       32
302
GRIDFORMAT
  1
GRIDFORMAT_BEGIN
 90
        0
 91
        1
 62
     0
 92
       -2
340
0
 93
        0
 40
0.045
309
GRIDFORMAT_END
309
TABLEFORMAT_END
  1
CELLSTYLE_BEGIN
 90
        2
 91
        1
300
_HEADER
309
CELLSTYLE_END
300
CELLSTYLE
  1
TABLEFORMAT_BEGIN
 90
        5
170
     1
 91
        0
 92
        0
 62
   257
 93
        1
300
CONTENTFORMAT
  1
CONTENTFORMAT_BEGIN
 90
        0
 91
        0
 92
      512
 93
        0
300

 40
0.0
140
1.0
 94
        2
 62
     0
340
11
144
0.18
309
CONTENTFORMAT_END
171
     1
301
MARGIN
  1
CELLMARGIN_BEGIN
 40
0.06
 40
0.06
 40
0.06
 40
0.06
 40
0.18
 40
0.18
309
CELLMARGIN_END
 94
        6
 95
        1
302
GRIDFORMAT
  1
GRIDFORMAT_BEGIN
 90
        0
 91
        1
 62
     0
 92
       -2
340
0
 93
        0
 40
0.045
309
GRIDFORMAT_END
 95
        2
302
GRIDFORMAT
  1
GRIDFORMAT_BEGIN
 90
        0
 91
        1
 62
     0
 92
       -2
340
0
 93
        0
 40
0.045
309
GRIDFORMAT_END
 95
        4
302
GRIDFORMAT
  1
GRIDFORMAT_BEGIN
 90
        0
 91
        1
 62
     0
 92
       -2
340
0
 93
        0
 40
0.045
309
GRIDFORMAT_END
 95
        8
302
GRIDFORMAT
  1
GRIDFORMAT_BEGIN
 90
        0
 91
        1
 62
     0
 92
       -2
340
0
 93
        0
 40
0.045
309
GRIDFORMAT_END
 95
       16
302
GRIDFORMAT
  1
GRIDFORMAT_BEGIN
 90
        0
 91
        1
 62
     0
 92
       -2
340
0
 93
        0
 40
0.045
309
GRIDFORMAT_END
 95
       32
302
GRIDFORMAT
  1
GRIDFORMAT_BEGIN
 90
        0
 91
        1
 62
     0
 92
       -2
340
0
 93
        0
 40
0.045
309
GRIDFORMAT_END
309
TABLEFORMAT_END
  1
CELLSTYLE_BEGIN
 90
        3
 91
        2
300
_DATA
309
CELLSTYLE_END
  0
XRECORD
  5
206A
102
{ACAD_REACTORS
330
CAA
102
}
330
CAA
100
AcDbXrecord
280
     1
102
ACAD_ROUNDTRIP_PRE2007_TABLESTYLE
 90
      512
 91
        0
  1

 92
      512
 93
        0
  2

 94
      512
 95
        0
  3

  0
XRECORD
  5
2045
102
{ACAD_REACTORS
330
2044
102
}
330
2044
100
AcDbXrecord
280
     1
102
RTVSPost2010Prop28
280
     1
102
RTVSPost2010PropOp28
 70
     1
102
RTVSPost2010Prop29
280
     1
102
RTVSPost2010PropOp29
 70
     1
102
RTVSPost2010Prop30
280
     0
102
RTVSPost2010PropOp30
 70
     1
102
RTVSPost2010Prop31
280
     0
102
RTVSPost2010PropOp31
 70
     1
102
RTVSPost2010Prop32
280
     0
102
RTVSPost2010PropOp32
 70
     1
102
RTVSPost2010Prop33
280
     0
102
RTVSPost2010PropOp33
 70
     1
102
RTVSPost2010Prop34
280
     0
102
RTVSPost2010PropOp34
 70
     1
102
RTVSPost2010Prop35
280
     0
102
RTVSPost2010PropOp35
 70
     1
102
RTVSPost2010Prop36
280
     0
102
RTVSPost2010PropOp36
 70
     1
102
RTVSPost2010Prop37
 90
       50
102
RTVSPost2010PropOp37
 70
     1
102
RTVSPost2010Prop38
140
0.0
102
RTVSPost2010PropOp38
 70
     1
102
RTVSPost2010Prop39
140
1.0
102
RTVSPost2010PropOp39
 70
     1
102
RTVSPost2010Prop40
 90
        0
102
RTVSPost2010PropOp40
 70
     1
102
RTVSPost2010Prop41ColorIndex
 90
       18
102
RTVSPost2010Prop41ColorRGB
 90
-16777216
102
RTVSPost2010PropOp41
 70
     1
102
RTVSPost2010Prop42
 90
       50
102
RTVSPost2010PropOp42
 70
     1
102
RTVSPost2010Prop43
 90
        3
102
RTVSPost2010PropOp43
 70
     1
102
RTVSPost2010Prop44ColorIndex
 90
        5
102
RTVSPost2010Prop44ColorRGB
 90
      255
102
RTVSPost2010PropOp44
 70
     1
102
RTVSPost2010Prop45
280
     0
102
RTVSPost2010PropOp45
 70
     1
102
RTVSPost2010Prop46
 90
       50
102
RTVSPost2010PropOp46
 70
     1
102
RTVSPost2010Prop47
 90
       50
102
RTVSPost2010PropOp47
 70
     1
102
RTVSPost2010Prop48
 90
       50
102
RTVSPost2010PropOp48
 70
     1
102
RTVSPost2010Prop49
280
     0
102
RTVSPost2010PropOp49
 70
     1
102
RTVSPost2010Prop50
 90
       50
102
RTVSPost2010PropOp50
 70
     1
102
RTVSPost2010Prop51ColorIndex
 90
      256
102
RTVSPost2010Prop51ColorRGB
 90
-16777216
102
RTVSPost2010PropOp51
 70
     0
102
RTVSPost2010Prop52
140
1.0
102
RTVSPost2010PropOp52
 70
     0
102
RTVSPost2010Prop53
 90
        2
102
RTVSPost2010PropOp53
 70
     1
102
RTVSPost2010Prop54
  1
strokes_ogs.tif
102
RTVSPost2010PropOp54
 70
     1
102
RTVSPost2010Prop55
280
     0
102
RTVSPost2010PropOp55
 70
     1
102
RTVSPost2010Prop56
140
1.0
102
RTVSPost2010PropOp56
 70
     1
102
RTVSPost2010Prop57
140
1.0
102
RTVSPost2010PropOp57
 70
     1
102
RTVSPropertyOp0
 70
     1
102
RTVSPropertyOp1
 70
     1
102
RTVSPropertyOp2
 70
     1
102
RTVSPropertyOp3
 70
     1
102
RTVSPropertyOp4
 70
     1
102
RTVSPropertyOp5
 70
     1
102
RTVSPropertyOp6
 70
     1
102
RTVSPropertyOp7
 70
     1
102
RTVSPropertyOp8
 70
     1
102
RTVSPropertyOp9
 70
     1
102
RTVSPropertyOp10
 70
     1
102
RTVSPropertyOp11
 70
     1
102
RTVSPropertyOp12
 70
     1
102
RTVSPropertyOp13
 70
     1
102
RTVSPropertyOp14
 70
     1
102
RTVSPropertyOp15
 70
     1
102
RTVSPropertyOp16
 70
     1
102
RTVSPropertyOp17
 70
     1
102
RTVSPropertyOp18
 70
     1
102
RTVSPropertyOp19
 70
     1
102
RTVSPropertyOp20
 70
     1
102
RTVSPropertyOp21
 70
     1
102
RTVSPropertyOp22
 70
     1
102
RTVSPropertyOp23
 70
     1
102
RTVSPropertyOp24
 70
     1
102
RTVSPropertyOp25
 70
     1
102
RTVSPropertyOp26
 70
     1
102
RTVSPropertyOp27
 70
     1
102
RTVSPropertyOp28
 70
     1
102
RTVSPropertyOp29
 70
     1
102
RTVSPropertyOp30
 70
     1
102
RTVSPropertyOp31
 70
     1
102
RTVSPropertyOp32
 70
     1
102
RTVSPropertyOp33
 70
     1
102
RTVSPropertyOp34
 70
     1
102
RTVSPropertyOp35
 70
     1
102
RTVSPropertyOp36
 70
     1
102
RTVSPropertyOp37
 70
     1
102
RTVSPropertyOp38
 70
     1
102
RTVSPropertyOp39
 70
     1
102
RTVSPropertyOp40
 70
     1
102
RTVSPropertyOp41
 70
     1
102
RTVSPropertyOp42
 70
     1
102
RTVSPropertyOp43
 70
     1
102
RTVSPropertyOp44
 70
     1
102
RTVSPropertyOp45
 70
     1
102
RTVSPropertyOp46
 70
     1
102
RTVSPropertyOp47
 70
     1
102
RTVSPropertyOp48
 70
     1
102
RTVSPropertyOp49
 70
     1
102
RTVSPropertyOp50
 70
     1
102
RTVSPropertyOp51
 70
     0
102
RTVSPropertyOp52
 70
     0
102
RTVSPropertyOp53
 70
     1
102
RTVSPropertyOp54
 70
     1
102
RTVSPropertyOp55
 70
     1
102
RTVSPropertyOp56
 70
     1
102
RTVSPropertyOp57
 70
     1
102
RTVSPropertyOp58
 70
     1
102
RTVSPropertyOp59
 70
     1
102
RTVSPropertyOp60
 70
     1
102
RTVSPropertyOp61
 70
     1
102
RTVSPropertyOp62
 70
     1
  0
XRECORD
  5
2043
102
{ACAD_REACTORS
330
2042
102
}
330
2042
100
AcDbXrecord
280
     1
102
RTVSPost2010Prop28
280
     0
102
RTVSPost2010PropOp28
 70
     1
102
RTVSPost2010Prop29
280
     1
102
RTVSPost2010PropOp29
 70
     1
102
RTVSPost2010Prop30
280
     1
102
RTVSPost2010PropOp30
 70
     1
102
RTVSPost2010Prop31
280
     0
102
RTVSPost2010PropOp31
 70
     1
102
RTVSPost2010Prop32
280
     0
102
RTVSPost2010PropOp32
 70
     1
102
RTVSPost2010Prop33
280
     0
102
RTVSPost2010PropOp33
 70
     1
102
RTVSPost2010Prop34
280
     0
102
RTVSPost2010PropOp34
 70
     1
102
RTVSPost2010Prop35
280
     0
102
RTVSPost2010PropOp35
 70
     1
102
RTVSPost2010Prop36
280
     0
102
RTVSPost2010PropOp36
 70
     1
102
RTVSPost2010Prop37
 90
       50
102
RTVSPost2010PropOp37
 70
     1
102
RTVSPost2010Prop38
140
0.0
102
RTVSPost2010PropOp38
 70
     1
102
RTVSPost2010Prop39
140
1.0
102
RTVSPost2010PropOp39
 70
     1
102
RTVSPost2010Prop40
 90
        0
102
RTVSPost2010PropOp40
 70
     1
102
RTVSPost2010Prop41ColorIndex
 90
       18
102
RTVSPost2010Prop41ColorRGB
 90
-16777216
102
RTVSPost2010PropOp41
 70
     1
102
RTVSPost2010Prop42
 90
       50
102
RTVSPost2010PropOp42
 70
     1
102
RTVSPost2010Prop43
 90
        3
102
RTVSPost2010PropOp43
 70
     1
102
RTVSPost2010Prop44ColorIndex
 90
        5
102
RTVSPost2010Prop44ColorRGB
 90
      255
102
RTVSPost2010PropOp44
 70
     1
102
RTVSPost2010Prop45
280
     0
102
RTVSPost2010PropOp45
 70
     1
102
RTVSPost2010Prop46
 90
       50
102
RTVSPost2010PropOp46
 70
     1
102
RTVSPost2010Prop47
 90
       50
102
RTVSPost2010PropOp47
 70
     1
102
RTVSPost2010Prop48
 90
       50
102
RTVSPost2010PropOp48
 70
     1
102
RTVSPost2010Prop49
280
     0
102
RTVSPost2010PropOp49
 70
     1
102
RTVSPost2010Prop50
 90
       50
102
RTVSPost2010PropOp50
 70
     1
102
RTVSPost2010Prop51ColorIndex
 90
      256
102
RTVSPost2010Prop51ColorRGB
 90
-16777216
102
RTVSPost2010PropOp51
 70
     0
102
RTVSPost2010Prop52
140
1.0
102
RTVSPost2010PropOp52
 70
     0
102
RTVSPost2010Prop53
 90
        2
102
RTVSPost2010PropOp53
 70
     1
102
RTVSPost2010Prop54
  1
strokes_ogs.tif
102
RTVSPost2010PropOp54
 70
     1
102
RTVSPost2010Prop55
280
     0
102
RTVSPost2010PropOp55
 70
     1
102
RTVSPost2010Prop56
140
1.0
102
RTVSPost2010PropOp56
 70
     1
102
RTVSPost2010Prop57
140
1.0
102
RTVSPost2010PropOp57
 70
     1
102
RTVSPropertyOp0
 70
     1
102
RTVSPropertyOp1
 70
     1
102
RTVSPropertyOp2
 70
     1
102
RTVSPropertyOp3
 70
     1
102
RTVSPropertyOp4
 70
     1
102
RTVSPropertyOp5
 70
     1
102
RTVSPropertyOp6
 70
     1
102
RTVSPropertyOp7
 70
     1
102
RTVSPropertyOp8
 70
     1
102
RTVSPropertyOp9
 70
     1
102
RTVSPropertyOp10
 70
     1
102
RTVSPropertyOp11
 70
     1
102
RTVSPropertyOp12
 70
     1
102
RTVSPropertyOp13
 70
     1
102
RTVSPropertyOp14
 70
     1
102
RTVSPropertyOp15
 70
     1
102
RTVSPropertyOp16
 70
     1
102
RTVSPropertyOp17
 70
     1
102
RTVSPropertyOp18
 70
     1
102
RTVSPropertyOp19
 70
     1
102
RTVSPropertyOp20
 70
     1
102
RTVSPropertyOp21
 70
     1
102
RTVSPropertyOp22
 70
     1
102
RTVSPropertyOp23
 70
     1
102
RTVSPropertyOp24
 70
     1
102
RTVSPropertyOp25
 70
     1
102
RTVSPropertyOp26
 70
     1
102
RTVSPropertyOp27
 70
     1
102
RTVSPropertyOp28
 70
     1
102
RTVSPropertyOp29
 70
     1
102
RTVSPropertyOp30
 70
     1
102
RTVSPropertyOp31
 70
     1
102
RTVSPropertyOp32
 70
     1
102
RTVSPropertyOp33
 70
     1
102
RTVSPropertyOp34
 70
     1
102
RTVSPropertyOp35
 70
     1
102
RTVSPropertyOp36
 70
     1
102
RTVSPropertyOp37
 70
     1
102
RTVSPropertyOp38
 70
     1
102
RTVSPropertyOp39
 70
     1
102
RTVSPropertyOp40
 70
     1
102
RTVSPropertyOp41
 70
     1
102
RTVSPropertyOp42
 70
     1
102
RTVSPropertyOp43
 70
     1
102
RTVSPropertyOp44
 70
     1
102
RTVSPropertyOp45
 70
     1
102
RTVSPropertyOp46
 70
     1
102
RTVSPropertyOp47
 70
     1
102
RTVSPropertyOp48
 70
     1
102
RTVSPropertyOp49
 70
     1
102
RTVSPropertyOp50
 70
     1
102
RTVSPropertyOp51
 70
     0
102
RTVSPropertyOp52
 70
     0
102
RTVSPropertyOp53
 70
     1
102
RTVSPropertyOp54
 70
     1
102
RTVSPropertyOp55
 70
     1
102
RTVSPropertyOp56
 70
     1
102
RTVSPropertyOp57
 70
     1
102
RTVSPropertyOp58
 70
     1
102
RTVSPropertyOp59
 70
     1
102
RTVSPropertyOp60
 70
     1
102
RTVSPropertyOp61
 70
     1
102
RTVSPropertyOp62
 70
     1
  0
XRECORD
  5
2051
102
{ACAD_REACTORS
330
2050
102
}
330
2050
100
AcDbXrecord
280
     1
102
RTVSPost2010Prop28
280
     0
102
RTVSPost2010PropOp28
 70
     1
102
RTVSPost2010Prop29
280
     1
102
RTVSPost2010PropOp29
 70
     1
102
RTVSPost2010Prop30
280
     1
102
RTVSPost2010PropOp30
 70
     1
102
RTVSPost2010Prop31
280
     0
102
RTVSPost2010PropOp31
 70
     1
102
RTVSPost2010Prop32
280
     0
102
RTVSPost2010PropOp32
 70
     1
102
RTVSPost2010Prop33
280
     0
102
RTVSPost2010PropOp33
 70
     1
102
RTVSPost2010Prop34
280
     0
102
RTVSPost2010PropOp34
 70
     1
102
RTVSPost2010Prop35
280
     0
102
RTVSPost2010PropOp35
 70
     1
102
RTVSPost2010Prop36
280
     0
102
RTVSPost2010PropOp36
 70
     1
102
RTVSPost2010Prop37
 90
       50
102
RTVSPost2010PropOp37
 70
     1
102
RTVSPost2010Prop38
140
0.0
102
RTVSPost2010PropOp38
 70
     1
102
RTVSPost2010Prop39
140
1.0
102
RTVSPost2010PropOp39
 70
     1
102
RTVSPost2010Prop40
 90
        0
102
RTVSPost2010PropOp40
 70
     1
102
RTVSPost2010Prop41ColorIndex
 90
       18
102
RTVSPost2010Prop41ColorRGB
 90
-16777216
102
RTVSPost2010PropOp41
 70
     1
102
RTVSPost2010Prop42
 90
       50
102
RTVSPost2010PropOp42
 70
     1
102
RTVSPost2010Prop43
 90
        3
102
RTVSPost2010PropOp43
 70
     1
102
RTVSPost2010Prop44ColorIndex
 90
        5
102
RTVSPost2010Prop44ColorRGB
 90
      255
102
RTVSPost2010PropOp44
 70
     1
102
RTVSPost2010Prop45
280
     0
102
RTVSPost2010PropOp45
 70
     1
102
RTVSPost2010Prop46
 90
       50
102
RTVSPost2010PropOp46
 70
     1
102
RTVSPost2010Prop47
 90
       50
102
RTVSPost2010PropOp47
 70
     1
102
RTVSPost2010Prop48
 90
       50
102
RTVSPost2010PropOp48
 70
     1
102
RTVSPost2010Prop49
280
     0
102
RTVSPost2010PropOp49
 70
     1
102
RTVSPost2010Prop50
 90
       50
102
RTVSPost2010PropOp50
 70
     1
102
RTVSPost2010Prop51ColorIndex
 90
      256
102
RTVSPost2010Prop51ColorRGB
 90
-16777216
102
RTVSPost2010PropOp51
 70
     0
102
RTVSPost2010Prop52
140
1.0
102
RTVSPost2010PropOp52
 70
     0
102
RTVSPost2010Prop53
 90
        2
102
RTVSPost2010PropOp53
 70
     1
102
RTVSPost2010Prop54
  1
strokes_ogs.tif
102
RTVSPost2010PropOp54
 70
     1
102
RTVSPost2010Prop55
280
     0
102
RTVSPost2010PropOp55
 70
     1
102
RTVSPost2010Prop56
140
1.0
102
RTVSPost2010PropOp56
 70
     1
102
RTVSPost2010Prop57
140
1.0
102
RTVSPost2010PropOp57
 70
     1
102
RTVSPropertyOp0
 70
     1
102
RTVSPropertyOp1
 70
     1
102
RTVSPropertyOp2
 70
     1
102
RTVSPropertyOp3
 70
     1
102
RTVSPropertyOp4
 70
     1
102
RTVSPropertyOp5
 70
     1
102
RTVSPropertyOp6
 70
     1
102
RTVSPropertyOp7
 70
     1
102
RTVSPropertyOp8
 70
     1
102
RTVSPropertyOp9
 70
     1
102
RTVSPropertyOp10
 70
     1
102
RTVSPropertyOp11
 70
     1
102
RTVSPropertyOp12
 70
     1
102
RTVSPropertyOp13
 70
     1
102
RTVSPropertyOp14
 70
     1
102
RTVSPropertyOp15
 70
     1
102
RTVSPropertyOp16
 70
     1
102
RTVSPropertyOp17
 70
     1
102
RTVSPropertyOp18
 70
     1
102
RTVSPropertyOp19
 70
     1
102
RTVSPropertyOp20
 70
     1
102
RTVSPropertyOp21
 70
     1
102
RTVSPropertyOp22
 70
     1
102
RTVSPropertyOp23
 70
     1
102
RTVSPropertyOp24
 70
     1
102
RTVSPropertyOp25
 70
     1
102
RTVSPropertyOp26
 70
     1
102
RTVSPropertyOp27
 70
     1
102
RTVSPropertyOp28
 70
     1
102
RTVSPropertyOp29
 70
     1
102
RTVSPropertyOp30
 70
     1
102
RTVSPropertyOp31
 70
     1
102
RTVSPropertyOp32
 70
     1
102
RTVSPropertyOp33
 70
     1
102
RTVSPropertyOp34
 70
     1
102
RTVSPropertyOp35
 70
     1
102
RTVSPropertyOp36
 70
     1
102
RTVSPropertyOp37
 70
     1
102
RTVSPropertyOp38
 70
     1
102
RTVSPropertyOp39
 70
     1
102
RTVSPropertyOp40
 70
     1
102
RTVSPropertyOp41
 70
     1
102
RTVSPropertyOp42
 70
     1
102
RTVSPropertyOp43
 70
     1
102
RTVSPropertyOp44
 70
     1
102
RTVSPropertyOp45
 70
     1
102
RTVSPropertyOp46
 70
     1
102
RTVSPropertyOp47
 70
     1
102
RTVSPropertyOp48
 70
     1
102
RTVSPropertyOp49
 70
     1
102
RTVSPropertyOp50
 70
     1
102
RTVSPropertyOp51
 70
     0
102
RTVSPropertyOp52
 70
     0
102
RTVSPropertyOp53
 70
     1
102
RTVSPropertyOp54
 70
     1
102
RTVSPropertyOp55
 70
     1
102
RTVSPropertyOp56
 70
     1
102
RTVSPropertyOp57
 70
     1
102
RTVSPropertyOp58
 70
     1
102
RTVSPropertyOp59
 70
     1
102
RTVSPropertyOp60
 70
     1
102
RTVSPropertyOp61
 70
     1
102
RTVSPropertyOp62
 70
     1
  0
XRECORD
  5
2059
102
{ACAD_REACTORS
330
2058
102
}
330
2058
100
AcDbXrecord
280
     1
102
RTVSPost2010Prop28
280
     0
102
RTVSPost2010PropOp28
 70
     1
102
RTVSPost2010Prop29
280
     1
102
RTVSPost2010PropOp29
 70
     1
102
RTVSPost2010Prop30
280
     1
102
RTVSPost2010PropOp30
 70
     1
102
RTVSPost2010Prop31
280
     0
102
RTVSPost2010PropOp31
 70
     1
102
RTVSPost2010Prop32
280
     0
102
RTVSPost2010PropOp32
 70
     1
102
RTVSPost2010Prop33
280
     0
102
RTVSPost2010PropOp33
 70
     1
102
RTVSPost2010Prop34
280
     0
102
RTVSPost2010PropOp34
 70
     1
102
RTVSPost2010Prop35
280
     0
102
RTVSPost2010PropOp35
 70
     1
102
RTVSPost2010Prop36
280
     0
102
RTVSPost2010PropOp36
 70
     1
102
RTVSPost2010Prop37
 90
       50
102
RTVSPost2010PropOp37
 70
     1
102
RTVSPost2010Prop38
140
0.0
102
RTVSPost2010PropOp38
 70
     1
102
RTVSPost2010Prop39
140
1.0
102
RTVSPost2010PropOp39
 70
     1
102
RTVSPost2010Prop40
 90
        0
102
RTVSPost2010PropOp40
 70
     1
102
RTVSPost2010Prop41ColorIndex
 90
       18
102
RTVSPost2010Prop41ColorRGB
 90
-16777216
102
RTVSPost2010PropOp41
 70
     1
102
RTVSPost2010Prop42
 90
       50
102
RTVSPost2010PropOp42
 70
     1
102
RTVSPost2010Prop43
 90
        3
102
RTVSPost2010PropOp43
 70
     1
102
RTVSPost2010Prop44ColorIndex
 90
        5
102
RTVSPost2010Prop44ColorRGB
 90
      255
102
RTVSPost2010PropOp44
 70
     1
102
RTVSPost2010Prop45
280
     0
102
RTVSPost2010PropOp45
 70
     1
102
RTVSPost2010Prop46
 90
       50
102
RTVSPost2010PropOp46
 70
     1
102
RTVSPost2010Prop47
 90
       50
102
RTVSPost2010PropOp47
 70
     1
102
RTVSPost2010Prop48
 90
       50
102
RTVSPost2010PropOp48
 70
     1
102
RTVSPost2010Prop49
280
     0
102
RTVSPost2010PropOp49
 70
     1
102
RTVSPost2010Prop50
 90
       50
102
RTVSPost2010PropOp50
 70
     1
102
RTVSPost2010Prop51ColorIndex
 90
      256
102
RTVSPost2010Prop51ColorRGB
 90
-16777216
102
RTVSPost2010PropOp51
 70
     0
102
RTVSPost2010Prop52
140
1.0
102
RTVSPost2010PropOp52
 70
     0
102
RTVSPost2010Prop53
 90
        2
102
RTVSPost2010PropOp53
 70
     1
102
RTVSPost2010Prop54
  1
strokes_ogs.tif
102
RTVSPost2010PropOp54
 70
     1
102
RTVSPost2010Prop55
280
     0
102
RTVSPost2010PropOp55
 70
     1
102
RTVSPost2010Prop56
140
1.0
102
RTVSPost2010PropOp56
 70
     1
102
RTVSPost2010Prop57
140
1.0
102
RTVSPost2010PropOp57
 70
     1
102
RTVSPropertyOp0
 70
     1
102
RTVSPropertyOp1
 70
     1
102
RTVSPropertyOp2
 70
     1
102
RTVSPropertyOp3
 70
     1
102
RTVSPropertyOp4
 70
     1
102
RTVSPropertyOp5
 70
     1
102
RTVSPropertyOp6
 70
     1
102
RTVSPropertyOp7
 70
     1
102
RTVSPropertyOp8
 70
     1
102
RTVSPropertyOp9
 70
     1
102
RTVSPropertyOp10
 70
     1
102
RTVSPropertyOp11
 70
     1
102
RTVSPropertyOp12
 70
     1
102
RTVSPropertyOp13
 70
     1
102
RTVSPropertyOp14
 70
     1
102
RTVSPropertyOp15
 70
     1
102
RTVSPropertyOp16
 70
     1
102
RTVSPropertyOp17
 70
     1
102
RTVSPropertyOp18
 70
     1
102
RTVSPropertyOp19
 70
     1
102
RTVSPropertyOp20
 70
     1
102
RTVSPropertyOp21
 70
     1
102
RTVSPropertyOp22
 70
     1
102
RTVSPropertyOp23
 70
     1
102
RTVSPropertyOp24
 70
     1
102
RTVSPropertyOp25
 70
     1
102
RTVSPropertyOp26
 70
     1
102
RTVSPropertyOp27
 70
     1
102
RTVSPropertyOp28
 70
     1
102
RTVSPropertyOp29
 70
     1
102
RTVSPropertyOp30
 70
     1
102
RTVSPropertyOp31
 70
     1
102
RTVSPropertyOp32
 70
     1
102
RTVSPropertyOp33
 70
     1
102
RTVSPropertyOp34
 70
     1
102
RTVSPropertyOp35
 70
     1
102
RTVSPropertyOp36
 70
     1
102
RTVSPropertyOp37
 70
     1
102
RTVSPropertyOp38
 70
     1
102
RTVSPropertyOp39
 70
     1
102
RTVSPropertyOp40
 70
     1
102
RTVSPropertyOp41
 70
     1
102
RTVSPropertyOp42
 70
     1
102
RTVSPropertyOp43
 70
     1
102
RTVSPropertyOp44
 70
     1
102
RTVSPropertyOp45
 70
     1
102
RTVSPropertyOp46
 70
     1
102
RTVSPropertyOp47
 70
     1
102
RTVSPropertyOp48
 70
     1
102
RTVSPropertyOp49
 70
     1
102
RTVSPropertyOp50
 70
     1
102
RTVSPropertyOp51
 70
     0
102
RTVSPropertyOp52
 70
     0
102
RTVSPropertyOp53
 70
     1
102
RTVSPropertyOp54
 70
     1
102
RTVSPropertyOp55
 70
     1
102
RTVSPropertyOp56
 70
     1
102
RTVSPropertyOp57
 70
     1
102
RTVSPropertyOp58
 70
     1
102
RTVSPropertyOp59
 70
     1
102
RTVSPropertyOp60
 70
     1
102
RTVSPropertyOp61
 70
     1
102
RTVSPropertyOp62
 70
     1
  0
XRECORD
  5
204B
102
{ACAD_REACTORS
330
204A
102
}
330
204A
100
AcDbXrecord
280
     1
102
RTVSPost2010Prop28
280
     0
102
RTVSPost2010PropOp28
 70
     1
102
RTVSPost2010Prop29
280
     1
102
RTVSPost2010PropOp29
 70
     1
102
RTVSPost2010Prop30
280
     1
102
RTVSPost2010PropOp30
 70
     1
102
RTVSPost2010Prop31
280
     0
102
RTVSPost2010PropOp31
 70
     1
102
RTVSPost2010Prop32
280
     0
102
RTVSPost2010PropOp32
 70
     1
102
RTVSPost2010Prop33
280
     0
102
RTVSPost2010PropOp33
 70
     1
102
RTVSPost2010Prop34
280
     0
102
RTVSPost2010PropOp34
 70
     1
102
RTVSPost2010Prop35
280
     0
102
RTVSPost2010PropOp35
 70
     1
102
RTVSPost2010Prop36
280
     0
102
RTVSPost2010PropOp36
 70
     1
102
RTVSPost2010Prop37
 90
       50
102
RTVSPost2010PropOp37
 70
     1
102
RTVSPost2010Prop38
140
0.0
102
RTVSPost2010PropOp38
 70
     1
102
RTVSPost2010Prop39
140
1.0
102
RTVSPost2010PropOp39
 70
     1
102
RTVSPost2010Prop40
 90
        0
102
RTVSPost2010PropOp40
 70
     1
102
RTVSPost2010Prop41ColorIndex
 90
       18
102
RTVSPost2010Prop41ColorRGB
 90
-16777216
102
RTVSPost2010PropOp41
 70
     1
102
RTVSPost2010Prop42
 90
       50
102
RTVSPost2010PropOp42
 70
     1
102
RTVSPost2010Prop43
 90
        3
102
RTVSPost2010PropOp43
 70
     1
102
RTVSPost2010Prop44ColorIndex
 90
        5
102
RTVSPost2010Prop44ColorRGB
 90
      255
102
RTVSPost2010PropOp44
 70
     1
102
RTVSPost2010Prop45
280
     0
102
RTVSPost2010PropOp45
 70
     1
102
RTVSPost2010Prop46
 90
       50
102
RTVSPost2010PropOp46
 70
     1
102
RTVSPost2010Prop47
 90
       50
102
RTVSPost2010PropOp47
 70
     1
102
RTVSPost2010Prop48
 90
       50
102
RTVSPost2010PropOp48
 70
     1
102
RTVSPost2010Prop49
280
     0
102
RTVSPost2010PropOp49
 70
     1
102
RTVSPost2010Prop50
 90
       50
102
RTVSPost2010PropOp50
 70
     1
102
RTVSPost2010Prop51ColorIndex
 90
      256
102
RTVSPost2010Prop51ColorRGB
 90
-16777216
102
RTVSPost2010PropOp51
 70
     0
102
RTVSPost2010Prop52
140
1.0
102
RTVSPost2010PropOp52
 70
     0
102
RTVSPost2010Prop53
 90
        2
102
RTVSPost2010PropOp53
 70
     1
102
RTVSPost2010Prop54
  1
strokes_ogs.tif
102
RTVSPost2010PropOp54
 70
     1
102
RTVSPost2010Prop55
280
     0
102
RTVSPost2010PropOp55
 70
     1
102
RTVSPost2010Prop56
140
1.0
102
RTVSPost2010PropOp56
 70
     1
102
RTVSPost2010Prop57
140
1.0
102
RTVSPost2010PropOp57
 70
     1
102
RTVSPropertyOp0
 70
     1
102
RTVSPropertyOp1
 70
     1
102
RTVSPropertyOp2
 70
     1
102
RTVSPropertyOp3
 70
     1
102
RTVSPropertyOp4
 70
     1
102
RTVSPropertyOp5
 70
     1
102
RTVSPropertyOp6
 70
     1
102
RTVSPropertyOp7
 70
     1
102
RTVSPropertyOp8
 70
     1
102
RTVSPropertyOp9
 70
     1
102
RTVSPropertyOp10
 70
     1
102
RTVSPropertyOp11
 70
     1
102
RTVSPropertyOp12
 70
     1
102
RTVSPropertyOp13
 70
     1
102
RTVSPropertyOp14
 70
     1
102
RTVSPropertyOp15
 70
     1
102
RTVSPropertyOp16
 70
     1
102
RTVSPropertyOp17
 70
     1
102
RTVSPropertyOp18
 70
     1
102
RTVSPropertyOp19
 70
     1
102
RTVSPropertyOp20
 70
     1
102
RTVSPropertyOp21
 70
     1
102
RTVSPropertyOp22
 70
     1
102
RTVSPropertyOp23
 70
     1
102
RTVSPropertyOp24
 70
     1
102
RTVSPropertyOp25
 70
     1
102
RTVSPropertyOp26
 70
     1
102
RTVSPropertyOp27
 70
     1
102
RTVSPropertyOp28
 70
     1
102
RTVSPropertyOp29
 70
     1
102
RTVSPropertyOp30
 70
     1
102
RTVSPropertyOp31
 70
     1
102
RTVSPropertyOp32
 70
     1
102
RTVSPropertyOp33
 70
     1
102
RTVSPropertyOp34
 70
     1
102
RTVSPropertyOp35
 70
     1
102
RTVSPropertyOp36
 70
     1
102
RTVSPropertyOp37
 70
     1
102
RTVSPropertyOp38
 70
     1
102
RTVSPropertyOp39
 70
     1
102
RTVSPropertyOp40
 70
     1
102
RTVSPropertyOp41
 70
     1
102
RTVSPropertyOp42
 70
     1
102
RTVSPropertyOp43
 70
     1
102
RTVSPropertyOp44
 70
     1
102
RTVSPropertyOp45
 70
     1
102
RTVSPropertyOp46
 70
     1
102
RTVSPropertyOp47
 70
     1
102
RTVSPropertyOp48
 70
     1
102
RTVSPropertyOp49
 70
     1
102
RTVSPropertyOp50
 70
     1
102
RTVSPropertyOp51
 70
     0
102
RTVSPropertyOp52
 70
     0
102
RTVSPropertyOp53
 70
     1
102
RTVSPropertyOp54
 70
     1
102
RTVSPropertyOp55
 70
     1
102
RTVSPropertyOp56
 70
     1
102
RTVSPropertyOp57
 70
     1
102
RTVSPropertyOp58
 70
     1
102
RTVSPropertyOp59
 70
     1
102
RTVSPropertyOp60
 70
     1
102
RTVSPropertyOp61
 70
     1
102
RTVSPropertyOp62
 70
     1
  0
XRECORD
  5
204F
102
{ACAD_REACTORS
330
204E
102
}
330
204E
100
AcDbXrecord
280
     1
102
RTVSPost2010Prop28
280
     0
102
RTVSPost2010PropOp28
 70
     1
102
RTVSPost2010Prop29
280
     1
102
RTVSPost2010PropOp29
 70
     1
102
RTVSPost2010Prop30
280
     1
102
RTVSPost2010PropOp30
 70
     1
102
RTVSPost2010Prop31
280
     0
102
RTVSPost2010PropOp31
 70
     1
102
RTVSPost2010Prop32
280
     0
102
RTVSPost2010PropOp32
 70
     1
102
RTVSPost2010Prop33
280
     0
102
RTVSPost2010PropOp33
 70
     1
102
RTVSPost2010Prop34
280
     0
102
RTVSPost2010PropOp34
 70
     1
102
RTVSPost2010Prop35
280
     0
102
RTVSPost2010PropOp35
 70
     1
102
RTVSPost2010Prop36
280
     0
102
RTVSPost2010PropOp36
 70
     1
102
RTVSPost2010Prop37
 90
       50
102
RTVSPost2010PropOp37
 70
     1
102
RTVSPost2010Prop38
140
0.0
102
RTVSPost2010PropOp38
 70
     1
102
RTVSPost2010Prop39
140
1.0
102
RTVSPost2010PropOp39
 70
     1
102
RTVSPost2010Prop40
 90
        0
102
RTVSPost2010PropOp40
 70
     1
102
RTVSPost2010Prop41ColorIndex
 90
       18
102
RTVSPost2010Prop41ColorRGB
 90
-16777216
102
RTVSPost2010PropOp41
 70
     1
102
RTVSPost2010Prop42
 90
       50
102
RTVSPost2010PropOp42
 70
     1
102
RTVSPost2010Prop43
 90
        3
102
RTVSPost2010PropOp43
 70
     1
102
RTVSPost2010Prop44ColorIndex
 90
        5
102
RTVSPost2010Prop44ColorRGB
 90
      255
102
RTVSPost2010PropOp44
 70
     1
102
RTVSPost2010Prop45
280
     0
102
RTVSPost2010PropOp45
 70
     1
102
RTVSPost2010Prop46
 90
       50
102
RTVSPost2010PropOp46
 70
     1
102
RTVSPost2010Prop47
 90
       50
102
RTVSPost2010PropOp47
 70
     1
102
RTVSPost2010Prop48
 90
       50
102
RTVSPost2010PropOp48
 70
     1
102
RTVSPost2010Prop49
280
     0
102
RTVSPost2010PropOp49
 70
     1
102
RTVSPost2010Prop50
 90
       50
102
RTVSPost2010PropOp50
 70
     1
102
RTVSPost2010Prop51ColorIndex
 90
      256
102
RTVSPost2010Prop51ColorRGB
 90
-16777216
102
RTVSPost2010PropOp51
 70
     0
102
RTVSPost2010Prop52
140
1.0
102
RTVSPost2010PropOp52
 70
     0
102
RTVSPost2010Prop53
 90
        2
102
RTVSPost2010PropOp53
 70
     1
102
RTVSPost2010Prop54
  1
strokes_ogs.tif
102
RTVSPost2010PropOp54
 70
     1
102
RTVSPost2010Prop55
280
     0
102
RTVSPost2010PropOp55
 70
     1
102
RTVSPost2010Prop56
140
1.0
102
RTVSPost2010PropOp56
 70
     1
102
RTVSPost2010Prop57
140
1.0
102
RTVSPost2010PropOp57
 70
     1
102
RTVSPropertyOp0
 70
     1
102
RTVSPropertyOp1
 70
     1
102
RTVSPropertyOp2
 70
     1
102
RTVSPropertyOp3
 70
     1
102
RTVSPropertyOp4
 70
     1
102
RTVSPropertyOp5
 70
     1
102
RTVSPropertyOp6
 70
     1
102
RTVSPropertyOp7
 70
     1
102
RTVSPropertyOp8
 70
     1
102
RTVSPropertyOp9
 70
     1
102
RTVSPropertyOp10
 70
     1
102
RTVSPropertyOp11
 70
     1
102
RTVSPropertyOp12
 70
     1
102
RTVSPropertyOp13
 70
     1
102
RTVSPropertyOp14
 70
     1
102
RTVSPropertyOp15
 70
     1
102
RTVSPropertyOp16
 70
     1
102
RTVSPropertyOp17
 70
     1
102
RTVSPropertyOp18
 70
     1
102
RTVSPropertyOp19
 70
     1
102
RTVSPropertyOp20
 70
     1
102
RTVSPropertyOp21
 70
     1
102
RTVSPropertyOp22
 70
     1
102
RTVSPropertyOp23
 70
     1
102
RTVSPropertyOp24
 70
     1
102
RTVSPropertyOp25
 70
     1
102
RTVSPropertyOp26
 70
     1
102
RTVSPropertyOp27
 70
     1
102
RTVSPropertyOp28
 70
     1
102
RTVSPropertyOp29
 70
     1
102
RTVSPropertyOp30
 70
     1
102
RTVSPropertyOp31
 70
     1
102
RTVSPropertyOp32
 70
     1
102
RTVSPropertyOp33
 70
     1
102
RTVSPropertyOp34
 70
     1
102
RTVSPropertyOp35
 70
     1
102
RTVSPropertyOp36
 70
     1
102
RTVSPropertyOp37
 70
     1
102
RTVSPropertyOp38
 70
     1
102
RTVSPropertyOp39
 70
     1
102
RTVSPropertyOp40
 70
     1
102
RTVSPropertyOp41
 70
     1
102
RTVSPropertyOp42
 70
     1
102
RTVSPropertyOp43
 70
     1
102
RTVSPropertyOp44
 70
     1
102
RTVSPropertyOp45
 70
     1
102
RTVSPropertyOp46
 70
     1
102
RTVSPropertyOp47
 70
     1
102
RTVSPropertyOp48
 70
     1
102
RTVSPropertyOp49
 70
     1
102
RTVSPropertyOp50
 70
     1
102
RTVSPropertyOp51
 70
     0
102
RTVSPropertyOp52
 70
     0
102
RTVSPropertyOp53
 70
     1
102
RTVSPropertyOp54
 70
     1
102
RTVSPropertyOp55
 70
     1
102
RTVSPropertyOp56
 70
     1
102
RTVSPropertyOp57
 70
     1
102
RTVSPropertyOp58
 70
     1
102
RTVSPropertyOp59
 70
     1
102
RTVSPropertyOp60
 70
     1
102
RTVSPropertyOp61
 70
     1
102
RTVSPropertyOp62
 70
     1
  0
XRECORD
  5
2069
102
{ACAD_REACTORS
330
2068
102
}
330
2068
100
AcDbXrecord
280
     1
102
RTVSPost2010Prop28
280
     0
102
RTVSPost2010PropOp28
 70
     1
102
RTVSPost2010Prop29
280
     1
102
RTVSPost2010PropOp29
 70
     1
102
RTVSPost2010Prop30
280
     1
102
RTVSPost2010PropOp30
 70
     1
102
RTVSPost2010Prop31
280
     0
102
RTVSPost2010PropOp31
 70
     1
102
RTVSPost2010Prop32
280
     0
102
RTVSPost2010PropOp32
 70
     1
102
RTVSPost2010Prop33
280
     0
102
RTVSPost2010PropOp33
 70
     1
102
RTVSPost2010Prop34
280
     0
102
RTVSPost2010PropOp34
 70
     1
102
RTVSPost2010Prop35
280
     0
102
RTVSPost2010PropOp35
 70
     1
102
RTVSPost2010Prop36
280
     0
102
RTVSPost2010PropOp36
 70
     1
102
RTVSPost2010Prop37
 90
       50
102
RTVSPost2010PropOp37
 70
     0
102
RTVSPost2010Prop38
140
0.0
102
RTVSPost2010PropOp38
 70
     0
102
RTVSPost2010Prop39
140
1.0
102
RTVSPost2010PropOp39
 70
     0
102
RTVSPost2010Prop40
 90
        0
102
RTVSPost2010PropOp40
 70
     0
102
RTVSPost2010Prop41ColorIndex
 90
       18
102
RTVSPost2010Prop41ColorRGB
 90
-16777216
102
RTVSPost2010PropOp41
 70
     0
102
RTVSPost2010Prop42
 90
       50
102
RTVSPost2010PropOp42
 70
     0
102
RTVSPost2010Prop43
 90
        3
102
RTVSPost2010PropOp43
 70
     0
102
RTVSPost2010Prop44ColorIndex
 90
        5
102
RTVSPost2010Prop44ColorRGB
 90
      255
102
RTVSPost2010PropOp44
 70
     0
102
RTVSPost2010Prop45
280
     0
102
RTVSPost2010PropOp45
 70
     1
102
RTVSPost2010Prop46
 90
       50
102
RTVSPost2010PropOp46
 70
     0
102
RTVSPost2010Prop47
 90
       50
102
RTVSPost2010PropOp47
 70
     0
102
RTVSPost2010Prop48
 90
       50
102
RTVSPost2010PropOp48
 70
     0
102
RTVSPost2010Prop49
280
     0
102
RTVSPost2010PropOp49
 70
     1
102
RTVSPost2010Prop50
 90
       50
102
RTVSPost2010PropOp50
 70
     0
102
RTVSPost2010Prop51ColorIndex
 90
      256
102
RTVSPost2010Prop51ColorRGB
 90
-16777216
102
RTVSPost2010PropOp51
 70
     0
102
RTVSPost2010Prop52
140
1.0
102
RTVSPost2010PropOp52
 70
     0
102
RTVSPost2010Prop53
 90
        2
102
RTVSPost2010PropOp53
 70
     0
102
RTVSPost2010Prop54
  1
strokes_ogs.tif
102
RTVSPost2010PropOp54
 70
     0
102
RTVSPost2010Prop55
280
     0
102
RTVSPost2010PropOp55
 70
     1
102
RTVSPost2010Prop56
140
1.0
102
RTVSPost2010PropOp56
 70
     0
102
RTVSPost2010Prop57
140
1.0
102
RTVSPost2010PropOp57
 70
     0
102
RTVSPropertyOp0
 70
     0
102
RTVSPropertyOp1
 70
     0
102
RTVSPropertyOp2
 70
     0
102
RTVSPropertyOp3
 70
     0
102
RTVSPropertyOp4
 70
     0
102
RTVSPropertyOp5
 70
     0
102
RTVSPropertyOp6
 70
     0
102
RTVSPropertyOp7
 70
     0
102
RTVSPropertyOp8
 70
     0
102
RTVSPropertyOp9
 70
     0
102
RTVSPropertyOp10
 70
     0
102
RTVSPropertyOp11
 70
     0
102
RTVSPropertyOp12
 70
     0
102
RTVSPropertyOp13
 70
     0
102
RTVSPropertyOp14
 70
     2
102
RTVSPropertyOp15
 70
     0
102
RTVSPropertyOp16
 70
     0
102
RTVSPropertyOp17
 70
     0
102
RTVSPropertyOp18
 70
     0
102
RTVSPropertyOp19
 70
     0
102
RTVSPropertyOp20
 70
     0
102
RTVSPropertyOp21
 70
     0
102
RTVSPropertyOp22
 70
     0
102
RTVSPropertyOp23
 70
     0
102
RTVSPropertyOp24
 70
     0
102
RTVSPropertyOp25
 70
     0
102
RTVSPropertyOp26
 70
     0
102
RTVSPropertyOp27
 70
     0
102
RTVSPropertyOp28
 70
     1
102
RTVSPropertyOp29
 70
     1
102
RTVSPropertyOp30
 70
     1
102
RTVSPropertyOp31
 70
     1
102
RTVSPropertyOp32
 70
     1
102
RTVSPropertyOp33
 70
     1
102
RTVSPropertyOp34
 70
     1
102
RTVSPropertyOp35
 70
     1
102
RTVSPropertyOp36
 70
     1
102
RTVSPropertyOp37
 70
     0
102
RTVSPropertyOp38
 70
     0
102
RTVSPropertyOp39
 70
     0
102
RTVSPropertyOp40
 70
     0
102
RTVSPropertyOp41
 70
     0
102
RTVSPropertyOp42
 70
     0
102
RTVSPropertyOp43
 70
     0
102
RTVSPropertyOp44
 70
     0
102
RTVSPropertyOp45
 70
     1
102
RTVSPropertyOp46
 70
     0
102
RTVSPropertyOp47
 70
     0
102
RTVSPropertyOp48
 70
     0
102
RTVSPropertyOp49
 70
     1
102
RTVSPropertyOp50
 70
     0
102
RTVSPropertyOp51
 70
     0
102
RTVSPropertyOp52
 70
     0
102
RTVSPropertyOp53
 70
     0
102
RTVSPropertyOp54
 70
     0
102
RTVSPropertyOp55
 70
     1
102
RTVSPropertyOp56
 70
     0
102
RTVSPropertyOp57
 70
     0
102
RTVSPropertyOp58
 70
     1
102
RTVSPropertyOp59
 70
     1
102
RTVSPropertyOp60
 70
     1
102
RTVSPropertyOp61
 70
     1
102
RTVSPropertyOp62
 70
     1
  0
XRECORD
  5
2057
102
{ACAD_REACTORS
330
2056
102
}
330
2056
100
AcDbXrecord
280
     1
102
RTVSPost2010Prop28
280
     0
102
RTVSPost2010PropOp28
 70
     1
102
RTVSPost2010Prop29
280
     1
102
RTVSPost2010PropOp29
 70
     1
102
RTVSPost2010Prop30
280
     1
102
RTVSPost2010PropOp30
 70
     1
102
RTVSPost2010Prop31
280
     0
102
RTVSPost2010PropOp31
 70
     1
102
RTVSPost2010Prop32
280
     0
102
RTVSPost2010PropOp32
 70
     1
102
RTVSPost2010Prop33
280
     0
102
RTVSPost2010PropOp33
 70
     1
102
RTVSPost2010Prop34
280
     0
102
RTVSPost2010PropOp34
 70
     1
102
RTVSPost2010Prop35
280
     0
102
RTVSPost2010PropOp35
 70
     1
102
RTVSPost2010Prop36
280
     0
102
RTVSPost2010PropOp36
 70
     1
102
RTVSPost2010Prop37
 90
       50
102
RTVSPost2010PropOp37
 70
     1
102
RTVSPost2010Prop38
140
0.0
102
RTVSPost2010PropOp38
 70
     1
102
RTVSPost2010Prop39
140
1.0
102
RTVSPost2010PropOp39
 70
     1
102
RTVSPost2010Prop40
 90
        0
102
RTVSPost2010PropOp40
 70
     1
102
RTVSPost2010Prop41ColorIndex
 90
       18
102
RTVSPost2010Prop41ColorRGB
 90
-16777216
102
RTVSPost2010PropOp41
 70
     1
102
RTVSPost2010Prop42
 90
       50
102
RTVSPost2010PropOp42
 70
     1
102
RTVSPost2010Prop43
 90
        3
102
RTVSPost2010PropOp43
 70
     1
102
RTVSPost2010Prop44ColorIndex
 90
        5
102
RTVSPost2010Prop44ColorRGB
 90
      255
102
RTVSPost2010PropOp44
 70
     1
102
RTVSPost2010Prop45
280
     0
102
RTVSPost2010PropOp45
 70
     1
102
RTVSPost2010Prop46
 90
       50
102
RTVSPost2010PropOp46
 70
     1
102
RTVSPost2010Prop47
 90
       50
102
RTVSPost2010PropOp47
 70
     1
102
RTVSPost2010Prop48
 90
       50
102
RTVSPost2010PropOp48
 70
     1
102
RTVSPost2010Prop49
280
     0
102
RTVSPost2010PropOp49
 70
     1
102
RTVSPost2010Prop50
 90
       50
102
RTVSPost2010PropOp50
 70
     1
102
RTVSPost2010Prop51ColorIndex
 90
      256
102
RTVSPost2010Prop51ColorRGB
 90
-16777216
102
RTVSPost2010PropOp51
 70
     0
102
RTVSPost2010Prop52
140
1.0
102
RTVSPost2010PropOp52
 70
     0
102
RTVSPost2010Prop53
 90
        2
102
RTVSPost2010PropOp53
 70
     1
102
RTVSPost2010Prop54
  1
strokes_ogs.tif
102
RTVSPost2010PropOp54
 70
     1
102
RTVSPost2010Prop55
280
     0
102
RTVSPost2010PropOp55
 70
     1
102
RTVSPost2010Prop56
140
1.0
102
RTVSPost2010PropOp56
 70
     1
102
RTVSPost2010Prop57
140
1.0
102
RTVSPost2010PropOp57
 70
     1
102
RTVSPropertyOp0
 70
     1
102
RTVSPropertyOp1
 70
     1
102
RTVSPropertyOp2
 70
     1
102
RTVSPropertyOp3
 70
     1
102
RTVSPropertyOp4
 70
     1
102
RTVSPropertyOp5
 70
     1
102
RTVSPropertyOp6
 70
     1
102
RTVSPropertyOp7
 70
     1
102
RTVSPropertyOp8
 70
     1
102
RTVSPropertyOp9
 70
     1
102
RTVSPropertyOp10
 70
     1
102
RTVSPropertyOp11
 70
     1
102
RTVSPropertyOp12
 70
     1
102
RTVSPropertyOp13
 70
     1
102
RTVSPropertyOp14
 70
     1
102
RTVSPropertyOp15
 70
     1
102
RTVSPropertyOp16
 70
     1
102
RTVSPropertyOp17
 70
     1
102
RTVSPropertyOp18
 70
     1
102
RTVSPropertyOp19
 70
     1
102
RTVSPropertyOp20
 70
     1
102
RTVSPropertyOp21
 70
     1
102
RTVSPropertyOp22
 70
     1
102
RTVSPropertyOp23
 70
     1
102
RTVSPropertyOp24
 70
     1
102
RTVSPropertyOp25
 70
     1
102
RTVSPropertyOp26
 70
     1
102
RTVSPropertyOp27
 70
     1
102
RTVSPropertyOp28
 70
     1
102
RTVSPropertyOp29
 70
     1
102
RTVSPropertyOp30
 70
     1
102
RTVSPropertyOp31
 70
     1
102
RTVSPropertyOp32
 70
     1
102
RTVSPropertyOp33
 70
     1
102
RTVSPropertyOp34
 70
     1
102
RTVSPropertyOp35
 70
     1
102
RTVSPropertyOp36
 70
     1
102
RTVSPropertyOp37
 70
     1
102
RTVSPropertyOp38
 70
     1
102
RTVSPropertyOp39
 70
     1
102
RTVSPropertyOp40
 70
     1
102
RTVSPropertyOp41
 70
     1
102
RTVSPropertyOp42
 70
     1
102
RTVSPropertyOp43
 70
     1
102
RTVSPropertyOp44
 70
     1
102
RTVSPropertyOp45
 70
     1
102
RTVSPropertyOp46
 70
     1
102
RTVSPropertyOp47
 70
     1
102
RTVSPropertyOp48
 70
     1
102
RTVSPropertyOp49
 70
     1
102
RTVSPropertyOp50
 70
     1
102
RTVSPropertyOp51
 70
     0
102
RTVSPropertyOp52
 70
     0
102
RTVSPropertyOp53
 70
     1
102
RTVSPropertyOp54
 70
     1
102
RTVSPropertyOp55
 70
     1
102
RTVSPropertyOp56
 70
     1
102
RTVSPropertyOp57
 70
     1
102
RTVSPropertyOp58
 70
     1
102
RTVSPropertyOp59
 70
     1
102
RTVSPropertyOp60
 70
     1
102
RTVSPropertyOp61
 70
     1
102
RTVSPropertyOp62
 70
     1
  0
XRECORD
  5
203B
102
{ACAD_REACTORS
330
203A
102
}
330
203A
100
AcDbXrecord
280
     1
102
RTVSPost2010Prop28
280
     0
102
RTVSPost2010PropOp28
 70
     1
102
RTVSPost2010Prop29
280
     1
102
RTVSPost2010PropOp29
 70
     1
102
RTVSPost2010Prop30
280
     1
102
RTVSPost2010PropOp30
 70
     1
102
RTVSPost2010Prop31
280
     0
102
RTVSPost2010PropOp31
 70
     1
102
RTVSPost2010Prop32
280
     0
102
RTVSPost2010PropOp32
 70
     1
102
RTVSPost2010Prop33
280
     0
102
RTVSPost2010PropOp33
 70
     1
102
RTVSPost2010Prop34
280
     0
102
RTVSPost2010PropOp34
 70
     1
102
RTVSPost2010Prop35
280
     0
102
RTVSPost2010PropOp35
 70
     1
102
RTVSPost2010Prop36
280
     0
102
RTVSPost2010PropOp36
 70
     1
102
RTVSPost2010Prop37
 90
       50
102
RTVSPost2010PropOp37
 70
     1
102
RTVSPost2010Prop38
140
0.0
102
RTVSPost2010PropOp38
 70
     1
102
RTVSPost2010Prop39
140
1.0
102
RTVSPost2010PropOp39
 70
     1
102
RTVSPost2010Prop40
 90
        0
102
RTVSPost2010PropOp40
 70
     1
102
RTVSPost2010Prop41ColorIndex
 90
       18
102
RTVSPost2010Prop41ColorRGB
 90
-16777216
102
RTVSPost2010PropOp41
 70
     1
102
RTVSPost2010Prop42
 90
       50
102
RTVSPost2010PropOp42
 70
     1
102
RTVSPost2010Prop43
 90
        3
102
RTVSPost2010PropOp43
 70
     1
102
RTVSPost2010Prop44ColorIndex
 90
        5
102
RTVSPost2010Prop44ColorRGB
 90
      255
102
RTVSPost2010PropOp44
 70
     1
102
RTVSPost2010Prop45
280
     0
102
RTVSPost2010PropOp45
 70
     1
102
RTVSPost2010Prop46
 90
       50
102
RTVSPost2010PropOp46
 70
     1
102
RTVSPost2010Prop47
 90
       50
102
RTVSPost2010PropOp47
 70
     1
102
RTVSPost2010Prop48
 90
       50
102
RTVSPost2010PropOp48
 70
     1
102
RTVSPost2010Prop49
280
     0
102
RTVSPost2010PropOp49
 70
     1
102
RTVSPost2010Prop50
 90
       50
102
RTVSPost2010PropOp50
 70
     1
102
RTVSPost2010Prop51ColorIndex
 90
      256
102
RTVSPost2010Prop51ColorRGB
 90
-16777216
102
RTVSPost2010PropOp51
 70
     0
102
RTVSPost2010Prop52
140
1.0
102
RTVSPost2010PropOp52
 70
     0
102
RTVSPost2010Prop53
 90
        2
102
RTVSPost2010PropOp53
 70
     1
102
RTVSPost2010Prop54
  1
strokes_ogs.tif
102
RTVSPost2010PropOp54
 70
     1
102
RTVSPost2010Prop55
280
     0
102
RTVSPost2010PropOp55
 70
     1
102
RTVSPost2010Prop56
140
1.0
102
RTVSPost2010PropOp56
 70
     1
102
RTVSPost2010Prop57
140
1.0
102
RTVSPost2010PropOp57
 70
     1
102
RTVSPropertyOp0
 70
     1
102
RTVSPropertyOp1
 70
     1
102
RTVSPropertyOp2
 70
     1
102
RTVSPropertyOp3
 70
     1
102
RTVSPropertyOp4
 70
     1
102
RTVSPropertyOp5
 70
     1
102
RTVSPropertyOp6
 70
     1
102
RTVSPropertyOp7
 70
     1
102
RTVSPropertyOp8
 70
     1
102
RTVSPropertyOp9
 70
     1
102
RTVSPropertyOp10
 70
     1
102
RTVSPropertyOp11
 70
     1
102
RTVSPropertyOp12
 70
     1
102
RTVSPropertyOp13
 70
     1
102
RTVSPropertyOp14
 70
     1
102
RTVSPropertyOp15
 70
     1
102
RTVSPropertyOp16
 70
     1
102
RTVSPropertyOp17
 70
     1
102
RTVSPropertyOp18
 70
     1
102
RTVSPropertyOp19
 70
     1
102
RTVSPropertyOp20
 70
     1
102
RTVSPropertyOp21
 70
     1
102
RTVSPropertyOp22
 70
     1
102
RTVSPropertyOp23
 70
     1
102
RTVSPropertyOp24
 70
     1
102
RTVSPropertyOp25
 70
     1
102
RTVSPropertyOp26
 70
     1
102
RTVSPropertyOp27
 70
     1
102
RTVSPropertyOp28
 70
     1
102
RTVSPropertyOp29
 70
     1
102
RTVSPropertyOp30
 70
     1
102
RTVSPropertyOp31
 70
     1
102
RTVSPropertyOp32
 70
     1
102
RTVSPropertyOp33
 70
     1
102
RTVSPropertyOp34
 70
     1
102
RTVSPropertyOp35
 70
     1
102
RTVSPropertyOp36
 70
     1
102
RTVSPropertyOp37
 70
     1
102
RTVSPropertyOp38
 70
     1
102
RTVSPropertyOp39
 70
     1
102
RTVSPropertyOp40
 70
     1
102
RTVSPropertyOp41
 70
     1
102
RTVSPropertyOp42
 70
     1
102
RTVSPropertyOp43
 70
     1
102
RTVSPropertyOp44
 70
     1
102
RTVSPropertyOp45
 70
     1
102
RTVSPropertyOp46
 70
     1
102
RTVSPropertyOp47
 70
     1
102
RTVSPropertyOp48
 70
     1
102
RTVSPropertyOp49
 70
     1
102
RTVSPropertyOp50
 70
     1
102
RTVSPropertyOp51
 70
     0
102
RTVSPropertyOp52
 70
     0
102
RTVSPropertyOp53
 70
     1
102
RTVSPropertyOp54
 70
     1
102
RTVSPropertyOp55
 70
     1
102
RTVSPropertyOp56
 70
     1
102
RTVSPropertyOp57
 70
     1
102
RTVSPropertyOp58
 70
     1
102
RTVSPropertyOp59
 70
     1
102
RTVSPropertyOp60
 70
     1
102
RTVSPropertyOp61
 70
     1
102
RTVSPropertyOp62
 70
     1
  0
XRECORD
  5
203D
102
{ACAD_REACTORS
330
203C
102
}
330
203C
100
AcDbXrecord
280
     1
102
RTVSPost2010Prop28
280
     0
102
RTVSPost2010PropOp28
 70
     1
102
RTVSPost2010Prop29
280
     1
102
RTVSPost2010PropOp29
 70
     1
102
RTVSPost2010Prop30
280
     1
102
RTVSPost2010PropOp30
 70
     1
102
RTVSPost2010Prop31
280
     0
102
RTVSPost2010PropOp31
 70
     1
102
RTVSPost2010Prop32
280
     0
102
RTVSPost2010PropOp32
 70
     1
102
RTVSPost2010Prop33
280
     0
102
RTVSPost2010PropOp33
 70
     1
102
RTVSPost2010Prop34
280
     0
102
RTVSPost2010PropOp34
 70
     1
102
RTVSPost2010Prop35
280
     0
102
RTVSPost2010PropOp35
 70
     1
102
RTVSPost2010Prop36
280
     0
102
RTVSPost2010PropOp36
 70
     1
102
RTVSPost2010Prop37
 90
       50
102
RTVSPost2010PropOp37
 70
     1
102
RTVSPost2010Prop38
140
0.0
102
RTVSPost2010PropOp38
 70
     1
102
RTVSPost2010Prop39
140
1.0
102
RTVSPost2010PropOp39
 70
     1
102
RTVSPost2010Prop40
 90
        0
102
RTVSPost2010PropOp40
 70
     1
102
RTVSPost2010Prop41ColorIndex
 90
       18
102
RTVSPost2010Prop41ColorRGB
 90
-16777216
102
RTVSPost2010PropOp41
 70
     1
102
RTVSPost2010Prop42
 90
       50
102
RTVSPost2010PropOp42
 70
     1
102
RTVSPost2010Prop43
 90
        3
102
RTVSPost2010PropOp43
 70
     1
102
RTVSPost2010Prop44ColorIndex
 90
        5
102
RTVSPost2010Prop44ColorRGB
 90
      255
102
RTVSPost2010PropOp44
 70
     1
102
RTVSPost2010Prop45
280
     0
102
RTVSPost2010PropOp45
 70
     1
102
RTVSPost2010Prop46
 90
       50
102
RTVSPost2010PropOp46
 70
     1
102
RTVSPost2010Prop47
 90
       50
102
RTVSPost2010PropOp47
 70
     1
102
RTVSPost2010Prop48
 90
       50
102
RTVSPost2010PropOp48
 70
     1
102
RTVSPost2010Prop49
280
     0
102
RTVSPost2010PropOp49
 70
     1
102
RTVSPost2010Prop50
 90
       50
102
RTVSPost2010PropOp50
 70
     1
102
RTVSPost2010Prop51ColorIndex
 90
      256
102
RTVSPost2010Prop51ColorRGB
 90
-16777216
102
RTVSPost2010PropOp51
 70
     0
102
RTVSPost2010Prop52
140
1.0
102
RTVSPost2010PropOp52
 70
     0
102
RTVSPost2010Prop53
 90
        2
102
RTVSPost2010PropOp53
 70
     1
102
RTVSPost2010Prop54
  1
strokes_ogs.tif
102
RTVSPost2010PropOp54
 70
     1
102
RTVSPost2010Prop55
280
     0
102
RTVSPost2010PropOp55
 70
     1
102
RTVSPost2010Prop56
140
1.0
102
RTVSPost2010PropOp56
 70
     1
102
RTVSPost2010Prop57
140
1.0
102
RTVSPost2010PropOp57
 70
     1
102
RTVSPropertyOp0
 70
     1
102
RTVSPropertyOp1
 70
     1
102
RTVSPropertyOp2
 70
     1
102
RTVSPropertyOp3
 70
     1
102
RTVSPropertyOp4
 70
     1
102
RTVSPropertyOp5
 70
     1
102
RTVSPropertyOp6
 70
     1
102
RTVSPropertyOp7
 70
     1
102
RTVSPropertyOp8
 70
     1
102
RTVSPropertyOp9
 70
     1
102
RTVSPropertyOp10
 70
     1
102
RTVSPropertyOp11
 70
     1
102
RTVSPropertyOp12
 70
     1
102
RTVSPropertyOp13
 70
     1
102
RTVSPropertyOp14
 70
     1
102
RTVSPropertyOp15
 70
     1
102
RTVSPropertyOp16
 70
     1
102
RTVSPropertyOp17
 70
     1
102
RTVSPropertyOp18
 70
     1
102
RTVSPropertyOp19
 70
     1
102
RTVSPropertyOp20
 70
     1
102
RTVSPropertyOp21
 70
     1
102
RTVSPropertyOp22
 70
     1
102
RTVSPropertyOp23
 70
     1
102
RTVSPropertyOp24
 70
     1
102
RTVSPropertyOp25
 70
     1
102
RTVSPropertyOp26
 70
     1
102
RTVSPropertyOp27
 70
     1
102
RTVSPropertyOp28
 70
     1
102
RTVSPropertyOp29
 70
     1
102
RTVSPropertyOp30
 70
     1
102
RTVSPropertyOp31
 70
     1
102
RTVSPropertyOp32
 70
     1
102
RTVSPropertyOp33
 70
     1
102
RTVSPropertyOp34
 70
     1
102
RTVSPropertyOp35
 70
     1
102
RTVSPropertyOp36
 70
     1
102
RTVSPropertyOp37
 70
     1
102
RTVSPropertyOp38
 70
     1
102
RTVSPropertyOp39
 70
     1
102
RTVSPropertyOp40
 70
     1
102
RTVSPropertyOp41
 70
     1
102
RTVSPropertyOp42
 70
     1
102
RTVSPropertyOp43
 70
     1
102
RTVSPropertyOp44
 70
     1
102
RTVSPropertyOp45
 70
     1
102
RTVSPropertyOp46
 70
     1
102
RTVSPropertyOp47
 70
     1
102
RTVSPropertyOp48
 70
     1
102
RTVSPropertyOp49
 70
     1
102
RTVSPropertyOp50
 70
     1
102
RTVSPropertyOp51
 70
     0
102
RTVSPropertyOp52
 70
     0
102
RTVSPropertyOp53
 70
     1
102
RTVSPropertyOp54
 70
     1
102
RTVSPropertyOp55
 70
     1
102
RTVSPropertyOp56
 70
     1
102
RTVSPropertyOp57
 70
     1
102
RTVSPropertyOp58
 70
     1
102
RTVSPropertyOp59
 70
     1
102
RTVSPropertyOp60
 70
     1
102
RTVSPropertyOp61
 70
     1
102
RTVSPropertyOp62
 70
     1
  0
XRECORD
  5
203F
102
{ACAD_REACTORS
330
203E
102
}
330
203E
100
AcDbXrecord
280
     1
102
RTVSPost2010Prop28
280
     0
102
RTVSPost2010PropOp28
 70
     1
102
RTVSPost2010Prop29
280
     1
102
RTVSPost2010PropOp29
 70
     1
102
RTVSPost2010Prop30
280
     1
102
RTVSPost2010PropOp30
 70
     1
102
RTVSPost2010Prop31
280
     0
102
RTVSPost2010PropOp31
 70
     1
102
RTVSPost2010Prop32
280
     0
102
RTVSPost2010PropOp32
 70
     1
102
RTVSPost2010Prop33
280
     0
102
RTVSPost2010PropOp33
 70
     1
102
RTVSPost2010Prop34
280
     0
102
RTVSPost2010PropOp34
 70
     1
102
RTVSPost2010Prop35
280
     0
102
RTVSPost2010PropOp35
 70
     1
102
RTVSPost2010Prop36
280
     0
102
RTVSPost2010PropOp36
 70
     1
102
RTVSPost2010Prop37
 90
       50
102
RTVSPost2010PropOp37
 70
     1
102
RTVSPost2010Prop38
140
0.0
102
RTVSPost2010PropOp38
 70
     1
102
RTVSPost2010Prop39
140
1.0
102
RTVSPost2010PropOp39
 70
     1
102
RTVSPost2010Prop40
 90
        0
102
RTVSPost2010PropOp40
 70
     1
102
RTVSPost2010Prop41ColorIndex
 90
       18
102
RTVSPost2010Prop41ColorRGB
 90
-16777216
102
RTVSPost2010PropOp41
 70
     1
102
RTVSPost2010Prop42
 90
       50
102
RTVSPost2010PropOp42
 70
     1
102
RTVSPost2010Prop43
 90
        3
102
RTVSPost2010PropOp43
 70
     1
102
RTVSPost2010Prop44ColorIndex
 90
        5
102
RTVSPost2010Prop44ColorRGB
 90
      255
102
RTVSPost2010PropOp44
 70
     1
102
RTVSPost2010Prop45
280
     0
102
RTVSPost2010PropOp45
 70
     1
102
RTVSPost2010Prop46
 90
       50
102
RTVSPost2010PropOp46
 70
     1
102
RTVSPost2010Prop47
 90
       50
102
RTVSPost2010PropOp47
 70
     1
102
RTVSPost2010Prop48
 90
       50
102
RTVSPost2010PropOp48
 70
     1
102
RTVSPost2010Prop49
280
     0
102
RTVSPost2010PropOp49
 70
     1
102
RTVSPost2010Prop50
 90
       50
102
RTVSPost2010PropOp50
 70
     1
102
RTVSPost2010Prop51ColorIndex
 90
      256
102
RTVSPost2010Prop51ColorRGB
 90
-16777216
102
RTVSPost2010PropOp51
 70
     0
102
RTVSPost2010Prop52
140
1.0
102
RTVSPost2010PropOp52
 70
     0
102
RTVSPost2010Prop53
 90
        2
102
RTVSPost2010PropOp53
 70
     1
102
RTVSPost2010Prop54
  1
strokes_ogs.tif
102
RTVSPost2010PropOp54
 70
     1
102
RTVSPost2010Prop55
280
     0
102
RTVSPost2010PropOp55
 70
     1
102
RTVSPost2010Prop56
140
1.0
102
RTVSPost2010PropOp56
 70
     1
102
RTVSPost2010Prop57
140
1.0
102
RTVSPost2010PropOp57
 70
     1
102
RTVSPropertyOp0
 70
     1
102
RTVSPropertyOp1
 70
     1
102
RTVSPropertyOp2
 70
     1
102
RTVSPropertyOp3
 70
     1
102
RTVSPropertyOp4
 70
     1
102
RTVSPropertyOp5
 70
     1
102
RTVSPropertyOp6
 70
     1
102
RTVSPropertyOp7
 70
     1
102
RTVSPropertyOp8
 70
     1
102
RTVSPropertyOp9
 70
     1
102
RTVSPropertyOp10
 70
     1
102
RTVSPropertyOp11
 70
     1
102
RTVSPropertyOp12
 70
     1
102
RTVSPropertyOp13
 70
     1
102
RTVSPropertyOp14
 70
     1
102
RTVSPropertyOp15
 70
     1
102
RTVSPropertyOp16
 70
     1
102
RTVSPropertyOp17
 70
     1
102
RTVSPropertyOp18
 70
     1
102
RTVSPropertyOp19
 70
     1
102
RTVSPropertyOp20
 70
     1
102
RTVSPropertyOp21
 70
     1
102
RTVSPropertyOp22
 70
     1
102
RTVSPropertyOp23
 70
     1
102
RTVSPropertyOp24
 70
     1
102
RTVSPropertyOp25
 70
     1
102
RTVSPropertyOp26
 70
     1
102
RTVSPropertyOp27
 70
     1
102
RTVSPropertyOp28
 70
     1
102
RTVSPropertyOp29
 70
     1
102
RTVSPropertyOp30
 70
     1
102
RTVSPropertyOp31
 70
     1
102
RTVSPropertyOp32
 70
     1
102
RTVSPropertyOp33
 70
     1
102
RTVSPropertyOp34
 70
     1
102
RTVSPropertyOp35
 70
     1
102
RTVSPropertyOp36
 70
     1
102
RTVSPropertyOp37
 70
     1
102
RTVSPropertyOp38
 70
     1
102
RTVSPropertyOp39
 70
     1
102
RTVSPropertyOp40
 70
     1
102
RTVSPropertyOp41
 70
     1
102
RTVSPropertyOp42
 70
     1
102
RTVSPropertyOp43
 70
     1
102
RTVSPropertyOp44
 70
     1
102
RTVSPropertyOp45
 70
     1
102
RTVSPropertyOp46
 70
     1
102
RTVSPropertyOp47
 70
     1
102
RTVSPropertyOp48
 70
     1
102
RTVSPropertyOp49
 70
     1
102
RTVSPropertyOp50
 70
     1
102
RTVSPropertyOp51
 70
     0
102
RTVSPropertyOp52
 70
     0
102
RTVSPropertyOp53
 70
     1
102
RTVSPropertyOp54
 70
     1
102
RTVSPropertyOp55
 70
     1
102
RTVSPropertyOp56
 70
     1
102
RTVSPropertyOp57
 70
     1
102
RTVSPropertyOp58
 70
     1
102
RTVSPropertyOp59
 70
     1
102
RTVSPropertyOp60
 70
     1
102
RTVSPropertyOp61
 70
     1
102
RTVSPropertyOp62
 70
     1
  0
XRECORD
  5
2041
102
{ACAD_REACTORS
330
2040
102
}
330
2040
100
AcDbXrecord
280
     1
102
RTVSPost2010Prop28
280
     0
102
RTVSPost2010PropOp28
 70
     1
102
RTVSPost2010Prop29
280
     1
102
RTVSPost2010PropOp29
 70
     1
102
RTVSPost2010Prop30
280
     1
102
RTVSPost2010PropOp30
 70
     1
102
RTVSPost2010Prop31
280
     0
102
RTVSPost2010PropOp31
 70
     1
102
RTVSPost2010Prop32
280
     0
102
RTVSPost2010PropOp32
 70
     1
102
RTVSPost2010Prop33
280
     0
102
RTVSPost2010PropOp33
 70
     1
102
RTVSPost2010Prop34
280
     0
102
RTVSPost2010PropOp34
 70
     1
102
RTVSPost2010Prop35
280
     0
102
RTVSPost2010PropOp35
 70
     1
102
RTVSPost2010Prop36
280
     0
102
RTVSPost2010PropOp36
 70
     1
102
RTVSPost2010Prop37
 90
       50
102
RTVSPost2010PropOp37
 70
     1
102
RTVSPost2010Prop38
140
0.0
102
RTVSPost2010PropOp38
 70
     1
102
RTVSPost2010Prop39
140
1.0
102
RTVSPost2010PropOp39
 70
     1
102
RTVSPost2010Prop40
 90
        0
102
RTVSPost2010PropOp40
 70
     1
102
RTVSPost2010Prop41ColorIndex
 90
       18
102
RTVSPost2010Prop41ColorRGB
 90
-16777216
102
RTVSPost2010PropOp41
 70
     1
102
RTVSPost2010Prop42
 90
       50
102
RTVSPost2010PropOp42
 70
     1
102
RTVSPost2010Prop43
 90
        3
102
RTVSPost2010PropOp43
 70
     1
102
RTVSPost2010Prop44ColorIndex
 90
        5
102
RTVSPost2010Prop44ColorRGB
 90
      255
102
RTVSPost2010PropOp44
 70
     1
102
RTVSPost2010Prop45
280
     0
102
RTVSPost2010PropOp45
 70
     1
102
RTVSPost2010Prop46
 90
       50
102
RTVSPost2010PropOp46
 70
     1
102
RTVSPost2010Prop47
 90
       50
102
RTVSPost2010PropOp47
 70
     1
102
RTVSPost2010Prop48
 90
       50
102
RTVSPost2010PropOp48
 70
     1
102
RTVSPost2010Prop49
280
     0
102
RTVSPost2010PropOp49
 70
     1
102
RTVSPost2010Prop50
 90
       50
102
RTVSPost2010PropOp50
 70
     1
102
RTVSPost2010Prop51ColorIndex
 90
      256
102
RTVSPost2010Prop51ColorRGB
 90
-16777216
102
RTVSPost2010PropOp51
 70
     0
102
RTVSPost2010Prop52
140
1.0
102
RTVSPost2010PropOp52
 70
     0
102
RTVSPost2010Prop53
 90
        2
102
RTVSPost2010PropOp53
 70
     1
102
RTVSPost2010Prop54
  1
strokes_ogs.tif
102
RTVSPost2010PropOp54
 70
     1
102
RTVSPost2010Prop55
280
     0
102
RTVSPost2010PropOp55
 70
     1
102
RTVSPost2010Prop56
140
1.0
102
RTVSPost2010PropOp56
 70
     1
102
RTVSPost2010Prop57
140
1.0
102
RTVSPost2010PropOp57
 70
     1
102
RTVSPropertyOp0
 70
     1
102
RTVSPropertyOp1
 70
     1
102
RTVSPropertyOp2
 70
     1
102
RTVSPropertyOp3
 70
     1
102
RTVSPropertyOp4
 70
     1
102
RTVSPropertyOp5
 70
     1
102
RTVSPropertyOp6
 70
     1
102
RTVSPropertyOp7
 70
     1
102
RTVSPropertyOp8
 70
     1
102
RTVSPropertyOp9
 70
     1
102
RTVSPropertyOp10
 70
     1
102
RTVSPropertyOp11
 70
     1
102
RTVSPropertyOp12
 70
     1
102
RTVSPropertyOp13
 70
     1
102
RTVSPropertyOp14
 70
     1
102
RTVSPropertyOp15
 70
     1
102
RTVSPropertyOp16
 70
     1
102
RTVSPropertyOp17
 70
     1
102
RTVSPropertyOp18
 70
     1
102
RTVSPropertyOp19
 70
     1
102
RTVSPropertyOp20
 70
     1
102
RTVSPropertyOp21
 70
     1
102
RTVSPropertyOp22
 70
     1
102
RTVSPropertyOp23
 70
     1
102
RTVSPropertyOp24
 70
     1
102
RTVSPropertyOp25
 70
     1
102
RTVSPropertyOp26
 70
     1
102
RTVSPropertyOp27
 70
     1
102
RTVSPropertyOp28
 70
     1
102
RTVSPropertyOp29
 70
     1
102
RTVSPropertyOp30
 70
     1
102
RTVSPropertyOp31
 70
     1
102
RTVSPropertyOp32
 70
     1
102
RTVSPropertyOp33
 70
     1
102
RTVSPropertyOp34
 70
     1
102
RTVSPropertyOp35
 70
     1
102
RTVSPropertyOp36
 70
     1
102
RTVSPropertyOp37
 70
     1
102
RTVSPropertyOp38
 70
     1
102
RTVSPropertyOp39
 70
     1
102
RTVSPropertyOp40
 70
     1
102
RTVSPropertyOp41
 70
     1
102
RTVSPropertyOp42
 70
     1
102
RTVSPropertyOp43
 70
     1
102
RTVSPropertyOp44
 70
     1
102
RTVSPropertyOp45
 70
     1
102
RTVSPropertyOp46
 70
     1
102
RTVSPropertyOp47
 70
     1
102
RTVSPropertyOp48
 70
     1
102
RTVSPropertyOp49
 70
     1
102
RTVSPropertyOp50
 70
     1
102
RTVSPropertyOp51
 70
     0
102
RTVSPropertyOp52
 70
     0
102
RTVSPropertyOp53
 70
     1
102
RTVSPropertyOp54
 70
     1
102
RTVSPropertyOp55
 70
     1
102
RTVSPropertyOp56
 70
     1
102
RTVSPropertyOp57
 70
     1
102
RTVSPropertyOp58
 70
     1
102
RTVSPropertyOp59
 70
     1
102
RTVSPropertyOp60
 70
     1
102
RTVSPropertyOp61
 70
     1
102
RTVSPropertyOp62
 70
     1
  0
XRECORD
  5
2049
102
{ACAD_REACTORS
330
2048
102
}
330
2048
100
AcDbXrecord
280
     1
102
RTVSPost2010Prop28
280
     0
102
RTVSPost2010PropOp28
 70
     1
102
RTVSPost2010Prop29
280
     1
102
RTVSPost2010PropOp29
 70
     1
102
RTVSPost2010Prop30
280
     1
102
RTVSPost2010PropOp30
 70
     1
102
RTVSPost2010Prop31
280
     0
102
RTVSPost2010PropOp31
 70
     1
102
RTVSPost2010Prop32
280
     0
102
RTVSPost2010PropOp32
 70
     1
102
RTVSPost2010Prop33
280
     0
102
RTVSPost2010PropOp33
 70
     1
102
RTVSPost2010Prop34
280
     0
102
RTVSPost2010PropOp34
 70
     1
102
RTVSPost2010Prop35
280
     0
102
RTVSPost2010PropOp35
 70
     1
102
RTVSPost2010Prop36
280
     0
102
RTVSPost2010PropOp36
 70
     1
102
RTVSPost2010Prop37
 90
       50
102
RTVSPost2010PropOp37
 70
     1
102
RTVSPost2010Prop38
140
0.0
102
RTVSPost2010PropOp38
 70
     1
102
RTVSPost2010Prop39
140
1.0
102
RTVSPost2010PropOp39
 70
     1
102
RTVSPost2010Prop40
 90
        0
102
RTVSPost2010PropOp40
 70
     1
102
RTVSPost2010Prop41ColorIndex
 90
       18
102
RTVSPost2010Prop41ColorRGB
 90
-16777216
102
RTVSPost2010PropOp41
 70
     1
102
RTVSPost2010Prop42
 90
       50
102
RTVSPost2010PropOp42
 70
     1
102
RTVSPost2010Prop43
 90
        3
102
RTVSPost2010PropOp43
 70
     1
102
RTVSPost2010Prop44ColorIndex
 90
        5
102
RTVSPost2010Prop44ColorRGB
 90
      255
102
RTVSPost2010PropOp44
 70
     1
102
RTVSPost2010Prop45
280
     0
102
RTVSPost2010PropOp45
 70
     1
102
RTVSPost2010Prop46
 90
       50
102
RTVSPost2010PropOp46
 70
     1
102
RTVSPost2010Prop47
 90
       50
102
RTVSPost2010PropOp47
 70
     1
102
RTVSPost2010Prop48
 90
       50
102
RTVSPost2010PropOp48
 70
     1
102
RTVSPost2010Prop49
280
     0
102
RTVSPost2010PropOp49
 70
     1
102
RTVSPost2010Prop50
 90
       50
102
RTVSPost2010PropOp50
 70
     1
102
RTVSPost2010Prop51ColorIndex
 90
      256
102
RTVSPost2010Prop51ColorRGB
 90
-16777216
102
RTVSPost2010PropOp51
 70
     0
102
RTVSPost2010Prop52
140
1.0
102
RTVSPost2010PropOp52
 70
     0
102
RTVSPost2010Prop53
 90
        2
102
RTVSPost2010PropOp53
 70
     1
102
RTVSPost2010Prop54
  1
strokes_ogs.tif
102
RTVSPost2010PropOp54
 70
     1
102
RTVSPost2010Prop55
280
     0
102
RTVSPost2010PropOp55
 70
     1
102
RTVSPost2010Prop56
140
1.0
102
RTVSPost2010PropOp56
 70
     1
102
RTVSPost2010Prop57
140
1.0
102
RTVSPost2010PropOp57
 70
     1
102
RTVSPropertyOp0
 70
     1
102
RTVSPropertyOp1
 70
     1
102
RTVSPropertyOp2
 70
     1
102
RTVSPropertyOp3
 70
     1
102
RTVSPropertyOp4
 70
     1
102
RTVSPropertyOp5
 70
     1
102
RTVSPropertyOp6
 70
     1
102
RTVSPropertyOp7
 70
     1
102
RTVSPropertyOp8
 70
     1
102
RTVSPropertyOp9
 70
     1
102
RTVSPropertyOp10
 70
     1
102
RTVSPropertyOp11
 70
     1
102
RTVSPropertyOp12
 70
     1
102
RTVSPropertyOp13
 70
     1
102
RTVSPropertyOp14
 70
     1
102
RTVSPropertyOp15
 70
     1
102
RTVSPropertyOp16
 70
     1
102
RTVSPropertyOp17
 70
     1
102
RTVSPropertyOp18
 70
     1
102
RTVSPropertyOp19
 70
     1
102
RTVSPropertyOp20
 70
     1
102
RTVSPropertyOp21
 70
     1
102
RTVSPropertyOp22
 70
     1
102
RTVSPropertyOp23
 70
     1
102
RTVSPropertyOp24
 70
     1
102
RTVSPropertyOp25
 70
     1
102
RTVSPropertyOp26
 70
     1
102
RTVSPropertyOp27
 70
     1
102
RTVSPropertyOp28
 70
     1
102
RTVSPropertyOp29
 70
     1
102
RTVSPropertyOp30
 70
     1
102
RTVSPropertyOp31
 70
     1
102
RTVSPropertyOp32
 70
     1
102
RTVSPropertyOp33
 70
     1
102
RTVSPropertyOp34
 70
     1
102
RTVSPropertyOp35
 70
     1
102
RTVSPropertyOp36
 70
     1
102
RTVSPropertyOp37
 70
     1
102
RTVSPropertyOp38
 70
     1
102
RTVSPropertyOp39
 70
     1
102
RTVSPropertyOp40
 70
     1
102
RTVSPropertyOp41
 70
     1
102
RTVSPropertyOp42
 70
     1
102
RTVSPropertyOp43
 70
     1
102
RTVSPropertyOp44
 70
     1
102
RTVSPropertyOp45
 70
     1
102
RTVSPropertyOp46
 70
     1
102
RTVSPropertyOp47
 70
     1
102
RTVSPropertyOp48
 70
     1
102
RTVSPropertyOp49
 70
     1
102
RTVSPropertyOp50
 70
     1
102
RTVSPropertyOp51
 70
     0
102
RTVSPropertyOp52
 70
     0
102
RTVSPropertyOp53
 70
     1
102
RTVSPropertyOp54
 70
     1
102
RTVSPropertyOp55
 70
     1
102
RTVSPropertyOp56
 70
     1
102
RTVSPropertyOp57
 70
     1
102
RTVSPropertyOp58
 70
     1
102
RTVSPropertyOp59
 70
     1
102
RTVSPropertyOp60
 70
     1
102
RTVSPropertyOp61
 70
     1
102
RTVSPropertyOp62
 70
     1
  0
XRECORD
  5
2065
102
{ACAD_REACTORS
330
2064
102
}
330
2064
100
AcDbXrecord
280
     1
102
RTVSPost2010Prop28
280
     0
102
RTVSPost2010PropOp28
 70
     1
102
RTVSPost2010Prop29
280
     1
102
RTVSPost2010PropOp29
 70
     1
102
RTVSPost2010Prop30
280
     1
102
RTVSPost2010PropOp30
 70
     1
102
RTVSPost2010Prop31
280
     0
102
RTVSPost2010PropOp31
 70
     1
102
RTVSPost2010Prop32
280
     0
102
RTVSPost2010PropOp32
 70
     1
102
RTVSPost2010Prop33
280
     0
102
RTVSPost2010PropOp33
 70
     1
102
RTVSPost2010Prop34
280
     0
102
RTVSPost2010PropOp34
 70
     1
102
RTVSPost2010Prop35
280
     0
102
RTVSPost2010PropOp35
 70
     1
102
RTVSPost2010Prop36
280
     0
102
RTVSPost2010PropOp36
 70
     1
102
RTVSPost2010Prop37
 90
       50
102
RTVSPost2010PropOp37
 70
     0
102
RTVSPost2010Prop38
140
0.0
102
RTVSPost2010PropOp38
 70
     0
102
RTVSPost2010Prop39
140
1.0
102
RTVSPost2010PropOp39
 70
     0
102
RTVSPost2010Prop40
 90
        0
102
RTVSPost2010PropOp40
 70
     0
102
RTVSPost2010Prop41ColorIndex
 90
       18
102
RTVSPost2010Prop41ColorRGB
 90
-16777216
102
RTVSPost2010PropOp41
 70
     0
102
RTVSPost2010Prop42
 90
       50
102
RTVSPost2010PropOp42
 70
     0
102
RTVSPost2010Prop43
 90
        3
102
RTVSPost2010PropOp43
 70
     0
102
RTVSPost2010Prop44ColorIndex
 90
        5
102
RTVSPost2010Prop44ColorRGB
 90
      255
102
RTVSPost2010PropOp44
 70
     0
102
RTVSPost2010Prop45
280
     0
102
RTVSPost2010PropOp45
 70
     1
102
RTVSPost2010Prop46
 90
       50
102
RTVSPost2010PropOp46
 70
     0
102
RTVSPost2010Prop47
 90
       50
102
RTVSPost2010PropOp47
 70
     0
102
RTVSPost2010Prop48
 90
       50
102
RTVSPost2010PropOp48
 70
     0
102
RTVSPost2010Prop49
280
     0
102
RTVSPost2010PropOp49
 70
     1
102
RTVSPost2010Prop50
 90
       50
102
RTVSPost2010PropOp50
 70
     0
102
RTVSPost2010Prop51ColorIndex
 90
      256
102
RTVSPost2010Prop51ColorRGB
 90
-16777216
102
RTVSPost2010PropOp51
 70
     0
102
RTVSPost2010Prop52
140
1.0
102
RTVSPost2010PropOp52
 70
     0
102
RTVSPost2010Prop53
 90
        2
102
RTVSPost2010PropOp53
 70
     0
102
RTVSPost2010Prop54
  1
strokes_ogs.tif
102
RTVSPost2010PropOp54
 70
     0
102
RTVSPost2010Prop55
280
     0
102
RTVSPost2010PropOp55
 70
     1
102
RTVSPost2010Prop56
140
1.0
102
RTVSPost2010PropOp56
 70
     0
102
RTVSPost2010Prop57
140
1.0
102
RTVSPost2010PropOp57
 70
     0
102
RTVSPropertyOp0
 70
     0
102
RTVSPropertyOp1
 70
     0
102
RTVSPropertyOp2
 70
     0
102
RTVSPropertyOp3
 70
     0
102
RTVSPropertyOp4
 70
     0
102
RTVSPropertyOp5
 70
     0
102
RTVSPropertyOp6
 70
     0
102
RTVSPropertyOp7
 70
     0
102
RTVSPropertyOp8
 70
     0
102
RTVSPropertyOp9
 70
     0
102
RTVSPropertyOp10
 70
     0
102
RTVSPropertyOp11
 70
     0
102
RTVSPropertyOp12
 70
     0
102
RTVSPropertyOp13
 70
     0
102
RTVSPropertyOp14
 70
     2
102
RTVSPropertyOp15
 70
     0
102
RTVSPropertyOp16
 70
     0
102
RTVSPropertyOp17
 70
     0
102
RTVSPropertyOp18
 70
     0
102
RTVSPropertyOp19
 70
     0
102
RTVSPropertyOp20
 70
     0
102
RTVSPropertyOp21
 70
     0
102
RTVSPropertyOp22
 70
     0
102
RTVSPropertyOp23
 70
     0
102
RTVSPropertyOp24
 70
     0
102
RTVSPropertyOp25
 70
     0
102
RTVSPropertyOp26
 70
     0
102
RTVSPropertyOp27
 70
     0
102
RTVSPropertyOp28
 70
     1
102
RTVSPropertyOp29
 70
     1
102
RTVSPropertyOp30
 70
     1
102
RTVSPropertyOp31
 70
     1
102
RTVSPropertyOp32
 70
     1
102
RTVSPropertyOp33
 70
     1
102
RTVSPropertyOp34
 70
     1
102
RTVSPropertyOp35
 70
     1
102
RTVSPropertyOp36
 70
     1
102
RTVSPropertyOp37
 70
     0
102
RTVSPropertyOp38
 70
     0
102
RTVSPropertyOp39
 70
     0
102
RTVSPropertyOp40
 70
     0
102
RTVSPropertyOp41
 70
     0
102
RTVSPropertyOp42
 70
     0
102
RTVSPropertyOp43
 70
     0
102
RTVSPropertyOp44
 70
     0
102
RTVSPropertyOp45
 70
     1
102
RTVSPropertyOp46
 70
     0
102
RTVSPropertyOp47
 70
     0
102
RTVSPropertyOp48
 70
     0
102
RTVSPropertyOp49
 70
     1
102
RTVSPropertyOp50
 70
     0
102
RTVSPropertyOp51
 70
     0
102
RTVSPropertyOp52
 70
     0
102
RTVSPropertyOp53
 70
     0
102
RTVSPropertyOp54
 70
     0
102
RTVSPropertyOp55
 70
     1
102
RTVSPropertyOp56
 70
     0
102
RTVSPropertyOp57
 70
     0
102
RTVSPropertyOp58
 70
     1
102
RTVSPropertyOp59
 70
     1
102
RTVSPropertyOp60
 70
     1
102
RTVSPropertyOp61
 70
     1
102
RTVSPropertyOp62
 70
     1
  0
XRECORD
  5
2055
102
{ACAD_REACTORS
330
2054
102
}
330
2054
100
AcDbXrecord
280
     1
102
RTVSPost2010Prop28
280
     0
102
RTVSPost2010PropOp28
 70
     1
102
RTVSPost2010Prop29
280
     1
102
RTVSPost2010PropOp29
 70
     1
102
RTVSPost2010Prop30
280
     1
102
RTVSPost2010PropOp30
 70
     1
102
RTVSPost2010Prop31
280
     0
102
RTVSPost2010PropOp31
 70
     1
102
RTVSPost2010Prop32
280
     0
102
RTVSPost2010PropOp32
 70
     1
102
RTVSPost2010Prop33
280
     0
102
RTVSPost2010PropOp33
 70
     1
102
RTVSPost2010Prop34
280
     0
102
RTVSPost2010PropOp34
 70
     1
102
RTVSPost2010Prop35
280
     0
102
RTVSPost2010PropOp35
 70
     1
102
RTVSPost2010Prop36
280
     0
102
RTVSPost2010PropOp36
 70
     1
102
RTVSPost2010Prop37
 90
       50
102
RTVSPost2010PropOp37
 70
     1
102
RTVSPost2010Prop38
140
0.0
102
RTVSPost2010PropOp38
 70
     1
102
RTVSPost2010Prop39
140
1.0
102
RTVSPost2010PropOp39
 70
     1
102
RTVSPost2010Prop40
 90
        0
102
RTVSPost2010PropOp40
 70
     1
102
RTVSPost2010Prop41ColorIndex
 90
       18
102
RTVSPost2010Prop41ColorRGB
 90
-16777216
102
RTVSPost2010PropOp41
 70
     1
102
RTVSPost2010Prop42
 90
       50
102
RTVSPost2010PropOp42
 70
     1
102
RTVSPost2010Prop43
 90
        3
102
RTVSPost2010PropOp43
 70
     1
102
RTVSPost2010Prop44ColorIndex
 90
        5
102
RTVSPost2010Prop44ColorRGB
 90
      255
102
RTVSPost2010PropOp44
 70
     1
102
RTVSPost2010Prop45
280
     0
102
RTVSPost2010PropOp45
 70
     1
102
RTVSPost2010Prop46
 90
       50
102
RTVSPost2010PropOp46
 70
     1
102
RTVSPost2010Prop47
 90
       50
102
RTVSPost2010PropOp47
 70
     1
102
RTVSPost2010Prop48
 90
       50
102
RTVSPost2010PropOp48
 70
     1
102
RTVSPost2010Prop49
280
     0
102
RTVSPost2010PropOp49
 70
     1
102
RTVSPost2010Prop50
 90
       50
102
RTVSPost2010PropOp50
 70
     1
102
RTVSPost2010Prop51ColorIndex
 90
      256
102
RTVSPost2010Prop51ColorRGB
 90
-16777216
102
RTVSPost2010PropOp51
 70
     0
102
RTVSPost2010Prop52
140
1.0
102
RTVSPost2010PropOp52
 70
     0
102
RTVSPost2010Prop53
 90
        2
102
RTVSPost2010PropOp53
 70
     1
102
RTVSPost2010Prop54
  1
strokes_ogs.tif
102
RTVSPost2010PropOp54
 70
     1
102
RTVSPost2010Prop55
280
     0
102
RTVSPost2010PropOp55
 70
     1
102
RTVSPost2010Prop56
140
1.0
102
RTVSPost2010PropOp56
 70
     1
102
RTVSPost2010Prop57
140
1.0
102
RTVSPost2010PropOp57
 70
     1
102
RTVSPropertyOp0
 70
     1
102
RTVSPropertyOp1
 70
     1
102
RTVSPropertyOp2
 70
     1
102
RTVSPropertyOp3
 70
     1
102
RTVSPropertyOp4
 70
     1
102
RTVSPropertyOp5
 70
     1
102
RTVSPropertyOp6
 70
     1
102
RTVSPropertyOp7
 70
     1
102
RTVSPropertyOp8
 70
     1
102
RTVSPropertyOp9
 70
     1
102
RTVSPropertyOp10
 70
     1
102
RTVSPropertyOp11
 70
     1
102
RTVSPropertyOp12
 70
     1
102
RTVSPropertyOp13
 70
     1
102
RTVSPropertyOp14
 70
     1
102
RTVSPropertyOp15
 70
     1
102
RTVSPropertyOp16
 70
     1
102
RTVSPropertyOp17
 70
     1
102
RTVSPropertyOp18
 70
     1
102
RTVSPropertyOp19
 70
     1
102
RTVSPropertyOp20
 70
     1
102
RTVSPropertyOp21
 70
     1
102
RTVSPropertyOp22
 70
     1
102
RTVSPropertyOp23
 70
     1
102
RTVSPropertyOp24
 70
     1
102
RTVSPropertyOp25
 70
     1
102
RTVSPropertyOp26
 70
     1
102
RTVSPropertyOp27
 70
     1
102
RTVSPropertyOp28
 70
     1
102
RTVSPropertyOp29
 70
     1
102
RTVSPropertyOp30
 70
     1
102
RTVSPropertyOp31
 70
     1
102
RTVSPropertyOp32
 70
     1
102
RTVSPropertyOp33
 70
     1
102
RTVSPropertyOp34
 70
     1
102
RTVSPropertyOp35
 70
     1
102
RTVSPropertyOp36
 70
     1
102
RTVSPropertyOp37
 70
     1
102
RTVSPropertyOp38
 70
     1
102
RTVSPropertyOp39
 70
     1
102
RTVSPropertyOp40
 70
     1
102
RTVSPropertyOp41
 70
     1
102
RTVSPropertyOp42
 70
     1
102
RTVSPropertyOp43
 70
     1
102
RTVSPropertyOp44
 70
     1
102
RTVSPropertyOp45
 70
     1
102
RTVSPropertyOp46
 70
     1
102
RTVSPropertyOp47
 70
     1
102
RTVSPropertyOp48
 70
     1
102
RTVSPropertyOp49
 70
     1
102
RTVSPropertyOp50
 70
     1
102
RTVSPropertyOp51
 70
     0
102
RTVSPropertyOp52
 70
     0
102
RTVSPropertyOp53
 70
     1
102
RTVSPropertyOp54
 70
     1
102
RTVSPropertyOp55
 70
     1
102
RTVSPropertyOp56
 70
     1
102
RTVSPropertyOp57
 70
     1
102
RTVSPropertyOp58
 70
     1
102
RTVSPropertyOp59
 70
     1
102
RTVSPropertyOp60
 70
     1
102
RTVSPropertyOp61
 70
     1
102
RTVSPropertyOp62
 70
     1
  0
XRECORD
  5
2067
102
{ACAD_REACTORS
330
2066
102
}
330
2066
100
AcDbXrecord
280
     1
102
RTVSPost2010Prop28
280
     0
102
RTVSPost2010PropOp28
 70
     1
102
RTVSPost2010Prop29
280
     1
102
RTVSPost2010PropOp29
 70
     1
102
RTVSPost2010Prop30
280
     1
102
RTVSPost2010PropOp30
 70
     1
102
RTVSPost2010Prop31
280
     0
102
RTVSPost2010PropOp31
 70
     1
102
RTVSPost2010Prop32
280
     0
102
RTVSPost2010PropOp32
 70
     1
102
RTVSPost2010Prop33
280
     0
102
RTVSPost2010PropOp33
 70
     1
102
RTVSPost2010Prop34
280
     0
102
RTVSPost2010PropOp34
 70
     1
102
RTVSPost2010Prop35
280
     0
102
RTVSPost2010PropOp35
 70
     1
102
RTVSPost2010Prop36
280
     0
102
RTVSPost2010PropOp36
 70
     1
102
RTVSPost2010Prop37
 90
       50
102
RTVSPost2010PropOp37
 70
     0
102
RTVSPost2010Prop38
140
0.0
102
RTVSPost2010PropOp38
 70
     0
102
RTVSPost2010Prop39
140
1.0
102
RTVSPost2010PropOp39
 70
     0
102
RTVSPost2010Prop40
 90
        0
102
RTVSPost2010PropOp40
 70
     0
102
RTVSPost2010Prop41ColorIndex
 90
       18
102
RTVSPost2010Prop41ColorRGB
 90
-16777216
102
RTVSPost2010PropOp41
 70
     0
102
RTVSPost2010Prop42
 90
       50
102
RTVSPost2010PropOp42
 70
     0
102
RTVSPost2010Prop43
 90
        3
102
RTVSPost2010PropOp43
 70
     0
102
RTVSPost2010Prop44ColorIndex
 90
        5
102
RTVSPost2010Prop44ColorRGB
 90
      255
102
RTVSPost2010PropOp44
 70
     0
102
RTVSPost2010Prop45
280
     0
102
RTVSPost2010PropOp45
 70
     1
102
RTVSPost2010Prop46
 90
       50
102
RTVSPost2010PropOp46
 70
     0
102
RTVSPost2010Prop47
 90
       50
102
RTVSPost2010PropOp47
 70
     0
102
RTVSPost2010Prop48
 90
       50
102
RTVSPost2010PropOp48
 70
     0
102
RTVSPost2010Prop49
280
     0
102
RTVSPost2010PropOp49
 70
     1
102
RTVSPost2010Prop50
 90
       50
102
RTVSPost2010PropOp50
 70
     0
102
RTVSPost2010Prop51ColorIndex
 90
      256
102
RTVSPost2010Prop51ColorRGB
 90
-16777216
102
RTVSPost2010PropOp51
 70
     0
102
RTVSPost2010Prop52
140
1.0
102
RTVSPost2010PropOp52
 70
     0
102
RTVSPost2010Prop53
 90
        2
102
RTVSPost2010PropOp53
 70
     0
102
RTVSPost2010Prop54
  1
strokes_ogs.tif
102
RTVSPost2010PropOp54
 70
     0
102
RTVSPost2010Prop55
280
     0
102
RTVSPost2010PropOp55
 70
     1
102
RTVSPost2010Prop56
140
1.0
102
RTVSPost2010PropOp56
 70
     0
102
RTVSPost2010Prop57
140
1.0
102
RTVSPost2010PropOp57
 70
     0
102
RTVSPropertyOp0
 70
     0
102
RTVSPropertyOp1
 70
     0
102
RTVSPropertyOp2
 70
     0
102
RTVSPropertyOp3
 70
     0
102
RTVSPropertyOp4
 70
     0
102
RTVSPropertyOp5
 70
     0
102
RTVSPropertyOp6
 70
     0
102
RTVSPropertyOp7
 70
     0
102
RTVSPropertyOp8
 70
     0
102
RTVSPropertyOp9
 70
     0
102
RTVSPropertyOp10
 70
     0
102
RTVSPropertyOp11
 70
     0
102
RTVSPropertyOp12
 70
     0
102
RTVSPropertyOp13
 70
     0
102
RTVSPropertyOp14
 70
     2
102
RTVSPropertyOp15
 70
     0
102
RTVSPropertyOp16
 70
     0
102
RTVSPropertyOp17
 70
     0
102
RTVSPropertyOp18
 70
     0
102
RTVSPropertyOp19
 70
     0
102
RTVSPropertyOp20
 70
     0
102
RTVSPropertyOp21
 70
     0
102
RTVSPropertyOp22
 70
     0
102
RTVSPropertyOp23
 70
     0
102
RTVSPropertyOp24
 70
     0
102
RTVSPropertyOp25
 70
     0
102
RTVSPropertyOp26
 70
     0
102
RTVSPropertyOp27
 70
     0
102
RTVSPropertyOp28
 70
     1
102
RTVSPropertyOp29
 70
     1
102
RTVSPropertyOp30
 70
     1
102
RTVSPropertyOp31
 70
     1
102
RTVSPropertyOp32
 70
     1
102
RTVSPropertyOp33
 70
     1
102
RTVSPropertyOp34
 70
     1
102
RTVSPropertyOp35
 70
     1
102
RTVSPropertyOp36
 70
     1
102
RTVSPropertyOp37
 70
     0
102
RTVSPropertyOp38
 70
     0
102
RTVSPropertyOp39
 70
     0
102
RTVSPropertyOp40
 70
     0
102
RTVSPropertyOp41
 70
     0
102
RTVSPropertyOp42
 70
     0
102
RTVSPropertyOp43
 70
     0
102
RTVSPropertyOp44
 70
     0
102
RTVSPropertyOp45
 70
     1
102
RTVSPropertyOp46
 70
     0
102
RTVSPropertyOp47
 70
     0
102
RTVSPropertyOp48
 70
     0
102
RTVSPropertyOp49
 70
     1
102
RTVSPropertyOp50
 70
     0
102
RTVSPropertyOp51
 70
     0
102
RTVSPropertyOp52
 70
     0
102
RTVSPropertyOp53
 70
     0
102
RTVSPropertyOp54
 70
     0
102
RTVSPropertyOp55
 70
     1
102
RTVSPropertyOp56
 70
     0
102
RTVSPropertyOp57
 70
     0
102
RTVSPropertyOp58
 70
     1
102
RTVSPropertyOp59
 70
     1
102
RTVSPropertyOp60
 70
     1
102
RTVSPropertyOp61
 70
     1
102
RTVSPropertyOp62
 70
     1
  0
XRECORD
  5
204D
102
{ACAD_REACTORS
330
204C
102
}
330
204C
100
AcDbXrecord
280
     1
102
RTVSPost2010Prop28
280
     0
102
RTVSPost2010PropOp28
 70
     1
102
RTVSPost2010Prop29
280
     1
102
RTVSPost2010PropOp29
 70
     1
102
RTVSPost2010Prop30
280
     1
102
RTVSPost2010PropOp30
 70
     1
102
RTVSPost2010Prop31
280
     0
102
RTVSPost2010PropOp31
 70
     1
102
RTVSPost2010Prop32
280
     0
102
RTVSPost2010PropOp32
 70
     1
102
RTVSPost2010Prop33
280
     0
102
RTVSPost2010PropOp33
 70
     1
102
RTVSPost2010Prop34
280
     0
102
RTVSPost2010PropOp34
 70
     1
102
RTVSPost2010Prop35
280
     0
102
RTVSPost2010PropOp35
 70
     1
102
RTVSPost2010Prop36
280
     0
102
RTVSPost2010PropOp36
 70
     1
102
RTVSPost2010Prop37
 90
       50
102
RTVSPost2010PropOp37
 70
     1
102
RTVSPost2010Prop38
140
0.0
102
RTVSPost2010PropOp38
 70
     1
102
RTVSPost2010Prop39
140
1.0
102
RTVSPost2010PropOp39
 70
     1
102
RTVSPost2010Prop40
 90
        0
102
RTVSPost2010PropOp40
 70
     1
102
RTVSPost2010Prop41ColorIndex
 90
       18
102
RTVSPost2010Prop41ColorRGB
 90
-16777216
102
RTVSPost2010PropOp41
 70
     1
102
RTVSPost2010Prop42
 90
       50
102
RTVSPost2010PropOp42
 70
     1
102
RTVSPost2010Prop43
 90
        3
102
RTVSPost2010PropOp43
 70
     1
102
RTVSPost2010Prop44ColorIndex
 90
        5
102
RTVSPost2010Prop44ColorRGB
 90
      255
102
RTVSPost2010PropOp44
 70
     1
102
RTVSPost2010Prop45
280
     0
102
RTVSPost2010PropOp45
 70
     1
102
RTVSPost2010Prop46
 90
       50
102
RTVSPost2010PropOp46
 70
     1
102
RTVSPost2010Prop47
 90
       50
102
RTVSPost2010PropOp47
 70
     1
102
RTVSPost2010Prop48
 90
       50
102
RTVSPost2010PropOp48
 70
     1
102
RTVSPost2010Prop49
280
     0
102
RTVSPost2010PropOp49
 70
     1
102
RTVSPost2010Prop50
 90
       50
102
RTVSPost2010PropOp50
 70
     1
102
RTVSPost2010Prop51ColorIndex
 90
      256
102
RTVSPost2010Prop51ColorRGB
 90
-16777216
102
RTVSPost2010PropOp51
 70
     0
102
RTVSPost2010Prop52
140
1.0
102
RTVSPost2010PropOp52
 70
     0
102
RTVSPost2010Prop53
 90
        2
102
RTVSPost2010PropOp53
 70
     1
102
RTVSPost2010Prop54
  1
strokes_ogs.tif
102
RTVSPost2010PropOp54
 70
     1
102
RTVSPost2010Prop55
280
     0
102
RTVSPost2010PropOp55
 70
     1
102
RTVSPost2010Prop56
140
1.0
102
RTVSPost2010PropOp56
 70
     1
102
RTVSPost2010Prop57
140
1.0
102
RTVSPost2010PropOp57
 70
     1
102
RTVSPropertyOp0
 70
     1
102
RTVSPropertyOp1
 70
     1
102
RTVSPropertyOp2
 70
     1
102
RTVSPropertyOp3
 70
     1
102
RTVSPropertyOp4
 70
     1
102
RTVSPropertyOp5
 70
     1
102
RTVSPropertyOp6
 70
     1
102
RTVSPropertyOp7
 70
     1
102
RTVSPropertyOp8
 70
     1
102
RTVSPropertyOp9
 70
     1
102
RTVSPropertyOp10
 70
     1
102
RTVSPropertyOp11
 70
     1
102
RTVSPropertyOp12
 70
     1
102
RTVSPropertyOp13
 70
     1
102
RTVSPropertyOp14
 70
     1
102
RTVSPropertyOp15
 70
     1
102
RTVSPropertyOp16
 70
     1
102
RTVSPropertyOp17
 70
     1
102
RTVSPropertyOp18
 70
     1
102
RTVSPropertyOp19
 70
     1
102
RTVSPropertyOp20
 70
     1
102
RTVSPropertyOp21
 70
     1
102
RTVSPropertyOp22
 70
     1
102
RTVSPropertyOp23
 70
     1
102
RTVSPropertyOp24
 70
     1
102
RTVSPropertyOp25
 70
     1
102
RTVSPropertyOp26
 70
     1
102
RTVSPropertyOp27
 70
     1
102
RTVSPropertyOp28
 70
     1
102
RTVSPropertyOp29
 70
     1
102
RTVSPropertyOp30
 70
     1
102
RTVSPropertyOp31
 70
     1
102
RTVSPropertyOp32
 70
     1
102
RTVSPropertyOp33
 70
     1
102
RTVSPropertyOp34
 70
     1
102
RTVSPropertyOp35
 70
     1
102
RTVSPropertyOp36
 70
     1
102
RTVSPropertyOp37
 70
     1
102
RTVSPropertyOp38
 70
     1
102
RTVSPropertyOp39
 70
     1
102
RTVSPropertyOp40
 70
     1
102
RTVSPropertyOp41
 70
     1
102
RTVSPropertyOp42
 70
     1
102
RTVSPropertyOp43
 70
     1
102
RTVSPropertyOp44
 70
     1
102
RTVSPropertyOp45
 70
     1
102
RTVSPropertyOp46
 70
     1
102
RTVSPropertyOp47
 70
     1
102
RTVSPropertyOp48
 70
     1
102
RTVSPropertyOp49
 70
     1
102
RTVSPropertyOp50
 70
     1
102
RTVSPropertyOp51
 70
     0
102
RTVSPropertyOp52
 70
     0
102
RTVSPropertyOp53
 70
     1
102
RTVSPropertyOp54
 70
     1
102
RTVSPropertyOp55
 70
     1
102
RTVSPropertyOp56
 70
     1
102
RTVSPropertyOp57
 70
     1
102
RTVSPropertyOp58
 70
     1
102
RTVSPropertyOp59
 70
     1
102
RTVSPropertyOp60
 70
     1
102
RTVSPropertyOp61
 70
     1
102
RTVSPropertyOp62
 70
     1
  0
XRECORD
  5
2063
102
{ACAD_REACTORS
330
2062
102
}
330
2062
100
AcDbXrecord
280
     1
102
RTVSPost2010Prop28
280
     0
102
RTVSPost2010PropOp28
 70
     1
102
RTVSPost2010Prop29
280
     1
102
RTVSPost2010PropOp29
 70
     1
102
RTVSPost2010Prop30
280
     1
102
RTVSPost2010PropOp30
 70
     1
102
RTVSPost2010Prop31
280
     0
102
RTVSPost2010PropOp31
 70
     1
102
RTVSPost2010Prop32
280
     0
102
RTVSPost2010PropOp32
 70
     1
102
RTVSPost2010Prop33
280
     0
102
RTVSPost2010PropOp33
 70
     1
102
RTVSPost2010Prop34
280
     0
102
RTVSPost2010PropOp34
 70
     1
102
RTVSPost2010Prop35
280
     0
102
RTVSPost2010PropOp35
 70
     1
102
RTVSPost2010Prop36
280
     0
102
RTVSPost2010PropOp36
 70
     1
102
RTVSPost2010Prop37
 90
       50
102
RTVSPost2010PropOp37
 70
     1
102
RTVSPost2010Prop38
140
0.0
102
RTVSPost2010PropOp38
 70
     1
102
RTVSPost2010Prop39
140
1.0
102
RTVSPost2010PropOp39
 70
     1
102
RTVSPost2010Prop40
 90
        0
102
RTVSPost2010PropOp40
 70
     1
102
RTVSPost2010Prop41ColorIndex
 90
       18
102
RTVSPost2010Prop41ColorRGB
 90
-16777216
102
RTVSPost2010PropOp41
 70
     1
102
RTVSPost2010Prop42
 90
       50
102
RTVSPost2010PropOp42
 70
     1
102
RTVSPost2010Prop43
 90
        3
102
RTVSPost2010PropOp43
 70
     1
102
RTVSPost2010Prop44ColorIndex
 90
        5
102
RTVSPost2010Prop44ColorRGB
 90
      255
102
RTVSPost2010PropOp44
 70
     1
102
RTVSPost2010Prop45
280
     0
102
RTVSPost2010PropOp45
 70
     1
102
RTVSPost2010Prop46
 90
       50
102
RTVSPost2010PropOp46
 70
     1
102
RTVSPost2010Prop47
 90
       50
102
RTVSPost2010PropOp47
 70
     1
102
RTVSPost2010Prop48
 90
       50
102
RTVSPost2010PropOp48
 70
     1
102
RTVSPost2010Prop49
280
     0
102
RTVSPost2010PropOp49
 70
     1
102
RTVSPost2010Prop50
 90
       50
102
RTVSPost2010PropOp50
 70
     1
102
RTVSPost2010Prop51ColorIndex
 90
      256
102
RTVSPost2010Prop51ColorRGB
 90
-16777216
102
RTVSPost2010PropOp51
 70
     0
102
RTVSPost2010Prop52
140
1.0
102
RTVSPost2010PropOp52
 70
     0
102
RTVSPost2010Prop53
 90
        2
102
RTVSPost2010PropOp53
 70
     1
102
RTVSPost2010Prop54
  1
strokes_ogs.tif
102
RTVSPost2010PropOp54
 70
     1
102
RTVSPost2010Prop55
280
     0
102
RTVSPost2010PropOp55
 70
     1
102
RTVSPost2010Prop56
140
1.0
102
RTVSPost2010PropOp56
 70
     1
102
RTVSPost2010Prop57
140
1.0
102
RTVSPost2010PropOp57
 70
     1
102
RTVSPropertyOp0
 70
     1
102
RTVSPropertyOp1
 70
     1
102
RTVSPropertyOp2
 70
     1
102
RTVSPropertyOp3
 70
     1
102
RTVSPropertyOp4
 70
     1
102
RTVSPropertyOp5
 70
     1
102
RTVSPropertyOp6
 70
     1
102
RTVSPropertyOp7
 70
     1
102
RTVSPropertyOp8
 70
     1
102
RTVSPropertyOp9
 70
     1
102
RTVSPropertyOp10
 70
     1
102
RTVSPropertyOp11
 70
     1
102
RTVSPropertyOp12
 70
     1
102
RTVSPropertyOp13
 70
     1
102
RTVSPropertyOp14
 70
     1
102
RTVSPropertyOp15
 70
     1
102
RTVSPropertyOp16
 70
     1
102
RTVSPropertyOp17
 70
     1
102
RTVSPropertyOp18
 70
     1
102
RTVSPropertyOp19
 70
     1
102
RTVSPropertyOp20
 70
     1
102
RTVSPropertyOp21
 70
     1
102
RTVSPropertyOp22
 70
     1
102
RTVSPropertyOp23
 70
     1
102
RTVSPropertyOp24
 70
     1
102
RTVSPropertyOp25
 70
     1
102
RTVSPropertyOp26
 70
     1
102
RTVSPropertyOp27
 70
     1
102
RTVSPropertyOp28
 70
     1
102
RTVSPropertyOp29
 70
     1
102
RTVSPropertyOp30
 70
     1
102
RTVSPropertyOp31
 70
     1
102
RTVSPropertyOp32
 70
     1
102
RTVSPropertyOp33
 70
     1
102
RTVSPropertyOp34
 70
     1
102
RTVSPropertyOp35
 70
     1
102
RTVSPropertyOp36
 70
     1
102
RTVSPropertyOp37
 70
     1
102
RTVSPropertyOp38
 70
     1
102
RTVSPropertyOp39
 70
     1
102
RTVSPropertyOp40
 70
     1
102
RTVSPropertyOp41
 70
     1
102
RTVSPropertyOp42
 70
     1
102
RTVSPropertyOp43
 70
     1
102
RTVSPropertyOp44
 70
     1
102
RTVSPropertyOp45
 70
     1
102
RTVSPropertyOp46
 70
     1
102
RTVSPropertyOp47
 70
     1
102
RTVSPropertyOp48
 70
     1
102
RTVSPropertyOp49
 70
     1
102
RTVSPropertyOp50
 70
     1
102
RTVSPropertyOp51
 70
     0
102
RTVSPropertyOp52
 70
     0
102
RTVSPropertyOp53
 70
     1
102
RTVSPropertyOp54
 70
     1
102
RTVSPropertyOp55
 70
     1
102
RTVSPropertyOp56
 70
     1
102
RTVSPropertyOp57
 70
     1
102
RTVSPropertyOp58
 70
     1
102
RTVSPropertyOp59
 70
     1
102
RTVSPropertyOp60
 70
     1
102
RTVSPropertyOp61
 70
     1
102
RTVSPropertyOp62
 70
     1
  0
XRECORD
  5
2061
102
{ACAD_REACTORS
330
2060
102
}
330
2060
100
AcDbXrecord
280
     1
102
RTVSPost2010Prop28
280
     0
102
RTVSPost2010PropOp28
 70
     1
102
RTVSPost2010Prop29
280
     1
102
RTVSPost2010PropOp29
 70
     1
102
RTVSPost2010Prop30
280
     1
102
RTVSPost2010PropOp30
 70
     1
102
RTVSPost2010Prop31
280
     0
102
RTVSPost2010PropOp31
 70
     1
102
RTVSPost2010Prop32
280
     0
102
RTVSPost2010PropOp32
 70
     1
102
RTVSPost2010Prop33
280
     0
102
RTVSPost2010PropOp33
 70
     1
102
RTVSPost2010Prop34
280
     0
102
RTVSPost2010PropOp34
 70
     1
102
RTVSPost2010Prop35
280
     0
102
RTVSPost2010PropOp35
 70
     1
102
RTVSPost2010Prop36
280
     0
102
RTVSPost2010PropOp36
 70
     1
102
RTVSPost2010Prop37
 90
       50
102
RTVSPost2010PropOp37
 70
     1
102
RTVSPost2010Prop38
140
0.0
102
RTVSPost2010PropOp38
 70
     1
102
RTVSPost2010Prop39
140
1.0
102
RTVSPost2010PropOp39
 70
     1
102
RTVSPost2010Prop40
 90
        0
102
RTVSPost2010PropOp40
 70
     1
102
RTVSPost2010Prop41ColorIndex
 90
       18
102
RTVSPost2010Prop41ColorRGB
 90
-16777216
102
RTVSPost2010PropOp41
 70
     1
102
RTVSPost2010Prop42
 90
       50
102
RTVSPost2010PropOp42
 70
     1
102
RTVSPost2010Prop43
 90
        3
102
RTVSPost2010PropOp43
 70
     1
102
RTVSPost2010Prop44ColorIndex
 90
        5
102
RTVSPost2010Prop44ColorRGB
 90
      255
102
RTVSPost2010PropOp44
 70
     1
102
RTVSPost2010Prop45
280
     0
102
RTVSPost2010PropOp45
 70
     1
102
RTVSPost2010Prop46
 90
       50
102
RTVSPost2010PropOp46
 70
     1
102
RTVSPost2010Prop47
 90
       50
102
RTVSPost2010PropOp47
 70
     1
102
RTVSPost2010Prop48
 90
       50
102
RTVSPost2010PropOp48
 70
     1
102
RTVSPost2010Prop49
280
     0
102
RTVSPost2010PropOp49
 70
     1
102
RTVSPost2010Prop50
 90
       50
102
RTVSPost2010PropOp50
 70
     1
102
RTVSPost2010Prop51ColorIndex
 90
      256
102
RTVSPost2010Prop51ColorRGB
 90
-16777216
102
RTVSPost2010PropOp51
 70
     0
102
RTVSPost2010Prop52
140
1.0
102
RTVSPost2010PropOp52
 70
     0
102
RTVSPost2010Prop53
 90
        2
102
RTVSPost2010PropOp53
 70
     1
102
RTVSPost2010Prop54
  1
strokes_ogs.tif
102
RTVSPost2010PropOp54
 70
     1
102
RTVSPost2010Prop55
280
     0
102
RTVSPost2010PropOp55
 70
     1
102
RTVSPost2010Prop56
140
1.0
102
RTVSPost2010PropOp56
 70
     1
102
RTVSPost2010Prop57
140
1.0
102
RTVSPost2010PropOp57
 70
     1
102
RTVSPropertyOp0
 70
     1
102
RTVSPropertyOp1
 70
     1
102
RTVSPropertyOp2
 70
     1
102
RTVSPropertyOp3
 70
     1
102
RTVSPropertyOp4
 70
     1
102
RTVSPropertyOp5
 70
     1
102
RTVSPropertyOp6
 70
     1
102
RTVSPropertyOp7
 70
     1
102
RTVSPropertyOp8
 70
     1
102
RTVSPropertyOp9
 70
     1
102
RTVSPropertyOp10
 70
     1
102
RTVSPropertyOp11
 70
     1
102
RTVSPropertyOp12
 70
     1
102
RTVSPropertyOp13
 70
     1
102
RTVSPropertyOp14
 70
     1
102
RTVSPropertyOp15
 70
     1
102
RTVSPropertyOp16
 70
     1
102
RTVSPropertyOp17
 70
     1
102
RTVSPropertyOp18
 70
     1
102
RTVSPropertyOp19
 70
     1
102
RTVSPropertyOp20
 70
     1
102
RTVSPropertyOp21
 70
     1
102
RTVSPropertyOp22
 70
     1
102
RTVSPropertyOp23
 70
     1
102
RTVSPropertyOp24
 70
     1
102
RTVSPropertyOp25
 70
     1
102
RTVSPropertyOp26
 70
     1
102
RTVSPropertyOp27
 70
     1
102
RTVSPropertyOp28
 70
     1
102
RTVSPropertyOp29
 70
     1
102
RTVSPropertyOp30
 70
     1
102
RTVSPropertyOp31
 70
     1
102
RTVSPropertyOp32
 70
     1
102
RTVSPropertyOp33
 70
     1
102
RTVSPropertyOp34
 70
     1
102
RTVSPropertyOp35
 70
     1
102
RTVSPropertyOp36
 70
     1
102
RTVSPropertyOp37
 70
     1
102
RTVSPropertyOp38
 70
     1
102
RTVSPropertyOp39
 70
     1
102
RTVSPropertyOp40
 70
     1
102
RTVSPropertyOp41
 70
     1
102
RTVSPropertyOp42
 70
     1
102
RTVSPropertyOp43
 70
     1
102
RTVSPropertyOp44
 70
     1
102
RTVSPropertyOp45
 70
     1
102
RTVSPropertyOp46
 70
     1
102
RTVSPropertyOp47
 70
     1
102
RTVSPropertyOp48
 70
     1
102
RTVSPropertyOp49
 70
     1
102
RTVSPropertyOp50
 70
     1
102
RTVSPropertyOp51
 70
     0
102
RTVSPropertyOp52
 70
     0
102
RTVSPropertyOp53
 70
     1
102
RTVSPropertyOp54
 70
     1
102
RTVSPropertyOp55
 70
     1
102
RTVSPropertyOp56
 70
     1
102
RTVSPropertyOp57
 70
     1
102
RTVSPropertyOp58
 70
     1
102
RTVSPropertyOp59
 70
     1
102
RTVSPropertyOp60
 70
     1
102
RTVSPropertyOp61
 70
     1
102
RTVSPropertyOp62
 70
     1
  0
XRECORD
  5
205B
102
{ACAD_REACTORS
330
205A
102
}
330
205A
100
AcDbXrecord
280
     1
102
RTVSPost2010Prop28
280
     0
102
RTVSPost2010PropOp28
 70
     1
102
RTVSPost2010Prop29
280
     1
102
RTVSPost2010PropOp29
 70
     1
102
RTVSPost2010Prop30
280
     1
102
RTVSPost2010PropOp30
 70
     1
102
RTVSPost2010Prop31
280
     0
102
RTVSPost2010PropOp31
 70
     1
102
RTVSPost2010Prop32
280
     0
102
RTVSPost2010PropOp32
 70
     1
102
RTVSPost2010Prop33
280
     0
102
RTVSPost2010PropOp33
 70
     1
102
RTVSPost2010Prop34
280
     0
102
RTVSPost2010PropOp34
 70
     1
102
RTVSPost2010Prop35
280
     0
102
RTVSPost2010PropOp35
 70
     1
102
RTVSPost2010Prop36
280
     0
102
RTVSPost2010PropOp36
 70
     1
102
RTVSPost2010Prop37
 90
       50
102
RTVSPost2010PropOp37
 70
     1
102
RTVSPost2010Prop38
140
0.0
102
RTVSPost2010PropOp38
 70
     1
102
RTVSPost2010Prop39
140
1.0
102
RTVSPost2010PropOp39
 70
     1
102
RTVSPost2010Prop40
 90
        0
102
RTVSPost2010PropOp40
 70
     1
102
RTVSPost2010Prop41ColorIndex
 90
       18
102
RTVSPost2010Prop41ColorRGB
 90
-16777216
102
RTVSPost2010PropOp41
 70
     1
102
RTVSPost2010Prop42
 90
       50
102
RTVSPost2010PropOp42
 70
     1
102
RTVSPost2010Prop43
 90
        3
102
RTVSPost2010PropOp43
 70
     1
102
RTVSPost2010Prop44ColorIndex
 90
        5
102
RTVSPost2010Prop44ColorRGB
 90
      255
102
RTVSPost2010PropOp44
 70
     1
102
RTVSPost2010Prop45
280
     0
102
RTVSPost2010PropOp45
 70
     1
102
RTVSPost2010Prop46
 90
       50
102
RTVSPost2010PropOp46
 70
     1
102
RTVSPost2010Prop47
 90
       50
102
RTVSPost2010PropOp47
 70
     1
102
RTVSPost2010Prop48
 90
       50
102
RTVSPost2010PropOp48
 70
     1
102
RTVSPost2010Prop49
280
     0
102
RTVSPost2010PropOp49
 70
     1
102
RTVSPost2010Prop50
 90
       50
102
RTVSPost2010PropOp50
 70
     1
102
RTVSPost2010Prop51ColorIndex
 90
      256
102
RTVSPost2010Prop51ColorRGB
 90
-16777216
102
RTVSPost2010PropOp51
 70
     0
102
RTVSPost2010Prop52
140
1.0
102
RTVSPost2010PropOp52
 70
     0
102
RTVSPost2010Prop53
 90
        2
102
RTVSPost2010PropOp53
 70
     1
102
RTVSPost2010Prop54
  1
strokes_ogs.tif
102
RTVSPost2010PropOp54
 70
     1
102
RTVSPost2010Prop55
280
     0
102
RTVSPost2010PropOp55
 70
     1
102
RTVSPost2010Prop56
140
1.0
102
RTVSPost2010PropOp56
 70
     1
102
RTVSPost2010Prop57
140
1.0
102
RTVSPost2010PropOp57
 70
     1
102
RTVSPropertyOp0
 70
     1
102
RTVSPropertyOp1
 70
     1
102
RTVSPropertyOp2
 70
     1
102
RTVSPropertyOp3
 70
     1
102
RTVSPropertyOp4
 70
     1
102
RTVSPropertyOp5
 70
     1
102
RTVSPropertyOp6
 70
     1
102
RTVSPropertyOp7
 70
     1
102
RTVSPropertyOp8
 70
     1
102
RTVSPropertyOp9
 70
     1
102
RTVSPropertyOp10
 70
     1
102
RTVSPropertyOp11
 70
     1
102
RTVSPropertyOp12
 70
     1
102
RTVSPropertyOp13
 70
     1
102
RTVSPropertyOp14
 70
     1
102
RTVSPropertyOp15
 70
     1
102
RTVSPropertyOp16
 70
     1
102
RTVSPropertyOp17
 70
     1
102
RTVSPropertyOp18
 70
     1
102
RTVSPropertyOp19
 70
     1
102
RTVSPropertyOp20
 70
     1
102
RTVSPropertyOp21
 70
     1
102
RTVSPropertyOp22
 70
     1
102
RTVSPropertyOp23
 70
     1
102
RTVSPropertyOp24
 70
     1
102
RTVSPropertyOp25
 70
     1
102
RTVSPropertyOp26
 70
     1
102
RTVSPropertyOp27
 70
     1
102
RTVSPropertyOp28
 70
     1
102
RTVSPropertyOp29
 70
     1
102
RTVSPropertyOp30
 70
     1
102
RTVSPropertyOp31
 70
     1
102
RTVSPropertyOp32
 70
     1
102
RTVSPropertyOp33
 70
     1
102
RTVSPropertyOp34
 70
     1
102
RTVSPropertyOp35
 70
     1
102
RTVSPropertyOp36
 70
     1
102
RTVSPropertyOp37
 70
     1
102
RTVSPropertyOp38
 70
     1
102
RTVSPropertyOp39
 70
     1
102
RTVSPropertyOp40
 70
     1
102
RTVSPropertyOp41
 70
     1
102
RTVSPropertyOp42
 70
     1
102
RTVSPropertyOp43
 70
     1
102
RTVSPropertyOp44
 70
     1
102
RTVSPropertyOp45
 70
     1
102
RTVSPropertyOp46
 70
     1
102
RTVSPropertyOp47
 70
     1
102
RTVSPropertyOp48
 70
     1
102
RTVSPropertyOp49
 70
     1
102
RTVSPropertyOp50
 70
     1
102
RTVSPropertyOp51
 70
     0
102
RTVSPropertyOp52
 70
     0
102
RTVSPropertyOp53
 70
     1
102
RTVSPropertyOp54
 70
     1
102
RTVSPropertyOp55
 70
     1
102
RTVSPropertyOp56
 70
     1
102
RTVSPropertyOp57
 70
     1
102
RTVSPropertyOp58
 70
     1
102
RTVSPropertyOp59
 70
     1
102
RTVSPropertyOp60
 70
     1
102
RTVSPropertyOp61
 70
     1
102
RTVSPropertyOp62
 70
     1
  0
XRECORD
  5
205D
102
{ACAD_REACTORS
330
205C
102
}
330
205C
100
AcDbXrecord
280
     1
102
RTVSPost2010Prop28
280
     0
102
RTVSPost2010PropOp28
 70
     1
102
RTVSPost2010Prop29
280
     1
102
RTVSPost2010PropOp29
 70
     1
102
RTVSPost2010Prop30
280
     1
102
RTVSPost2010PropOp30
 70
     1
102
RTVSPost2010Prop31
280
     0
102
RTVSPost2010PropOp31
 70
     1
102
RTVSPost2010Prop32
280
     0
102
RTVSPost2010PropOp32
 70
     1
102
RTVSPost2010Prop33
280
     0
102
RTVSPost2010PropOp33
 70
     1
102
RTVSPost2010Prop34
280
     0
102
RTVSPost2010PropOp34
 70
     1
102
RTVSPost2010Prop35
280
     0
102
RTVSPost2010PropOp35
 70
     1
102
RTVSPost2010Prop36
280
     0
102
RTVSPost2010PropOp36
 70
     1
102
RTVSPost2010Prop37
 90
       50
102
RTVSPost2010PropOp37
 70
     1
102
RTVSPost2010Prop38
140
0.0
102
RTVSPost2010PropOp38
 70
     1
102
RTVSPost2010Prop39
140
1.0
102
RTVSPost2010PropOp39
 70
     1
102
RTVSPost2010Prop40
 90
        0
102
RTVSPost2010PropOp40
 70
     1
102
RTVSPost2010Prop41ColorIndex
 90
       18
102
RTVSPost2010Prop41ColorRGB
 90
-16777216
102
RTVSPost2010PropOp41
 70
     1
102
RTVSPost2010Prop42
 90
       50
102
RTVSPost2010PropOp42
 70
     1
102
RTVSPost2010Prop43
 90
        3
102
RTVSPost2010PropOp43
 70
     1
102
RTVSPost2010Prop44ColorIndex
 90
        5
102
RTVSPost2010Prop44ColorRGB
 90
      255
102
RTVSPost2010PropOp44
 70
     1
102
RTVSPost2010Prop45
280
     0
102
RTVSPost2010PropOp45
 70
     1
102
RTVSPost2010Prop46
 90
       50
102
RTVSPost2010PropOp46
 70
     1
102
RTVSPost2010Prop47
 90
       50
102
RTVSPost2010PropOp47
 70
     1
102
RTVSPost2010Prop48
 90
       50
102
RTVSPost2010PropOp48
 70
     1
102
RTVSPost2010Prop49
280
     0
102
RTVSPost2010PropOp49
 70
     1
102
RTVSPost2010Prop50
 90
       50
102
RTVSPost2010PropOp50
 70
     1
102
RTVSPost2010Prop51ColorIndex
 90
      256
102
RTVSPost2010Prop51ColorRGB
 90
-16777216
102
RTVSPost2010PropOp51
 70
     0
102
RTVSPost2010Prop52
140
1.0
102
RTVSPost2010PropOp52
 70
     0
102
RTVSPost2010Prop53
 90
        2
102
RTVSPost2010PropOp53
 70
     1
102
RTVSPost2010Prop54
  1
strokes_ogs.tif
102
RTVSPost2010PropOp54
 70
     1
102
RTVSPost2010Prop55
280
     0
102
RTVSPost2010PropOp55
 70
     1
102
RTVSPost2010Prop56
140
1.0
102
RTVSPost2010PropOp56
 70
     1
102
RTVSPost2010Prop57
140
1.0
102
RTVSPost2010PropOp57
 70
     1
102
RTVSPropertyOp0
 70
     1
102
RTVSPropertyOp1
 70
     1
102
RTVSPropertyOp2
 70
     1
102
RTVSPropertyOp3
 70
     1
102
RTVSPropertyOp4
 70
     1
102
RTVSPropertyOp5
 70
     1
102
RTVSPropertyOp6
 70
     1
102
RTVSPropertyOp7
 70
     1
102
RTVSPropertyOp8
 70
     1
102
RTVSPropertyOp9
 70
     1
102
RTVSPropertyOp10
 70
     1
102
RTVSPropertyOp11
 70
     1
102
RTVSPropertyOp12
 70
     1
102
RTVSPropertyOp13
 70
     1
102
RTVSPropertyOp14
 70
     1
102
RTVSPropertyOp15
 70
     1
102
RTVSPropertyOp16
 70
     1
102
RTVSPropertyOp17
 70
     1
102
RTVSPropertyOp18
 70
     1
102
RTVSPropertyOp19
 70
     1
102
RTVSPropertyOp20
 70
     1
102
RTVSPropertyOp21
 70
     1
102
RTVSPropertyOp22
 70
     1
102
RTVSPropertyOp23
 70
     1
102
RTVSPropertyOp24
 70
     1
102
RTVSPropertyOp25
 70
     1
102
RTVSPropertyOp26
 70
     1
102
RTVSPropertyOp27
 70
     1
102
RTVSPropertyOp28
 70
     1
102
RTVSPropertyOp29
 70
     1
102
RTVSPropertyOp30
 70
     1
102
RTVSPropertyOp31
 70
     1
102
RTVSPropertyOp32
 70
     1
102
RTVSPropertyOp33
 70
     1
102
RTVSPropertyOp34
 70
     1
102
RTVSPropertyOp35
 70
     1
102
RTVSPropertyOp36
 70
     1
102
RTVSPropertyOp37
 70
     1
102
RTVSPropertyOp38
 70
     1
102
RTVSPropertyOp39
 70
     1
102
RTVSPropertyOp40
 70
     1
102
RTVSPropertyOp41
 70
     1
102
RTVSPropertyOp42
 70
     1
102
RTVSPropertyOp43
 70
     1
102
RTVSPropertyOp44
 70
     1
102
RTVSPropertyOp45
 70
     1
102
RTVSPropertyOp46
 70
     1
102
RTVSPropertyOp47
 70
     1
102
RTVSPropertyOp48
 70
     1
102
RTVSPropertyOp49
 70
     1
102
RTVSPropertyOp50
 70
     1
102
RTVSPropertyOp51
 70
     0
102
RTVSPropertyOp52
 70
     0
102
RTVSPropertyOp53
 70
     1
102
RTVSPropertyOp54
 70
     1
102
RTVSPropertyOp55
 70
     1
102
RTVSPropertyOp56
 70
     1
102
RTVSPropertyOp57
 70
     1
102
RTVSPropertyOp58
 70
     1
102
RTVSPropertyOp59
 70
     1
102
RTVSPropertyOp60
 70
     1
102
RTVSPropertyOp61
 70
     1
102
RTVSPropertyOp62
 70
     1
  0
XRECORD
  5
2053
102
{ACAD_REACTORS
330
2052
102
}
330
2052
100
AcDbXrecord
280
     1
102
RTVSPost2010Prop28
280
     0
102
RTVSPost2010PropOp28
 70
     1
102
RTVSPost2010Prop29
280
     1
102
RTVSPost2010PropOp29
 70
     1
102
RTVSPost2010Prop30
280
     1
102
RTVSPost2010PropOp30
 70
     1
102
RTVSPost2010Prop31
280
     0
102
RTVSPost2010PropOp31
 70
     1
102
RTVSPost2010Prop32
280
     0
102
RTVSPost2010PropOp32
 70
     1
102
RTVSPost2010Prop33
280
     0
102
RTVSPost2010PropOp33
 70
     1
102
RTVSPost2010Prop34
280
     0
102
RTVSPost2010PropOp34
 70
     1
102
RTVSPost2010Prop35
280
     0
102
RTVSPost2010PropOp35
 70
     1
102
RTVSPost2010Prop36
280
     0
102
RTVSPost2010PropOp36
 70
     1
102
RTVSPost2010Prop37
 90
       50
102
RTVSPost2010PropOp37
 70
     1
102
RTVSPost2010Prop38
140
0.0
102
RTVSPost2010PropOp38
 70
     1
102
RTVSPost2010Prop39
140
1.0
102
RTVSPost2010PropOp39
 70
     1
102
RTVSPost2010Prop40
 90
        0
102
RTVSPost2010PropOp40
 70
     1
102
RTVSPost2010Prop41ColorIndex
 90
       18
102
RTVSPost2010Prop41ColorRGB
 90
-16777216
102
RTVSPost2010PropOp41
 70
     1
102
RTVSPost2010Prop42
 90
       50
102
RTVSPost2010PropOp42
 70
     1
102
RTVSPost2010Prop43
 90
        3
102
RTVSPost2010PropOp43
 70
     1
102
RTVSPost2010Prop44ColorIndex
 90
        5
102
RTVSPost2010Prop44ColorRGB
 90
      255
102
RTVSPost2010PropOp44
 70
     1
102
RTVSPost2010Prop45
280
     0
102
RTVSPost2010PropOp45
 70
     1
102
RTVSPost2010Prop46
 90
       50
102
RTVSPost2010PropOp46
 70
     1
102
RTVSPost2010Prop47
 90
       50
102
RTVSPost2010PropOp47
 70
     1
102
RTVSPost2010Prop48
 90
       50
102
RTVSPost2010PropOp48
 70
     1
102
RTVSPost2010Prop49
280
     0
102
RTVSPost2010PropOp49
 70
     1
102
RTVSPost2010Prop50
 90
       50
102
RTVSPost2010PropOp50
 70
     1
102
RTVSPost2010Prop51ColorIndex
 90
      256
102
RTVSPost2010Prop51ColorRGB
 90
-16777216
102
RTVSPost2010PropOp51
 70
     0
102
RTVSPost2010Prop52
140
1.0
102
RTVSPost2010PropOp52
 70
     0
102
RTVSPost2010Prop53
 90
        2
102
RTVSPost2010PropOp53
 70
     1
102
RTVSPost2010Prop54
  1
strokes_ogs.tif
102
RTVSPost2010PropOp54
 70
     1
102
RTVSPost2010Prop55
280
     0
102
RTVSPost2010PropOp55
 70
     1
102
RTVSPost2010Prop56
140
1.0
102
RTVSPost2010PropOp56
 70
     1
102
RTVSPost2010Prop57
140
1.0
102
RTVSPost2010PropOp57
 70
     1
102
RTVSPropertyOp0
 70
     1
102
RTVSPropertyOp1
 70
     1
102
RTVSPropertyOp2
 70
     1
102
RTVSPropertyOp3
 70
     1
102
RTVSPropertyOp4
 70
     1
102
RTVSPropertyOp5
 70
     1
102
RTVSPropertyOp6
 70
     1
102
RTVSPropertyOp7
 70
     1
102
RTVSPropertyOp8
 70
     1
102
RTVSPropertyOp9
 70
     1
102
RTVSPropertyOp10
 70
     1
102
RTVSPropertyOp11
 70
     1
102
RTVSPropertyOp12
 70
     1
102
RTVSPropertyOp13
 70
     1
102
RTVSPropertyOp14
 70
     1
102
RTVSPropertyOp15
 70
     1
102
RTVSPropertyOp16
 70
     1
102
RTVSPropertyOp17
 70
     1
102
RTVSPropertyOp18
 70
     1
102
RTVSPropertyOp19
 70
     1
102
RTVSPropertyOp20
 70
     1
102
RTVSPropertyOp21
 70
     1
102
RTVSPropertyOp22
 70
     1
102
RTVSPropertyOp23
 70
     1
102
RTVSPropertyOp24
 70
     1
102
RTVSPropertyOp25
 70
     1
102
RTVSPropertyOp26
 70
     1
102
RTVSPropertyOp27
 70
     1
102
RTVSPropertyOp28
 70
     1
102
RTVSPropertyOp29
 70
     1
102
RTVSPropertyOp30
 70
     1
102
RTVSPropertyOp31
 70
     1
102
RTVSPropertyOp32
 70
     1
102
RTVSPropertyOp33
 70
     1
102
RTVSPropertyOp34
 70
     1
102
RTVSPropertyOp35
 70
     1
102
RTVSPropertyOp36
 70
     1
102
RTVSPropertyOp37
 70
     1
102
RTVSPropertyOp38
 70
     1
102
RTVSPropertyOp39
 70
     1
102
RTVSPropertyOp40
 70
     1
102
RTVSPropertyOp41
 70
     1
102
RTVSPropertyOp42
 70
     1
102
RTVSPropertyOp43
 70
     1
102
RTVSPropertyOp44
 70
     1
102
RTVSPropertyOp45
 70
     1
102
RTVSPropertyOp46
 70
     1
102
RTVSPropertyOp47
 70
     1
102
RTVSPropertyOp48
 70
     1
102
RTVSPropertyOp49
 70
     1
102
RTVSPropertyOp50
 70
     1
102
RTVSPropertyOp51
 70
     0
102
RTVSPropertyOp52
 70
     0
102
RTVSPropertyOp53
 70
     1
102
RTVSPropertyOp54
 70
     1
102
RTVSPropertyOp55
 70
     1
102
RTVSPropertyOp56
 70
     1
102
RTVSPropertyOp57
 70
     1
102
RTVSPropertyOp58
 70
     1
102
RTVSPropertyOp59
 70
     1
102
RTVSPropertyOp60
 70
     1
102
RTVSPropertyOp61
 70
     1
102
RTVSPropertyOp62
 70
     1
  0
XRECORD
  5
2047
102
{ACAD_REACTORS
330
2046
102
}
330
2046
100
AcDbXrecord
280
     1
102
RTVSPost2010Prop28
280
     0
102
RTVSPost2010PropOp28
 70
     1
102
RTVSPost2010Prop29
280
     1
102
RTVSPost2010PropOp29
 70
     1
102
RTVSPost2010Prop30
280
     1
102
RTVSPost2010PropOp30
 70
     1
102
RTVSPost2010Prop31
280
     0
102
RTVSPost2010PropOp31
 70
     1
102
RTVSPost2010Prop32
280
     0
102
RTVSPost2010PropOp32
 70
     1
102
RTVSPost2010Prop33
280
     0
102
RTVSPost2010PropOp33
 70
     1
102
RTVSPost2010Prop34
280
     0
102
RTVSPost2010PropOp34
 70
     1
102
RTVSPost2010Prop35
280
     0
102
RTVSPost2010PropOp35
 70
     1
102
RTVSPost2010Prop36
280
     0
102
RTVSPost2010PropOp36
 70
     1
102
RTVSPost2010Prop37
 90
       50
102
RTVSPost2010PropOp37
 70
     1
102
RTVSPost2010Prop38
140
0.0
102
RTVSPost2010PropOp38
 70
     1
102
RTVSPost2010Prop39
140
1.0
102
RTVSPost2010PropOp39
 70
     1
102
RTVSPost2010Prop40
 90
        0
102
RTVSPost2010PropOp40
 70
     1
102
RTVSPost2010Prop41ColorIndex
 90
       18
102
RTVSPost2010Prop41ColorRGB
 90
-16777216
102
RTVSPost2010PropOp41
 70
     1
102
RTVSPost2010Prop42
 90
       50
102
RTVSPost2010PropOp42
 70
     1
102
RTVSPost2010Prop43
 90
        3
102
RTVSPost2010PropOp43
 70
     1
102
RTVSPost2010Prop44ColorIndex
 90
        5
102
RTVSPost2010Prop44ColorRGB
 90
      255
102
RTVSPost2010PropOp44
 70
     1
102
RTVSPost2010Prop45
280
     0
102
RTVSPost2010PropOp45
 70
     1
102
RTVSPost2010Prop46
 90
       50
102
RTVSPost2010PropOp46
 70
     1
102
RTVSPost2010Prop47
 90
       50
102
RTVSPost2010PropOp47
 70
     1
102
RTVSPost2010Prop48
 90
       50
102
RTVSPost2010PropOp48
 70
     1
102
RTVSPost2010Prop49
280
     0
102
RTVSPost2010PropOp49
 70
     1
102
RTVSPost2010Prop50
 90
       50
102
RTVSPost2010PropOp50
 70
     1
102
RTVSPost2010Prop51ColorIndex
 90
      256
102
RTVSPost2010Prop51ColorRGB
 90
-16777216
102
RTVSPost2010PropOp51
 70
     0
102
RTVSPost2010Prop52
140
1.0
102
RTVSPost2010PropOp52
 70
     0
102
RTVSPost2010Prop53
 90
        2
102
RTVSPost2010PropOp53
 70
     1
102
RTVSPost2010Prop54
  1
strokes_ogs.tif
102
RTVSPost2010PropOp54
 70
     1
102
RTVSPost2010Prop55
280
     0
102
RTVSPost2010PropOp55
 70
     1
102
RTVSPost2010Prop56
140
1.0
102
RTVSPost2010PropOp56
 70
     1
102
RTVSPost2010Prop57
140
1.0
102
RTVSPost2010PropOp57
 70
     1
102
RTVSPropertyOp0
 70
     1
102
RTVSPropertyOp1
 70
     1
102
RTVSPropertyOp2
 70
     1
102
RTVSPropertyOp3
 70
     1
102
RTVSPropertyOp4
 70
     1
102
RTVSPropertyOp5
 70
     1
102
RTVSPropertyOp6
 70
     1
102
RTVSPropertyOp7
 70
     1
102
RTVSPropertyOp8
 70
     1
102
RTVSPropertyOp9
 70
     1
102
RTVSPropertyOp10
 70
     1
102
RTVSPropertyOp11
 70
     1
102
RTVSPropertyOp12
 70
     1
102
RTVSPropertyOp13
 70
     1
102
RTVSPropertyOp14
 70
     1
102
RTVSPropertyOp15
 70
     1
102
RTVSPropertyOp16
 70
     1
102
RTVSPropertyOp17
 70
     1
102
RTVSPropertyOp18
 70
     1
102
RTVSPropertyOp19
 70
     1
102
RTVSPropertyOp20
 70
     1
102
RTVSPropertyOp21
 70
     1
102
RTVSPropertyOp22
 70
     1
102
RTVSPropertyOp23
 70
     1
102
RTVSPropertyOp24
 70
     1
102
RTVSPropertyOp25
 70
     1
102
RTVSPropertyOp26
 70
     1
102
RTVSPropertyOp27
 70
     1
102
RTVSPropertyOp28
 70
     1
102
RTVSPropertyOp29
 70
     1
102
RTVSPropertyOp30
 70
     1
102
RTVSPropertyOp31
 70
     1
102
RTVSPropertyOp32
 70
     1
102
RTVSPropertyOp33
 70
     1
102
RTVSPropertyOp34
 70
     1
102
RTVSPropertyOp35
 70
     1
102
RTVSPropertyOp36
 70
     1
102
RTVSPropertyOp37
 70
     1
102
RTVSPropertyOp38
 70
     1
102
RTVSPropertyOp39
 70
     1
102
RTVSPropertyOp40
 70
     1
102
RTVSPropertyOp41
 70
     1
102
RTVSPropertyOp42
 70
     1
102
RTVSPropertyOp43
 70
     1
102
RTVSPropertyOp44
 70
     1
102
RTVSPropertyOp45
 70
     1
102
RTVSPropertyOp46
 70
     1
102
RTVSPropertyOp47
 70
     1
102
RTVSPropertyOp48
 70
     1
102
RTVSPropertyOp49
 70
     1
102
RTVSPropertyOp50
 70
     1
102
RTVSPropertyOp51
 70
     0
102
RTVSPropertyOp52
 70
     0
102
RTVSPropertyOp53
 70
     1
102
RTVSPropertyOp54
 70
     1
102
RTVSPropertyOp55
 70
     1
102
RTVSPropertyOp56
 70
     1
102
RTVSPropertyOp57
 70
     1
102
RTVSPropertyOp58
 70
     1
102
RTVSPropertyOp59
 70
     1
102
RTVSPropertyOp60
 70
     1
102
RTVSPropertyOp61
 70
     1
102
RTVSPropertyOp62
 70
     1
  0
XRECORD
  5
205F
102
{ACAD_REACTORS
330
205E
102
}
330
205E
100
AcDbXrecord
280
     1
102
RTVSPost2010Prop28
280
     0
102
RTVSPost2010PropOp28
 70
     1
102
RTVSPost2010Prop29
280
     1
102
RTVSPost2010PropOp29
 70
     1
102
RTVSPost2010Prop30
280
     1
102
RTVSPost2010PropOp30
 70
     1
102
RTVSPost2010Prop31
280
     0
102
RTVSPost2010PropOp31
 70
     1
102
RTVSPost2010Prop32
280
     0
102
RTVSPost2010PropOp32
 70
     1
102
RTVSPost2010Prop33
280
     0
102
RTVSPost2010PropOp33
 70
     1
102
RTVSPost2010Prop34
280
     0
102
RTVSPost2010PropOp34
 70
     1
102
RTVSPost2010Prop35
280
     0
102
RTVSPost2010PropOp35
 70
     1
102
RTVSPost2010Prop36
280
     0
102
RTVSPost2010PropOp36
 70
     1
102
RTVSPost2010Prop37
 90
       50
102
RTVSPost2010PropOp37
 70
     1
102
RTVSPost2010Prop38
140
0.0
102
RTVSPost2010PropOp38
 70
     1
102
RTVSPost2010Prop39
140
1.0
102
RTVSPost2010PropOp39
 70
     1
102
RTVSPost2010Prop40
 90
        0
102
RTVSPost2010PropOp40
 70
     1
102
RTVSPost2010Prop41ColorIndex
 90
       18
102
RTVSPost2010Prop41ColorRGB
 90
-16777216
102
RTVSPost2010PropOp41
 70
     1
102
RTVSPost2010Prop42
 90
       50
102
RTVSPost2010PropOp42
 70
     1
102
RTVSPost2010Prop43
 90
        3
102
RTVSPost2010PropOp43
 70
     1
102
RTVSPost2010Prop44ColorIndex
 90
        5
102
RTVSPost2010Prop44ColorRGB
 90
      255
102
RTVSPost2010PropOp44
 70
     1
102
RTVSPost2010Prop45
280
     0
102
RTVSPost2010PropOp45
 70
     1
102
RTVSPost2010Prop46
 90
       50
102
RTVSPost2010PropOp46
 70
     1
102
RTVSPost2010Prop47
 90
       50
102
RTVSPost2010PropOp47
 70
     1
102
RTVSPost2010Prop48
 90
       50
102
RTVSPost2010PropOp48
 70
     1
102
RTVSPost2010Prop49
280
     0
102
RTVSPost2010PropOp49
 70
     1
102
RTVSPost2010Prop50
 90
       50
102
RTVSPost2010PropOp50
 70
     1
102
RTVSPost2010Prop51ColorIndex
 90
      256
102
RTVSPost2010Prop51ColorRGB
 90
-16777216
102
RTVSPost2010PropOp51
 70
     0
102
RTVSPost2010Prop52
140
1.0
102
RTVSPost2010PropOp52
 70
     0
102
RTVSPost2010Prop53
 90
        2
102
RTVSPost2010PropOp53
 70
     1
102
RTVSPost2010Prop54
  1
strokes_ogs.tif
102
RTVSPost2010PropOp54
 70
     1
102
RTVSPost2010Prop55
280
     0
102
RTVSPost2010PropOp55
 70
     1
102
RTVSPost2010Prop56
140
1.0
102
RTVSPost2010PropOp56
 70
     1
102
RTVSPost2010Prop57
140
1.0
102
RTVSPost2010PropOp57
 70
     1
102
RTVSPropertyOp0
 70
     1
102
RTVSPropertyOp1
 70
     1
102
RTVSPropertyOp2
 70
     1
102
RTVSPropertyOp3
 70
     1
102
RTVSPropertyOp4
 70
     1
102
RTVSPropertyOp5
 70
     1
102
RTVSPropertyOp6
 70
     1
102
RTVSPropertyOp7
 70
     1
102
RTVSPropertyOp8
 70
     1
102
RTVSPropertyOp9
 70
     1
102
RTVSPropertyOp10
 70
     1
102
RTVSPropertyOp11
 70
     1
102
RTVSPropertyOp12
 70
     1
102
RTVSPropertyOp13
 70
     1
102
RTVSPropertyOp14
 70
     1
102
RTVSPropertyOp15
 70
     1
102
RTVSPropertyOp16
 70
     1
102
RTVSPropertyOp17
 70
     1
102
RTVSPropertyOp18
 70
     1
102
RTVSPropertyOp19
 70
     1
102
RTVSPropertyOp20
 70
     1
102
RTVSPropertyOp21
 70
     1
102
RTVSPropertyOp22
 70
     1
102
RTVSPropertyOp23
 70
     1
102
RTVSPropertyOp24
 70
     1
102
RTVSPropertyOp25
 70
     1
102
RTVSPropertyOp26
 70
     1
102
RTVSPropertyOp27
 70
     1
102
RTVSPropertyOp28
 70
     1
102
RTVSPropertyOp29
 70
     1
102
RTVSPropertyOp30
 70
     1
102
RTVSPropertyOp31
 70
     1
102
RTVSPropertyOp32
 70
     1
102
RTVSPropertyOp33
 70
     1
102
RTVSPropertyOp34
 70
     1
102
RTVSPropertyOp35
 70
     1
102
RTVSPropertyOp36
 70
     1
102
RTVSPropertyOp37
 70
     1
102
RTVSPropertyOp38
 70
     1
102
RTVSPropertyOp39
 70
     1
102
RTVSPropertyOp40
 70
     1
102
RTVSPropertyOp41
 70
     1
102
RTVSPropertyOp42
 70
     1
102
RTVSPropertyOp43
 70
     1
102
RTVSPropertyOp44
 70
     1
102
RTVSPropertyOp45
 70
     1
102
RTVSPropertyOp46
 70
     1
102
RTVSPropertyOp47
 70
     1
102
RTVSPropertyOp48
 70
     1
102
RTVSPropertyOp49
 70
     1
102
RTVSPropertyOp50
 70
     1
102
RTVSPropertyOp51
 70
     0
102
RTVSPropertyOp52
 70
     0
102
RTVSPropertyOp53
 70
     1
102
RTVSPropertyOp54
 70
     1
102
RTVSPropertyOp55
 70
     1
102
RTVSPropertyOp56
 70
     1
102
RTVSPropertyOp57
 70
     1
102
RTVSPropertyOp58
 70
     1
102
RTVSPropertyOp59
 70
     1
102
RTVSPropertyOp60
 70
     1
102
RTVSPropertyOp61
 70
     1
102
RTVSPropertyOp62
 70
     1
  0
ENDSEC
  0
EOF
