  0
SECTION
  2
HEADER
  9
$ACADVER
  1
AC1015
  9
$ACADMAINTVER
 70
    20
  9
$DWGCODEPAGE
  3
ANSI_932
  9
$INSBASE
 10
0.0
 20
0.0
 30
0.0
  9
$EXTMIN
 10
-1394.992118623766
 20
-479.7815766054009
 30
-0.0015258207003583
  9
$EXTMAX
 10
1278.207743759423
 20
1817.480273159719
 30
0.0000000349246037
  9
$LIMMIN
 10
-4267.152221060482
 20
-2696.083210198413
  9
$LIMMAX
 10
7190.717422586465
 20
5141.155363923066
  9
$ORTHOMODE
 70
     0
  9
$REGENMODE
 70
     1
  9
$FILLMODE
 70
     1
  9
$QTEXTMODE
 70
     0
  9
$MIRRTEXT
 70
     0
  9
$LTSCALE
 40
20.0
  9
$ATTMODE
 70
     1
  9
$TEXTSIZE
 40
53.0
  9
$TRACEWID
 40
0.05
  9
$TEXTSTYLE
  7
kaigai_standard_1
  9
$CLAYER
  8
NOTE
  9
$CELTYPE
  6
BYLAYER
  9
$CECOLOR
 62
   256
  9
$CELTSCALE
 40
1.0
  9
$DISPSILH
 70
     0
  9
$DIMSCALE
 40
1.0
  9
$DIMASZ
 40
30.0
  9
$DIMEXO
 40
20.0
  9
$DIMDLI
 40
80.0
  9
$DIMRND
 40
0.0
  9
$DIMDLE
 40
0.0
  9
$DIMEXE
 40
20.0
  9
$DIMTP
 40
0.0
  9
$DIMTM
 40
0.0
  9
$DIMTXT
 40
40.0
  9
$DIMCEN
 40
0.09
  9
$DIMTSZ
 40
0.0
  9
$DIMTOL
 70
     0
  9
$DIMLIM
 70
     0
  9
$DIMTIH
 70
     0
  9
$DIMTOH
 70
     0
  9
$DIMSE1
 70
     0
  9
$DIMSE2
 70
     0
  9
$DIMTAD
 70
     1
  9
$DIMZIN
 70
     8
  9
$DIMBLK
  1
Small
  9
$DIMASO
 70
     1
  9
$DIMSHO
 70
     0
  9
$DIMPOST
  1

  9
$DIMAPOST
  1

  9
$DIMALT
 70
     0
  9
$DIMALTD
 70
     2
  9
$DIMALTF
 40
25.4
  9
$DIMLFAC
 40
1.0
  9
$DIMTOFL
 70
     1
  9
$DIMTVP
 40
0.0
  9
$DIMTIX
 70
     0
  9
$DIMSOXD
 70
     0
  9
$DIMSAH
 70
     0
  9
$DIMBLK1
  1

  9
$DIMBLK2
  1

  9
$DIMSTYLE
  2
kaigai_CADSYMBOL
  9
$DIMCLRD
 70
     0
  9
$DIMCLRE
 70
     0
  9
$DIMCLRT
 70
     0
  9
$DIMTFAC
 40
1.0
  9
$DIMGAP
 40
20.0
  9
$DIMJUST
 70
     0
  9
$DIMSD1
 70
     0
  9
$DIMSD2
 70
     0
  9
$DIMTOLJ
 70
     1
  9
$DIMTZIN
 70
     0
  9
$DIMALTZ
 70
     0
  9
$DIMALTTZ
 70
     0
  9
$DIMUPT
 70
     0
  9
$DIMDEC
 70
     1
  9
$DIMTDEC
 70
     1
  9
$DIMALTU
 70
     2
  9
$DIMALTTD
 70
     2
  9
$DIMTXSTY
  7
STANDARD
  9
$DIMAUNIT
 70
     0
  9
$DIMADEC
 70
     0
  9
$DIMALTRND
 40
0.0
  9
$DIMAZIN
 70
     2
  9
$DIMDSEP
 70
    46
  9
$DIMATFIT
 70
     3
  9
$DIMFRAC
 70
     0
  9
$DIMLDRBLK
  1
Open30
  9
$DIMLUNIT
 70
     2
  9
$DIMLWD
 70
    -2
  9
$DIMLWE
 70
    -2
  9
$DIMTMOVE
 70
     0
  9
$LUNITS
 70
     2
  9
$LUPREC
 70
     4
  9
$SKETCHINC
 40
0.1
  9
$FILLETRAD
 40
0.0
  9
$AUNITS
 70
     1
  9
$AUPREC
 70
     3
  9
$MENU
  1
ACAD
  9
$ELEVATION
 40
0.0
  9
$PELEVATION
 40
0.0
  9
$THICKNESS
 40
0.0
  9
$LIMCHECK
 70
     0
  9
$CHAMFERA
 40
0.0
  9
$CHAMFERB
 40
0.0
  9
$CHAMFERC
 40
0.0
  9
$CHAMFERD
 40
0.0
  9
$SKPOLY
 70
     0
  9
$TDCREATE
 40
2455902.607164352
  9
$TDUCREATE
 40
2455902.232169063
  9
$TDUPDATE
 40
2456945.448819445
  9
$TDUUPDATE
 40
2456945.073824341
  9
$TDINDWG
 40
1.6379930671
  9
$TDUSRTIMER
 40
1.6379894560
  9
$USRTIMER
 70
     1
  9
$ANGBASE
 50
0.0
  9
$ANGDIR
 70
     0
  9
$PDMODE
 70
     3
  9
$PDSIZE
 40
-2.0
  9
$PLINEWID
 40
0.0
  9
$SPLFRAME
 70
     0
  9
$SPLINETYPE
 70
     6
  9
$SPLINESEGS
 70
     8
  9
$HANDSEED
  5
99503
  9
$SURFTAB1
 70
     6
  9
$SURFTAB2
 70
     6
  9
$SURFTYPE
 70
     6
  9
$SURFU
 70
     6
  9
$SURFV
 70
     6
  9
$UCSBASE
  2

  9
$UCSNAME
  2

  9
$UCSORG
 10
0.0
 20
0.0
 30
0.0
  9
$UCSXDIR
 10
1.0
 20
0.0
 30
0.0
  9
$UCSYDIR
 10
0.0
 20
1.0
 30
0.0
  9
$UCSORTHOREF
  2

  9
$UCSORTHOVIEW
 70
     0
  9
$UCSORGTOP
 10
0.0
 20
0.0
 30
0.0
  9
$UCSORGBOTTOM
 10
0.0
 20
0.0
 30
0.0
  9
$UCSORGLEFT
 10
0.0
 20
0.0
 30
0.0
  9
$UCSORGRIGHT
 10
0.0
 20
0.0
 30
0.0
  9
$UCSORGFRONT
 10
0.0
 20
0.0
 30
0.0
  9
$UCSORGBACK
 10
0.0
 20
0.0
 30
0.0
  9
$PUCSBASE
  2

  9
$PUCSNAME
  2

  9
$PUCSORG
 10
0.0
 20
0.0
 30
0.0
  9
$PUCSXDIR
 10
1.0
 20
0.0
 30
0.0
  9
$PUCSYDIR
 10
0.0
 20
1.0
 30
0.0
  9
$PUCSORTHOREF
  2

  9
$PUCSORTHOVIEW
 70
     0
  9
$PUCSORGTOP
 10
0.0
 20
0.0
 30
0.0
  9
$PUCSORGBOTTOM
 10
0.0
 20
0.0
 30
0.0
  9
$PUCSORGLEFT
 10
0.0
 20
0.0
 30
0.0
  9
$PUCSORGRIGHT
 10
0.0
 20
0.0
 30
0.0
  9
$PUCSORGFRONT
 10
0.0
 20
0.0
 30
0.0
  9
$PUCSORGBACK
 10
0.0
 20
0.0
 30
0.0
  9
$USERI1
 70
     0
  9
$USERI2
 70
     0
  9
$USERI3
 70
     0
  9
$USERI4
 70
     0
  9
$USERI5
 70
     0
  9
$USERR1
 40
20.0
  9
$USERR2
 40
0.0
  9
$USERR3
 40
0.0
  9
$USERR4
 40
0.0
  9
$USERR5
 40
0.0
  9
$WORLDVIEW
 70
     1
  9
$SHADEDGE
 70
     3
  9
$SHADEDIF
 70
    70
  9
$TILEMODE
 70
     1
  9
$MAXACTVP
 70
    48
  9
$PINSBASE
 10
0.0
 20
0.0
 30
0.0
  9
$PLIMCHECK
 70
     0
  9
$PEXTMIN
 10
1.000000000000000E+20
 20
1.000000000000000E+20
 30
1.000000000000000E+20
  9
$PEXTMAX
 10
-1.000000000000000E+20
 20
-1.000000000000000E+20
 30
-1.000000000000000E+20
  9
$PLIMMIN
 10
0.0
 20
0.0
  9
$PLIMMAX
 10
12.0
 20
9.0
  9
$UNITMODE
 70
     0
  9
$VISRETAIN
 70
     1
  9
$PLINEGEN
 70
     0
  9
$PSLTSCALE
 70
     1
  9
$TREEDEPTH
 70
  3020
  9
$CMLSTYLE
  2
STANDARD
  9
$CMLJUST
 70
     0
  9
$CMLSCALE
 40
1.0
  9
$PROXYGRAPHICS
 70
     1
  9
$MEASUREMENT
 70
     0
  9
$CELWEIGHT
370
    -1
  9
$ENDCAPS
280
     0
  9
$JOINSTYLE
280
     0
  9
$LWDISPLAY
290
     0
  9
$INSUNITS
 70
     0
  9
$HYPERLINKBASE
  1

  9
$STYLESHEET
  1
monochrome.ctb
  9
$XEDIT
290
     1
  9
$CEPSNTYPE
380
     0
  9
$PSTYLEMODE
290
     1
  9
$FINGERPRINTGUID
  2
{E0B14F79-3871-45BD-B89A-A0F693FE2771}
  9
$VERSIONGUID
  2
{688F0AA1-8363-4CB6-873D-DF2BC20A8DEE}
  9
$EXTNAMES
290
     1
  9
$PSVPSCALE
 40
0.0
  9
$OLESTARTUP
290
     0
  0
ENDSEC
  0
SECTION
  2
CLASSES
  0
CLASS
  1
ACDBDICTIONARYWDFLT
  2
AcDbDictionaryWithDefault
  3
ObjectDBX Classes
 90
        0
280
     0
281
     0
  0
CLASS
  1
ACDBPLACEHOLDER
  2
AcDbPlaceHolder
  3
ObjectDBX Classes
 90
        0
280
     0
281
     0
  0
CLASS
  1
LAYOUT
  2
AcDbLayout
  3
ObjectDBX Classes
 90
        0
280
     0
281
     0
  0
CLASS
  1
DICTIONARYVAR
  2
AcDbDictionaryVar
  3
ObjectDBX Classes
 90
        0
280
     0
281
     0
  0
CLASS
  1
SORTENTSTABLE
  2
AcDbSortentsTable
  3
ObjectDBX Classes
 90
        0
280
     0
281
     0
  0
CLASS
  1
MATERIAL
  2
AcDbMaterial
  3
ObjectDBX Classes
 90
     1153
280
     0
281
     0
  0
CLASS
  1
VISUALSTYLE
  2
AcDbVisualStyle
  3
ObjectDBX Classes
 90
     4095
280
     0
281
     0
  0
CLASS
  1
TABLESTYLE
  2
AcDbTableStyle
  3
ObjectDBX Classes
 90
     4095
280
     0
281
     0
  0
CLASS
  1
SCALE
  2
AcDbScale
  3
ObjectDBX Classes
 90
     1153
280
     0
281
     0
  0
CLASS
  1
MLEADERSTYLE
  2
AcDbMLeaderStyle
  3
ACDB_MLEADERSTYLE_CLASS
 90
     4095
280
     0
281
     0
  0
CLASS
  1
CELLSTYLEMAP
  2
AcDbCellStyleMap
  3
ObjectDBX Classes
 90
     1152
280
     0
281
     0
  0
CLASS
  1
ACARRAYJIGENTITY
  2
AcArrayJigEntity
  3
ACAD_ARRAY
 90
    32897
280
     0
281
     1
  0
CLASS
  1
ACDBASSOCNETWORK
  2
AcDbAssocNetwork
  3
ObjectDBX Classes
 90
    33793
280
     0
281
     0
  0
CLASS
  1
ACDBASSOCACTION
  2
AcDbAssocAction
  3
ObjectDBX Classes
 90
    33793
280
     0
281
     0
  0
CLASS
  1
ACDBASSOCARRAYACTIONBODY
  2
AcDbAssocArrayActionBody
  3
ObjectDBX Classes
 90
    33793
280
     0
281
     0
  0
CLASS
  1
ACDBASSOCVERTEXACTIONPARAM
  2
AcDbAssocVertexActionParam
  3
ObjectDBX Classes
 90
    33793
280
     0
281
     0
  0
CLASS
  1
ACDBASSOCDEPENDENCY
  2
AcDbAssocDependency
  3
ObjectDBX Classes
 90
    33793
280
     0
281
     0
  0
CLASS
  1
ACDBASSOCARRAYRECTANGULARPARAMETERS
  2
AcDbAssocArrayRectangularParameters
  3
ObjectDBX Classes
 90
    33793
280
     0
281
     0
  0
CLASS
  1
ACAD_EVALUATION_GRAPH
  2
AcDbEvalGraph
  3
ObjectDBX Classes
 90
    33921
280
     0
281
     0
  0
CLASS
  1
ACAECUSTOBJ
  2
AcAeEditorObj
  3
AcAeEditorObj
 90
    33792
280
     0
281
     0
  0
CLASS
  1
ACDB_DYNAMICBLOCKPURGEPREVENTER_VERSION
  2
AcDbDynamicBlockPurgePreventer
  3
ObjectDBX Classes
 90
    33921
280
     0
281
     0
  0
CLASS
  1
ACDBSECTIONVIEWSTYLE
  2
AcDbSectionViewStyle
  3
ObjectDBX Classes
 90
     1025
280
     0
281
     0
  0
CLASS
  1
ACDBDETAILVIEWSTYLE
  2
AcDbDetailViewStyle
  3
ObjectDBX Classes
 90
     1025
280
     0
281
     0
  0
ENDSEC
  0
SECTION
  2
TABLES
  0
TABLE
  2
VPORT
  5
8
102
{ACAD_XDICTIONARY
360
70D15
102
}
330
0
100
AcDbSymbolTable
 70
     1
  0
VPORT
  5
513CD
330
8
100
AcDbSymbolTableRecord
100
AcDbViewportTableRecord
  2
*Active
 70
     0
 10
0.0
 20
0.0
 11
1.0
 21
1.0
 12
-58.39218743217111
 22
668.8493482771591
 13
0.0
 23
0.0
 14
50.0
 24
50.0
 15
100.0
 25
100.0
 16
0.0
 26
0.0
 36
1.0
 17
0.0
 27
0.0
 37
0.0
 40
2315.639944563241
 41
2.14018691588785
 42
50.0
 43
0.0
 44
0.0
 50
0.0
 51
0.0
 71
     0
 72
  1000
 73
     1
 74
     0
 75
     0
 76
     0
 77
     0
 78
     0
281
     0
 65
     1
110
0.0
120
0.0
130
0.0
111
1.0
121
0.0
131
0.0
112
0.0
122
1.0
132
0.0
 79
     0
146
0.0
1001
ACAD_NAV_VCDISPLAY
1070
     3
  0
ENDTAB
  0
TABLE
  2
LTYPE
  5
5
330
0
100
AcDbSymbolTable
 70
     2
  0
LTYPE
  5
12
330
5
100
AcDbSymbolTableRecord
100
AcDbLinetypeTableRecord
  2
BYBLOCK
 70
     0
  3

 72
    65
 73
     0
 40
0.0
  0
LTYPE
  5
13
330
5
100
AcDbSymbolTableRecord
100
AcDbLinetypeTableRecord
  2
BYLAYER
 70
     0
  3

 72
    65
 73
     0
 40
0.0
  0
LTYPE
  5
14
330
5
100
AcDbSymbolTableRecord
100
AcDbLinetypeTableRecord
  2
CONTINUOUS
 70
     0
  3
実線
 72
    65
 73
     0
 40
0.0
  0
LTYPE
  5
1F
330
5
100
AcDbSymbolTableRecord
100
AcDbLinetypeTableRecord
  2
DASHDOT
 70
     0
  3
____ _ ____ _ ____ _ ____ _ ____ _ ____ _ ____
 72
    65
 73
     4
 40
5.5
 49
4.0
 74
     0
 49
-0.6
 74
     0
 49
0.3
 74
     0
 49
-0.6
 74
     0
  0
ENDTAB
  0
TABLE
  2
LAYER
  5
2
102
{ACAD_XDICTIONARY
360
5148D
102
}
330
0
100
AcDbSymbolTable
 70
    12
  0
LAYER
  5
E
102
{ACAD_XDICTIONARY
360
5144C
102
}
330
2
100
AcDbSymbolTableRecord
100
AcDbLayerTableRecord
  2
0
 70
     0
 62
     7
  6
CONTINUOUS
370
    -3
390
21F0
  0
LAYER
  5
25
102
{ACAD_XDICTIONARY
360
5144E
102
}
330
2
100
AcDbSymbolTableRecord
100
AcDbLayerTableRecord
  2
OUTLINE
 70
     0
 62
     3
  6
CONTINUOUS
370
    -3
390
21F0
  0
LAYER
  5
26
102
{ACAD_XDICTIONARY
360
51450
102
}
330
2
100
AcDbSymbolTableRecord
100
AcDbLayerTableRecord
  2
DETAIL
 70
     0
 62
     5
  6
CONTINUOUS
370
    -3
390
21F0
  0
LAYER
  5
27
102
{ACAD_XDICTIONARY
360
51452
102
}
330
2
100
AcDbSymbolTableRecord
100
AcDbLayerTableRecord
  2
BASIS
 70
     0
 62
     6
  6
DASHDOT
370
    -3
390
21F0
  0
LAYER
  5
28
102
{ACAD_XDICTIONARY
360
51454
102
}
330
2
100
AcDbSymbolTableRecord
100
AcDbLayerTableRecord
  2
SIZE
 70
     0
 62
    30
  6
CONTINUOUS
370
    -3
390
21F0
  0
LAYER
  5
29
102
{ACAD_XDICTIONARY
360
51456
102
}
330
2
100
AcDbSymbolTableRecord
100
AcDbLayerTableRecord
  2
NOTE
 70
     0
 62
     4
  6
CONTINUOUS
370
    -3
390
21F0
  0
LAYER
  5
2A
330
2
100
AcDbSymbolTableRecord
100
AcDbLayerTableRecord
  2
DEFPOINTS
 70
     0
 62
     7
  6
CONTINUOUS
290
     0
370
    -3
390
21F0
  0
LAYER
  5
2B
102
{ACAD_XDICTIONARY
360
51458
102
}
330
2
100
AcDbSymbolTableRecord
100
AcDbLayerTableRecord
  2
FIX
 70
     0
 62
    11
  6
CONTINUOUS
370
    -3
390
21F0
  0
LAYER
  5
2C
102
{ACAD_XDICTIONARY
360
5145A
102
}
330
2
100
AcDbSymbolTableRecord
100
AcDbLayerTableRecord
  2
ARRANGE
 70
     0
 62
     1
  6
CONTINUOUS
370
    -3
390
21F0
  0
LAYER
  5
2D
102
{ACAD_XDICTIONARY
360
5145C
102
}
330
2
100
AcDbSymbolTableRecord
100
AcDbLayerTableRecord
  2
ETC
 70
     0
 62
    61
  6
CONTINUOUS
370
    -3
390
21F0
  0
LAYER
  5
85433
102
{ACAD_XDICTIONARY
360
85434
102
}
330
2
100
AcDbSymbolTableRecord
100
AcDbLayerTableRecord
  2
SERVICESPACE
 70
     0
 62
     2
  6
DASHDOT
370
    -3
390
21F0
  0
LAYER
  5
85435
102
{ACAD_XDICTIONARY
360
85436
102
}
330
2
100
AcDbSymbolTableRecord
100
AcDbLayerTableRecord
  2
SYMBOLLINE
 70
     0
 62
    15
  6
CONTINUOUS
370
    -3
390
21F0
  0
ENDTAB
  0
TABLE
  2
STYLE
  5
3
330
0
100
AcDbSymbolTable
 70
     5
  0
STYLE
  5
F
330
3
100
AcDbSymbolTableRecord
100
AcDbTextStyleTableRecord
  2
STANDARD
 70
     0
 40
0.0
 41
0.9
 50
0.0
 71
     0
 42
64.0
  3
SIMPLEX
  4
BIGFONT
  0
STYLE
  5
30
330
3
100
AcDbSymbolTableRecord
100
AcDbTextStyleTableRecord
  2
STANDARD1
 70
     0
 40
60.0
 41
0.7
 50
0.0
 71
     0
 42
60.0
  3
MONOTXT.shx
  4
BIGFONT.shx
  0
STYLE
  5
51425
330
3
100
AcDbSymbolTableRecord
100
AcDbTextStyleTableRecord
  2
STANDARD_MODELNAME
 70
     0
 40
80.0
 41
0.8
 50
0.0
 71
     0
 42
64.0
  3
MONOTXT.shx
  4
BIGFONT.shx
  0
STYLE
  5
6FACE
330
3
100
AcDbSymbolTableRecord
100
AcDbTextStyleTableRecord
  2
kaigai_standard_1
 70
     0
 40
53.0
 41
0.51
 50
0.0
 71
     0
 42
53.0
  3
MONOTXT.shx
  4
BIGFONT.shx
  0
STYLE
  5
73585
330
3
100
AcDbSymbolTableRecord
100
AcDbTextStyleTableRecord
  2
ZU_SHPTB00001
 70
     0
 40
0.0
 41
1.0
 50
0.0
 71
     0
 42
0.0
  3
monotxt
  4
bigfont
  0
ENDTAB
  0
TABLE
  2
VIEW
  5
6
330
0
100
AcDbSymbolTable
 70
     1
  0
VIEW
  5
31
330
6
100
AcDbSymbolTableRecord
100
AcDbViewTableRecord
  2
ALL
 70
     0
 40
9000.0
 10
241.506647
 20
0.0
 41
12483.01
 11
0.0
 21
0.0
 31
1.0
 12
0.0
 22
0.0
 32
0.0
 42
50.0
 43
0.0
 44
0.0
 50
0.0
 71
     0
281
     0
 72
     0
  0
ENDTAB
  0
TABLE
  2
UCS
  5
7
330
0
100
AcDbSymbolTable
 70
     0
  0
ENDTAB
  0
TABLE
  2
APPID
  5
9
330
0
100
AcDbSymbolTable
 70
    17
  0
APPID
  5
10
330
9
100
AcDbSymbolTableRecord
100
AcDbRegAppTableRecord
  2
ACAD
 70
     0
  0
APPID
  5
51420
330
9
100
AcDbSymbolTableRecord
100
AcDbRegAppTableRecord
  2
ACAD_MLEADERVER
 70
     0
  0
APPID
  5
51424
330
9
100
AcDbSymbolTableRecord
100
AcDbRegAppTableRecord
  2
AcadAnnoPO
 70
     0
  0
APPID
  5
6B6C8
330
9
100
AcDbSymbolTableRecord
100
AcDbRegAppTableRecord
  2
ACAD_PSEXT
 70
     0
  0
APPID
  5
6CFAF
330
9
100
AcDbSymbolTableRecord
100
AcDbRegAppTableRecord
  2
ACAD_EXEMPT_FROM_CAD_STANDARDS
 70
     0
  0
APPID
  5
6E4A4
330
9
100
AcDbSymbolTableRecord
100
AcDbRegAppTableRecord
  2
ACAD_DSTYLE_DIMJAG
 70
     0
  0
APPID
  5
6E4A5
330
9
100
AcDbSymbolTableRecord
100
AcDbRegAppTableRecord
  2
ACAD_DSTYLE_DIMTALN
 70
     0
  0
APPID
  5
6EF6C
330
9
100
AcDbSymbolTableRecord
100
AcDbRegAppTableRecord
  2
ACAD_DSTYLE_DIMBREAK
 70
     0
  0
APPID
  5
70D0F
330
9
100
AcDbSymbolTableRecord
100
AcDbRegAppTableRecord
  2
ACAD_NAV_VCDISPLAY
 70
     0
  0
APPID
  5
990C9
330
9
100
AcDbSymbolTableRecord
100
AcDbRegAppTableRecord
  2
ACAUTHENVIRON
 70
     0
  0
APPID
  5
990CD
330
9
100
AcDbSymbolTableRecord
100
AcDbRegAppTableRecord
  2
AcDbDynamicBlockTrueName
 70
     0
  0
APPID
  5
990CE
330
9
100
AcDbSymbolTableRecord
100
AcDbRegAppTableRecord
  2
AcDbDynamicBlockGUID
 70
     0
  0
APPID
  5
992EA
330
9
100
AcDbSymbolTableRecord
100
AcDbRegAppTableRecord
  2
REVIT
 70
     0
  0
APPID
  5
994FF
330
9
100
AcDbSymbolTableRecord
100
AcDbRegAppTableRecord
  2
ACAD_DSTYLE_DIMARC_LENGTH_SYMBOL
 70
     0
  0
APPID
  5
99500
330
9
100
AcDbSymbolTableRecord
100
AcDbRegAppTableRecord
  2
ACAD_DSTYLE_DIM_LINETYPE
 70
     0
  0
APPID
  5
99501
330
9
100
AcDbSymbolTableRecord
100
AcDbRegAppTableRecord
  2
ACAD_DSTYLE_DIM_EXT1_LINETYPE
 70
     0
  0
APPID
  5
99502
330
9
100
AcDbSymbolTableRecord
100
AcDbRegAppTableRecord
  2
ACAD_DSTYLE_DIM_EXT2_LINETYPE
 70
     0
  0
ENDTAB
  0
TABLE
  2
DIMSTYLE
  5
A
330
0
100
AcDbSymbolTable
 70
     4
100
AcDbDimStyleTable
 71
     2
340
6EF6D
340
138
  0
DIMSTYLE
105
138
330
A
100
AcDbSymbolTableRecord
100
AcDbDimStyleTableRecord
  2
STANDARD
 70
     0
 73
     0
 74
     0
 77
     1
140
40.0
147
15.0
340
F
1001
ACAD_DSTYLE_DIMJAG
1070
   388
1040
1.5
1001
ACAD_DSTYLE_DIMTALN
1070
   392
1070
     0
  0
DIMSTYLE
105
6EF6D
102
{ACAD_REACTORS
330
99376
330
99377
330
99378
330
99379
330
9937A
330
9937B
330
9937C
330
9937D
330
9937E
330
9937F
330
99380
330
993A6
330
993A7
102
}
330
A
100
AcDbSymbolTableRecord
100
AcDbDimStyleTableRecord
  2
kaigai_CADSYMBOL
 70
     0
 41
30.0
 42
20.0
 43
80.0
 44
20.0
 73
     0
 74
     0
 77
     1
 78
     8
 79
     2
140
40.0
147
20.0
172
     1
271
     1
272
     1
340
F
341
4C0C3
342
4C0BF
1001
ACAD_DSTYLE_DIMBREAK
1070
   391
1040
0.125
1001
ACAD_DSTYLE_DIMJAG
1070
   388
1040
1.5
1001
ACAD_DSTYLE_DIMTALN
1070
   392
1070
     0
  0
DIMSTYLE
105
7FE04
330
A
100
AcDbSymbolTableRecord
100
AcDbDimStyleTableRecord
  2
CADSYMBOL
 70
     0
 41
30.0
 42
20.0
 43
80.0
 44
20.0
 73
     0
 74
     0
 77
     1
 78
     8
 79
     2
140
60.0
147
20.0
172
     1
271
     1
272
     1
340
F
341
4C0C3
342
4C0BF
  0
DIMSTYLE
105
992E9
330
A
100
AcDbSymbolTableRecord
100
AcDbDimStyleTableRecord
  2
AM_ANSI
 70
     0
  4
mm
 41
0.12
 42
0.05
 43
0.5
 44
0.1
 47
0.1
 48
0.1
 78
     7
 79
     2
140
0.12
141
0.0
146
0.71
147
0.06
176
   256
177
   256
178
     2
274
     4
284
     7
340
F
371
    -1
372
    -1
1001
ACAD_DSTYLE_DIMARC_LENGTH_SYMBOL
1070
   379
1070
     1
1001
ACAD_DSTYLE_DIM_LINETYPE
1070
   380
1005
12
1001
ACAD_DSTYLE_DIM_EXT1_LINETYPE
1070
   381
1005
12
1001
ACAD_DSTYLE_DIM_EXT2_LINETYPE
1070
   382
1005
12
  0
ENDTAB
  0
TABLE
  2
BLOCK_RECORD
  5
1
330
0
100
AcDbSymbolTable
 70
    29
  0
BLOCK_RECORD
  5
18
102
{ACAD_XDICTIONARY
360
28B3
102
}
330
1
100
AcDbSymbolTableRecord
100
AcDbBlockTableRecord
  2
*MODEL_SPACE
340
21F3
  0
BLOCK_RECORD
  5
15
102
{ACAD_XDICTIONARY
360
29B6
102
}
330
1
100
AcDbSymbolTableRecord
100
AcDbBlockTableRecord
  2
*PAPER_SPACE
340
21F4
  0
BLOCK_RECORD
  5
4C0BF
330
1
100
AcDbSymbolTableRecord
100
AcDbBlockTableRecord
  2
_Small
340
0
102
{BLKREFS
331
992BE
331
992BF
331
992CA
331
992CB
331
992D6
331
992D7
331
992E2
331
992E3
331
99252
331
99253
331
9925E
331
9925F
331
9926A
331
9926B
331
99276
331
99277
331
99282
331
99283
331
9928E
331
9928F
331
9929A
331
9929B
331
992A6
331
992A7
331
992B2
331
992B3
331
99498
331
99499
331
994A1
331
994A2
331
994AA
331
994AB
331
994B3
331
994B4
331
99447
331
99448
331
99450
331
99451
331
99459
331
9945A
331
99462
331
99463
331
9946B
331
9946C
331
99474
331
99475
331
9947D
331
9947E
331
99486
331
99487
331
9948F
331
99490
102
}
  0
BLOCK_RECORD
  5
4C0C3
102
{ACAD_XDICTIONARY
360
990CA
102
}
330
1
100
AcDbSymbolTableRecord
100
AcDbBlockTableRecord
  2
_Open30
340
0
1001
AcDbDynamicBlockGUID
1000
{CF3FF556-EE00-416E-9104-4A9DDFC40C99}
  0
BLOCK_RECORD
  5
9924D
330
1
100
AcDbSymbolTableRecord
100
AcDbBlockTableRecord
  2
*D2
340
0
  0
BLOCK_RECORD
  5
99259
330
1
100
AcDbSymbolTableRecord
100
AcDbBlockTableRecord
  2
*D3
340
0
  0
BLOCK_RECORD
  5
99265
330
1
100
AcDbSymbolTableRecord
100
AcDbBlockTableRecord
  2
*D4
340
0
  0
BLOCK_RECORD
  5
99271
330
1
100
AcDbSymbolTableRecord
100
AcDbBlockTableRecord
  2
*D5
340
0
  0
BLOCK_RECORD
  5
9927D
330
1
100
AcDbSymbolTableRecord
100
AcDbBlockTableRecord
  2
*D6
340
0
  0
BLOCK_RECORD
  5
99289
330
1
100
AcDbSymbolTableRecord
100
AcDbBlockTableRecord
  2
*D7
340
0
  0
BLOCK_RECORD
  5
99295
330
1
100
AcDbSymbolTableRecord
100
AcDbBlockTableRecord
  2
*D8
340
0
  0
BLOCK_RECORD
  5
992A1
330
1
100
AcDbSymbolTableRecord
100
AcDbBlockTableRecord
  2
*D9
340
0
  0
BLOCK_RECORD
  5
992AD
330
1
100
AcDbSymbolTableRecord
100
AcDbBlockTableRecord
  2
*D10
340
0
  0
BLOCK_RECORD
  5
992B9
330
1
100
AcDbSymbolTableRecord
100
AcDbBlockTableRecord
  2
*D11
340
0
  0
BLOCK_RECORD
  5
992C5
330
1
100
AcDbSymbolTableRecord
100
AcDbBlockTableRecord
  2
*D12
340
0
  0
BLOCK_RECORD
  5
992D1
330
1
100
AcDbSymbolTableRecord
100
AcDbBlockTableRecord
  2
*D13
340
0
  0
BLOCK_RECORD
  5
992DD
330
1
100
AcDbSymbolTableRecord
100
AcDbBlockTableRecord
  2
*D14
340
0
  0
BLOCK_RECORD
  5
992EB
102
{ACAD_XDICTIONARY
360
99347
102
}
330
1
100
AcDbSymbolTableRecord
100
AcDbBlockTableRecord
  2
block
340
0
  0
BLOCK_RECORD
  5
993A8
330
1
100
AcDbSymbolTableRecord
100
AcDbBlockTableRecord
  2
*D16
340
0
  0
BLOCK_RECORD
  5
993B4
330
1
100
AcDbSymbolTableRecord
100
AcDbBlockTableRecord
  2
*D17
340
0
  0
BLOCK_RECORD
  5
993C0
330
1
100
AcDbSymbolTableRecord
100
AcDbBlockTableRecord
  2
*D18
340
0
  0
BLOCK_RECORD
  5
993CC
330
1
100
AcDbSymbolTableRecord
100
AcDbBlockTableRecord
  2
*D19
340
0
  0
BLOCK_RECORD
  5
993D8
330
1
100
AcDbSymbolTableRecord
100
AcDbBlockTableRecord
  2
*D20
340
0
  0
BLOCK_RECORD
  5
993E4
330
1
100
AcDbSymbolTableRecord
100
AcDbBlockTableRecord
  2
*D21
340
0
  0
BLOCK_RECORD
  5
993F0
330
1
100
AcDbSymbolTableRecord
100
AcDbBlockTableRecord
  2
*D22
340
0
  0
BLOCK_RECORD
  5
993FC
330
1
100
AcDbSymbolTableRecord
100
AcDbBlockTableRecord
  2
*D23
340
0
  0
BLOCK_RECORD
  5
99408
330
1
100
AcDbSymbolTableRecord
100
AcDbBlockTableRecord
  2
*D24
340
0
  0
BLOCK_RECORD
  5
99414
330
1
100
AcDbSymbolTableRecord
100
AcDbBlockTableRecord
  2
*D25
340
0
  0
BLOCK_RECORD
  5
99420
330
1
100
AcDbSymbolTableRecord
100
AcDbBlockTableRecord
  2
*D26
340
0
  0
BLOCK_RECORD
  5
9942C
330
1
100
AcDbSymbolTableRecord
100
AcDbBlockTableRecord
  2
*D27
340
0
  0
BLOCK_RECORD
  5
99438
330
1
100
AcDbSymbolTableRecord
100
AcDbBlockTableRecord
  2
*D28
340
0
  0
ENDTAB
  0
ENDSEC
  0
SECTION
  2
BLOCKS
  0
BLOCK
  5
19
330
18
100
AcDbEntity
  8
0
100
AcDbBlockBegin
  2
*MODEL_SPACE
 70
     0
 10
0.0
 20
0.0
 30
0.0
  3
*MODEL_SPACE
  1

  0
ENDBLK
  5
1A
330
18
100
AcDbEntity
  8
0
100
AcDbBlockEnd
  0
BLOCK
  5
16
330
15
100
AcDbEntity
 67
     1
  8
0
100
AcDbBlockBegin
  2
*PAPER_SPACE
 70
     0
 10
0.0
 20
0.0
 30
0.0
  3
*PAPER_SPACE
  1

  0
ENDBLK
  5
17
330
15
100
AcDbEntity
 67
     1
  8
0
100
AcDbBlockEnd
  0
BLOCK
  5
4C0C1
330
4C0BF
100
AcDbEntity
  8
0
100
AcDbBlockBegin
  2
_Small
 70
     0
 10
0.0
 20
0.0
 30
0.0
  3
_Small
  1

  0
CIRCLE
  5
4C0C0
330
4C0BF
100
AcDbEntity
  8
0
  6
ByBlock
 62
     0
370
    -2
100
AcDbCircle
 10
0.0
 20
0.0
 30
0.0
 40
0.25
  0
ENDBLK
  5
4C0C2
330
4C0BF
100
AcDbEntity
  8
0
100
AcDbBlockEnd
  0
BLOCK
  5
4C0C7
330
4C0C3
100
AcDbEntity
  8
0
100
AcDbBlockBegin
  2
_Open30
 70
     0
 10
0.0
 20
0.0
 30
0.0
  3
_Open30
  1

  0
LINE
  5
990C6
330
4C0C3
100
AcDbEntity
  8
NOTE
100
AcDbLine
 10
-1.0
 20
0.26794919
 30
0.0
 11
0.0
 21
0.0
 31
0.0
  0
LINE
  5
990C7
330
4C0C3
100
AcDbEntity
  8
NOTE
100
AcDbLine
 10
0.0
 20
0.0
 30
0.0
 11
-1.0
 21
-0.26794919
 31
0.0
  0
LINE
  5
990C8
330
4C0C3
100
AcDbEntity
  8
NOTE
100
AcDbLine
 10
0.0
 20
0.0
 30
0.0
 11
-1.0
 21
0.0
 31
0.0
  0
ENDBLK
  5
4C0C8
330
4C0C3
100
AcDbEntity
  8
0
100
AcDbBlockEnd
  0
BLOCK
  5
9924E
330
9924D
100
AcDbEntity
  8
0
100
AcDbBlockBegin
  2
*D2
 70
     1
 10
0.0
 20
0.0
 30
0.0
  3
*D2
  1

  0
LINE
  5
9924F
330
9924D
100
AcDbEntity
  8
SIZE
  6
ByBlock
 62
     0
370
    -2
100
AcDbLine
 10
3107.423101685528
 20
-3369.454035467899
 30
0.0
 11
3107.423101685528
 21
-3529.06484493204
 31
0.0
  0
LINE
  5
99250
330
9924D
100
AcDbEntity
  8
SIZE
  6
ByBlock
 62
     0
370
    -2
100
AcDbLine
 10
3657.423101685534
 20
-3369.454035467902
 30
0.0
 11
3657.423101685534
 21
-3529.06484493204
 31
0.0
  0
LINE
  5
99251
330
9924D
100
AcDbEntity
  8
SIZE
  6
ByBlock
 62
     0
370
    -2
100
AcDbLine
 10
3107.423101685528
 20
-3509.06484493204
 30
0.0
 11
3657.423101685534
 21
-3509.06484493204
 31
0.0
  0
INSERT
  5
99252
330
9924D
100
AcDbEntity
  8
SIZE
 62
     0
370
    -2
100
AcDbBlockReference
  2
_Small
 10
3107.423101685528
 20
-3509.06484493204
 30
0.0
 41
30.0
 42
30.0
 43
30.0
 50
180.0
  0
INSERT
  5
99253
330
9924D
100
AcDbEntity
  8
SIZE
 62
     0
370
    -2
100
AcDbBlockReference
  2
_Small
 10
3657.423101685534
 20
-3509.06484493204
 30
0.0
 41
30.0
 42
30.0
 43
30.0
  0
MTEXT
  5
99254
330
9924D
100
AcDbEntity
  8
SIZE
 62
     0
100
AcDbMText
 10
3382.423101685531
 20
-3469.06484493204
 30
0.0
 40
40.0
 41
0.0
 71
     5
 72
     1
  1
\A1;550
 73
     1
 44
1.0
1001
ACAD
1000
MTEXTBEGIN
1070
    73
1070
     1
1070
    44
1040
1.0
1070
    74
1070
     0
1000
MTEXTEND
  0
POINT
  5
99255
330
9924D
100
AcDbEntity
  8
DEFPOINTS
 62
     0
100
AcDbPoint
 10
3107.423101685528
 20
-3349.4540354679
 30
0.0
  0
POINT
  5
99256
330
9924D
100
AcDbEntity
  8
DEFPOINTS
 62
     0
100
AcDbPoint
 10
3657.423101685534
 20
-3349.454035467902
 30
0.0
  0
POINT
  5
99257
330
9924D
100
AcDbEntity
  8
DEFPOINTS
 62
     0
100
AcDbPoint
 10
3657.423101685534
 20
-3509.06484493204
 30
0.0
  0
ENDBLK
  5
99258
330
9924D
100
AcDbEntity
  8
0
100
AcDbBlockEnd
  0
BLOCK
  5
9925A
330
99259
100
AcDbEntity
  8
0
100
AcDbBlockBegin
  2
*D3
 70
     1
 10
0.0
 20
0.0
 30
0.0
  3
*D3
  1

  0
LINE
  5
9925B
330
99259
100
AcDbEntity
  8
SIZE
  6
ByBlock
 62
     0
370
    -2
100
AcDbLine
 10
3857.423101685522
 20
-1755.454035467891
 30
0.0
 11
3857.423101685522
 21
-1706.854879639021
 31
0.0
  0
LINE
  5
9925C
330
99259
100
AcDbEntity
  8
SIZE
  6
ByBlock
 62
     0
370
    -2
100
AcDbLine
 10
2357.423101685522
 20
-1755.454035467891
 30
0.0
 11
2357.423101685522
 21
-1706.854879639021
 31
0.0
  0
LINE
  5
9925D
330
99259
100
AcDbEntity
  8
SIZE
  6
ByBlock
 62
     0
370
    -2
100
AcDbLine
 10
3857.423101685522
 20
-1726.85487963902
 30
0.0
 11
2357.423101685522
 21
-1726.85487963902
 31
0.0
  0
INSERT
  5
9925E
330
99259
100
AcDbEntity
  8
SIZE
 62
     0
370
    -2
100
AcDbBlockReference
  2
_Small
 10
3857.423101685522
 20
-1726.85487963902
 30
0.0
 41
30.0
 42
30.0
 43
30.0
  0
INSERT
  5
9925F
330
99259
100
AcDbEntity
  8
SIZE
 62
     0
370
    -2
100
AcDbBlockReference
  2
_Small
 10
2357.423101685522
 20
-1726.85487963902
 30
0.0
 41
30.0
 42
30.0
 43
30.0
 50
180.0
  0
MTEXT
  5
99260
330
99259
100
AcDbEntity
  8
SIZE
 62
     0
100
AcDbMText
 10
3107.423101685522
 20
-1686.85487963902
 30
0.0
 40
40.0
 41
0.0
 71
     5
 72
     1
  1
\A1;1500
 73
     1
 44
1.0
1001
ACAD
1000
MTEXTBEGIN
1070
    73
1070
     1
1070
    44
1040
1.0
1070
    74
1070
     0
1000
MTEXTEND
  0
POINT
  5
99261
330
99259
100
AcDbEntity
  8
DEFPOINTS
 62
     0
100
AcDbPoint
 10
3857.423101685522
 20
-1775.454035467891
 30
0.0
  0
POINT
  5
99262
330
99259
100
AcDbEntity
  8
DEFPOINTS
 62
     0
100
AcDbPoint
 10
2357.423101685522
 20
-1775.454035467891
 30
0.0
  0
POINT
  5
99263
330
99259
100
AcDbEntity
  8
DEFPOINTS
 62
     0
100
AcDbPoint
 10
2357.423101685522
 20
-1726.85487963902
 30
0.0
  0
ENDBLK
  5
99264
330
99259
100
AcDbEntity
  8
0
100
AcDbBlockEnd
  0
BLOCK
  5
99266
330
99265
100
AcDbEntity
  8
0
100
AcDbBlockBegin
  2
*D4
 70
     1
 10
0.0
 20
0.0
 30
0.0
  3
*D4
  1

  0
LINE
  5
99267
330
99265
100
AcDbEntity
  8
SIZE
  6
ByBlock
 62
     0
370
    -2
100
AcDbLine
 10
2557.423101685524
 20
-3369.454035467896
 30
0.0
 11
2557.423101685524
 21
-3529.06484493204
 31
0.0
  0
LINE
  5
99268
330
99265
100
AcDbEntity
  8
SIZE
  6
ByBlock
 62
     0
370
    -2
100
AcDbLine
 10
3107.423101685537
 20
-3369.454035467904
 30
0.0
 11
3107.423101685537
 21
-3529.06484493204
 31
0.0
  0
LINE
  5
99269
330
99265
100
AcDbEntity
  8
SIZE
  6
ByBlock
 62
     0
370
    -2
100
AcDbLine
 10
2557.423101685524
 20
-3509.06484493204
 30
0.0
 11
3107.423101685537
 21
-3509.06484493204
 31
0.0
  0
INSERT
  5
9926A
330
99265
100
AcDbEntity
  8
SIZE
 62
     0
370
    -2
100
AcDbBlockReference
  2
_Small
 10
2557.423101685524
 20
-3509.06484493204
 30
0.0
 41
30.0
 42
30.0
 43
30.0
 50
180.0
  0
INSERT
  5
9926B
330
99265
100
AcDbEntity
  8
SIZE
 62
     0
370
    -2
100
AcDbBlockReference
  2
_Small
 10
3107.423101685537
 20
-3509.06484493204
 30
0.0
 41
30.0
 42
30.0
 43
30.0
  0
MTEXT
  5
9926C
330
99265
100
AcDbEntity
  8
SIZE
 62
     0
100
AcDbMText
 10
2832.42310168553
 20
-3469.06484493204
 30
0.0
 40
40.0
 41
0.0
 71
     5
 72
     1
  1
\A1;550
 73
     1
 44
1.0
1001
ACAD
1000
MTEXTBEGIN
1070
    73
1070
     1
1070
    44
1040
1.0
1070
    74
1070
     0
1000
MTEXTEND
  0
POINT
  5
9926D
330
99265
100
AcDbEntity
  8
DEFPOINTS
 62
     0
100
AcDbPoint
 10
2557.423101685524
 20
-3349.454035467897
 30
0.0
  0
POINT
  5
9926E
330
99265
100
AcDbEntity
  8
DEFPOINTS
 62
     0
100
AcDbPoint
 10
3107.423101685537
 20
-3349.454035467904
 30
0.0
  0
POINT
  5
9926F
330
99265
100
AcDbEntity
  8
DEFPOINTS
 62
     0
100
AcDbPoint
 10
3107.423101685537
 20
-3509.06484493204
 30
0.0
  0
ENDBLK
  5
99270
330
99265
100
AcDbEntity
  8
0
100
AcDbBlockEnd
  0
BLOCK
  5
99272
330
99271
100
AcDbEntity
  8
0
100
AcDbBlockBegin
  2
*D5
 70
     1
 10
0.0
 20
0.0
 30
0.0
  3
*D5
  1

  0
LINE
  5
99273
330
99271
100
AcDbEntity
  8
SIZE
  6
ByBlock
 62
     0
370
    -2
100
AcDbLine
 10
3657.423101685534
 20
-3369.454035467902
 30
0.0
 11
3657.423101685534
 21
-3529.06484493204
 31
0.0
  0
LINE
  5
99274
330
99271
100
AcDbEntity
  8
SIZE
  6
ByBlock
 62
     0
370
    -2
100
AcDbLine
 10
3857.423101685522
 20
-3369.454035467891
 30
0.0
 11
3857.423101685522
 21
-3529.06484493204
 31
0.0
  0
LINE
  5
99275
330
99271
100
AcDbEntity
  8
SIZE
  6
ByBlock
 62
     0
370
    -2
100
AcDbLine
 10
3657.423101685534
 20
-3509.06484493204
 30
0.0
 11
3857.423101685522
 21
-3509.06484493204
 31
0.0
  0
INSERT
  5
99276
330
99271
100
AcDbEntity
  8
SIZE
 62
     0
370
    -2
100
AcDbBlockReference
  2
_Small
 10
3657.423101685534
 20
-3509.06484493204
 30
0.0
 41
30.0
 42
30.0
 43
30.0
 50
180.0
  0
INSERT
  5
99277
330
99271
100
AcDbEntity
  8
SIZE
 62
     0
370
    -2
100
AcDbBlockReference
  2
_Small
 10
3857.423101685522
 20
-3509.06484493204
 30
0.0
 41
30.0
 42
30.0
 43
30.0
  0
MTEXT
  5
99278
330
99271
100
AcDbEntity
  8
SIZE
 62
     0
100
AcDbMText
 10
3757.423101685529
 20
-3458.588654455849
 30
0.0
 40
40.0
 41
0.0
 71
     5
 72
     1
  1
\A1;(200)
 73
     1
 44
1.0
1001
ACAD
1000
MTEXTBEGIN
1070
    73
1070
     1
1070
    44
1040
1.0
1070
    74
1070
     0
1000
MTEXTEND
  0
POINT
  5
99279
330
99271
100
AcDbEntity
  8
DEFPOINTS
 62
     0
100
AcDbPoint
 10
3657.423101685534
 20
-3349.454035467902
 30
0.0
  0
POINT
  5
9927A
330
99271
100
AcDbEntity
  8
DEFPOINTS
 62
     0
100
AcDbPoint
 10
3857.423101685522
 20
-3349.454035467891
 30
0.0
  0
POINT
  5
9927B
330
99271
100
AcDbEntity
  8
DEFPOINTS
 62
     0
100
AcDbPoint
 10
3857.423101685522
 20
-3509.06484493204
 30
0.0
  0
ENDBLK
  5
9927C
330
99271
100
AcDbEntity
  8
0
100
AcDbBlockEnd
  0
BLOCK
  5
9927E
330
9927D
100
AcDbEntity
  8
0
100
AcDbBlockBegin
  2
*D6
 70
     1
 10
0.0
 20
0.0
 30
0.0
  3
*D6
  1

  0
LINE
  5
9927F
330
9927D
100
AcDbEntity
  8
SIZE
  6
ByBlock
 62
     0
370
    -2
100
AcDbLine
 10
2357.423101685522
 20
-3369.454035467891
 30
0.0
 11
2357.423101685522
 21
-3729.06484493204
 31
0.0
  0
LINE
  5
99280
330
9927D
100
AcDbEntity
  8
SIZE
  6
ByBlock
 62
     0
370
    -2
100
AcDbLine
 10
2607.423101685523
 20
-3369.454035467896
 30
0.0
 11
2607.423101685523
 21
-3729.06484493204
 31
0.0
  0
LINE
  5
99281
330
9927D
100
AcDbEntity
  8
SIZE
  6
ByBlock
 62
     0
370
    -2
100
AcDbLine
 10
2357.423101685522
 20
-3709.06484493204
 30
0.0
 11
2607.423101685523
 21
-3709.06484493204
 31
0.0
  0
INSERT
  5
99282
330
9927D
100
AcDbEntity
  8
SIZE
 62
     0
370
    -2
100
AcDbBlockReference
  2
_Small
 10
2357.423101685522
 20
-3709.06484493204
 30
0.0
 41
30.0
 42
30.0
 43
30.0
 50
180.0
  0
INSERT
  5
99283
330
9927D
100
AcDbEntity
  8
SIZE
 62
     0
370
    -2
100
AcDbBlockReference
  2
_Small
 10
2607.423101685523
 20
-3709.06484493204
 30
0.0
 41
30.0
 42
30.0
 43
30.0
  0
MTEXT
  5
99284
330
9927D
100
AcDbEntity
  8
SIZE
 62
     0
100
AcDbMText
 10
2482.423101685515
 20
-3669.06484493204
 30
0.0
 40
40.0
 41
0.0
 71
     5
 72
     1
  1
\A1;250
 73
     1
 44
1.0
1001
ACAD
1000
MTEXTBEGIN
1070
    73
1070
     1
1070
    44
1040
1.0
1070
    74
1070
     0
1000
MTEXTEND
  0
POINT
  5
99285
330
9927D
100
AcDbEntity
  8
DEFPOINTS
 62
     0
100
AcDbPoint
 10
2357.423101685522
 20
-3349.454035467891
 30
0.0
  0
POINT
  5
99286
330
9927D
100
AcDbEntity
  8
DEFPOINTS
 62
     0
100
AcDbPoint
 10
2607.423101685523
 20
-3349.454035467897
 30
0.0
  0
POINT
  5
99287
330
9927D
100
AcDbEntity
  8
DEFPOINTS
 62
     0
100
AcDbPoint
 10
2607.423101685523
 20
-3709.06484493204
 30
0.0
  0
ENDBLK
  5
99288
330
9927D
100
AcDbEntity
  8
0
100
AcDbBlockEnd
  0
BLOCK
  5
9928A
330
99289
100
AcDbEntity
  8
0
100
AcDbBlockBegin
  2
*D7
 70
     1
 10
0.0
 20
0.0
 30
0.0
  3
*D7
  1

  0
LINE
  5
9928B
330
99289
100
AcDbEntity
  8
SIZE
  6
ByBlock
 62
     0
370
    -2
100
AcDbLine
 10
2607.423101685523
 20
-3369.454035467896
 30
0.0
 11
2607.423101685523
 21
-3729.277498216743
 31
0.0
  0
LINE
  5
9928C
330
99289
100
AcDbEntity
  8
SIZE
  6
ByBlock
 62
     0
370
    -2
100
AcDbLine
 10
3607.423101685529
 20
-3369.454035467902
 30
0.0
 11
3607.423101685529
 21
-3729.277498216743
 31
0.0
  0
LINE
  5
9928D
330
99289
100
AcDbEntity
  8
SIZE
  6
ByBlock
 62
     0
370
    -2
100
AcDbLine
 10
2607.423101685523
 20
-3709.277498216744
 30
0.0
 11
3607.423101685529
 21
-3709.277498216744
 31
0.0
  0
INSERT
  5
9928E
330
99289
100
AcDbEntity
  8
SIZE
 62
     0
370
    -2
100
AcDbBlockReference
  2
_Small
 10
2607.423101685523
 20
-3709.277498216744
 30
0.0
 41
30.0
 42
30.0
 43
30.0
 50
180.0
  0
INSERT
  5
9928F
330
99289
100
AcDbEntity
  8
SIZE
 62
     0
370
    -2
100
AcDbBlockReference
  2
_Small
 10
3607.423101685529
 20
-3709.277498216744
 30
0.0
 41
30.0
 42
30.0
 43
30.0
  0
MTEXT
  5
99290
330
99289
100
AcDbEntity
  8
SIZE
 62
     0
100
AcDbMText
 10
3107.423101685526
 20
-3669.277498216743
 30
0.0
 40
40.0
 41
0.0
 71
     5
 72
     1
  1
\A1;1000
 73
     1
 44
1.0
1001
ACAD
1000
MTEXTBEGIN
1070
    73
1070
     1
1070
    44
1040
1.0
1070
    74
1070
     0
1000
MTEXTEND
  0
POINT
  5
99291
330
99289
100
AcDbEntity
  8
DEFPOINTS
 62
     0
100
AcDbPoint
 10
2607.423101685523
 20
-3349.454035467897
 30
0.0
  0
POINT
  5
99292
330
99289
100
AcDbEntity
  8
DEFPOINTS
 62
     0
100
AcDbPoint
 10
3607.423101685529
 20
-3349.454035467902
 30
0.0
  0
POINT
  5
99293
330
99289
100
AcDbEntity
  8
DEFPOINTS
 62
     0
100
AcDbPoint
 10
3607.423101685529
 20
-3709.277498216744
 30
0.0
  0
ENDBLK
  5
99294
330
99289
100
AcDbEntity
  8
0
100
AcDbBlockEnd
  0
BLOCK
  5
99296
330
99295
100
AcDbEntity
  8
0
100
AcDbBlockBegin
  2
*D8
 70
     1
 10
0.0
 20
0.0
 30
0.0
  3
*D8
  1

  0
LINE
  5
99297
330
99295
100
AcDbEntity
  8
SIZE
  6
ByBlock
 62
     0
370
    -2
100
AcDbLine
 10
3607.423101685534
 20
-3369.454035467902
 30
0.0
 11
3607.423101685534
 21
-3729.277498216743
 31
0.0
  0
LINE
  5
99298
330
99295
100
AcDbEntity
  8
SIZE
  6
ByBlock
 62
     0
370
    -2
100
AcDbLine
 10
3857.423101685522
 20
-3369.454035467891
 30
0.0
 11
3857.423101685522
 21
-3729.277498216743
 31
0.0
  0
LINE
  5
99299
330
99295
100
AcDbEntity
  8
SIZE
  6
ByBlock
 62
     0
370
    -2
100
AcDbLine
 10
3607.423101685534
 20
-3709.277498216744
 30
0.0
 11
3857.423101685522
 21
-3709.277498216744
 31
0.0
  0
INSERT
  5
9929A
330
99295
100
AcDbEntity
  8
SIZE
 62
     0
370
    -2
100
AcDbBlockReference
  2
_Small
 10
3607.423101685534
 20
-3709.277498216744
 30
0.0
 41
30.0
 42
30.0
 43
30.0
 50
180.0
  0
INSERT
  5
9929B
330
99295
100
AcDbEntity
  8
SIZE
 62
     0
370
    -2
100
AcDbBlockReference
  2
_Small
 10
3857.423101685522
 20
-3709.277498216744
 30
0.0
 41
30.0
 42
30.0
 43
30.0
  0
MTEXT
  5
9929C
330
99295
100
AcDbEntity
  8
SIZE
 62
     0
100
AcDbMText
 10
3732.423101685523
 20
-3658.801307740553
 30
0.0
 40
40.0
 41
0.0
 71
     5
 72
     1
  1
\A1;(250)
 73
     1
 44
1.0
1001
ACAD
1000
MTEXTBEGIN
1070
    73
1070
     1
1070
    44
1040
1.0
1070
    74
1070
     0
1000
MTEXTEND
  0
POINT
  5
9929D
330
99295
100
AcDbEntity
  8
DEFPOINTS
 62
     0
100
AcDbPoint
 10
3607.423101685534
 20
-3349.454035467902
 30
0.0
  0
POINT
  5
9929E
330
99295
100
AcDbEntity
  8
DEFPOINTS
 62
     0
100
AcDbPoint
 10
3857.423101685522
 20
-3349.454035467891
 30
0.0
  0
POINT
  5
9929F
330
99295
100
AcDbEntity
  8
DEFPOINTS
 62
     0
100
AcDbPoint
 10
3857.423101685522
 20
-3709.277498216744
 30
0.0
  0
ENDBLK
  5
992A0
330
99295
100
AcDbEntity
  8
0
100
AcDbBlockEnd
  0
BLOCK
  5
992A2
330
992A1
100
AcDbEntity
  8
0
100
AcDbBlockBegin
  2
*D9
 70
     1
 10
0.0
 20
0.0
 30
0.0
  3
*D9
  1

  0
LINE
  5
992A3
330
992A1
100
AcDbEntity
  8
SIZE
  6
ByBlock
 62
     0
370
    -2
100
AcDbLine
 10
2357.423101685522
 20
-3369.454035467891
 30
0.0
 11
2357.423101685522
 21
-3629.06484493204
 31
0.0
  0
LINE
  5
992A4
330
992A1
100
AcDbEntity
  8
SIZE
  6
ByBlock
 62
     0
370
    -2
100
AcDbLine
 10
2567.423101685522
 20
-3100.45403546789
 30
0.0
 11
2567.423101685522
 21
-3629.06484493204
 31
0.0
  0
LINE
  5
992A5
330
992A1
100
AcDbEntity
  8
SIZE
  6
ByBlock
 62
     0
370
    -2
100
AcDbLine
 10
2357.423101685522
 20
-3609.06484493204
 30
0.0
 11
2567.423101685522
 21
-3609.06484493204
 31
0.0
  0
INSERT
  5
992A6
330
992A1
100
AcDbEntity
  8
SIZE
 62
     0
370
    -2
100
AcDbBlockReference
  2
_Small
 10
2357.423101685522
 20
-3609.06484493204
 30
0.0
 41
30.0
 42
30.0
 43
30.0
 50
180.0
  0
INSERT
  5
992A7
330
992A1
100
AcDbEntity
  8
SIZE
 62
     0
370
    -2
100
AcDbBlockReference
  2
_Small
 10
2567.423101685522
 20
-3609.06484493204
 30
0.0
 41
30.0
 42
30.0
 43
30.0
  0
MTEXT
  5
992A8
330
992A1
100
AcDbEntity
  8
SIZE
 62
     0
100
AcDbMText
 10
2462.423101685522
 20
-3569.06484493204
 30
0.0
 40
40.0
 41
0.0
 71
     5
 72
     1
  1
\A1;210
 73
     1
 44
1.0
1001
ACAD
1000
MTEXTBEGIN
1070
    73
1070
     1
1070
    44
1040
1.0
1070
    74
1070
     0
1000
MTEXTEND
  0
POINT
  5
992A9
330
992A1
100
AcDbEntity
  8
DEFPOINTS
 62
     0
100
AcDbPoint
 10
2357.423101685522
 20
-3349.454035467891
 30
0.0
  0
POINT
  5
992AA
330
992A1
100
AcDbEntity
  8
DEFPOINTS
 62
     0
100
AcDbPoint
 10
2567.423101685522
 20
-3080.45403546789
 30
0.0
  0
POINT
  5
992AB
330
992A1
100
AcDbEntity
  8
DEFPOINTS
 62
     0
100
AcDbPoint
 10
2567.423101685522
 20
-3609.06484493204
 30
0.0
  0
ENDBLK
  5
992AC
330
992A1
100
AcDbEntity
  8
0
100
AcDbBlockEnd
  0
BLOCK
  5
992AE
330
992AD
100
AcDbEntity
  8
0
100
AcDbBlockBegin
  2
*D10
 70
     1
 10
0.0
 20
0.0
 30
0.0
  3
*D10
  1

  0
LINE
  5
992AF
330
992AD
100
AcDbEntity
  8
SIZE
  6
ByBlock
 62
     0
370
    -2
100
AcDbLine
 10
2357.423101685522
 20
-3369.454035467891
 30
0.0
 11
2357.423101685522
 21
-3829.06484493204
 31
0.0
  0
LINE
  5
992B0
330
992AD
100
AcDbEntity
  8
SIZE
  6
ByBlock
 62
     0
370
    -2
100
AcDbLine
 10
2627.423101685522
 20
-3216.454035467886
 30
0.0
 11
2627.423101685522
 21
-3829.06484493204
 31
0.0
  0
LINE
  5
992B1
330
992AD
100
AcDbEntity
  8
SIZE
  6
ByBlock
 62
     0
370
    -2
100
AcDbLine
 10
2357.423101685522
 20
-3809.06484493204
 30
0.0
 11
2627.423101685522
 21
-3809.06484493204
 31
0.0
  0
INSERT
  5
992B2
330
992AD
100
AcDbEntity
  8
SIZE
 62
     0
370
    -2
100
AcDbBlockReference
  2
_Small
 10
2357.423101685522
 20
-3809.06484493204
 30
0.0
 41
30.0
 42
30.0
 43
30.0
 50
180.0
  0
INSERT
  5
992B3
330
992AD
100
AcDbEntity
  8
SIZE
 62
     0
370
    -2
100
AcDbBlockReference
  2
_Small
 10
2627.423101685522
 20
-3809.06484493204
 30
0.0
 41
30.0
 42
30.0
 43
30.0
  0
MTEXT
  5
992B4
330
992AD
100
AcDbEntity
  8
SIZE
 62
     0
100
AcDbMText
 10
2492.423101685522
 20
-3769.06484493204
 30
0.0
 40
40.0
 41
0.0
 71
     5
 72
     1
  1
\A1;270
 73
     1
 44
1.0
1001
ACAD
1000
MTEXTBEGIN
1070
    73
1070
     1
1070
    44
1040
1.0
1070
    74
1070
     0
1000
MTEXTEND
  0
POINT
  5
992B5
330
992AD
100
AcDbEntity
  8
DEFPOINTS
 62
     0
100
AcDbPoint
 10
2357.423101685522
 20
-3349.454035467891
 30
0.0
  0
POINT
  5
992B6
330
992AD
100
AcDbEntity
  8
DEFPOINTS
 62
     0
100
AcDbPoint
 10
2627.423101685522
 20
-3196.454035467887
 30
0.0
  0
POINT
  5
992B7
330
992AD
100
AcDbEntity
  8
DEFPOINTS
 62
     0
100
AcDbPoint
 10
2627.423101685522
 20
-3809.06484493204
 30
0.0
  0
ENDBLK
  5
992B8
330
992AD
100
AcDbEntity
  8
0
100
AcDbBlockEnd
  0
BLOCK
  5
992BA
330
992B9
100
AcDbEntity
  8
0
100
AcDbBlockBegin
  2
*D11
 70
     1
 10
0.0
 20
0.0
 30
0.0
  3
*D11
  1

  0
LINE
  5
992BB
330
992B9
100
AcDbEntity
  8
SIZE
  6
ByBlock
 62
     0
370
    -2
100
AcDbLine
 10
2337.423101685523
 20
-3349.454035467893
 30
0.0
 11
2161.768594301246
 21
-3349.454035467893
 31
0.0
  0
LINE
  5
992BC
330
992B9
100
AcDbEntity
  8
SIZE
  6
ByBlock
 62
     0
370
    -2
100
AcDbLine
 10
2607.423101685523
 20
-3196.454035467889
 30
0.0
 11
2161.768594301246
 21
-3196.454035467889
 31
0.0
  0
LINE
  5
992BD
330
992B9
100
AcDbEntity
  8
SIZE
  6
ByBlock
 62
     0
370
    -2
100
AcDbLine
 10
2181.768594301246
 20
-3349.454035467893
 30
0.0
 11
2181.768594301246
 21
-3196.454035467889
 31
0.0
  0
INSERT
  5
992BE
330
992B9
100
AcDbEntity
  8
SIZE
 62
     0
370
    -2
100
AcDbBlockReference
  2
_Small
 10
2181.768594301246
 20
-3349.454035467893
 30
0.0
 41
30.0
 42
30.0
 43
30.0
 50
270.0
  0
INSERT
  5
992BF
330
992B9
100
AcDbEntity
  8
SIZE
 62
     0
370
    -2
100
AcDbBlockReference
  2
_Small
 10
2181.768594301246
 20
-3196.454035467889
 30
0.0
 41
30.0
 42
30.0
 43
30.0
 50
90.0
  0
MTEXT
  5
992C0
330
992B9
100
AcDbEntity
  8
SIZE
 62
     0
100
AcDbMText
 10
2141.768594301245
 20
-3272.95403546789
 30
0.0
 40
40.0
 41
0.0
 71
     5
 72
     1
  1
\A1;153
 11
0.0000000000000001
 21
1.0
 31
0.0
 73
     1
 44
1.0
1001
ACAD
1000
MTEXTBEGIN
1070
    73
1070
     1
1070
    44
1040
1.0
1070
    74
1070
     0
1000
MTEXTEND
  0
POINT
  5
992C1
330
992B9
100
AcDbEntity
  8
DEFPOINTS
 62
     0
100
AcDbPoint
 10
2357.423101685523
 20
-3349.454035467893
 30
0.0
  0
POINT
  5
992C2
330
992B9
100
AcDbEntity
  8
DEFPOINTS
 62
     0
100
AcDbPoint
 10
2627.423101685523
 20
-3196.454035467889
 30
0.0
  0
POINT
  5
992C3
330
992B9
100
AcDbEntity
  8
DEFPOINTS
 62
     0
100
AcDbPoint
 10
2181.768594301246
 20
-3196.454035467889
 30
0.0
  0
ENDBLK
  5
992C4
330
992B9
100
AcDbEntity
  8
0
100
AcDbBlockEnd
  0
BLOCK
  5
992C6
330
992C5
100
AcDbEntity
  8
0
100
AcDbBlockBegin
  2
*D12
 70
     1
 10
0.0
 20
0.0
 30
0.0
  3
*D12
  1

  0
LINE
  5
992C7
330
992C5
100
AcDbEntity
  8
SIZE
  6
ByBlock
 62
     0
370
    -2
100
AcDbLine
 10
2337.423101685523
 20
-3349.454035467893
 30
0.0
 11
2061.768594301246
 21
-3349.454035467893
 31
0.0
  0
LINE
  5
992C8
330
992C5
100
AcDbEntity
  8
SIZE
  6
ByBlock
 62
     0
370
    -2
100
AcDbLine
 10
2547.423101685521
 20
-3080.454035467889
 30
0.0
 11
2061.768594301246
 21
-3080.454035467889
 31
0.0
  0
LINE
  5
992C9
330
992C5
100
AcDbEntity
  8
SIZE
  6
ByBlock
 62
     0
370
    -2
100
AcDbLine
 10
2081.768594301246
 20
-3349.454035467893
 30
0.0
 11
2081.768594301246
 21
-3080.454035467889
 31
0.0
  0
INSERT
  5
992CA
330
992C5
100
AcDbEntity
  8
SIZE
 62
     0
370
    -2
100
AcDbBlockReference
  2
_Small
 10
2081.768594301246
 20
-3349.454035467893
 30
0.0
 41
30.0
 42
30.0
 43
30.0
 50
270.0
  0
INSERT
  5
992CB
330
992C5
100
AcDbEntity
  8
SIZE
 62
     0
370
    -2
100
AcDbBlockReference
  2
_Small
 10
2081.768594301246
 20
-3080.454035467889
 30
0.0
 41
30.0
 42
30.0
 43
30.0
 50
90.0
  0
MTEXT
  5
992CC
330
992C5
100
AcDbEntity
  8
SIZE
 62
     0
100
AcDbMText
 10
2041.768594301245
 20
-3214.954035467889
 30
0.0
 40
40.0
 41
0.0
 71
     5
 72
     1
  1
\A1;269
 11
0.0000000000000001
 21
1.0
 31
0.0
 73
     1
 44
1.0
1001
ACAD
1000
MTEXTBEGIN
1070
    73
1070
     1
1070
    44
1040
1.0
1070
    74
1070
     0
1000
MTEXTEND
  0
POINT
  5
992CD
330
992C5
100
AcDbEntity
  8
DEFPOINTS
 62
     0
100
AcDbPoint
 10
2357.423101685523
 20
-3349.454035467893
 30
0.0
  0
POINT
  5
992CE
330
992C5
100
AcDbEntity
  8
DEFPOINTS
 62
     0
100
AcDbPoint
 10
2567.423101685522
 20
-3080.454035467889
 30
0.0
  0
POINT
  5
992CF
330
992C5
100
AcDbEntity
  8
DEFPOINTS
 62
     0
100
AcDbPoint
 10
2081.768594301246
 20
-3080.454035467889
 30
0.0
  0
ENDBLK
  5
992D0
330
992C5
100
AcDbEntity
  8
0
100
AcDbBlockEnd
  0
BLOCK
  5
992D2
330
992D1
100
AcDbEntity
  8
0
100
AcDbBlockBegin
  2
*D13
 70
     1
 10
0.0
 20
0.0
 30
0.0
  3
*D13
  1

  0
LINE
  5
992D3
330
992D1
100
AcDbEntity
  8
SIZE
  6
ByBlock
 62
     0
370
    -2
100
AcDbLine
 10
2337.423101685523
 20
-3349.454035467893
 30
0.0
 11
1961.768594301246
 21
-3349.454035467893
 31
0.0
  0
LINE
  5
992D4
330
992D1
100
AcDbEntity
  8
SIZE
  6
ByBlock
 62
     0
370
    -2
100
AcDbLine
 10
2337.423101685523
 20
-1775.454035467892
 30
0.0
 11
1961.768594301246
 21
-1775.454035467892
 31
0.0
  0
LINE
  5
992D5
330
992D1
100
AcDbEntity
  8
SIZE
  6
ByBlock
 62
     0
370
    -2
100
AcDbLine
 10
1981.768594301246
 20
-3349.454035467893
 30
0.0
 11
1981.768594301246
 21
-1775.454035467892
 31
0.0
  0
INSERT
  5
992D6
330
992D1
100
AcDbEntity
  8
SIZE
 62
     0
370
    -2
100
AcDbBlockReference
  2
_Small
 10
1981.768594301246
 20
-3349.454035467893
 30
0.0
 41
30.0
 42
30.0
 43
30.0
 50
270.0
  0
INSERT
  5
992D7
330
992D1
100
AcDbEntity
  8
SIZE
 62
     0
370
    -2
100
AcDbBlockReference
  2
_Small
 10
1981.768594301246
 20
-1775.454035467892
 30
0.0
 41
30.0
 42
30.0
 43
30.0
 50
90.0
  0
MTEXT
  5
992D8
330
992D1
100
AcDbEntity
  8
SIZE
 62
     0
100
AcDbMText
 10
1941.768594301245
 20
-2562.454035467892
 30
0.0
 40
40.0
 41
0.0
 71
     5
 72
     1
  1
\A1;1574
 11
0.0000000000000001
 21
1.0
 31
0.0
 73
     1
 44
1.0
1001
ACAD
1000
MTEXTBEGIN
1070
    73
1070
     1
1070
    44
1040
1.0
1070
    74
1070
     0
1000
MTEXTEND
  0
POINT
  5
992D9
330
992D1
100
AcDbEntity
  8
DEFPOINTS
 62
     0
100
AcDbPoint
 10
2357.423101685523
 20
-3349.454035467893
 30
0.0
  0
POINT
  5
992DA
330
992D1
100
AcDbEntity
  8
DEFPOINTS
 62
     0
100
AcDbPoint
 10
2357.423101685523
 20
-1775.454035467892
 30
0.0
  0
POINT
  5
992DB
330
992D1
100
AcDbEntity
  8
DEFPOINTS
 62
     0
100
AcDbPoint
 10
1981.768594301246
 20
-1775.454035467892
 30
0.0
  0
ENDBLK
  5
992DC
330
992D1
100
AcDbEntity
  8
0
100
AcDbBlockEnd
  0
BLOCK
  5
992DE
330
992DD
100
AcDbEntity
  8
0
100
AcDbBlockBegin
  2
*D14
 70
     1
 10
0.0
 20
0.0
 30
0.0
  3
*D14
  1

  0
LINE
  5
992DF
330
992DD
100
AcDbEntity
  8
SIZE
  6
ByBlock
 62
     0
370
    -2
100
AcDbLine
 10
2357.423101685522
 20
-3369.454035467891
 30
0.0
 11
2357.423101685522
 21
-3529.06484493204
 31
0.0
  0
LINE
  5
992E0
330
992DD
100
AcDbEntity
  8
SIZE
  6
ByBlock
 62
     0
370
    -2
100
AcDbLine
 10
2557.423101685524
 20
-3369.454035467896
 30
0.0
 11
2557.423101685524
 21
-3529.06484493204
 31
0.0
  0
LINE
  5
992E1
330
992DD
100
AcDbEntity
  8
SIZE
  6
ByBlock
 62
     0
370
    -2
100
AcDbLine
 10
2357.423101685522
 20
-3509.06484493204
 30
0.0
 11
2557.423101685524
 21
-3509.06484493204
 31
0.0
  0
INSERT
  5
992E2
330
992DD
100
AcDbEntity
  8
SIZE
 62
     0
370
    -2
100
AcDbBlockReference
  2
_Small
 10
2357.423101685522
 20
-3509.06484493204
 30
0.0
 41
30.0
 42
30.0
 43
30.0
 50
180.0
  0
INSERT
  5
992E3
330
992DD
100
AcDbEntity
  8
SIZE
 62
     0
370
    -2
100
AcDbBlockReference
  2
_Small
 10
2557.423101685524
 20
-3509.06484493204
 30
0.0
 41
30.0
 42
30.0
 43
30.0
  0
MTEXT
  5
992E4
330
992DD
100
AcDbEntity
  8
SIZE
 62
     0
100
AcDbMText
 10
2457.423101685523
 20
-3469.06484493204
 30
0.0
 40
40.0
 41
0.0
 71
     5
 72
     1
  1
\A1;200
 73
     1
 44
1.0
1001
ACAD
1000
MTEXTBEGIN
1070
    73
1070
     1
1070
    44
1040
1.0
1070
    74
1070
     0
1000
MTEXTEND
  0
POINT
  5
992E5
330
992DD
100
AcDbEntity
  8
DEFPOINTS
 62
     0
100
AcDbPoint
 10
2357.423101685522
 20
-3349.454035467891
 30
0.0
  0
POINT
  5
992E6
330
992DD
100
AcDbEntity
  8
DEFPOINTS
 62
     0
100
AcDbPoint
 10
2557.423101685524
 20
-3349.454035467897
 30
0.0
  0
POINT
  5
992E7
330
992DD
100
AcDbEntity
  8
DEFPOINTS
 62
     0
100
AcDbPoint
 10
2557.423101685524
 20
-3509.06484493204
 30
0.0
  0
ENDBLK
  5
992E8
330
992DD
100
AcDbEntity
  8
0
100
AcDbBlockEnd
  0
BLOCK
  5
99349
330
992EB
100
AcDbEntity
  8
0
100
AcDbBlockBegin
  2
block
 70
     0
 10
0.0
 20
0.0
 30
0.0
  3
block
  1

  0
TEXT
  5
992EC
330
992EB
100
AcDbEntity
  8
ETC
  6
Continuous
 62
    61
100
AcDbText
 10
-777.7793722527953
 20
1737.159872175035
 30
0.0
 40
80.0
  1
RM-D185A_3
 50
0.0000029998804485
 41
0.8
  7
STANDARD_MODELNAME
100
AcDbText
  0
CIRCLE
  5
992ED
330
992EB
100
AcDbEntity
  8
ARRANGE
  6
Continuous
 62
     1
100
AcDbCircle
 10
0.0
 20
0.0
 30
0.0
 40
50.0
  0
LINE
  5
992EE
330
992EB
100
AcDbEntity
  8
ARRANGE
  6
Continuous
 62
     1
100
AcDbLine
 10
-50.03735003132897
 20
-49.52235315032521
 30
0.0
 11
50.03735003132897
 21
49.52235315032521
 31
0.0
  0
LINE
  5
992EF
330
992EB
100
AcDbEntity
  8
ARRANGE
  6
Continuous
 62
     1
100
AcDbLine
 10
-49.96376331050123
 20
49.59659479798574
 30
0.0
 11
49.96376331050123
 21
-49.59659479798211
 31
0.0
  0
LINE
  5
992F0
330
992EB
100
AcDbEntity
  8
BASIS
  6
DASHDOT
 62
     6
100
AcDbLine
 10
-0.0000000000009095
 20
1604.0
 30
0.0
 11
0.0
 21
-76.45172914360228
 31
0.0
  0
LINE
  5
992F1
330
992EB
100
AcDbEntity
  8
DETAIL
100
AcDbLine
 10
492.0000000000008
 20
-0.000000000005457
 30
0.0
 11
492.0000000000008
 21
2.999999999994543
 31
0.0
1001
REVIT
1002
{
1070
     2
1000
-2000151
1002
}
  0
LINE
  5
992F2
330
992EB
100
AcDbEntity
  8
DETAIL
100
AcDbLine
 10
508.0000000000008
 20
2.999999999994543
 30
0.0
 11
508.0000000000008
 21
-0.000000000005457
 31
0.0
1001
REVIT
1002
{
1070
     2
1000
-2000151
1002
}
  0
LINE
  5
992F3
330
992EB
100
AcDbEntity
  8
DETAIL
100
AcDbLine
 10
560.0000000000209
 20
2.999999999989086
 30
0.0
 11
560.0000000000209
 21
-0.0000000000109139
 31
0.0
1001
REVIT
1002
{
1070
     2
1000
-2000151
1002
}
  0
LINE
  5
992F4
330
992EB
100
AcDbEntity
  8
DETAIL
100
AcDbLine
 10
540.0000000000209
 20
-0.0000000000109139
 30
0.0
 11
540.0000000000209
 21
2.999999999989086
 31
0.0
1001
REVIT
1002
{
1070
     2
1000
-2000151
1002
}
  0
LINE
  5
992F5
330
992EB
100
AcDbEntity
  8
OUTLINE
100
AcDbLine
 10
750.0
 20
0.0
 30
0.0
 11
-750.0
 21
0.0
 31
0.0
  0
LINE
  5
992F6
330
992EB
100
AcDbEntity
  8
NOTE
100
AcDbLine
 10
-548.8574075700162
 20
269.0000000000046
 30
0.0
 11
-531.1425924299869
 21
269.0000000000046
 31
0.0
  0
LINE
  5
992F7
330
992EB
100
AcDbEntity
  8
NOTE
100
AcDbLine
 10
-540.0000000000009
 20
260.142592429981
 30
0.0
 11
-540.0000000000009
 21
277.8574075700208
 31
0.0
  0
LINE
  5
992F8
330
992EB
100
AcDbEntity
  8
NOTE
100
AcDbLine
 10
-488.8574075700153
 20
153.0000000000045
 30
0.0
 11
-471.142592429986
 21
153.0000000000045
 31
0.0
  0
LINE
  5
992F9
330
992EB
100
AcDbEntity
  8
NOTE
100
AcDbLine
 10
-480.0
 20
144.142592429981
 30
0.0
 11
-480.0
 21
161.8574075700207
 31
0.0
  0
LINE
  5
992FA
330
992EB
100
AcDbEntity
  8
NOTE
100
AcDbLine
 10
-638.2972188428198
 20
0.0
 30
0.0
 11
-561.7027811571801
 21
0.0
 31
0.0
  0
TEXT
  5
992FB
330
992EB
100
AcDbEntity
  8
NOTE
  6
Continuous
 62
     4
100
AcDbText
 10
-1376.976535119604
 20
-116.0486682051073
 30
0.0
 40
60.0
  1
入口配管φ31.75
 50
0.000002504416674
 41
0.7
  7
STANDARD1
100
AcDbText
  0
LINE
  5
992FC
330
992EB
100
AcDbEntity
  8
NOTE
100
AcDbLine
 10
-566.3312735788426
 20
252.5293860680408
 30
0.0
 11
-540.0000000000009
 21
269.0000000000009
 31
0.0
  0
LINE
  5
992FD
330
992EB
100
AcDbEntity
  8
NOTE
100
AcDbLine
 10
-540.0000000000009
 20
269.0000000000009
 30
0.0
 11
-554.5682449917312
 21
241.5703931956659
 31
0.0
  0
LINE
  5
992FE
330
992EB
100
AcDbEntity
  8
NOTE
100
AcDbLine
 10
-540.0000000000009
 20
269.0000000000009
 30
0.0
 11
-560.4497592852871
 21
247.0498896318536
 31
0.0
  0
LINE
  5
992FF
330
992EB
100
AcDbEntity
  8
NOTE
100
AcDbLine
 10
-560.4497592852871
 20
247.0498896318536
 30
0.0
 11
-915.2016525029225
 21
-133.7293215463933
 31
0.0
1001
ACAD
1000
DSTYLE
1002
{
1070
    41
1040
30.0
1002
}
  0
LINE
  5
99300
330
992EB
100
AcDbEntity
  8
NOTE
100
AcDbLine
 10
-915.2016525029225
 20
-133.7293215463933
 30
0.0
 11
-1394.228183452649
 21
-133.7293215463933
 31
0.0
1001
ACAD
1000
DSTYLE
1002
{
1070
    41
1040
30.0
1002
}
  0
TEXT
  5
99301
330
992EB
100
AcDbEntity
  8
NOTE
  6
Continuous
 62
     4
100
AcDbText
 10
-1377.737379612234
 20
-238.1753628571846
 30
0.0
 40
60.0
  1
出口配管φ15.88
 50
0.000002504416674
 41
0.7
  7
STANDARD1
100
AcDbText
  0
LINE
  5
99302
330
992EB
100
AcDbEntity
  8
NOTE
100
AcDbLine
 10
-507.3257256628735
 20
138.2378250729493
 30
0.0
 11
-480.0
 21
153.0000000000009
 31
0.0
  0
LINE
  5
99303
330
992EB
100
AcDbEntity
  8
NOTE
100
AcDbLine
 10
-480.0
 20
153.0000000000009
 30
0.0
 11
-496.2836852573464
 21
126.5527187404996
 31
0.0
  0
LINE
  5
99304
330
992EB
100
AcDbEntity
  8
NOTE
100
AcDbLine
 10
-480.0
 20
153.0000000000009
 30
0.0
 11
-501.8047054601097
 21
132.3952719067247
 31
0.0
  0
LINE
  5
99305
330
992EB
100
AcDbEntity
  8
NOTE
100
AcDbLine
 10
-501.8047054601097
 20
132.3952719067247
 30
0.0
 11
-915.2016525029225
 21
-258.251219695313
 31
0.0
1001
ACAD
1000
DSTYLE
1002
{
1070
    41
1040
30.0
1002
}
  0
LINE
  5
99306
330
992EB
100
AcDbEntity
  8
NOTE
100
AcDbLine
 10
-915.2016525029225
 20
-258.251219695313
 30
0.0
 11
-1386.776138373118
 21
-258.251219695313
 31
0.0
1001
ACAD
1000
DSTYLE
1002
{
1070
    41
1040
30.0
1002
}
  0
TEXT
  5
99307
330
992EB
100
AcDbEntity
  8
NOTE
  6
Continuous
 62
     4
100
AcDbText
 10
852.6125058137827
 20
426.078578309115
 30
0.0
 40
60.0
  1
AH(B)6xφ20
 50
359.9999974955937
 41
0.7
  7
STANDARD1
100
AcDbText
  0
TEXT
  5
99308
330
992EB
100
AcDbEntity
  8
NOTE
  6
Continuous
 62
     4
100
AcDbText
 10
830.6537991539249
 20
333.6636998368467
 30
0.0
 40
60.0
  1
<M16ボルト>
 50
359.9999974955937
 41
0.7
  7
STANDARD1
100
AcDbText
  0
LINE
  5
99309
330
992EB
100
AcDbEntity
  8
NOTE
100
AcDbLine
 10
575.2730648133392
 20
18.05240389866185
 30
0.0
 11
550.0000000000113
 21
-0.0000000000109139
 31
0.0
  0
LINE
  5
9930A
330
992EB
100
AcDbEntity
  8
NOTE
100
AcDbLine
 10
550.0000000000113
 20
-0.0000000000109139
 30
0.0
 11
562.8609143387571
 21
28.27037272393681
 31
0.0
  0
LINE
  5
9930B
330
992EB
100
AcDbEntity
  8
NOTE
100
AcDbLine
 10
550.0000000000113
 20
-0.0000000000109139
 30
0.0
 11
569.0669895760484
 21
23.16138831129956
 31
0.0
  0
LINE
  5
9930C
330
992EB
100
AcDbEntity
  8
NOTE
100
AcDbLine
 10
569.0669895760484
 20
23.16138831129956
 30
0.0
 11
812.8412551081487
 21
319.2831437555592
 31
0.0
1001
ACAD
1000
DSTYLE
1002
{
1070
    41
1040
30.0
1002
}
  0
LINE
  5
9930D
330
992EB
100
AcDbEntity
  8
NOTE
100
AcDbLine
 10
812.8412551081487
 20
319.2831437555592
 30
0.0
 11
1277.589425911655
 21
319.2831437556424
 31
0.0
1001
ACAD
1000
DSTYLE
1002
{
1070
    41
1040
30.0
1002
}
  0
TEXT
  5
9930E
330
992EB
100
AcDbEntity
  8
NOTE
  6
Continuous
 62
     4
100
AcDbText
 10
852.6125058138017
 20
706.2773001494151
 30
0.0
 40
60.0
  1
AH(A)4xφ16
 50
359.9999974955834
 41
0.7
  7
STANDARD1
100
AcDbText
  0
TEXT
  5
9930F
330
992EB
100
AcDbEntity
  8
NOTE
  6
Continuous
 62
     4
100
AcDbText
 10
830.6537991539276
 20
613.8624216771504
 30
0.0
 40
60.0
  1
<M12ボルト>
 50
359.9999974955834
 41
0.7
  7
STANDARD1
100
AcDbText
  0
LINE
  5
99310
330
992EB
100
AcDbEntity
  8
NOTE
100
AcDbLine
 10
521.00581392617
 20
22.87734409582117
 30
0.0
 11
500.0000000000113
 21
-0.0000000000109139
 31
0.0
  0
LINE
  5
99311
330
992EB
100
AcDbEntity
  8
NOTE
100
AcDbLine
 10
500.0000000000113
 20
-0.0000000000109139
 30
0.0
 11
506.7528965768437
 21
30.31526809054185
 31
0.0
  0
LINE
  5
99312
330
992EB
100
AcDbEntity
  8
NOTE
100
AcDbLine
 10
500.0000000000113
 20
-0.0000000000109139
 30
0.0
 11
513.8793552515071
 21
26.59630609318128
 31
0.0
  0
LINE
  5
99313
330
992EB
100
AcDbEntity
  8
NOTE
100
AcDbLine
 10
513.8793552515071
 20
26.59630609318128
 30
0.0
 11
812.8412551081487
 21
599.4818655958661
 31
0.0
1001
ACAD
1000
DSTYLE
1002
{
1070
    41
1040
30.0
1002
}
  0
LINE
  5
99314
330
992EB
100
AcDbEntity
  8
NOTE
100
AcDbLine
 10
812.8412551081487
 20
599.4818655958661
 30
0.0
 11
1277.589425911655
 21
599.4818655958661
 31
0.0
1001
ACAD
1000
DSTYLE
1002
{
1070
    41
1040
30.0
1002
}
  0
DIMENSION
  5
99315
330
992EB
100
AcDbEntity
  8
SIZE
100
AcDbDimension
  2
*D14
 10
-549.9999999999991
 20
-159.6108094641486
 30
0.0
 11
-649.9999999999995
 21
-119.6108094641486
 31
0.0
 12
-3107.423101685523
 22
3349.454035467891
 32
0.0
 71
     5
 42
200.0000000000009
  3
kaigai_CADSYMBOL
100
AcDbAlignedDimension
 13
-750.0
 23
0.0
 33
0.0
 14
-549.9999999999991
 24
-0.000000000005457
 34
0.0
 50
180.0
100
AcDbRotatedDimension
1001
ACAD
1000
DSTYLE
1002
{
1070
   279
1070
     0
1070
    90
1070
     1
1070
   345
1005
12
1070
   346
1005
12
1070
   347
1005
12
1002
}
  0
DIMENSION
  5
99316
330
992EB
100
AcDbEntity
  8
SIZE
100
AcDbDimension
  2
*D4
 10
0.0000000000145519
 20
-159.6108094641486
 30
0.0
 11
-274.9999999999923
 21
-159.6108094641486
 31
0.0
 12
-3107.423101685523
 22
3349.454035467891
 32
0.0
 70
   128
 71
     5
 42
550.0000000000136
  3
kaigai_CADSYMBOL
100
AcDbAlignedDimension
 13
-549.9999999999991
 23
-0.000000000005457
 33
0.0
 14
0.0000000000145519
 24
-0.0000000000127329
 34
0.0
 50
180.0
100
AcDbRotatedDimension
1001
ACAD
1000
DSTYLE
1002
{
1070
    90
1070
     1
1070
   345
1005
12
1070
   346
1005
12
1070
   347
1005
12
1002
}
  0
DIMENSION
  5
99317
330
992EB
100
AcDbEntity
  8
SIZE
100
AcDbDimension
  2
*D5
 10
750.0
 20
-159.6108094641486
 30
0.0
 11
650.0000000000059
 21
-109.1346189879582
 31
0.0
 12
-3107.423101685523
 22
3349.454035467891
 32
0.0
  1
(<>)
 71
     5
 42
199.9999999999886
  3
kaigai_CADSYMBOL
100
AcDbAlignedDimension
 13
550.0000000000113
 23
-0.0000000000109139
 33
0.0
 14
750.0
 24
0.0
 34
0.0
 50
180.0
100
AcDbRotatedDimension
1001
ACAD
1000
DSTYLE
1002
{
1070
    90
1070
     1
1070
   345
1005
12
1070
   346
1005
12
1070
   347
1005
12
1002
}
  0
DIMENSION
  5
99318
330
992EB
100
AcDbEntity
  8
SIZE
100
AcDbDimension
  2
*D6
 10
-499.9999999999991
 20
-359.610809464149
 30
0.0
 11
-625.0000000000072
 21
-359.610809464149
 31
0.0
 12
-3107.423101685523
 22
3349.454035467891
 32
0.0
 70
   129
 71
     5
 42
250.0000000000009
  3
kaigai_CADSYMBOL
100
AcDbAlignedDimension
 13
-750.0
 23
0.0
 33
0.0
 14
-499.9999999999991
 24
-0.000000000005457
 34
0.0
1001
ACAD
1000
DSTYLE
1002
{
1070
    90
1070
     1
1070
   345
1005
12
1070
   346
1005
12
1070
   347
1005
12
1002
}
  0
DIMENSION
  5
99319
330
992EB
100
AcDbEntity
  8
SIZE
100
AcDbDimension
  2
*D7
 10
500.0000000000059
 20
-359.8234627488519
 30
0.0
 11
0.0000000000031832
 21
-359.8234627488519
 31
0.0
 12
-3107.423101685523
 22
3349.454035467891
 32
0.0
 70
   128
 71
     5
 42
1000.000000000005
  3
kaigai_CADSYMBOL
100
AcDbAlignedDimension
 13
-499.9999999999991
 23
-0.000000000005457
 33
0.0
 14
500.0000000000059
 24
-0.0000000000109139
 34
0.0
 50
180.0
100
AcDbRotatedDimension
1001
ACAD
1000
DSTYLE
1002
{
1070
    90
1070
     1
1070
   345
1005
12
1070
   346
1005
12
1070
   347
1005
12
1002
}
  0
DIMENSION
  5
9931A
330
992EB
100
AcDbEntity
  8
SIZE
100
AcDbDimension
  2
*D8
 10
750.0
 20
-359.8234627488519
 30
0.0
 11
625.0000000000004
 21
-359.8234627488519
 31
0.0
 12
-3107.423101685523
 22
3349.454035467891
 32
0.0
 70
   128
  1
(<>)
 71
     5
 42
249.9999999999886
  3
kaigai_CADSYMBOL
100
AcDbAlignedDimension
 13
500.0000000000113
 23
-0.0000000000109139
 33
0.0
 14
750.0
 24
0.0
 34
0.0
 50
180.0
100
AcDbRotatedDimension
1001
ACAD
1000
DSTYLE
1002
{
1070
    90
1070
     1
1070
   345
1005
12
1070
   346
1005
12
1070
   347
1005
12
1002
}
  0
DIMENSION
  5
9931B
330
992EB
100
AcDbEntity
  8
SIZE
100
AcDbDimension
  2
*D9
 10
-540.0000000000009
 20
-259.6108094641486
 30
0.0
 11
-645.0000000000004
 21
-259.6108094641486
 31
0.0
 12
-3107.423101685523
 22
3349.454035467891
 32
0.0
 70
   128
 71
     5
 42
209.9999999999991
  3
kaigai_CADSYMBOL
100
AcDbAlignedDimension
 13
-750.0
 23
0.0
 33
0.0
 14
-540.0000000000009
 24
269.0000000000009
 34
0.0
 50
180.0
100
AcDbRotatedDimension
1001
ACAD
1000
DSTYLE
1002
{
1070
   279
1070
     0
1070
    90
1070
     1
1070
   345
1005
12
1070
   346
1005
12
1070
   347
1005
12
1002
}
  0
DIMENSION
  5
9931C
330
992EB
100
AcDbEntity
  8
SIZE
100
AcDbDimension
  2
*D10
 10
-480.0000000000009
 20
-459.6108094641485
 30
0.0
 11
-615.0000000000004
 21
-459.6108094641485
 31
0.0
 12
-3107.423101685523
 22
3349.454035467891
 32
0.0
 70
   128
 71
     5
 42
269.9999999999991
  3
kaigai_CADSYMBOL
100
AcDbAlignedDimension
 13
-750.0
 23
0.0
 33
0.0
 14
-480.0000000000009
 24
153.0000000000045
 34
0.0
 50
180.0
100
AcDbRotatedDimension
1001
ACAD
1000
DSTYLE
1002
{
1070
   279
1070
     0
1070
    90
1070
     1
1070
   345
1005
12
1070
   346
1005
12
1070
   347
1005
12
1002
}
  0
DIMENSION
  5
9931D
330
992EB
100
AcDbEntity
  8
SIZE
100
AcDbDimension
  2
*D11
 10
-925.6545073842762
 20
153.0000000000027
 30
0.0
 11
-965.6545073842776
 21
76.5000000000009
 31
0.0
 12
-3107.423101685523
 22
3349.454035467891
 32
0.0
 71
     5
 42
153.0000000000045
  3
kaigai_CADSYMBOL
100
AcDbAlignedDimension
 13
-750.0
 23
0.0
 33
0.0
 14
-480.0
 24
153.0000000000045
 34
0.0
 50
90.0
100
AcDbRotatedDimension
1001
ACAD
1000
DSTYLE
1002
{
1070
   279
1070
     0
1070
    90
1070
     1
1070
   345
1005
12
1070
   346
1005
12
1070
   347
1005
12
1002
}
  0
DIMENSION
  5
9931E
330
992EB
100
AcDbEntity
  8
SIZE
100
AcDbDimension
  2
*D12
 10
-1025.654507384276
 20
269.0000000000027
 30
0.0
 11
-1025.654507384277
 21
134.5000000000018
 31
0.0
 12
-3107.423101685523
 22
3349.454035467891
 32
0.0
 70
   128
 71
     5
 42
269.0000000000046
  3
kaigai_CADSYMBOL
100
AcDbAlignedDimension
 13
-750.0
 23
0.0
 33
0.0
 14
-540.0000000000018
 24
269.0000000000046
 34
0.0
 50
90.0
100
AcDbRotatedDimension
1001
ACAD
1000
DSTYLE
1002
{
1070
   279
1070
     0
1070
    90
1070
     1
1070
   345
1005
12
1070
   346
1005
12
1070
   347
1005
12
1002
}
  0
DIMENSION
  5
9931F
330
992EB
100
AcDbEntity
  8
SIZE
100
AcDbDimension
  2
*D13
 10
-1125.654507384276
 20
1573.999999999999
 30
0.0
 11
-1125.654507384277
 21
786.9999999999986
 31
0.0
 12
-3107.423101685523
 22
3349.454035467891
 32
0.0
 70
   128
 71
     5
 42
1574.0
  3
kaigai_CADSYMBOL
100
AcDbAlignedDimension
 13
-750.0
 23
0.0
 33
0.0
 14
-750.0
 24
1574.0
 34
0.0
 50
90.0
100
AcDbRotatedDimension
1001
ACAD
1000
DSTYLE
1002
{
1070
    90
1070
     1
1070
   345
1005
12
1070
   346
1005
12
1070
   347
1005
12
1002
}
  0
LINE
  5
99320
330
992EB
100
AcDbEntity
  8
DETAIL
100
AcDbLine
 10
749.9999999999991
 20
1324.0
 30
0.0
 11
-750.0000000000008
 21
1324.0
 31
0.0
1001
REVIT
1002
{
1070
     1
1000
36073
1002
}
1002
{
1070
     2
1000
-2000151
1002
}
  0
LINE
  5
99321
330
992EB
100
AcDbEntity
  8
DETAIL
100
AcDbLine
 10
-750.0000000000008
 20
1574.0
 30
0.0
 11
749.9999999999991
 21
1574.0
 31
0.0
1001
REVIT
1002
{
1070
     1
1000
36073
1002
}
1002
{
1070
     2
1000
-2000151
1002
}
  0
LINE
  5
99322
330
992EB
100
AcDbEntity
  8
DETAIL
100
AcDbLine
 10
750.0
 20
0.0
 30
0.0
 11
749.9999999999991
 21
1574.0
 31
0.0
1001
REVIT
1002
{
1070
     1
1000
36073
1002
}
1002
{
1070
     2
1000
-2000151
1002
}
  0
LINE
  5
99323
330
992EB
100
AcDbEntity
  8
DETAIL
100
AcDbLine
 10
-725.0
 20
0.0
 30
0.0
 11
-725.0
 21
3.0
 31
0.0
1001
REVIT
1002
{
1070
     1
1000
36073
1002
}
1002
{
1070
     2
1000
-2000151
1002
}
  0
LINE
  5
99324
330
992EB
100
AcDbEntity
  8
DETAIL
100
AcDbLine
 10
724.9999999999991
 20
3.0
 30
0.0
 11
724.9999999999991
 21
0.0
 31
0.0
1001
REVIT
1002
{
1070
     1
1000
36073
1002
}
1002
{
1070
     2
1000
-2000151
1002
}
  0
LINE
  5
99325
330
992EB
100
AcDbEntity
  8
DETAIL
100
AcDbLine
 10
-750.0
 20
1574.0
 30
0.0
 11
-750.0
 21
0.0
 31
0.0
1001
REVIT
1002
{
1070
     1
1000
36073
1002
}
1002
{
1070
     2
1000
-2000151
1002
}
  0
LINE
  5
99326
330
992EB
100
AcDbEntity
  8
DETAIL
100
AcDbLine
 10
-707.0
 20
140.0
 30
0.0
 11
-707.0
 21
1307.721592277141
 31
0.0
1001
REVIT
1002
{
1070
     1
1000
36073
1002
}
1002
{
1070
     2
1000
-2000151
1002
}
  0
LINE
  5
99327
330
992EB
100
AcDbEntity
  8
DETAIL
100
AcDbLine
 10
707.0
 20
140.0
 30
0.0
 11
-707.0
 21
140.0
 31
0.0
1001
REVIT
1002
{
1070
     1
1000
36073
1002
}
1002
{
1070
     2
1000
-2000151
1002
}
  0
LINE
  5
99328
330
992EB
100
AcDbEntity
  8
DETAIL
100
AcDbLine
 10
707.0
 20
1307.721592277141
 30
0.0
 11
707.0
 21
140.0
 31
0.0
1001
REVIT
1002
{
1070
     1
1000
36073
1002
}
1002
{
1070
     2
1000
-2000151
1002
}
  0
LINE
  5
99329
330
992EB
100
AcDbEntity
  8
DETAIL
100
AcDbLine
 10
750.0
 20
3.0
 30
0.0
 11
-750.0
 21
3.0
 31
0.0
1001
REVIT
1002
{
1070
     1
1000
36073
1002
}
1002
{
1070
     2
1000
-2000151
1002
}
  0
LINE
  5
9932A
330
992EB
100
AcDbEntity
  8
DETAIL
100
AcDbLine
 10
749.9999999999991
 20
1307.721592277141
 30
0.0
 11
-750.0000000000008
 21
1307.721592277141
 31
0.0
1001
REVIT
1002
{
1070
     1
1000
36504
1002
}
1002
{
1070
     2
1000
-2000151
1002
}
  0
CIRCLE
  5
9932B
330
992EB
100
AcDbEntity
  8
DETAIL
100
AcDbCircle
 10
-480.0
 20
153.0
 30
0.0
 40
7.939999999999997
  0
CIRCLE
  5
9932C
330
992EB
100
AcDbEntity
  8
DETAIL
100
AcDbCircle
 10
-540.0000000000009
 20
269.0
 30
0.0
 40
15.87499999999988
  0
LINE
  5
9932D
330
992EB
100
AcDbEntity
  8
OUTLINE
100
AcDbLine
 10
-750.0000000000008
 20
1574.0
 30
0.0
 11
749.9999999999991
 21
1574.0
 31
0.0
  0
LINE
  5
9932E
330
992EB
100
AcDbEntity
  8
OUTLINE
100
AcDbLine
 10
749.9999999999991
 20
1574.0
 30
0.0
 11
750.0
 21
0.0
 31
0.0
  0
LINE
  5
9932F
330
992EB
100
AcDbEntity
  8
OUTLINE
100
AcDbLine
 10
-750.0
 20
0.0
 30
0.0
 11
-750.0000000000008
 21
1574.0
 31
0.0
  0
LINE
  5
99330
330
992EB
100
AcDbEntity
  8
NOTE
100
AcDbLine
 10
550.0000000000059
 20
-38.29721884282481
 30
0.0
 11
550.0000000000059
 21
38.29721884281207
 31
0.0
  0
LINE
  5
99331
330
992EB
100
AcDbEntity
  8
NOTE
100
AcDbLine
 10
511.7027811571915
 20
-0.0000000000109139
 30
0.0
 11
588.2972188428311
 21
-0.0000000000109139
 31
0.0
  0
LINE
  5
99332
330
992EB
100
AcDbEntity
  8
NOTE
100
AcDbLine
 10
-549.9999999999941
 20
-38.29721884282481
 30
0.0
 11
-549.9999999999941
 21
38.29721884281207
 31
0.0
  0
LINE
  5
99333
330
992EB
100
AcDbEntity
  8
NOTE
100
AcDbLine
 10
-588.2972188428079
 20
-0.0000000000109139
 30
0.0
 11
-511.7027811571688
 21
-0.0000000000109139
 31
0.0
  0
CIRCLE
  5
99334
330
992EB
100
AcDbEntity
  8
FIX
  6
Continuous
 62
    11
100
AcDbCircle
 10
-549.9999999999991
 20
-0.000000000005457
 30
0.0
 40
12.42149793872491
  0
LINE
  5
99335
330
992EB
100
AcDbEntity
  8
NOTE
100
AcDbLine
 10
500.0000000000059
 20
-38.29721884282481
 30
0.0
 11
500.0000000000059
 21
38.29721884281207
 31
0.0
  0
LINE
  5
99336
330
992EB
100
AcDbEntity
  8
NOTE
100
AcDbLine
 10
461.7027811571915
 20
-0.0000000000109139
 30
0.0
 11
538.2972188428311
 21
-0.0000000000109139
 31
0.0
  0
CIRCLE
  5
99337
330
992EB
100
AcDbEntity
  8
FIX
  6
Continuous
 62
    11
100
AcDbCircle
 10
500.0000000000008
 20
-0.000000000005457
 30
0.0
 40
12.42149793872491
  0
LINE
  5
99338
330
992EB
100
AcDbEntity
  8
NOTE
100
AcDbLine
 10
0.0000000000059117
 20
-38.29721884282662
 30
0.0
 11
0.0000000000059117
 21
38.29721884281025
 31
0.0
  0
LINE
  5
99339
330
992EB
100
AcDbEntity
  8
NOTE
100
AcDbLine
 10
-38.29721884280843
 20
-0.0000000000127329
 30
0.0
 11
38.29721884283117
 21
-0.0000000000127329
 31
0.0
  0
CIRCLE
  5
9933A
330
992EB
100
AcDbEntity
  8
FIX
  6
Continuous
 62
    11
100
AcDbCircle
 10
0.0000000000009095
 20
-0.000000000007276
 30
0.0
 40
12.42149793872491
  0
LINE
  5
9933B
330
992EB
100
AcDbEntity
  8
NOTE
100
AcDbLine
 10
-499.9999999999941
 20
-38.29721884282481
 30
0.0
 11
-499.9999999999941
 21
38.29721884281207
 31
0.0
  0
LINE
  5
9933C
330
992EB
100
AcDbEntity
  8
NOTE
100
AcDbLine
 10
-538.2972188428084
 20
-0.0000000000109139
 30
0.0
 11
-461.7027811571688
 21
-0.0000000000109139
 31
0.0
  0
CIRCLE
  5
9933D
330
992EB
100
AcDbEntity
  8
FIX
  6
Continuous
 62
    11
100
AcDbCircle
 10
-499.9999999999991
 20
-0.000000000005457
 30
0.0
 40
12.42149793872491
  0
CIRCLE
  5
9933E
330
992EB
100
AcDbEntity
  8
FIX
  6
Continuous
 62
    11
100
AcDbCircle
 10
549.9999999999904
 20
0.0
 30
0.0
 40
12.42149793872491
  0
LINE
  5
9933F
330
992EB
100
AcDbEntity
  8
DETAIL
100
AcDbLine
 10
10.00000000001591
 20
2.999999999992724
 30
0.0
 11
10.00000000001591
 21
-0.000000000007276
 31
0.0
1001
REVIT
1002
{
1070
     2
1000
-2000151
1002
}
  0
LINE
  5
99340
330
992EB
100
AcDbEntity
  8
DETAIL
100
AcDbLine
 10
-9.999999999984083
 20
-0.000000000007276
 30
0.0
 11
-9.999999999984083
 21
2.999999999992724
 31
0.0
1001
REVIT
1002
{
1070
     2
1000
-2000151
1002
}
  0
LINE
  5
99341
330
992EB
100
AcDbEntity
  8
DETAIL
100
AcDbLine
 10
-539.9999999999841
 20
2.999999999983629
 30
0.0
 11
-539.9999999999841
 21
-0.0000000000163709
 31
0.0
1001
REVIT
1002
{
1070
     2
1000
-2000151
1002
}
  0
LINE
  5
99342
330
992EB
100
AcDbEntity
  8
DETAIL
100
AcDbLine
 10
-559.999999999984
 20
-0.0000000000163709
 30
0.0
 11
-559.999999999984
 21
2.999999999983629
 31
0.0
1001
REVIT
1002
{
1070
     2
1000
-2000151
1002
}
  0
LINE
  5
99343
330
992EB
100
AcDbEntity
  8
DETAIL
100
AcDbLine
 10
-507.9999999999886
 20
-0.0000000000109139
 30
0.0
 11
-507.9999999999886
 21
2.999999999989086
 31
0.0
1001
REVIT
1002
{
1070
     2
1000
-2000151
1002
}
  0
LINE
  5
99344
330
992EB
100
AcDbEntity
  8
DETAIL
100
AcDbLine
 10
-491.9999999999886
 20
2.999999999989086
 30
0.0
 11
-491.9999999999886
 21
-0.0000000000109139
 31
0.0
1001
REVIT
1002
{
1070
     2
1000
-2000151
1002
}
  0
DIMENSION
  5
99345
330
992EB
100
AcDbEntity
  8
SIZE
100
AcDbDimension
  2
*D2
 10
550.0000000000113
 20
-159.6108094641486
 30
0.0
 11
275.0000000000087
 21
-119.6108094641486
 31
0.0
 12
-3107.423101685523
 22
3349.454035467891
 32
0.0
 71
     5
 42
550.0000000000055
  3
kaigai_CADSYMBOL
100
AcDbAlignedDimension
 13
0.0000000000059117
 23
-0.0000000000081855
 33
0.0
 14
550.0000000000113
 24
-0.0000000000109139
 34
0.0
 50
180.0
100
AcDbRotatedDimension
1001
ACAD
1000
DSTYLE
1002
{
1070
    90
1070
     1
1070
   345
1005
12
1070
   346
1005
12
1070
   347
1005
12
1002
}
  0
DIMENSION
  5
99346
330
992EB
100
AcDbEntity
  8
SIZE
100
AcDbDimension
  2
*D3
 10
-750.0000000000008
 20
1622.59915582887
 30
0.0
 11
-0.0000000000009095
 21
1662.599155828871
 31
0.0
 12
-3107.423101685523
 22
3349.454035467891
 32
0.0
 71
     5
 42
1500.0
  3
kaigai_CADSYMBOL
100
AcDbAlignedDimension
 13
749.9999999999991
 23
1574.0
 33
0.0
 14
-750.0000000000008
 24
1574.0
 34
0.0
 50
180.0
100
AcDbRotatedDimension
1001
ACAD
1000
DSTYLE
1002
{
1070
    90
1070
     1
1070
   345
1005
12
1070
   346
1005
12
1070
   347
1005
12
1002
}
  0
ENDBLK
  5
9934A
330
992EB
100
AcDbEntity
  8
0
100
AcDbBlockEnd
  0
BLOCK
  5
993A9
330
993A8
100
AcDbEntity
  8
0
100
AcDbBlockBegin
  2
*D16
 70
     1
 10
0.0
 20
0.0
 30
0.0
  3
*D16
  1

  0
LINE
  5
99444
330
993A8
100
AcDbEntity
  8
SIZE
  6
ByBlock
 62
     0
370
    -2
100
AcDbLine
 10
-750.0
 20
-20.0
 30
0.0
 11
-750.0
 21
-179.6108094641486
 31
0.0
  0
LINE
  5
99445
330
993A8
100
AcDbEntity
  8
SIZE
  6
ByBlock
 62
     0
370
    -2
100
AcDbLine
 10
-549.9999999999991
 20
-20.00000000000546
 30
0.0
 11
-549.9999999999991
 21
-179.6108094641486
 31
0.0
  0
LINE
  5
99446
330
993A8
100
AcDbEntity
  8
SIZE
  6
ByBlock
 62
     0
370
    -2
100
AcDbLine
 10
-750.0
 20
-159.6108094641486
 30
0.0
 11
-549.9999999999991
 21
-159.6108094641486
 31
0.0
  0
INSERT
  5
99447
330
993A8
100
AcDbEntity
  8
SIZE
 62
     0
370
    -2
100
AcDbBlockReference
  2
_Small
 10
-750.0
 20
-159.6108094641486
 30
0.0
 41
30.0
 42
30.0
 43
30.0
 50
180.0
  0
INSERT
  5
99448
330
993A8
100
AcDbEntity
  8
SIZE
 62
     0
370
    -2
100
AcDbBlockReference
  2
_Small
 10
-549.9999999999991
 20
-159.6108094641486
 30
0.0
 41
30.0
 42
30.0
 43
30.0
  0
MTEXT
  5
99449
330
993A8
100
AcDbEntity
  8
SIZE
 62
     0
100
AcDbMText
 10
-649.9999999999995
 20
-119.6108094641486
 30
0.0
 40
40.0
 41
0.0
 71
     5
 72
     1
  1
\A1;200
 73
     1
 44
1.0
1001
ACAD
1000
MTEXTBEGIN
1070
    73
1070
     1
1070
    44
1040
1.0
1070
    74
1070
     0
1000
MTEXTEND
  0
POINT
  5
9944A
330
993A8
100
AcDbEntity
  8
DEFPOINTS
 62
     0
100
AcDbPoint
 10
-750.0
 20
0.0
 30
0.0
  0
POINT
  5
9944B
330
993A8
100
AcDbEntity
  8
DEFPOINTS
 62
     0
100
AcDbPoint
 10
-549.9999999999991
 20
-0.000000000005457
 30
0.0
  0
POINT
  5
9944C
330
993A8
100
AcDbEntity
  8
DEFPOINTS
 62
     0
100
AcDbPoint
 10
-549.9999999999991
 20
-159.6108094641486
 30
0.0
  0
ENDBLK
  5
993AA
330
993A8
100
AcDbEntity
  8
0
100
AcDbBlockEnd
  0
BLOCK
  5
993B5
330
993B4
100
AcDbEntity
  8
0
100
AcDbBlockBegin
  2
*D17
 70
     1
 10
0.0
 20
0.0
 30
0.0
  3
*D17
  1

  0
LINE
  5
9944D
330
993B4
100
AcDbEntity
  8
SIZE
  6
ByBlock
 62
     0
370
    -2
100
AcDbLine
 10
-549.9999999999991
 20
-20.00000000000546
 30
0.0
 11
-549.9999999999991
 21
-179.6108094641486
 31
0.0
  0
LINE
  5
9944E
330
993B4
100
AcDbEntity
  8
SIZE
  6
ByBlock
 62
     0
370
    -2
100
AcDbLine
 10
0.0000000000145507
 20
-20.00000000001273
 30
0.0
 11
0.0000000000145409
 21
-179.6108094641486
 31
0.0
  0
LINE
  5
9944F
330
993B4
100
AcDbEntity
  8
SIZE
  6
ByBlock
 62
     0
370
    -2
100
AcDbLine
 10
-549.9999999999991
 20
-159.6108094641486
 30
0.0
 11
0.0000000000145421
 21
-159.6108094641486
 31
0.0
  0
INSERT
  5
99450
330
993B4
100
AcDbEntity
  8
SIZE
 62
     0
370
    -2
100
AcDbBlockReference
  2
_Small
 10
-549.9999999999991
 20
-159.6108094641486
 30
0.0
 41
30.0
 42
30.0
 43
30.0
 50
180.0
  0
INSERT
  5
99451
330
993B4
100
AcDbEntity
  8
SIZE
 62
     0
370
    -2
100
AcDbBlockReference
  2
_Small
 10
0.0000000000145421
 20
-159.6108094641486
 30
0.0
 41
30.0
 42
30.0
 43
30.0
  0
MTEXT
  5
99452
330
993B4
100
AcDbEntity
  8
SIZE
 62
     0
100
AcDbMText
 10
-274.9999999999923
 20
-119.6108094641486
 30
0.0
 40
40.0
 41
0.0
 71
     5
 72
     1
  1
\A1;550
 73
     1
 44
1.0
1001
ACAD
1000
MTEXTBEGIN
1070
    73
1070
     1
1070
    44
1040
1.0
1070
    74
1070
     0
1000
MTEXTEND
  0
POINT
  5
99453
330
993B4
100
AcDbEntity
  8
DEFPOINTS
 62
     0
100
AcDbPoint
 10
-549.9999999999991
 20
-0.000000000005457
 30
0.0
  0
POINT
  5
99454
330
993B4
100
AcDbEntity
  8
DEFPOINTS
 62
     0
100
AcDbPoint
 10
0.0000000000145519
 20
-0.0000000000127329
 30
0.0
  0
POINT
  5
99455
330
993B4
100
AcDbEntity
  8
DEFPOINTS
 62
     0
100
AcDbPoint
 10
0.0000000000145421
 20
-159.6108094641486
 30
0.0
  0
ENDBLK
  5
993B6
330
993B4
100
AcDbEntity
  8
0
100
AcDbBlockEnd
  0
BLOCK
  5
993C1
330
993C0
100
AcDbEntity
  8
0
100
AcDbBlockBegin
  2
*D18
 70
     1
 10
0.0
 20
0.0
 30
0.0
  3
*D18
  1

  0
LINE
  5
99456
330
993C0
100
AcDbEntity
  8
SIZE
  6
ByBlock
 62
     0
370
    -2
100
AcDbLine
 10
550.0000000000113
 20
-20.00000000001092
 30
0.0
 11
550.0000000000113
 21
-179.6108094641486
 31
0.0
  0
LINE
  5
99457
330
993C0
100
AcDbEntity
  8
SIZE
  6
ByBlock
 62
     0
370
    -2
100
AcDbLine
 10
750.0
 20
-20.0
 30
0.0
 11
750.0
 21
-179.6108094641486
 31
0.0
  0
LINE
  5
99458
330
993C0
100
AcDbEntity
  8
SIZE
  6
ByBlock
 62
     0
370
    -2
100
AcDbLine
 10
550.0000000000113
 20
-159.6108094641486
 30
0.0
 11
750.0
 21
-159.6108094641486
 31
0.0
  0
INSERT
  5
99459
330
993C0
100
AcDbEntity
  8
SIZE
 62
     0
370
    -2
100
AcDbBlockReference
  2
_Small
 10
550.0000000000113
 20
-159.6108094641486
 30
0.0
 41
30.0
 42
30.0
 43
30.0
 50
180.0
  0
INSERT
  5
9945A
330
993C0
100
AcDbEntity
  8
SIZE
 62
     0
370
    -2
100
AcDbBlockReference
  2
_Small
 10
750.0
 20
-159.6108094641486
 30
0.0
 41
30.0
 42
30.0
 43
30.0
  0
MTEXT
  5
9945B
330
993C0
100
AcDbEntity
  8
SIZE
 62
     0
100
AcDbMText
 10
650.0000000000056
 20
-109.1346189879581
 30
0.0
 40
40.0
 41
0.0
 71
     5
 72
     1
  1
\A1;(200)
 73
     1
 44
1.0
1001
ACAD
1000
MTEXTBEGIN
1070
    73
1070
     1
1070
    44
1040
1.0
1070
    74
1070
     0
1000
MTEXTEND
  0
POINT
  5
9945C
330
993C0
100
AcDbEntity
  8
DEFPOINTS
 62
     0
100
AcDbPoint
 10
550.0000000000113
 20
-0.0000000000109139
 30
0.0
  0
POINT
  5
9945D
330
993C0
100
AcDbEntity
  8
DEFPOINTS
 62
     0
100
AcDbPoint
 10
750.0
 20
0.0
 30
0.0
  0
POINT
  5
9945E
330
993C0
100
AcDbEntity
  8
DEFPOINTS
 62
     0
100
AcDbPoint
 10
750.0
 20
-159.6108094641486
 30
0.0
  0
ENDBLK
  5
993C2
330
993C0
100
AcDbEntity
  8
0
100
AcDbBlockEnd
  0
BLOCK
  5
993CD
330
993CC
100
AcDbEntity
  8
0
100
AcDbBlockBegin
  2
*D19
 70
     1
 10
0.0
 20
0.0
 30
0.0
  3
*D19
  1

  0
LINE
  5
9945F
330
993CC
100
AcDbEntity
  8
SIZE
  6
ByBlock
 62
     0
370
    -2
100
AcDbLine
 10
-750.0
 20
-20.0
 30
0.0
 11
-750.0
 21
-379.610809464149
 31
0.0
  0
LINE
  5
99460
330
993CC
100
AcDbEntity
  8
SIZE
  6
ByBlock
 62
     0
370
    -2
100
AcDbLine
 10
-499.9999999999991
 20
-20.00000000000546
 30
0.0
 11
-499.9999999999991
 21
-379.610809464149
 31
0.0
  0
LINE
  5
99461
330
993CC
100
AcDbEntity
  8
SIZE
  6
ByBlock
 62
     0
370
    -2
100
AcDbLine
 10
-750.0
 20
-359.610809464149
 30
0.0
 11
-499.9999999999991
 21
-359.610809464149
 31
0.0
  0
INSERT
  5
99462
330
993CC
100
AcDbEntity
  8
SIZE
 62
     0
370
    -2
100
AcDbBlockReference
  2
_Small
 10
-750.0
 20
-359.610809464149
 30
0.0
 41
30.0
 42
30.0
 43
30.0
 50
180.0
  0
INSERT
  5
99463
330
993CC
100
AcDbEntity
  8
SIZE
 62
     0
370
    -2
100
AcDbBlockReference
  2
_Small
 10
-499.9999999999991
 20
-359.610809464149
 30
0.0
 41
30.0
 42
30.0
 43
30.0
  0
MTEXT
  5
99464
330
993CC
100
AcDbEntity
  8
SIZE
 62
     0
100
AcDbMText
 10
-625.0000000000072
 20
-319.610809464149
 30
0.0
 40
40.0
 41
0.0
 71
     5
 72
     1
  1
\A1;250
 73
     1
 44
1.0
1001
ACAD
1000
MTEXTBEGIN
1070
    73
1070
     1
1070
    44
1040
1.0
1070
    74
1070
     0
1000
MTEXTEND
  0
POINT
  5
99465
330
993CC
100
AcDbEntity
  8
DEFPOINTS
 62
     0
100
AcDbPoint
 10
-750.0
 20
0.0
 30
0.0
  0
POINT
  5
99466
330
993CC
100
AcDbEntity
  8
DEFPOINTS
 62
     0
100
AcDbPoint
 10
-499.9999999999991
 20
-0.000000000005457
 30
0.0
  0
POINT
  5
99467
330
993CC
100
AcDbEntity
  8
DEFPOINTS
 62
     0
100
AcDbPoint
 10
-499.9999999999991
 20
-359.610809464149
 30
0.0
  0
ENDBLK
  5
993CE
330
993CC
100
AcDbEntity
  8
0
100
AcDbBlockEnd
  0
BLOCK
  5
993D9
330
993D8
100
AcDbEntity
  8
0
100
AcDbBlockBegin
  2
*D20
 70
     1
 10
0.0
 20
0.0
 30
0.0
  3
*D20
  1

  0
LINE
  5
99468
330
993D8
100
AcDbEntity
  8
SIZE
  6
ByBlock
 62
     0
370
    -2
100
AcDbLine
 10
-499.9999999999991
 20
-20.00000000000546
 30
0.0
 11
-499.9999999999991
 21
-379.8234627488519
 31
0.0
  0
LINE
  5
99469
330
993D8
100
AcDbEntity
  8
SIZE
  6
ByBlock
 62
     0
370
    -2
100
AcDbLine
 10
500.0000000000059
 20
-20.00000000001092
 30
0.0
 11
500.0000000000059
 21
-379.8234627488519
 31
0.0
  0
LINE
  5
9946A
330
993D8
100
AcDbEntity
  8
SIZE
  6
ByBlock
 62
     0
370
    -2
100
AcDbLine
 10
-499.9999999999991
 20
-359.8234627488519
 30
0.0
 11
500.0000000000059
 21
-359.8234627488519
 31
0.0
  0
INSERT
  5
9946B
330
993D8
100
AcDbEntity
  8
SIZE
 62
     0
370
    -2
100
AcDbBlockReference
  2
_Small
 10
-499.9999999999991
 20
-359.8234627488519
 30
0.0
 41
30.0
 42
30.0
 43
30.0
 50
180.0
  0
INSERT
  5
9946C
330
993D8
100
AcDbEntity
  8
SIZE
 62
     0
370
    -2
100
AcDbBlockReference
  2
_Small
 10
500.0000000000059
 20
-359.8234627488519
 30
0.0
 41
30.0
 42
30.0
 43
30.0
  0
MTEXT
  5
9946D
330
993D8
100
AcDbEntity
  8
SIZE
 62
     0
100
AcDbMText
 10
0.0000000000031857
 20
-319.8234627488519
 30
0.0
 40
40.0
 41
0.0
 71
     5
 72
     1
  1
\A1;1000
 73
     1
 44
1.0
1001
ACAD
1000
MTEXTBEGIN
1070
    73
1070
     1
1070
    44
1040
1.0
1070
    74
1070
     0
1000
MTEXTEND
  0
POINT
  5
9946E
330
993D8
100
AcDbEntity
  8
DEFPOINTS
 62
     0
100
AcDbPoint
 10
-499.9999999999991
 20
-0.000000000005457
 30
0.0
  0
POINT
  5
9946F
330
993D8
100
AcDbEntity
  8
DEFPOINTS
 62
     0
100
AcDbPoint
 10
500.0000000000059
 20
-0.0000000000109139
 30
0.0
  0
POINT
  5
99470
330
993D8
100
AcDbEntity
  8
DEFPOINTS
 62
     0
100
AcDbPoint
 10
500.0000000000059
 20
-359.8234627488519
 30
0.0
  0
ENDBLK
  5
993DA
330
993D8
100
AcDbEntity
  8
0
100
AcDbBlockEnd
  0
BLOCK
  5
993E5
330
993E4
100
AcDbEntity
  8
0
100
AcDbBlockBegin
  2
*D21
 70
     1
 10
0.0
 20
0.0
 30
0.0
  3
*D21
  1

  0
LINE
  5
99471
330
993E4
100
AcDbEntity
  8
SIZE
  6
ByBlock
 62
     0
370
    -2
100
AcDbLine
 10
500.0000000000113
 20
-20.00000000001092
 30
0.0
 11
500.0000000000113
 21
-379.8234627488519
 31
0.0
  0
LINE
  5
99472
330
993E4
100
AcDbEntity
  8
SIZE
  6
ByBlock
 62
     0
370
    -2
100
AcDbLine
 10
750.0
 20
-20.0
 30
0.0
 11
750.0
 21
-379.8234627488519
 31
0.0
  0
LINE
  5
99473
330
993E4
100
AcDbEntity
  8
SIZE
  6
ByBlock
 62
     0
370
    -2
100
AcDbLine
 10
500.0000000000113
 20
-359.8234627488519
 30
0.0
 11
750.0
 21
-359.8234627488519
 31
0.0
  0
INSERT
  5
99474
330
993E4
100
AcDbEntity
  8
SIZE
 62
     0
370
    -2
100
AcDbBlockReference
  2
_Small
 10
500.0000000000113
 20
-359.8234627488519
 30
0.0
 41
30.0
 42
30.0
 43
30.0
 50
180.0
  0
INSERT
  5
99475
330
993E4
100
AcDbEntity
  8
SIZE
 62
     0
370
    -2
100
AcDbBlockReference
  2
_Small
 10
750.0
 20
-359.8234627488519
 30
0.0
 41
30.0
 42
30.0
 43
30.0
  0
MTEXT
  5
99476
330
993E4
100
AcDbEntity
  8
SIZE
 62
     0
100
AcDbMText
 10
625.0000000000004
 20
-309.3472722726614
 30
0.0
 40
40.0
 41
0.0
 71
     5
 72
     1
  1
\A1;(250)
 73
     1
 44
1.0
1001
ACAD
1000
MTEXTBEGIN
1070
    73
1070
     1
1070
    44
1040
1.0
1070
    74
1070
     0
1000
MTEXTEND
  0
POINT
  5
99477
330
993E4
100
AcDbEntity
  8
DEFPOINTS
 62
     0
100
AcDbPoint
 10
500.0000000000113
 20
-0.0000000000109139
 30
0.0
  0
POINT
  5
99478
330
993E4
100
AcDbEntity
  8
DEFPOINTS
 62
     0
100
AcDbPoint
 10
750.0
 20
0.0
 30
0.0
  0
POINT
  5
99479
330
993E4
100
AcDbEntity
  8
DEFPOINTS
 62
     0
100
AcDbPoint
 10
750.0
 20
-359.8234627488519
 30
0.0
  0
ENDBLK
  5
993E6
330
993E4
100
AcDbEntity
  8
0
100
AcDbBlockEnd
  0
BLOCK
  5
993F1
330
993F0
100
AcDbEntity
  8
0
100
AcDbBlockBegin
  2
*D22
 70
     1
 10
0.0
 20
0.0
 30
0.0
  3
*D22
  1

  0
LINE
  5
9947A
330
993F0
100
AcDbEntity
  8
SIZE
  6
ByBlock
 62
     0
370
    -2
100
AcDbLine
 10
-750.0
 20
-20.0
 30
0.0
 11
-750.0
 21
-279.6108094641486
 31
0.0
  0
LINE
  5
9947B
330
993F0
100
AcDbEntity
  8
SIZE
  6
ByBlock
 62
     0
370
    -2
100
AcDbLine
 10
-540.0000000000009
 20
249.0000000000009
 30
0.0
 11
-540.0000000000009
 21
-279.6108094641486
 31
0.0
  0
LINE
  5
9947C
330
993F0
100
AcDbEntity
  8
SIZE
  6
ByBlock
 62
     0
370
    -2
100
AcDbLine
 10
-750.0
 20
-259.6108094641486
 30
0.0
 11
-540.0000000000009
 21
-259.6108094641486
 31
0.0
  0
INSERT
  5
9947D
330
993F0
100
AcDbEntity
  8
SIZE
 62
     0
370
    -2
100
AcDbBlockReference
  2
_Small
 10
-750.0
 20
-259.6108094641486
 30
0.0
 41
30.0
 42
30.0
 43
30.0
 50
180.0
  0
INSERT
  5
9947E
330
993F0
100
AcDbEntity
  8
SIZE
 62
     0
370
    -2
100
AcDbBlockReference
  2
_Small
 10
-540.0000000000009
 20
-259.6108094641486
 30
0.0
 41
30.0
 42
30.0
 43
30.0
  0
MTEXT
  5
9947F
330
993F0
100
AcDbEntity
  8
SIZE
 62
     0
100
AcDbMText
 10
-645.0000000000004
 20
-219.6108094641486
 30
0.0
 40
40.0
 41
0.0
 71
     5
 72
     1
  1
\A1;210
 73
     1
 44
1.0
1001
ACAD
1000
MTEXTBEGIN
1070
    73
1070
     1
1070
    44
1040
1.0
1070
    74
1070
     0
1000
MTEXTEND
  0
POINT
  5
99480
330
993F0
100
AcDbEntity
  8
DEFPOINTS
 62
     0
100
AcDbPoint
 10
-750.0
 20
0.0
 30
0.0
  0
POINT
  5
99481
330
993F0
100
AcDbEntity
  8
DEFPOINTS
 62
     0
100
AcDbPoint
 10
-540.0000000000009
 20
269.0000000000009
 30
0.0
  0
POINT
  5
99482
330
993F0
100
AcDbEntity
  8
DEFPOINTS
 62
     0
100
AcDbPoint
 10
-540.0000000000009
 20
-259.6108094641486
 30
0.0
  0
ENDBLK
  5
993F2
330
993F0
100
AcDbEntity
  8
0
100
AcDbBlockEnd
  0
BLOCK
  5
993FD
330
993FC
100
AcDbEntity
  8
0
100
AcDbBlockBegin
  2
*D23
 70
     1
 10
0.0
 20
0.0
 30
0.0
  3
*D23
  1

  0
LINE
  5
99483
330
993FC
100
AcDbEntity
  8
SIZE
  6
ByBlock
 62
     0
370
    -2
100
AcDbLine
 10
-750.0
 20
-20.0
 30
0.0
 11
-750.0
 21
-479.6108094641486
 31
0.0
  0
LINE
  5
99484
330
993FC
100
AcDbEntity
  8
SIZE
  6
ByBlock
 62
     0
370
    -2
100
AcDbLine
 10
-480.0000000000009
 20
133.0000000000045
 30
0.0
 11
-480.0000000000009
 21
-479.6108094641486
 31
0.0
  0
LINE
  5
99485
330
993FC
100
AcDbEntity
  8
SIZE
  6
ByBlock
 62
     0
370
    -2
100
AcDbLine
 10
-750.0
 20
-459.6108094641485
 30
0.0
 11
-480.0000000000009
 21
-459.6108094641485
 31
0.0
  0
INSERT
  5
99486
330
993FC
100
AcDbEntity
  8
SIZE
 62
     0
370
    -2
100
AcDbBlockReference
  2
_Small
 10
-750.0
 20
-459.6108094641485
 30
0.0
 41
30.0
 42
30.0
 43
30.0
 50
180.0
  0
INSERT
  5
99487
330
993FC
100
AcDbEntity
  8
SIZE
 62
     0
370
    -2
100
AcDbBlockReference
  2
_Small
 10
-480.0000000000009
 20
-459.6108094641485
 30
0.0
 41
30.0
 42
30.0
 43
30.0
  0
MTEXT
  5
99488
330
993FC
100
AcDbEntity
  8
SIZE
 62
     0
100
AcDbMText
 10
-615.0000000000004
 20
-419.6108094641486
 30
0.0
 40
40.0
 41
0.0
 71
     5
 72
     1
  1
\A1;270
 73
     1
 44
1.0
1001
ACAD
1000
MTEXTBEGIN
1070
    73
1070
     1
1070
    44
1040
1.0
1070
    74
1070
     0
1000
MTEXTEND
  0
POINT
  5
99489
330
993FC
100
AcDbEntity
  8
DEFPOINTS
 62
     0
100
AcDbPoint
 10
-750.0
 20
0.0
 30
0.0
  0
POINT
  5
9948A
330
993FC
100
AcDbEntity
  8
DEFPOINTS
 62
     0
100
AcDbPoint
 10
-480.0000000000009
 20
153.0000000000045
 30
0.0
  0
POINT
  5
9948B
330
993FC
100
AcDbEntity
  8
DEFPOINTS
 62
     0
100
AcDbPoint
 10
-480.0000000000009
 20
-459.6108094641485
 30
0.0
  0
ENDBLK
  5
993FE
330
993FC
100
AcDbEntity
  8
0
100
AcDbBlockEnd
  0
BLOCK
  5
99409
330
99408
100
AcDbEntity
  8
0
100
AcDbBlockBegin
  2
*D24
 70
     1
 10
0.0
 20
0.0
 30
0.0
  3
*D24
  1

  0
LINE
  5
9948C
330
99408
100
AcDbEntity
  8
SIZE
  6
ByBlock
 62
     0
370
    -2
100
AcDbLine
 10
-770.0000000000003
 20
-0.0000000000000032
 30
0.0
 11
-945.6545073842772
 21
-0.0000000000000315
 31
0.0
  0
LINE
  5
9948D
330
99408
100
AcDbEntity
  8
SIZE
  6
ByBlock
 62
     0
370
    -2
100
AcDbLine
 10
-500.0000000000002
 20
153.0000000000046
 30
0.0
 11
-945.6545073842772
 21
153.0000000000045
 31
0.0
  0
LINE
  5
9948E
330
99408
100
AcDbEntity
  8
SIZE
  6
ByBlock
 62
     0
370
    -2
100
AcDbLine
 10
-925.6545073842771
 20
-0.0000000000000282
 30
0.0
 11
-925.6545073842771
 21
153.0000000000045
 31
0.0
  0
INSERT
  5
9948F
330
99408
100
AcDbEntity
  8
SIZE
 62
     0
370
    -2
100
AcDbBlockReference
  2
_Small
 10
-925.6545073842771
 20
-0.0000000000000282
 30
0.0
 41
30.0
 42
30.0
 43
30.0
 50
270.0
  0
INSERT
  5
99490
330
99408
100
AcDbEntity
  8
SIZE
 62
     0
370
    -2
100
AcDbBlockReference
  2
_Small
 10
-925.6545073842771
 20
153.0000000000045
 30
0.0
 41
30.0
 42
30.0
 43
30.0
 50
90.0
  0
MTEXT
  5
99491
330
99408
100
AcDbEntity
  8
SIZE
 62
     0
100
AcDbMText
 10
-965.6545073842769
 20
76.5000000000025
 30
0.0
 40
40.0
 41
0.0
 71
     5
 72
     1
  1
\A1;153
 11
0.0000000000000001
 21
1.0
 31
0.0
 73
     1
 44
1.0
1001
ACAD
1000
MTEXTBEGIN
1070
    73
1070
     1
1070
    44
1040
1.0
1070
    74
1070
     0
1000
MTEXTEND
  0
POINT
  5
99492
330
99408
100
AcDbEntity
  8
DEFPOINTS
 62
     0
100
AcDbPoint
 10
-750.0000000000002
 20
0.0
 30
0.0
  0
POINT
  5
99493
330
99408
100
AcDbEntity
  8
DEFPOINTS
 62
     0
100
AcDbPoint
 10
-480.0000000000002
 20
153.0000000000046
 30
0.0
  0
POINT
  5
99494
330
99408
100
AcDbEntity
  8
DEFPOINTS
 62
     0
100
AcDbPoint
 10
-925.6545073842771
 20
153.0000000000045
 30
0.0
  0
ENDBLK
  5
9940A
330
99408
100
AcDbEntity
  8
0
100
AcDbBlockEnd
  0
BLOCK
  5
99415
330
99414
100
AcDbEntity
  8
0
100
AcDbBlockBegin
  2
*D25
 70
     1
 10
0.0
 20
0.0
 30
0.0
  3
*D25
  1

  0
LINE
  5
99495
330
99414
100
AcDbEntity
  8
SIZE
  6
ByBlock
 62
     0
370
    -2
100
AcDbLine
 10
-770.0000000000003
 20
-0.0000000000000032
 30
0.0
 11
-1045.654507384278
 21
-0.0000000000000475
 31
0.0
  0
LINE
  5
99496
330
99414
100
AcDbEntity
  8
SIZE
  6
ByBlock
 62
     0
370
    -2
100
AcDbLine
 10
-560.000000000002
 20
269.0000000000047
 30
0.0
 11
-1045.654507384278
 21
269.0000000000046
 31
0.0
  0
LINE
  5
99497
330
99414
100
AcDbEntity
  8
SIZE
  6
ByBlock
 62
     0
370
    -2
100
AcDbLine
 10
-1025.654507384277
 20
-0.0000000000000443
 30
0.0
 11
-1025.654507384277
 21
269.0000000000046
 31
0.0
  0
INSERT
  5
99498
330
99414
100
AcDbEntity
  8
SIZE
 62
     0
370
    -2
100
AcDbBlockReference
  2
_Small
 10
-1025.654507384277
 20
-0.0000000000000443
 30
0.0
 41
30.0
 42
30.0
 43
30.0
 50
270.0
  0
INSERT
  5
99499
330
99414
100
AcDbEntity
  8
SIZE
 62
     0
370
    -2
100
AcDbBlockReference
  2
_Small
 10
-1025.654507384277
 20
269.0000000000046
 30
0.0
 41
30.0
 42
30.0
 43
30.0
 50
90.0
  0
MTEXT
  5
9949A
330
99414
100
AcDbEntity
  8
SIZE
 62
     0
100
AcDbMText
 10
-1065.654507384278
 20
134.5000000000018
 30
0.0
 40
40.0
 41
0.0
 71
     5
 72
     1
  1
\A1;269
 11
0.0000000000000001
 21
1.0
 31
0.0
 73
     1
 44
1.0
1001
ACAD
1000
MTEXTBEGIN
1070
    73
1070
     1
1070
    44
1040
1.0
1070
    74
1070
     0
1000
MTEXTEND
  0
POINT
  5
9949B
330
99414
100
AcDbEntity
  8
DEFPOINTS
 62
     0
100
AcDbPoint
 10
-750.0000000000002
 20
0.0
 30
0.0
  0
POINT
  5
9949C
330
99414
100
AcDbEntity
  8
DEFPOINTS
 62
     0
100
AcDbPoint
 10
-540.000000000002
 20
269.0000000000047
 30
0.0
  0
POINT
  5
9949D
330
99414
100
AcDbEntity
  8
DEFPOINTS
 62
     0
100
AcDbPoint
 10
-1025.654507384277
 20
269.0000000000046
 30
0.0
  0
ENDBLK
  5
99416
330
99414
100
AcDbEntity
  8
0
100
AcDbBlockEnd
  0
BLOCK
  5
99421
330
99420
100
AcDbEntity
  8
0
100
AcDbBlockBegin
  2
*D26
 70
     1
 10
0.0
 20
0.0
 30
0.0
  3
*D26
  1

  0
LINE
  5
9949E
330
99420
100
AcDbEntity
  8
SIZE
  6
ByBlock
 62
     0
370
    -2
100
AcDbLine
 10
-770.0000000000003
 20
-0.0000000000000032
 30
0.0
 11
-1145.654507384278
 21
-0.0000000000000636
 31
0.0
  0
LINE
  5
9949F
330
99420
100
AcDbEntity
  8
SIZE
  6
ByBlock
 62
     0
370
    -2
100
AcDbLine
 10
-770.0000000000003
 20
1574.000000000001
 30
0.0
 11
-1145.654507384278
 21
1574.000000000001
 31
0.0
  0
LINE
  5
994A0
330
99420
100
AcDbEntity
  8
SIZE
  6
ByBlock
 62
     0
370
    -2
100
AcDbLine
 10
-1125.654507384278
 20
-0.0000000000000604
 30
0.0
 11
-1125.654507384278
 21
1574.000000000001
 31
0.0
  0
INSERT
  5
994A1
330
99420
100
AcDbEntity
  8
SIZE
 62
     0
370
    -2
100
AcDbBlockReference
  2
_Small
 10
-1125.654507384278
 20
-0.0000000000000604
 30
0.0
 41
30.0
 42
30.0
 43
30.0
 50
270.0
  0
INSERT
  5
994A2
330
99420
100
AcDbEntity
  8
SIZE
 62
     0
370
    -2
100
AcDbBlockReference
  2
_Small
 10
-1125.654507384278
 20
1574.000000000001
 30
0.0
 41
30.0
 42
30.0
 43
30.0
 50
90.0
  0
MTEXT
  5
994A3
330
99420
100
AcDbEntity
  8
SIZE
 62
     0
100
AcDbMText
 10
-1165.654507384277
 20
786.9999999999986
 30
0.0
 40
40.0
 41
0.0
 71
     5
 72
     1
  1
\A1;1574
 11
0.0000000000000001
 21
1.0
 31
0.0
 73
     1
 44
1.0
1001
ACAD
1000
MTEXTBEGIN
1070
    73
1070
     1
1070
    44
1040
1.0
1070
    74
1070
     0
1000
MTEXTEND
  0
POINT
  5
994A4
330
99420
100
AcDbEntity
  8
DEFPOINTS
 62
     0
100
AcDbPoint
 10
-750.0000000000002
 20
0.0
 30
0.0
  0
POINT
  5
994A5
330
99420
100
AcDbEntity
  8
DEFPOINTS
 62
     0
100
AcDbPoint
 10
-750.0000000000002
 20
1574.000000000001
 30
0.0
  0
POINT
  5
994A6
330
99420
100
AcDbEntity
  8
DEFPOINTS
 62
     0
100
AcDbPoint
 10
-1125.654507384278
 20
1574.000000000001
 30
0.0
  0
ENDBLK
  5
99422
330
99420
100
AcDbEntity
  8
0
100
AcDbBlockEnd
  0
BLOCK
  5
9942D
330
9942C
100
AcDbEntity
  8
0
100
AcDbBlockBegin
  2
*D27
 70
     1
 10
0.0
 20
0.0
 30
0.0
  3
*D27
  1

  0
LINE
  5
994A7
330
9942C
100
AcDbEntity
  8
SIZE
  6
ByBlock
 62
     0
370
    -2
100
AcDbLine
 10
0.0000000000059105
 20
-20.00000000000818
 30
0.0
 11
0.0000000000059007
 21
-179.6108094641486
 31
0.0
  0
LINE
  5
994A8
330
9942C
100
AcDbEntity
  8
SIZE
  6
ByBlock
 62
     0
370
    -2
100
AcDbLine
 10
550.0000000000113
 20
-20.00000000001092
 30
0.0
 11
550.0000000000113
 21
-179.6108094641486
 31
0.0
  0
LINE
  5
994A9
330
9942C
100
AcDbEntity
  8
SIZE
  6
ByBlock
 62
     0
370
    -2
100
AcDbLine
 10
0.0000000000059019
 20
-159.6108094641486
 30
0.0
 11
550.0000000000113
 21
-159.6108094641486
 31
0.0
  0
INSERT
  5
994AA
330
9942C
100
AcDbEntity
  8
SIZE
 62
     0
370
    -2
100
AcDbBlockReference
  2
_Small
 10
0.0000000000059019
 20
-159.6108094641486
 30
0.0
 41
30.0
 42
30.0
 43
30.0
 50
180.0
  0
INSERT
  5
994AB
330
9942C
100
AcDbEntity
  8
SIZE
 62
     0
370
    -2
100
AcDbBlockReference
  2
_Small
 10
550.0000000000113
 20
-159.6108094641486
 30
0.0
 41
30.0
 42
30.0
 43
30.0
  0
MTEXT
  5
994AC
330
9942C
100
AcDbEntity
  8
SIZE
 62
     0
100
AcDbMText
 10
275.0000000000087
 20
-119.6108094641486
 30
0.0
 40
40.0
 41
0.0
 71
     5
 72
     1
  1
\A1;550
 73
     1
 44
1.0
1001
ACAD
1000
MTEXTBEGIN
1070
    73
1070
     1
1070
    44
1040
1.0
1070
    74
1070
     0
1000
MTEXTEND
  0
POINT
  5
994AD
330
9942C
100
AcDbEntity
  8
DEFPOINTS
 62
     0
100
AcDbPoint
 10
0.0000000000059117
 20
-0.0000000000081855
 30
0.0
  0
POINT
  5
994AE
330
9942C
100
AcDbEntity
  8
DEFPOINTS
 62
     0
100
AcDbPoint
 10
550.0000000000113
 20
-0.0000000000109139
 30
0.0
  0
POINT
  5
994AF
330
9942C
100
AcDbEntity
  8
DEFPOINTS
 62
     0
100
AcDbPoint
 10
550.0000000000113
 20
-159.6108094641486
 30
0.0
  0
ENDBLK
  5
9942E
330
9942C
100
AcDbEntity
  8
0
100
AcDbBlockEnd
  0
BLOCK
  5
99439
330
99438
100
AcDbEntity
  8
0
100
AcDbBlockBegin
  2
*D28
 70
     1
 10
0.0
 20
0.0
 30
0.0
  3
*D28
  1

  0
LINE
  5
994B0
330
99438
100
AcDbEntity
  8
SIZE
  6
ByBlock
 62
     0
370
    -2
100
AcDbLine
 10
749.9999999999991
 20
1594.0
 30
0.0
 11
749.9999999999991
 21
1642.599155828871
 31
0.0
  0
LINE
  5
994B1
330
99438
100
AcDbEntity
  8
SIZE
  6
ByBlock
 62
     0
370
    -2
100
AcDbLine
 10
-750.0000000000008
 20
1594.0
 30
0.0
 11
-750.0000000000008
 21
1642.599155828871
 31
0.0
  0
LINE
  5
994B2
330
99438
100
AcDbEntity
  8
SIZE
  6
ByBlock
 62
     0
370
    -2
100
AcDbLine
 10
749.9999999999991
 20
1622.59915582887
 30
0.0
 11
-750.0000000000008
 21
1622.59915582887
 31
0.0
  0
INSERT
  5
994B3
330
99438
100
AcDbEntity
  8
SIZE
 62
     0
370
    -2
100
AcDbBlockReference
  2
_Small
 10
749.9999999999991
 20
1622.59915582887
 30
0.0
 41
30.0
 42
30.0
 43
30.0
  0
INSERT
  5
994B4
330
99438
100
AcDbEntity
  8
SIZE
 62
     0
370
    -2
100
AcDbBlockReference
  2
_Small
 10
-750.0000000000008
 20
1622.59915582887
 30
0.0
 41
30.0
 42
30.0
 43
30.0
 50
180.0
  0
MTEXT
  5
994B5
330
99438
100
AcDbEntity
  8
SIZE
 62
     0
100
AcDbMText
 10
-0.000000000000907
 20
1662.599155828871
 30
0.0
 40
40.0
 41
0.0
 71
     5
 72
     1
  1
\A1;1500
 73
     1
 44
1.0
1001
ACAD
1000
MTEXTBEGIN
1070
    73
1070
     1
1070
    44
1040
1.0
1070
    74
1070
     0
1000
MTEXTEND
  0
POINT
  5
994B6
330
99438
100
AcDbEntity
  8
DEFPOINTS
 62
     0
100
AcDbPoint
 10
749.9999999999991
 20
1574.0
 30
0.0
  0
POINT
  5
994B7
330
99438
100
AcDbEntity
  8
DEFPOINTS
 62
     0
100
AcDbPoint
 10
-750.0000000000008
 20
1574.0
 30
0.0
  0
POINT
  5
994B8
330
99438
100
AcDbEntity
  8
DEFPOINTS
 62
     0
100
AcDbPoint
 10
-750.0000000000008
 20
1622.59915582887
 30
0.0
  0
ENDBLK
  5
9943A
330
99438
100
AcDbEntity
  8
0
100
AcDbBlockEnd
  0
ENDSEC
  0
SECTION
  2
ENTITIES
  0
TEXT
  5
9934D
330
18
100
AcDbEntity
  8
ETC
  6
Continuous
 62
    61
100
AcDbText
 10
-777.7793722527953
 20
1737.159872175035
 30
0.0
 40
80.0
  1
RM-D185A_3
 50
0.0000029998804485
 41
0.8
  7
STANDARD_MODELNAME
100
AcDbText
  0
CIRCLE
  5
9934E
330
18
100
AcDbEntity
  8
ARRANGE
  6
Continuous
 62
     1
100
AcDbCircle
 10
0.0
 20
0.0
 30
0.0
 40
50.0
  0
LINE
  5
9934F
330
18
100
AcDbEntity
  8
ARRANGE
  6
Continuous
 62
     1
100
AcDbLine
 10
-50.03735003132897
 20
-49.52235315032521
 30
0.0
 11
50.03735003132897
 21
49.52235315032521
 31
0.0
  0
LINE
  5
99350
330
18
100
AcDbEntity
  8
ARRANGE
  6
Continuous
 62
     1
100
AcDbLine
 10
-49.96376331050123
 20
49.59659479798574
 30
0.0
 11
49.96376331050123
 21
-49.59659479798211
 31
0.0
  0
LINE
  5
99351
330
18
100
AcDbEntity
  8
BASIS
  6
DASHDOT
 62
     6
100
AcDbLine
 10
-0.0000000000009095
 20
1604.0
 30
0.0
 11
0.0
 21
-76.45172914360228
 31
0.0
  0
LINE
  5
99352
330
18
100
AcDbEntity
  8
DETAIL
100
AcDbLine
 10
492.0000000000008
 20
-0.000000000005457
 30
0.0
 11
492.0000000000008
 21
2.999999999994543
 31
0.0
1001
REVIT
1002
{
1070
     2
1000
-2000151
1002
}
  0
LINE
  5
99353
330
18
100
AcDbEntity
  8
DETAIL
100
AcDbLine
 10
508.0000000000008
 20
2.999999999994543
 30
0.0
 11
508.0000000000008
 21
-0.000000000005457
 31
0.0
1001
REVIT
1002
{
1070
     2
1000
-2000151
1002
}
  0
LINE
  5
99354
330
18
100
AcDbEntity
  8
DETAIL
100
AcDbLine
 10
560.0000000000209
 20
2.999999999989086
 30
0.0
 11
560.0000000000209
 21
-0.0000000000109139
 31
0.0
1001
REVIT
1002
{
1070
     2
1000
-2000151
1002
}
  0
LINE
  5
99355
330
18
100
AcDbEntity
  8
DETAIL
100
AcDbLine
 10
540.0000000000209
 20
-0.0000000000109139
 30
0.0
 11
540.0000000000209
 21
2.999999999989086
 31
0.0
1001
REVIT
1002
{
1070
     2
1000
-2000151
1002
}
  0
LINE
  5
99356
330
18
100
AcDbEntity
  8
OUTLINE
100
AcDbLine
 10
750.0
 20
0.0
 30
0.0
 11
-750.0
 21
0.0
 31
0.0
  0
LINE
  5
99357
330
18
100
AcDbEntity
  8
NOTE
100
AcDbLine
 10
-548.8574075700162
 20
269.0000000000046
 30
0.0
 11
-531.1425924299869
 21
269.0000000000046
 31
0.0
  0
LINE
  5
99358
330
18
100
AcDbEntity
  8
NOTE
100
AcDbLine
 10
-540.0000000000009
 20
260.142592429981
 30
0.0
 11
-540.0000000000009
 21
277.8574075700208
 31
0.0
  0
LINE
  5
99359
330
18
100
AcDbEntity
  8
NOTE
100
AcDbLine
 10
-488.8574075700153
 20
153.0000000000045
 30
0.0
 11
-471.142592429986
 21
153.0000000000045
 31
0.0
  0
LINE
  5
9935A
330
18
100
AcDbEntity
  8
NOTE
100
AcDbLine
 10
-480.0
 20
144.142592429981
 30
0.0
 11
-480.0
 21
161.8574075700207
 31
0.0
  0
LINE
  5
9935B
330
18
100
AcDbEntity
  8
NOTE
100
AcDbLine
 10
-638.2972188428198
 20
0.0
 30
0.0
 11
-561.7027811571801
 21
0.0
 31
0.0
  0
TEXT
  5
9935C
330
18
100
AcDbEntity
  8
NOTE
  6
Continuous
 62
     4
100
AcDbText
 10
-1376.976535119604
 20
-116.0486682051073
 30
0.0
 40
60.0
  1
入口配管φ31.75
 50
0.000002504416674
 41
0.7
  7
STANDARD1
100
AcDbText
  0
LINE
  5
9935D
330
18
100
AcDbEntity
  8
NOTE
100
AcDbLine
 10
-566.3312735788426
 20
252.5293860680408
 30
0.0
 11
-540.0000000000009
 21
269.0000000000009
 31
0.0
  0
LINE
  5
9935E
330
18
100
AcDbEntity
  8
NOTE
100
AcDbLine
 10
-540.0000000000009
 20
269.0000000000009
 30
0.0
 11
-554.5682449917312
 21
241.5703931956659
 31
0.0
  0
LINE
  5
9935F
330
18
100
AcDbEntity
  8
NOTE
100
AcDbLine
 10
-540.0000000000009
 20
269.0000000000009
 30
0.0
 11
-560.4497592852871
 21
247.0498896318536
 31
0.0
  0
LINE
  5
99360
330
18
100
AcDbEntity
  8
NOTE
100
AcDbLine
 10
-560.4497592852871
 20
247.0498896318536
 30
0.0
 11
-915.2016525029225
 21
-133.7293215463933
 31
0.0
1001
ACAD
1000
DSTYLE
1002
{
1070
    41
1040
30.0
1002
}
  0
LINE
  5
99361
330
18
100
AcDbEntity
  8
NOTE
100
AcDbLine
 10
-915.2016525029225
 20
-133.7293215463933
 30
0.0
 11
-1394.228183452649
 21
-133.7293215463933
 31
0.0
1001
ACAD
1000
DSTYLE
1002
{
1070
    41
1040
30.0
1002
}
  0
TEXT
  5
99362
330
18
100
AcDbEntity
  8
NOTE
  6
Continuous
 62
     4
100
AcDbText
 10
-1377.737379612234
 20
-238.1753628571846
 30
0.0
 40
60.0
  1
出口配管φ15.88
 50
0.000002504416674
 41
0.7
  7
STANDARD1
100
AcDbText
  0
LINE
  5
99363
330
18
100
AcDbEntity
  8
NOTE
100
AcDbLine
 10
-507.3257256628735
 20
138.2378250729493
 30
0.0
 11
-480.0
 21
153.0000000000009
 31
0.0
  0
LINE
  5
99364
330
18
100
AcDbEntity
  8
NOTE
100
AcDbLine
 10
-480.0
 20
153.0000000000009
 30
0.0
 11
-496.2836852573464
 21
126.5527187404996
 31
0.0
  0
LINE
  5
99365
330
18
100
AcDbEntity
  8
NOTE
100
AcDbLine
 10
-480.0
 20
153.0000000000009
 30
0.0
 11
-501.8047054601097
 21
132.3952719067247
 31
0.0
  0
LINE
  5
99366
330
18
100
AcDbEntity
  8
NOTE
100
AcDbLine
 10
-501.8047054601097
 20
132.3952719067247
 30
0.0
 11
-915.2016525029225
 21
-258.251219695313
 31
0.0
1001
ACAD
1000
DSTYLE
1002
{
1070
    41
1040
30.0
1002
}
  0
LINE
  5
99367
330
18
100
AcDbEntity
  8
NOTE
100
AcDbLine
 10
-915.2016525029225
 20
-258.251219695313
 30
0.0
 11
-1386.776138373118
 21
-258.251219695313
 31
0.0
1001
ACAD
1000
DSTYLE
1002
{
1070
    41
1040
30.0
1002
}
  0
TEXT
  5
99368
330
18
100
AcDbEntity
  8
NOTE
  6
Continuous
 62
     4
100
AcDbText
 10
852.6125058137827
 20
426.078578309115
 30
0.0
 40
60.0
  1
AH(B)6xφ20
 50
359.9999974955937
 41
0.7
  7
STANDARD1
100
AcDbText
  0
TEXT
  5
99369
330
18
100
AcDbEntity
  8
NOTE
  6
Continuous
 62
     4
100
AcDbText
 10
830.6537991539249
 20
333.6636998368467
 30
0.0
 40
60.0
  1
<M16ボルト>
 50
359.9999974955937
 41
0.7
  7
STANDARD1
100
AcDbText
  0
LINE
  5
9936A
330
18
100
AcDbEntity
  8
NOTE
100
AcDbLine
 10
575.2730648133392
 20
18.05240389866185
 30
0.0
 11
550.0000000000113
 21
-0.0000000000109139
 31
0.0
  0
LINE
  5
9936B
330
18
100
AcDbEntity
  8
NOTE
100
AcDbLine
 10
550.0000000000113
 20
-0.0000000000109139
 30
0.0
 11
562.8609143387571
 21
28.27037272393681
 31
0.0
  0
LINE
  5
9936C
330
18
100
AcDbEntity
  8
NOTE
100
AcDbLine
 10
550.0000000000113
 20
-0.0000000000109139
 30
0.0
 11
569.0669895760484
 21
23.16138831129956
 31
0.0
  0
LINE
  5
9936D
330
18
100
AcDbEntity
  8
NOTE
100
AcDbLine
 10
569.0669895760484
 20
23.16138831129956
 30
0.0
 11
812.8412551081487
 21
319.2831437555592
 31
0.0
1001
ACAD
1000
DSTYLE
1002
{
1070
    41
1040
30.0
1002
}
  0
LINE
  5
9936E
330
18
100
AcDbEntity
  8
NOTE
100
AcDbLine
 10
812.8412551081487
 20
319.2831437555592
 30
0.0
 11
1277.589425911655
 21
319.2831437556424
 31
0.0
1001
ACAD
1000
DSTYLE
1002
{
1070
    41
1040
30.0
1002
}
  0
TEXT
  5
9936F
330
18
100
AcDbEntity
  8
NOTE
  6
Continuous
 62
     4
100
AcDbText
 10
852.6125058138017
 20
706.2773001494151
 30
0.0
 40
60.0
  1
AH(A)4xφ16
 50
359.9999974955834
 41
0.7
  7
STANDARD1
100
AcDbText
  0
TEXT
  5
99370
330
18
100
AcDbEntity
  8
NOTE
  6
Continuous
 62
     4
100
AcDbText
 10
830.6537991539276
 20
613.8624216771504
 30
0.0
 40
60.0
  1
<M12ボルト>
 50
359.9999974955834
 41
0.7
  7
STANDARD1
100
AcDbText
  0
LINE
  5
99371
330
18
100
AcDbEntity
  8
NOTE
100
AcDbLine
 10
521.00581392617
 20
22.87734409582117
 30
0.0
 11
500.0000000000113
 21
-0.0000000000109139
 31
0.0
  0
LINE
  5
99372
330
18
100
AcDbEntity
  8
NOTE
100
AcDbLine
 10
500.0000000000113
 20
-0.0000000000109139
 30
0.0
 11
506.7528965768437
 21
30.31526809054185
 31
0.0
  0
LINE
  5
99373
330
18
100
AcDbEntity
  8
NOTE
100
AcDbLine
 10
500.0000000000113
 20
-0.0000000000109139
 30
0.0
 11
513.8793552515071
 21
26.59630609318128
 31
0.0
  0
LINE
  5
99374
330
18
100
AcDbEntity
  8
NOTE
100
AcDbLine
 10
513.8793552515071
 20
26.59630609318128
 30
0.0
 11
812.8412551081487
 21
599.4818655958661
 31
0.0
1001
ACAD
1000
DSTYLE
1002
{
1070
    41
1040
30.0
1002
}
  0
LINE
  5
99375
330
18
100
AcDbEntity
  8
NOTE
100
AcDbLine
 10
812.8412551081487
 20
599.4818655958661
 30
0.0
 11
1277.589425911655
 21
599.4818655958661
 31
0.0
1001
ACAD
1000
DSTYLE
1002
{
1070
    41
1040
30.0
1002
}
  0
DIMENSION
  5
99376
330
18
100
AcDbEntity
  8
SIZE
100
AcDbDimension
  2
*D16
 10
-549.9999999999991
 20
-159.6108094641486
 30
0.0
 11
-649.9999999999995
 21
-119.6108094641486
 31
0.0
 70
    32
 71
     5
 42
200.0000000000009
  3
kaigai_CADSYMBOL
100
AcDbAlignedDimension
 13
-750.0
 23
0.0
 33
0.0
 14
-549.9999999999991
 24
-0.000000000005457
 34
0.0
 50
180.0
100
AcDbRotatedDimension
1001
ACAD
1000
DSTYLE
1002
{
1070
   279
1070
     0
1070
    90
1070
     1
1070
   345
1005
12
1070
   346
1005
12
1070
   347
1005
12
1002
}
  0
DIMENSION
  5
99377
330
18
100
AcDbEntity
  8
SIZE
100
AcDbDimension
  2
*D17
 10
0.0000000000145421
 20
-159.6108094641486
 30
0.0
 11
-274.9999999999923
 21
-159.6108094641486
 31
0.0
 70
   160
 71
     5
 42
550.0000000000136
  3
kaigai_CADSYMBOL
100
AcDbAlignedDimension
 13
-549.9999999999991
 23
-0.000000000005457
 33
0.0
 14
0.0000000000145519
 24
-0.0000000000127329
 34
0.0
 50
180.0
100
AcDbRotatedDimension
1001
ACAD
1000
DSTYLE
1002
{
1070
    90
1070
     1
1070
   345
1005
12
1070
   346
1005
12
1070
   347
1005
12
1002
}
  0
DIMENSION
  5
99378
330
18
100
AcDbEntity
  8
SIZE
100
AcDbDimension
  2
*D18
 10
750.0
 20
-159.6108094641486
 30
0.0
 11
650.0000000000056
 21
-109.1346189879581
 31
0.0
 70
    32
  1
(<>)
 71
     5
 42
199.9999999999886
  3
kaigai_CADSYMBOL
100
AcDbAlignedDimension
 13
550.0000000000113
 23
-0.0000000000109139
 33
0.0
 14
750.0
 24
0.0
 34
0.0
 50
180.0
100
AcDbRotatedDimension
1001
ACAD
1000
DSTYLE
1002
{
1070
    90
1070
     1
1070
   345
1005
12
1070
   346
1005
12
1070
   347
1005
12
1002
}
  0
DIMENSION
  5
99379
330
18
100
AcDbEntity
  8
SIZE
100
AcDbDimension
  2
*D19
 10
-499.9999999999991
 20
-359.610809464149
 30
0.0
 11
-625.0000000000072
 21
-359.610809464149
 31
0.0
 70
   161
 71
     5
 42
250.0000000000009
  3
kaigai_CADSYMBOL
100
AcDbAlignedDimension
 13
-750.0
 23
0.0
 33
0.0
 14
-499.9999999999991
 24
-0.000000000005457
 34
0.0
1001
ACAD
1000
DSTYLE
1002
{
1070
    90
1070
     1
1070
   345
1005
12
1070
   346
1005
12
1070
   347
1005
12
1002
}
  0
DIMENSION
  5
9937A
330
18
100
AcDbEntity
  8
SIZE
100
AcDbDimension
  2
*D20
 10
500.0000000000059
 20
-359.8234627488519
 30
0.0
 11
0.0000000000031832
 21
-359.8234627488519
 31
0.0
 70
   160
 71
     5
 42
1000.000000000005
  3
kaigai_CADSYMBOL
100
AcDbAlignedDimension
 13
-499.9999999999991
 23
-0.000000000005457
 33
0.0
 14
500.0000000000059
 24
-0.0000000000109139
 34
0.0
 50
180.0
100
AcDbRotatedDimension
1001
ACAD
1000
DSTYLE
1002
{
1070
    90
1070
     1
1070
   345
1005
12
1070
   346
1005
12
1070
   347
1005
12
1002
}
  0
DIMENSION
  5
9937B
330
18
100
AcDbEntity
  8
SIZE
100
AcDbDimension
  2
*D21
 10
750.0
 20
-359.8234627488519
 30
0.0
 11
625.0000000000004
 21
-359.8234627488519
 31
0.0
 70
   160
  1
(<>)
 71
     5
 42
249.9999999999886
  3
kaigai_CADSYMBOL
100
AcDbAlignedDimension
 13
500.0000000000113
 23
-0.0000000000109139
 33
0.0
 14
750.0
 24
0.0
 34
0.0
 50
180.0
100
AcDbRotatedDimension
1001
ACAD
1000
DSTYLE
1002
{
1070
    90
1070
     1
1070
   345
1005
12
1070
   346
1005
12
1070
   347
1005
12
1002
}
  0
DIMENSION
  5
9937C
330
18
100
AcDbEntity
  8
SIZE
100
AcDbDimension
  2
*D22
 10
-540.0000000000009
 20
-259.6108094641486
 30
0.0
 11
-645.0000000000004
 21
-259.6108094641486
 31
0.0
 70
   160
 71
     5
 42
209.9999999999991
  3
kaigai_CADSYMBOL
100
AcDbAlignedDimension
 13
-750.0
 23
0.0
 33
0.0
 14
-540.0000000000009
 24
269.0000000000009
 34
0.0
 50
180.0
100
AcDbRotatedDimension
1001
ACAD
1000
DSTYLE
1002
{
1070
   279
1070
     0
1070
    90
1070
     1
1070
   345
1005
12
1070
   346
1005
12
1070
   347
1005
12
1002
}
  0
DIMENSION
  5
9937D
330
18
100
AcDbEntity
  8
SIZE
100
AcDbDimension
  2
*D23
 10
-480.0000000000009
 20
-459.6108094641485
 30
0.0
 11
-615.0000000000004
 21
-459.6108094641485
 31
0.0
 70
   160
 71
     5
 42
269.9999999999991
  3
kaigai_CADSYMBOL
100
AcDbAlignedDimension
 13
-750.0
 23
0.0
 33
0.0
 14
-480.0000000000009
 24
153.0000000000045
 34
0.0
 50
180.0
100
AcDbRotatedDimension
1001
ACAD
1000
DSTYLE
1002
{
1070
   279
1070
     0
1070
    90
1070
     1
1070
   345
1005
12
1070
   346
1005
12
1070
   347
1005
12
1002
}
  0
DIMENSION
  5
9937E
330
18
100
AcDbEntity
  8
SIZE
100
AcDbDimension
  2
*D24
 10
-925.6545073842771
 20
153.0000000000045
 30
0.0
 11
-965.6545073842769
 21
76.5000000000025
 31
0.0
 70
    32
 71
     5
 42
153.0000000000045
  3
kaigai_CADSYMBOL
100
AcDbAlignedDimension
 13
-750.0
 23
0.0
 33
0.0
 14
-480.0
 24
153.0000000000045
 34
0.0
 50
90.0
100
AcDbRotatedDimension
1001
ACAD
1000
DSTYLE
1002
{
1070
   279
1070
     0
1070
    90
1070
     1
1070
   345
1005
12
1070
   346
1005
12
1070
   347
1005
12
1002
}
  0
DIMENSION
  5
9937F
330
18
100
AcDbEntity
  8
SIZE
100
AcDbDimension
  2
*D25
 10
-1025.654507384277
 20
269.0000000000046
 30
0.0
 11
-1025.654507384277
 21
134.5000000000018
 31
0.0
 70
   160
 71
     5
 42
269.0000000000046
  3
kaigai_CADSYMBOL
100
AcDbAlignedDimension
 13
-750.0
 23
0.0
 33
0.0
 14
-540.0000000000018
 24
269.0000000000046
 34
0.0
 50
90.0
100
AcDbRotatedDimension
1001
ACAD
1000
DSTYLE
1002
{
1070
   279
1070
     0
1070
    90
1070
     1
1070
   345
1005
12
1070
   346
1005
12
1070
   347
1005
12
1002
}
  0
DIMENSION
  5
99380
330
18
100
AcDbEntity
  8
SIZE
100
AcDbDimension
  2
*D26
 10
-1125.654507384278
 20
1574.000000000001
 30
0.0
 11
-1125.654507384277
 21
786.9999999999986
 31
0.0
 70
   160
 71
     5
 42
1574.0
  3
kaigai_CADSYMBOL
100
AcDbAlignedDimension
 13
-750.0
 23
0.0
 33
0.0
 14
-750.0
 24
1574.0
 34
0.0
 50
90.0
100
AcDbRotatedDimension
1001
ACAD
1000
DSTYLE
1002
{
1070
    90
1070
     1
1070
   345
1005
12
1070
   346
1005
12
1070
   347
1005
12
1002
}
  0
LINE
  5
99381
330
18
100
AcDbEntity
  8
DETAIL
100
AcDbLine
 10
749.9999999999991
 20
1324.0
 30
0.0
 11
-750.0000000000008
 21
1324.0
 31
0.0
1001
REVIT
1002
{
1070
     1
1000
36073
1002
}
1002
{
1070
     2
1000
-2000151
1002
}
  0
LINE
  5
99382
330
18
100
AcDbEntity
  8
DETAIL
100
AcDbLine
 10
-750.0000000000008
 20
1574.0
 30
0.0
 11
749.9999999999991
 21
1574.0
 31
0.0
1001
REVIT
1002
{
1070
     1
1000
36073
1002
}
1002
{
1070
     2
1000
-2000151
1002
}
  0
LINE
  5
99383
330
18
100
AcDbEntity
  8
DETAIL
100
AcDbLine
 10
750.0
 20
0.0
 30
0.0
 11
749.9999999999991
 21
1574.0
 31
0.0
1001
REVIT
1002
{
1070
     1
1000
36073
1002
}
1002
{
1070
     2
1000
-2000151
1002
}
  0
LINE
  5
99384
330
18
100
AcDbEntity
  8
DETAIL
100
AcDbLine
 10
-725.0
 20
0.0
 30
0.0
 11
-725.0
 21
3.0
 31
0.0
1001
REVIT
1002
{
1070
     1
1000
36073
1002
}
1002
{
1070
     2
1000
-2000151
1002
}
  0
LINE
  5
99385
330
18
100
AcDbEntity
  8
DETAIL
100
AcDbLine
 10
724.9999999999991
 20
3.0
 30
0.0
 11
724.9999999999991
 21
0.0
 31
0.0
1001
REVIT
1002
{
1070
     1
1000
36073
1002
}
1002
{
1070
     2
1000
-2000151
1002
}
  0
LINE
  5
99386
330
18
100
AcDbEntity
  8
DETAIL
100
AcDbLine
 10
-750.0
 20
1574.0
 30
0.0
 11
-750.0
 21
0.0
 31
0.0
1001
REVIT
1002
{
1070
     1
1000
36073
1002
}
1002
{
1070
     2
1000
-2000151
1002
}
  0
LINE
  5
99387
330
18
100
AcDbEntity
  8
DETAIL
100
AcDbLine
 10
-707.0
 20
140.0
 30
0.0
 11
-707.0
 21
1307.721592277141
 31
0.0
1001
REVIT
1002
{
1070
     1
1000
36073
1002
}
1002
{
1070
     2
1000
-2000151
1002
}
  0
LINE
  5
99388
330
18
100
AcDbEntity
  8
DETAIL
100
AcDbLine
 10
707.0
 20
140.0
 30
0.0
 11
-707.0
 21
140.0
 31
0.0
1001
REVIT
1002
{
1070
     1
1000
36073
1002
}
1002
{
1070
     2
1000
-2000151
1002
}
  0
LINE
  5
99389
330
18
100
AcDbEntity
  8
DETAIL
100
AcDbLine
 10
707.0
 20
1307.721592277141
 30
0.0
 11
707.0
 21
140.0
 31
0.0
1001
REVIT
1002
{
1070
     1
1000
36073
1002
}
1002
{
1070
     2
1000
-2000151
1002
}
  0
LINE
  5
9938A
330
18
100
AcDbEntity
  8
DETAIL
100
AcDbLine
 10
750.0
 20
3.0
 30
0.0
 11
-750.0
 21
3.0
 31
0.0
1001
REVIT
1002
{
1070
     1
1000
36073
1002
}
1002
{
1070
     2
1000
-2000151
1002
}
  0
LINE
  5
9938B
330
18
100
AcDbEntity
  8
DETAIL
100
AcDbLine
 10
749.9999999999991
 20
1307.721592277141
 30
0.0
 11
-750.0000000000008
 21
1307.721592277141
 31
0.0
1001
REVIT
1002
{
1070
     1
1000
36504
1002
}
1002
{
1070
     2
1000
-2000151
1002
}
  0
CIRCLE
  5
9938C
330
18
100
AcDbEntity
  8
DETAIL
100
AcDbCircle
 10
-480.0
 20
153.0
 30
0.0
 40
7.939999999999997
  0
CIRCLE
  5
9938D
330
18
100
AcDbEntity
  8
DETAIL
100
AcDbCircle
 10
-540.0000000000009
 20
269.0
 30
0.0
 40
15.87499999999988
  0
LINE
  5
9938E
330
18
100
AcDbEntity
  8
OUTLINE
100
AcDbLine
 10
-750.0000000000008
 20
1574.0
 30
0.0
 11
749.9999999999991
 21
1574.0
 31
0.0
  0
LINE
  5
9938F
330
18
100
AcDbEntity
  8
OUTLINE
100
AcDbLine
 10
749.9999999999991
 20
1574.0
 30
0.0
 11
750.0
 21
0.0
 31
0.0
  0
LINE
  5
99390
330
18
100
AcDbEntity
  8
OUTLINE
100
AcDbLine
 10
-750.0
 20
0.0
 30
0.0
 11
-750.0000000000008
 21
1574.0
 31
0.0
  0
LINE
  5
99391
330
18
100
AcDbEntity
  8
NOTE
100
AcDbLine
 10
550.0000000000059
 20
-38.29721884282481
 30
0.0
 11
550.0000000000059
 21
38.29721884281207
 31
0.0
  0
LINE
  5
99392
330
18
100
AcDbEntity
  8
NOTE
100
AcDbLine
 10
511.7027811571915
 20
-0.0000000000109139
 30
0.0
 11
588.2972188428311
 21
-0.0000000000109139
 31
0.0
  0
LINE
  5
99393
330
18
100
AcDbEntity
  8
NOTE
100
AcDbLine
 10
-549.9999999999941
 20
-38.29721884282481
 30
0.0
 11
-549.9999999999941
 21
38.29721884281207
 31
0.0
  0
LINE
  5
99394
330
18
100
AcDbEntity
  8
NOTE
100
AcDbLine
 10
-588.2972188428079
 20
-0.0000000000109139
 30
0.0
 11
-511.7027811571688
 21
-0.0000000000109139
 31
0.0
  0
CIRCLE
  5
99395
330
18
100
AcDbEntity
  8
FIX
  6
Continuous
 62
    11
100
AcDbCircle
 10
-549.9999999999991
 20
-0.000000000005457
 30
0.0
 40
12.42149793872491
  0
LINE
  5
99396
330
18
100
AcDbEntity
  8
NOTE
100
AcDbLine
 10
500.0000000000059
 20
-38.29721884282481
 30
0.0
 11
500.0000000000059
 21
38.29721884281207
 31
0.0
  0
LINE
  5
99397
330
18
100
AcDbEntity
  8
NOTE
100
AcDbLine
 10
461.7027811571915
 20
-0.0000000000109139
 30
0.0
 11
538.2972188428311
 21
-0.0000000000109139
 31
0.0
  0
CIRCLE
  5
99398
330
18
100
AcDbEntity
  8
FIX
  6
Continuous
 62
    11
100
AcDbCircle
 10
500.0000000000008
 20
-0.000000000005457
 30
0.0
 40
12.42149793872491
  0
LINE
  5
99399
330
18
100
AcDbEntity
  8
NOTE
100
AcDbLine
 10
0.0000000000059117
 20
-38.29721884282662
 30
0.0
 11
0.0000000000059117
 21
38.29721884281025
 31
0.0
  0
LINE
  5
9939A
330
18
100
AcDbEntity
  8
NOTE
100
AcDbLine
 10
-38.29721884280843
 20
-0.0000000000127329
 30
0.0
 11
38.29721884283117
 21
-0.0000000000127329
 31
0.0
  0
CIRCLE
  5
9939B
330
18
100
AcDbEntity
  8
FIX
  6
Continuous
 62
    11
100
AcDbCircle
 10
0.0000000000009095
 20
-0.000000000007276
 30
0.0
 40
12.42149793872491
  0
LINE
  5
9939C
330
18
100
AcDbEntity
  8
NOTE
100
AcDbLine
 10
-499.9999999999941
 20
-38.29721884282481
 30
0.0
 11
-499.9999999999941
 21
38.29721884281207
 31
0.0
  0
LINE
  5
9939D
330
18
100
AcDbEntity
  8
NOTE
100
AcDbLine
 10
-538.2972188428084
 20
-0.0000000000109139
 30
0.0
 11
-461.7027811571688
 21
-0.0000000000109139
 31
0.0
  0
CIRCLE
  5
9939E
330
18
100
AcDbEntity
  8
FIX
  6
Continuous
 62
    11
100
AcDbCircle
 10
-499.9999999999991
 20
-0.000000000005457
 30
0.0
 40
12.42149793872491
  0
CIRCLE
  5
9939F
330
18
100
AcDbEntity
  8
FIX
  6
Continuous
 62
    11
100
AcDbCircle
 10
549.9999999999904
 20
0.0
 30
0.0
 40
12.42149793872491
  0
LINE
  5
993A0
330
18
100
AcDbEntity
  8
DETAIL
100
AcDbLine
 10
10.00000000001591
 20
2.999999999992724
 30
0.0
 11
10.00000000001591
 21
-0.000000000007276
 31
0.0
1001
REVIT
1002
{
1070
     2
1000
-2000151
1002
}
  0
LINE
  5
993A1
330
18
100
AcDbEntity
  8
DETAIL
100
AcDbLine
 10
-9.999999999984083
 20
-0.000000000007276
 30
0.0
 11
-9.999999999984083
 21
2.999999999992724
 31
0.0
1001
REVIT
1002
{
1070
     2
1000
-2000151
1002
}
  0
LINE
  5
993A2
330
18
100
AcDbEntity
  8
DETAIL
100
AcDbLine
 10
-539.9999999999841
 20
2.999999999983629
 30
0.0
 11
-539.9999999999841
 21
-0.0000000000163709
 31
0.0
1001
REVIT
1002
{
1070
     2
1000
-2000151
1002
}
  0
LINE
  5
993A3
330
18
100
AcDbEntity
  8
DETAIL
100
AcDbLine
 10
-559.999999999984
 20
-0.0000000000163709
 30
0.0
 11
-559.999999999984
 21
2.999999999983629
 31
0.0
1001
REVIT
1002
{
1070
     2
1000
-2000151
1002
}
  0
LINE
  5
993A4
330
18
100
AcDbEntity
  8
DETAIL
100
AcDbLine
 10
-507.9999999999886
 20
-0.0000000000109139
 30
0.0
 11
-507.9999999999886
 21
2.999999999989086
 31
0.0
1001
REVIT
1002
{
1070
     2
1000
-2000151
1002
}
  0
LINE
  5
993A5
330
18
100
AcDbEntity
  8
DETAIL
100
AcDbLine
 10
-491.9999999999886
 20
2.999999999989086
 30
0.0
 11
-491.9999999999886
 21
-0.0000000000109139
 31
0.0
1001
REVIT
1002
{
1070
     2
1000
-2000151
1002
}
  0
DIMENSION
  5
993A6
330
18
100
AcDbEntity
  8
SIZE
100
AcDbDimension
  2
*D27
 10
550.0000000000113
 20
-159.6108094641486
 30
0.0
 11
275.0000000000087
 21
-119.6108094641486
 31
0.0
 70
    32
 71
     5
 42
550.0000000000055
  3
kaigai_CADSYMBOL
100
AcDbAlignedDimension
 13
0.0000000000059117
 23
-0.0000000000081855
 33
0.0
 14
550.0000000000113
 24
-0.0000000000109139
 34
0.0
 50
180.0
100
AcDbRotatedDimension
1001
ACAD
1000
DSTYLE
1002
{
1070
    90
1070
     1
1070
   345
1005
12
1070
   346
1005
12
1070
   347
1005
12
1002
}
  0
DIMENSION
  5
993A7
330
18
100
AcDbEntity
  8
SIZE
100
AcDbDimension
  2
*D28
 10
-750.0000000000008
 20
1622.59915582887
 30
0.0
 11
-0.000000000000907
 21
1662.599155828871
 31
0.0
 70
    32
 71
     5
 42
1500.0
  3
kaigai_CADSYMBOL
100
AcDbAlignedDimension
 13
749.9999999999991
 23
1574.0
 33
0.0
 14
-750.0000000000008
 24
1574.0
 34
0.0
 50
180.0
100
AcDbRotatedDimension
1001
ACAD
1000
DSTYLE
1002
{
1070
    90
1070
     1
1070
   345
1005
12
1070
   346
1005
12
1070
   347
1005
12
1002
}
  0
ENDSEC
  0
SECTION
  2
OBJECTS
  0
DICTIONARY
  5
C
330
0
100
AcDbDictionary
281
     1
  3
ACAD_CIP_PREVIOUS_PRODUCT_INFO
350
70D0E
  3
ACAD_COLOR
350
513F9
  3
ACAD_DETAILVIEWSTYLE
350
99248
  3
ACAD_GROUP
350
D
  3
ACAD_LAYOUT
350
21F1
  3
ACAD_MATERIAL
350
513CF
  3
ACAD_MLEADERSTYLE
350
5141E
  3
ACAD_MLINESTYLE
350
1B
  3
ACAD_PLOTSETTINGS
350
21F2
  3
ACAD_PLOTSTYLENAME
350
21EF
  3
ACAD_SCALELIST
350
513FC
  3
ACAD_SECTIONVIEWSTYLE
350
99246
  3
ACAD_TABLESTYLE
350
513FA
  3
ACAD_VISUALSTYLE
350
513E8
  3
AcadDim
350
956CE
  3
ACDB_RECOMPOSE_DATA
350
994BD
  3
AcDbVariableDictionary
350
28B1
  3
DWGPROPS
350
994BE
  0
DICTIONARY
  5
70D15
330
8
100
AcDbDictionary
280
     1
281
     1
  0
DICTIONARY
  5
5148D
330
2
100
AcDbDictionary
280
     1
281
     1
  3
ACAD_LAYERFILTERS
360
6ADDC
  3
ACAD_LAYERSTATES
360
6B6C9
  3
ACLYDICTIONARY
360
6ADDB
  0
DICTIONARY
  5
5144C
330
E
100
AcDbDictionary
280
     1
281
     1
  3
ADSK_XREC_LAYER_RECONCILED
360
5144D
  0
DICTIONARY
  5
5144E
330
25
100
AcDbDictionary
280
     1
281
     1
  3
ADSK_XREC_LAYER_RECONCILED
360
5144F
  0
DICTIONARY
  5
51450
330
26
100
AcDbDictionary
280
     1
281
     1
  3
ADSK_XREC_LAYER_RECONCILED
360
51451
  0
DICTIONARY
  5
51452
330
27
100
AcDbDictionary
280
     1
281
     1
  3
ADSK_XREC_LAYER_RECONCILED
360
51453
  0
DICTIONARY
  5
51454
330
28
100
AcDbDictionary
280
     1
281
     1
  3
ADSK_XREC_LAYER_RECONCILED
360
51455
  0
DICTIONARY
  5
51456
330
29
100
AcDbDictionary
280
     1
281
     1
  3
ADSK_XREC_LAYER_RECONCILED
360
51457
  0
DICTIONARY
  5
51458
330
2B
100
AcDbDictionary
280
     1
281
     1
  3
ADSK_XREC_LAYER_RECONCILED
360
51459
  0
DICTIONARY
  5
5145A
330
2C
100
AcDbDictionary
280
     1
281
     1
  3
ADSK_XREC_LAYER_RECONCILED
360
5145B
  0
DICTIONARY
  5
5145C
330
2D
100
AcDbDictionary
280
     1
281
     1
  3
ADSK_XREC_LAYER_RECONCILED
360
5145D
  0
DICTIONARY
  5
85434
330
85433
100
AcDbDictionary
280
     1
281
     1
  0
DICTIONARY
  5
85436
330
85435
100
AcDbDictionary
280
     1
281
     1
  0
DICTIONARY
  5
28B3
330
18
100
AcDbDictionary
280
     1
281
     1
  3
ACAD_LAYOUTSELFREF
360
2DF14
  3
ACAD_SORTENTS
360
28B4
  0
DICTIONARY
  5
29B6
330
15
100
AcDbDictionary
280
     1
281
     1
  3
ACAD_LAYOUTSELFREF
360
2DF13
  0
DICTIONARY
  5
990CA
330
4C0C3
100
AcDbDictionary
280
     1
281
     1
  0
DICTIONARY
  5
99347
330
992EB
100
AcDbDictionary
280
     1
281
     1
  3
ACAD_SORTENTS
360
99348
  0
XRECORD
  5
70D0E
102
{ACAD_REACTORS
330
C
102
}
330
C
100
AcDbXrecord
280
     1
300
ACDLT
300
2018
300
86831ACDLT_2018_0F
  0
DICTIONARY
  5
513F9
102
{ACAD_REACTORS
330
C
102
}
330
C
100
AcDbDictionary
281
     1
  0
DICTIONARY
  5
99248
102
{ACAD_REACTORS
330
C
102
}
330
C
100
AcDbDictionary
281
     1
  3
Imperial24
350
99249
  0
DICTIONARY
  5
D
102
{ACAD_REACTORS
330
C
102
}
330
C
100
AcDbDictionary
281
     1
  0
DICTIONARY
  5
21F1
102
{ACAD_REACTORS
330
C
102
}
330
C
100
AcDbDictionary
281
     1
  3
Model
350
21F3
  3
ﾚｲｱｳﾄ1
350
21F4
  0
DICTIONARY
  5
513CF
102
{ACAD_REACTORS
330
C
102
}
330
C
100
AcDbDictionary
281
     1
  3
ByBlock
350
513D8
  3
ByLayer
350
513D0
  3
Global
350
513E0
  0
DICTIONARY
  5
5141E
102
{ACAD_REACTORS
330
C
102
}
330
C
100
AcDbDictionary
281
     1
  3
Standard
350
5141F
  0
DICTIONARY
  5
1B
102
{ACAD_REACTORS
330
C
102
}
330
C
100
AcDbDictionary
281
     1
  3
STANDARD
350
1C
  0
DICTIONARY
  5
21F2
102
{ACAD_REACTORS
330
C
102
}
330
C
100
AcDbDictionary
281
     1
  0
ACDBDICTIONARYWDFLT
  5
21EF
102
{ACAD_REACTORS
330
C
102
}
330
C
100
AcDbDictionary
281
     1
  3
Normal
350
21F0
100
AcDbDictionaryWithDefault
340
21F0
  0
DICTIONARY
  5
513FC
102
{ACAD_REACTORS
330
C
102
}
330
C
100
AcDbDictionary
281
     1
  3
A0
350
513FD
  3
A1
350
513FE
  3
A2
350
513FF
  3
A3
350
51400
  3
A4
350
51401
  3
A5
350
51402
  3
A6
350
51403
  3
A7
350
51404
  3
A8
350
51405
  3
A9
350
51406
  3
B0
350
51407
  3
B1
350
51408
  3
B2
350
51409
  3
B3
350
5140A
  3
B4
350
5140B
  3
B5
350
5140C
  3
B6
350
5140D
  3
B7
350
5140E
  3
B8
350
5140F
  3
B9
350
51410
  3
C0
350
51411
  3
C1
350
51412
  3
C2
350
51413
  3
C3
350
51414
  3
C4
350
51415
  3
C5
350
51416
  3
C6
350
51417
  3
C7
350
51418
  3
C8
350
51419
  3
C9
350
5141A
  3
D0
350
5141B
  3
D1
350
5141C
  3
D2
350
5141D
  0
DICTIONARY
  5
99246
102
{ACAD_REACTORS
330
C
102
}
330
C
100
AcDbDictionary
281
     1
  3
Imperial24
350
99247
  0
DICTIONARY
  5
513FA
102
{ACAD_REACTORS
330
C
102
}
330
C
100
AcDbDictionary
281
     1
  3
Standard
350
513FB
  0
DICTIONARY
  5
513E8
102
{ACAD_REACTORS
330
C
102
}
330
C
100
AcDbDictionary
281
     1
  3
2dWireframe
350
513EE
  3
3D Hidden
350
513F0
  3
3dWireframe
350
513EF
  3
Basic
350
513ED
  3
Brighten
350
513F4
  3
ColorChange
350
513F8
  3
Conceptual
350
513F1
  3
Dim
350
513F3
  3
EdgeColorOff
350
70D09
  3
Facepattern
350
513F7
  3
Flat
350
513E9
  3
FlatWithEdges
350
513EA
  3
Gouraud
350
513EB
  3
GouraudWithEdges
350
513EC
  3
Hidden
350
70D01
  3
JitterOff
350
70D07
  3
Linepattern
350
513F6
  3
OverhangOff
350
70D08
  3
Realistic
350
513F2
  3
Shaded
350
70D06
  3
Shaded with edges
350
70D05
  3
Shades of Gray
350
70D02
  3
Sketchy
350
70D03
  3
Thicken
350
513F5
  3
Wireframe
350
70D00
  3
X-Ray
350
70D04
  0
XRECORD
  5
956CE
102
{ACAD_REACTORS
330
C
102
}
330
C
100
AcDbXrecord
280
     1
 90
   990106
  3

 60
     0
 61
     0
 62
     1
 63
     3
 64
     0
 65
     0
 66
     0
 67
     3
 68
     1
 69
     0
 70
     0
 71
     0
 72
     0
 40
0.0
170
     0
  0
XRECORD
  5
994BD
102
{ACAD_REACTORS
330
C
102
}
330
C
100
AcDbXrecord
280
     1
 90
        1
330
513FB
  0
DICTIONARY
  5
28B1
102
{ACAD_REACTORS
330
C
102
}
330
C
100
AcDbDictionary
281
     1
  3
CANNOSCALE
350
51480
  3
CMLEADERSTYLE
350
5147E
  3
CTABLESTYLE
350
5147D
  3
CVIEWDETAILSTYLE
350
994B9
  3
CVIEWSECTIONSTYLE
350
994BA
  3
DIMASSOC
350
5135B
  3
INDEXCTL
350
70D55
  3
LIGHTINGUNITS
350
51481
  3
MSLTSCALE
350
5147F
  3
SOLIDHIST
350
70D57
  3
SORTENTS
350
28B2
  3
XCLIPFRAME
350
994BB
  0
XRECORD
  5
994BE
102
{ACAD_REACTORS
330
C
102
}
330
C
100
AcDbXrecord
280
     1
  1
DWGPROPS COOKIE
  2

  3

  4

  6

  7

  8
prohiokamot
  9

300
=
301
=
302
=
303
=
304
=
305
=
306
=
307
=
308
=
309
=
 40
1.637993067129629
 41
2455902.607164352
 42
2456945.448819445
  1

 90
        0
  0
DICTIONARY
  5
6ADDC
102
{ACAD_REACTORS
330
5148D
102
}
330
5148D
100
AcDbDictionary
281
     1
  0
DICTIONARY
  5
6B6C9
102
{ACAD_REACTORS
330
5148D
102
}
330
5148D
100
AcDbDictionary
281
     1
  0
DICTIONARY
  5
6ADDB
102
{ACAD_REACTORS
330
5148D
102
}
330
5148D
100
AcDbDictionary
281
     1
1001
ACAD
1000
<All
  0
XRECORD
  5
5144D
102
{ACAD_REACTORS
330
5144C
102
}
330
5144C
100
AcDbXrecord
280
     1
290
     1
  0
XRECORD
  5
5144F
102
{ACAD_REACTORS
330
5144E
102
}
330
5144E
100
AcDbXrecord
280
     1
290
     1
  0
XRECORD
  5
51451
102
{ACAD_REACTORS
330
51450
102
}
330
51450
100
AcDbXrecord
280
     1
290
     1
  0
XRECORD
  5
51453
102
{ACAD_REACTORS
330
51452
102
}
330
51452
100
AcDbXrecord
280
     1
290
     1
  0
XRECORD
  5
51455
102
{ACAD_REACTORS
330
51454
102
}
330
51454
100
AcDbXrecord
280
     1
290
     1
  0
XRECORD
  5
51457
102
{ACAD_REACTORS
330
51456
102
}
330
51456
100
AcDbXrecord
280
     1
290
     1
  0
XRECORD
  5
51459
102
{ACAD_REACTORS
330
51458
102
}
330
51458
100
AcDbXrecord
280
     1
290
     1
  0
XRECORD
  5
5145B
102
{ACAD_REACTORS
330
5145A
102
}
330
5145A
100
AcDbXrecord
280
     1
290
     1
  0
XRECORD
  5
5145D
102
{ACAD_REACTORS
330
5145C
102
}
330
5145C
100
AcDbXrecord
280
     1
290
     1
  0
XRECORD
  5
2DF14
102
{ACAD_REACTORS
330
28B3
102
}
330
28B3
100
AcDbXrecord
280
     1
340
18
  0
SORTENTSTABLE
  5
28B4
102
{ACAD_REACTORS
330
28B3
102
}
330
28B3
100
AcDbSortentsTable
330
18
331
99388
  5
99388
331
9939D
  5
9939D
331
9937B
  5
9937B
331
99359
  5
99359
331
9939A
  5
9939A
331
99389
  5
99389
331
99378
  5
99378
331
99366
  5
99366
331
9939B
  5
9939B
331
99379
  5
99379
331
99367
  5
99367
331
99356
  5
99356
331
99386
  5
99386
331
99364
  5
99364
331
99398
  5
99398
331
99357
  5
99357
331
99399
  5
99399
331
99387
  5
99387
331
99376
  5
99376
331
99365
  5
99365
331
99354
  5
99354
331
99384
  5
99384
331
99362
  5
99362
331
993A6
  5
993A6
331
99377
  5
99377
331
99355
  5
99355
331
993A7
  5
993A7
331
99396
  5
99396
331
99385
  5
99385
331
99374
  5
99374
331
99363
  5
99363
331
99352
  5
99352
331
99382
  5
99382
331
99360
  5
99360
331
993A4
  5
993A4
331
99397
  5
99397
331
99375
  5
99375
331
99353
  5
99353
331
9934E
  5
9934E
331
993A5
  5
993A5
331
99394
  5
99394
331
99383
  5
99383
331
99372
  5
99372
331
99361
  5
99361
331
99350
  5
99350
331
9934F
  5
9934F
331
99380
  5
99380
331
993A2
  5
993A2
331
99395
  5
99395
331
99373
  5
99373
331
99351
  5
99351
331
9936E
  5
9936E
331
993A3
  5
993A3
331
99392
  5
99392
331
99381
  5
99381
331
99370
  5
99370
331
9936F
  5
9936F
331
9935E
  5
9935E
331
9934D
  5
9934D
331
993A0
  5
993A0
331
99393
  5
99393
331
99371
  5
99371
331
9938E
  5
9938E
331
9936C
  5
9936C
331
9935F
  5
9935F
331
993A1
  5
993A1
331
99390
  5
99390
331
9938F
  5
9938F
331
9937E
  5
9937E
331
9936D
  5
9936D
331
9935C
  5
9935C
331
99391
  5
99391
331
9938C
  5
9938C
331
9936A
  5
9936A
331
9937F
  5
9937F
331
9935D
  5
9935D
331
9939E
  5
9939E
331
9938D
  5
9938D
331
9937C
  5
9937C
331
9936B
  5
9936B
331
9935A
  5
9935A
331
9938A
  5
9938A
331
99368
  5
99368
331
9939F
  5
9939F
331
9937D
  5
9937D
331
9935B
  5
9935B
331
9939C
  5
9939C
331
9938B
  5
9938B
331
9937A
  5
9937A
331
99369
  5
99369
331
99358
  5
99358
  0
XRECORD
  5
2DF13
102
{ACAD_REACTORS
330
29B6
102
}
330
29B6
100
AcDbXrecord
280
     1
340
15
  0
SORTENTSTABLE
  5
99348
102
{ACAD_REACTORS
330
99347
102
}
330
99347
100
AcDbSortentsTable
330
992EB
  0
ACDBDETAILVIEWSTYLE
  5
99249
102
{ACAD_XDICTIONARY
360
994FD
102
}
102
{ACAD_REACTORS
330
99248
102
}
330
99248
100
AcDbModelDocViewStyle
 70
     0
  3
Imperial24
290
     0
100
AcDbDetailViewStyle
 70
     0
 71
     0
 90
        3
 71
     1
340
F
 40
0.24
340
0
 40
0.24
300

 40
0.36
280
     3
 71
     2
340
14
 90
       25
 71
     3
340
F
 40
0.24
 90
        1
 40
0.75
 90
        1
300
%<\AcVar ViewType \f "%tc1">% %<\AcVar ViewDetailId>%\PSCALE %<\AcVar ViewScale \f "%sn">%
 71
     4
340
14
 90
       25
340
14
 90
       25
280
     0
  0
LAYOUT
  5
21F3
102
{ACAD_XDICTIONARY
360
994BF
102
}
102
{ACAD_REACTORS
330
21F1
102
}
330
21F1
100
AcDbPlotSettings
  1

  2
EPSON LP-8900
  4
A3
  6
ALL
 40
5.873749732971191
 41
5.873747825622558
 42
5.873748779296875
 43
5.873748779296875
 44
297.0106506347656
 45
419.9466552734374
 46
0.0
 47
0.0
 48
0.0
 49
0.0
140
0.0
141
0.0
142
1.0
143
23.97224744678097
 70
 28336
 72
     1
 73
     0
 74
     1
  7
monochrome.ctb
 75
     0
147
0.0417149039621766
148
1727.082272710941
149
4319.051803274116
100
AcDbLayout
  1
Model
 70
     1
 71
     0
 10
0.0
 20
0.0
 11
12.0
 21
9.0
 12
0.0
 22
0.0
 32
0.0
 14
0.0
 24
0.0
 34
0.0
 15
0.0
 25
0.0
 35
0.0
146
0.0
 13
0.0
 23
0.0
 33
0.0
 16
1.0
 26
0.0
 36
0.0
 17
0.0
 27
1.0
 37
0.0
 76
     0
330
18
331
513CD
  0
LAYOUT
  5
21F4
102
{ACAD_XDICTIONARY
360
994C1
102
}
102
{ACAD_REACTORS
330
21F1
102
}
330
21F1
100
AcDbPlotSettings
  1

  2
DocuCentre 505
  4

  6

 40
0.0
 41
0.0
 42
0.0
 43
0.0
 44
0.0
 45
0.0
 46
0.0
 47
0.0
 48
0.0
 49
0.0
140
0.0
141
0.0
142
1.0
143
1.0
 70
   688
 72
     0
 73
     0
 74
     5
  7
monochrome.ctb
 75
    16
147
1.0
148
0.0
149
0.0
100
AcDbLayout
  1
ﾚｲｱｳﾄ1
 70
     1
 71
     1
 10
0.0
 20
0.0
 11
12.0
 21
9.0
 12
0.0
 22
0.0
 32
0.0
 14
1.000000000000000E+20
 24
1.000000000000000E+20
 34
1.000000000000000E+20
 15
-1.000000000000000E+20
 25
-1.000000000000000E+20
 35
-1.000000000000000E+20
146
0.0
 13
0.0
 23
0.0
 33
0.0
 16
1.0
 26
0.0
 36
0.0
 17
0.0
 27
1.0
 37
0.0
 76
     0
330
15
  0
MATERIAL
  5
513D8
102
{ACAD_XDICTIONARY
360
513D9
102
}
102
{ACAD_REACTORS
330
513CF
102
}
330
513CF
100
AcDbMaterial
  1
ByBlock
 72
     0
 43
0.0208333333333333
 43
0.0
 43
0.0
 43
0.0
 43
0.0
 43
0.0208333333333333
 43
0.0
 43
0.0
 43
0.0
 43
0.0
 43
1.0
 43
0.0
 43
0.0
 43
0.0
 43
0.0
 43
1.0
 77
     0
 47
0.0208333333333333
 47
0.0
 47
0.0
 47
0.0
 47
0.0
 47
0.0208333333333333
 47
0.0
 47
0.0
 47
0.0
 47
0.0
 47
1.0
 47
0.0
 47
0.0
 47
0.0
 47
0.0
 47
1.0
171
     0
 49
0.0208333333333333
 49
0.0
 49
0.0
 49
0.0
 49
0.0
 49
0.0208333333333333
 49
0.0
 49
0.0
 49
0.0
 49
0.0
 49
1.0
 49
0.0
 49
0.0
 49
0.0
 49
0.0
 49
1.0
175
     0
142
0.0208333333333333
142
0.0
142
0.0
142
0.0
142
0.0
142
0.0208333333333333
142
0.0
142
0.0
142
0.0
142
0.0
142
1.0
142
0.0
142
0.0
142
0.0
142
0.0
142
1.0
179
     0
144
0.0208333333333333
144
0.0
144
0.0
144
0.0
144
0.0
144
0.0208333333333333
144
0.0
144
0.0
144
0.0
144
0.0
144
1.0
144
0.0
144
0.0
144
0.0
144
0.0
144
1.0
147
0.0208333333333333
147
0.0
147
0.0
147
0.0
147
0.0
147
0.0208333333333333
147
0.0
147
0.0
147
0.0
147
0.0
147
1.0
147
0.0
147
0.0
147
0.0
147
0.0
147
1.0
  0
MATERIAL
  5
513D0
102
{ACAD_XDICTIONARY
360
513D1
102
}
102
{ACAD_REACTORS
330
513CF
102
}
330
513CF
100
AcDbMaterial
  1
ByLayer
 72
     0
 43
0.0208333333333333
 43
0.0
 43
0.0
 43
0.0
 43
0.0
 43
0.0208333333333333
 43
0.0
 43
0.0
 43
0.0
 43
0.0
 43
1.0
 43
0.0
 43
0.0
 43
0.0
 43
0.0
 43
1.0
 77
     0
 47
0.0208333333333333
 47
0.0
 47
0.0
 47
0.0
 47
0.0
 47
0.0208333333333333
 47
0.0
 47
0.0
 47
0.0
 47
0.0
 47
1.0
 47
0.0
 47
0.0
 47
0.0
 47
0.0
 47
1.0
171
     0
 49
0.0208333333333333
 49
0.0
 49
0.0
 49
0.0
 49
0.0
 49
0.0208333333333333
 49
0.0
 49
0.0
 49
0.0
 49
0.0
 49
1.0
 49
0.0
 49
0.0
 49
0.0
 49
0.0
 49
1.0
175
     0
142
0.0208333333333333
142
0.0
142
0.0
142
0.0
142
0.0
142
0.0208333333333333
142
0.0
142
0.0
142
0.0
142
0.0
142
1.0
142
0.0
142
0.0
142
0.0
142
0.0
142
1.0
179
     0
144
0.0208333333333333
144
0.0
144
0.0
144
0.0
144
0.0
144
0.0208333333333333
144
0.0
144
0.0
144
0.0
144
0.0
144
1.0
144
0.0
144
0.0
144
0.0
144
0.0
144
1.0
147
0.0208333333333333
147
0.0
147
0.0
147
0.0
147
0.0
147
0.0208333333333333
147
0.0
147
0.0
147
0.0
147
0.0
147
1.0
147
0.0
147
0.0
147
0.0
147
0.0
147
1.0
  0
MATERIAL
  5
513E0
102
{ACAD_XDICTIONARY
360
513E1
102
}
102
{ACAD_REACTORS
330
513CF
102
}
330
513CF
100
AcDbMaterial
  1
Global
 72
     0
 43
0.0208333333333333
 43
0.0
 43
0.0
 43
0.0
 43
0.0
 43
0.0208333333333333
 43
0.0
 43
0.0
 43
0.0
 43
0.0
 43
1.0
 43
0.0
 43
0.0
 43
0.0
 43
0.0
 43
1.0
 77
     0
 47
0.0208333333333333
 47
0.0
 47
0.0
 47
0.0
 47
0.0
 47
0.0208333333333333
 47
0.0
 47
0.0
 47
0.0
 47
0.0
 47
1.0
 47
0.0
 47
0.0
 47
0.0
 47
0.0
 47
1.0
171
     0
 49
0.0208333333333333
 49
0.0
 49
0.0
 49
0.0
 49
0.0
 49
0.0208333333333333
 49
0.0
 49
0.0
 49
0.0
 49
0.0
 49
1.0
 49
0.0
 49
0.0
 49
0.0
 49
0.0
 49
1.0
175
     0
142
0.0208333333333333
142
0.0
142
0.0
142
0.0
142
0.0
142
0.0208333333333333
142
0.0
142
0.0
142
0.0
142
0.0
142
1.0
142
0.0
142
0.0
142
0.0
142
0.0
142
1.0
179
     0
144
0.0208333333333333
144
0.0
144
0.0
144
0.0
144
0.0
144
0.0208333333333333
144
0.0
144
0.0
144
0.0
144
0.0
144
1.0
144
0.0
144
0.0
144
0.0
144
0.0
144
1.0
147
0.0208333333333333
147
0.0
147
0.0
147
0.0
147
0.0
147
0.0208333333333333
147
0.0
147
0.0
147
0.0
147
0.0
147
1.0
147
0.0
147
0.0
147
0.0
147
0.0
147
1.0
  0
MLEADERSTYLE
  5
5141F
102
{ACAD_REACTORS
330
5141E
102
}
330
5141E
100
AcDbMLeaderStyle
170
     2
171
     1
172
     0
 90
        2
 40
0.0
 41
0.0
173
     1
 91
-1056964608
340
12
 92
       -2
290
     1
 42
0.09
291
     1
 43
0.36
  3
Standard
 44
0.18
300

342
F
174
     1
178
     6
175
     1
176
     0
 93
-1056964608
 45
0.18
292
     0
297
     0
 46
0.18
 94
-1056964608
 47
1.0
 49
1.0
140
1.0
293
     1
141
0.0
294
     1
177
     0
142
1.0
295
     0
296
     0
143
0.125
1001
ACAD_MLEADERVER
1070
     2
  0
MLINESTYLE
  5
1C
102
{ACAD_REACTORS
330
1B
102
}
330
1B
100
AcDbMlineStyle
  2
STANDARD
 70
     0
  3

 62
   256
 51
90.0
 52
90.0
 71
     2
 49
0.5
 62
   256
  6
BYLAYER
 49
-0.5
 62
   256
  6
BYLAYER
  0
ACDBPLACEHOLDER
  5
21F0
102
{ACAD_REACTORS
330
21EF
102
}
330
21EF
  0
SCALE
  5
513FD
102
{ACAD_REACTORS
330
513FC
102
}
330
513FC
100
AcDbScale
 70
     0
300
1:1
140
1.0
141
1.0
290
     1
  0
SCALE
  5
513FE
102
{ACAD_REACTORS
330
513FC
102
}
330
513FC
100
AcDbScale
 70
     0
300
1:2
140
1.0
141
2.0
290
     0
  0
SCALE
  5
513FF
102
{ACAD_REACTORS
330
513FC
102
}
330
513FC
100
AcDbScale
 70
     0
300
1:4
140
1.0
141
4.0
290
     0
  0
SCALE
  5
51400
102
{ACAD_REACTORS
330
513FC
102
}
330
513FC
100
AcDbScale
 70
     0
300
1:5
140
1.0
141
5.0
290
     0
  0
SCALE
  5
51401
102
{ACAD_REACTORS
330
513FC
102
}
330
513FC
100
AcDbScale
 70
     0
300
1:8
140
1.0
141
8.0
290
     0
  0
SCALE
  5
51402
102
{ACAD_REACTORS
330
513FC
102
}
330
513FC
100
AcDbScale
 70
     0
300
1:10
140
1.0
141
10.0
290
     0
  0
SCALE
  5
51403
102
{ACAD_REACTORS
330
513FC
102
}
330
513FC
100
AcDbScale
 70
     0
300
1:16
140
1.0
141
16.0
290
     0
  0
SCALE
  5
51404
102
{ACAD_REACTORS
330
513FC
102
}
330
513FC
100
AcDbScale
 70
     0
300
1:20
140
1.0
141
20.0
290
     0
  0
SCALE
  5
51405
102
{ACAD_REACTORS
330
513FC
102
}
330
513FC
100
AcDbScale
 70
     0
300
1:30
140
1.0
141
30.0
290
     0
  0
SCALE
  5
51406
102
{ACAD_REACTORS
330
513FC
102
}
330
513FC
100
AcDbScale
 70
     0
300
1:40
140
1.0
141
40.0
290
     0
  0
SCALE
  5
51407
102
{ACAD_REACTORS
330
513FC
102
}
330
513FC
100
AcDbScale
 70
     0
300
1:50
140
1.0
141
50.0
290
     0
  0
SCALE
  5
51408
102
{ACAD_REACTORS
330
513FC
102
}
330
513FC
100
AcDbScale
 70
     0
300
1:100
140
1.0
141
100.0
290
     0
  0
SCALE
  5
51409
102
{ACAD_REACTORS
330
513FC
102
}
330
513FC
100
AcDbScale
 70
     0
300
2:1
140
2.0
141
1.0
290
     0
  0
SCALE
  5
5140A
102
{ACAD_REACTORS
330
513FC
102
}
330
513FC
100
AcDbScale
 70
     0
300
4:1
140
4.0
141
1.0
290
     0
  0
SCALE
  5
5140B
102
{ACAD_REACTORS
330
513FC
102
}
330
513FC
100
AcDbScale
 70
     0
300
8:1
140
8.0
141
1.0
290
     0
  0
SCALE
  5
5140C
102
{ACAD_REACTORS
330
513FC
102
}
330
513FC
100
AcDbScale
 70
     0
300
10:1
140
10.0
141
1.0
290
     0
  0
SCALE
  5
5140D
102
{ACAD_REACTORS
330
513FC
102
}
330
513FC
100
AcDbScale
 70
     0
300
100:1
140
100.0
141
1.0
290
     0
  0
SCALE
  5
5140E
102
{ACAD_REACTORS
330
513FC
102
}
330
513FC
100
AcDbScale
 70
     0
300
1/128" = 1'-0"
140
0.0078125
141
12.0
290
     0
  0
SCALE
  5
5140F
102
{ACAD_REACTORS
330
513FC
102
}
330
513FC
100
AcDbScale
 70
     0
300
1/64" = 1'-0"
140
0.015625
141
12.0
290
     0
  0
SCALE
  5
51410
102
{ACAD_REACTORS
330
513FC
102
}
330
513FC
100
AcDbScale
 70
     0
300
1/32" = 1'-0"
140
0.03125
141
12.0
290
     0
  0
SCALE
  5
51411
102
{ACAD_REACTORS
330
513FC
102
}
330
513FC
100
AcDbScale
 70
     0
300
1/16" = 1'-0"
140
0.0625
141
12.0
290
     0
  0
SCALE
  5
51412
102
{ACAD_REACTORS
330
513FC
102
}
330
513FC
100
AcDbScale
 70
     0
300
3/32" = 1'-0"
140
0.09375
141
12.0
290
     0
  0
SCALE
  5
51413
102
{ACAD_REACTORS
330
513FC
102
}
330
513FC
100
AcDbScale
 70
     0
300
1/8" = 1'-0"
140
0.125
141
12.0
290
     0
  0
SCALE
  5
51414
102
{ACAD_REACTORS
330
513FC
102
}
330
513FC
100
AcDbScale
 70
     0
300
3/16" = 1'-0"
140
0.1875
141
12.0
290
     0
  0
SCALE
  5
51415
102
{ACAD_REACTORS
330
513FC
102
}
330
513FC
100
AcDbScale
 70
     0
300
1/4" = 1'-0"
140
0.25
141
12.0
290
     0
  0
SCALE
  5
51416
102
{ACAD_REACTORS
330
513FC
102
}
330
513FC
100
AcDbScale
 70
     0
300
3/8" = 1'-0"
140
0.375
141
12.0
290
     0
  0
SCALE
  5
51417
102
{ACAD_REACTORS
330
513FC
102
}
330
513FC
100
AcDbScale
 70
     0
300
1/2" = 1'-0"
140
0.5
141
12.0
290
     0
  0
SCALE
  5
51418
102
{ACAD_REACTORS
330
513FC
102
}
330
513FC
100
AcDbScale
 70
     0
300
3/4" = 1'-0"
140
0.75
141
12.0
290
     0
  0
SCALE
  5
51419
102
{ACAD_REACTORS
330
513FC
102
}
330
513FC
100
AcDbScale
 70
     0
300
1" = 1'-0"
140
1.0
141
12.0
290
     0
  0
SCALE
  5
5141A
102
{ACAD_REACTORS
330
513FC
102
}
330
513FC
100
AcDbScale
 70
     0
300
1-1/2" = 1'-0"
140
1.5
141
12.0
290
     0
  0
SCALE
  5
5141B
102
{ACAD_REACTORS
330
513FC
102
}
330
513FC
100
AcDbScale
 70
     0
300
3" = 1'-0"
140
3.0
141
12.0
290
     0
  0
SCALE
  5
5141C
102
{ACAD_REACTORS
330
513FC
102
}
330
513FC
100
AcDbScale
 70
     0
300
6" = 1'-0"
140
6.0
141
12.0
290
     0
  0
SCALE
  5
5141D
102
{ACAD_REACTORS
330
513FC
102
}
330
513FC
100
AcDbScale
 70
     0
300
1'-0" = 1'-0"
140
12.0
141
12.0
290
     0
  0
ACDBSECTIONVIEWSTYLE
  5
99247
102
{ACAD_XDICTIONARY
360
994FB
102
}
102
{ACAD_REACTORS
330
99246
102
}
330
99246
100
AcDbModelDocViewStyle
 70
     0
  3
Imperial24
290
     0
100
AcDbSectionViewStyle
 70
     0
 71
     0
 90
       78
 71
     1
340
F
 40
0.24
340
0
340
0
 40
0.24
300
I, O, Q, S, X, Z
 40
0.48
 90
        3
 40
0.18
 90
        1
 71
     2
340
14
 90
       25
340
14
 90
       50
 40
0.24
 40
0.0
 40
0.24
 71
     3
340
F
 40
0.24
 90
        1
 40
0.75
 90
        1
300
%<\AcVar ViewType \f "%tc1">% %<\AcVar ViewSectionStartId>%-%<\AcVar ViewSectionEndId>%\PSCALE %<\AcVar ViewScale \f "%sn">%
 71
     4
300
ANSI31
 40
1.0
 90
        0
290
     0
290
     0
 90
        6
 40
0.0
 40
1.570796326794896
 40
0.2617993877991494
 40
1.308996938995747
 40
-0.2617993877991494
 40
1.832595714594046
  0
TABLESTYLE
  5
513FB
102
{ACAD_XDICTIONARY
360
5147A
102
}
102
{ACAD_REACTORS
330
513FA
102
}
330
513FA
100
AcDbTableStyle
  3
Standard
 70
     0
 71
     0
 40
0.06
 41
0.06
280
     0
281
     0
  7
STANDARD
140
0.18
170
     2
 62
     0
 63
     7
283
     0
274
    -2
284
     1
 64
     0
275
    -2
285
     1
 65
     0
276
    -2
286
     1
 66
     0
277
    -2
287
     1
 67
     0
278
    -2
288
     1
 68
     0
279
    -2
289
     1
 69
     0
  7
STANDARD
140
0.25
170
     5
 62
     0
 63
     7
283
     0
274
    -2
284
     1
 64
     0
275
    -2
285
     1
 65
     0
276
    -2
286
     1
 66
     0
277
    -2
287
     1
 67
     0
278
    -2
288
     1
 68
     0
279
    -2
289
     1
 69
     0
  7
STANDARD
140
0.18
170
     5
 62
     0
 63
     7
283
     0
274
    -2
284
     1
 64
     0
275
    -2
285
     1
 65
     0
276
    -2
286
     1
 66
     0
277
    -2
287
     1
 67
     0
278
    -2
288
     1
 68
     0
279
    -2
289
     1
 69
     0
  0
VISUALSTYLE
  5
513EE
102
{ACAD_XDICTIONARY
360
994D0
102
}
102
{ACAD_REACTORS
330
513E8
102
}
330
513E8
100
AcDbVisualStyle
  2
2dWireframe
 70
     4
 71
     0
 72
     2
 73
     0
 90
        0
 40
-0.6
 41
-30.0
 62
     5
 63
     7
 74
     1
 91
        4
 64
     7
 65
   257
 75
     1
175
     1
 42
1.0
 92
        0
 66
   257
 43
1.0
 76
     1
 77
     6
 78
     2
 67
     7
 79
     5
170
     0
171
     0
290
     0
174
     0
 93
        1
 44
0.0
173
     0
291
     0
 45
0.0
1001
ACAD
1000
AcDbSavedByObjectVersion
1070
     0
  0
VISUALSTYLE
  5
513F0
102
{ACAD_XDICTIONARY
360
994D4
102
}
102
{ACAD_REACTORS
330
513E8
102
}
330
513E8
100
AcDbVisualStyle
  2
3D Hidden
 70
     6
 71
     1
 72
     2
 73
     2
 90
        0
 40
-0.6
 41
-30.0
 62
     5
 63
     7
 74
     2
 91
        2
 64
     7
 65
   257
 75
     2
175
     1
 42
40.0
 92
        0
 66
   257
 43
1.0
 76
     1
 77
     6
 78
     2
 67
     7
 79
     3
170
     0
171
     0
290
     0
174
     0
 93
        1
 44
0.0
173
     0
291
     0
 45
0.0
1001
ACAD
1000
AcDbSavedByObjectVersion
1070
     0
  0
VISUALSTYLE
  5
513EF
102
{ACAD_XDICTIONARY
360
994D2
102
}
102
{ACAD_REACTORS
330
513E8
102
}
330
513E8
100
AcDbVisualStyle
  2
3dWireframe
 70
     5
 71
     0
 72
     2
 73
     0
 90
        0
 40
-0.6
 41
-30.0
 62
     5
 63
     7
 74
     1
 91
        4
 64
     7
 65
   257
 75
     1
175
     1
 42
1.0
 92
        0
 66
   257
 43
1.0
 76
     1
 77
     6
 78
     2
 67
     7
 79
     5
170
     0
171
     0
290
     0
174
     0
 93
        1
 44
0.0
173
     0
291
     0
 45
0.0
1001
ACAD
1000
AcDbSavedByObjectVersion
1070
     0
  0
VISUALSTYLE
  5
513ED
102
{ACAD_XDICTIONARY
360
994CE
102
}
102
{ACAD_REACTORS
330
513E8
102
}
330
513E8
100
AcDbVisualStyle
  2
Basic
 70
     7
 71
     1
 72
     0
 73
     1
 90
        0
 40
-0.6
 41
-30.0
 62
     5
 63
     7
 74
     0
 91
        4
 64
     7
 65
   257
 75
     1
175
     1
 42
1.0
 92
        8
 66
     7
 43
1.0
 76
     1
 77
     6
 78
     2
 67
     7
 79
     5
170
     0
171
     0
290
     0
174
     0
 93
        1
 44
0.0
173
     0
291
     1
 45
0.0
1001
ACAD
1000
AcDbSavedByObjectVersion
1070
     0
  0
VISUALSTYLE
  5
513F4
102
{ACAD_XDICTIONARY
360
994DC
102
}
102
{ACAD_REACTORS
330
513E8
102
}
330
513E8
100
AcDbVisualStyle
  2
Brighten
 70
    12
 71
     2
 72
     2
 73
     0
 90
        0
 40
-0.6
 41
-30.0
 62
     5
 63
     7
 74
     1
 91
        4
 64
     7
 65
   257
 75
     1
175
     1
 42
1.0
 92
        8
 66
     7
 43
1.0
 76
     1
 77
     6
 78
     2
 67
     7
 79
     5
170
     0
171
     0
290
     0
174
     0
 93
        1
 44
50.0
173
     0
291
     1
 45
0.0
1001
ACAD
1000
AcDbSavedByObjectVersion
1070
     0
  0
VISUALSTYLE
  5
513F8
102
{ACAD_XDICTIONARY
360
994E4
102
}
102
{ACAD_REACTORS
330
513E8
102
}
330
513E8
100
AcDbVisualStyle
  2
ColorChange
 70
    16
 71
     2
 72
     2
 73
     3
 90
        0
 40
-0.6
 41
-30.0
 62
     5
 63
     8
 74
     1
 91
        4
 64
     7
 65
   257
 75
     1
175
     1
 42
1.0
 92
        8
 66
     8
 43
1.0
 76
     1
 77
     6
 78
     2
 67
     7
 79
     5
170
     0
171
     0
290
     0
174
     0
 93
        1
 44
0.0
173
     0
291
     1
 45
0.0
1001
ACAD
1000
AcDbSavedByObjectVersion
1070
     0
  0
VISUALSTYLE
  5
513F1
102
{ACAD_XDICTIONARY
360
994D6
102
}
102
{ACAD_REACTORS
330
513E8
102
}
330
513E8
100
AcDbVisualStyle
  2
Conceptual
 70
     9
 71
     3
 72
     2
 73
     0
 90
        0
 40
-0.6
 41
-30.0
 62
     5
 63
     7
 74
     2
 91
        2
 64
     7
 65
   257
 75
     1
175
     1
 42
40.0
 92
        8
 66
     7
 43
1.0
 76
     1
 77
     6
 78
     2
 67
     7
 79
     3
170
     0
171
     0
290
     0
174
     0
 93
        1
 44
0.0
173
     0
291
     0
 45
0.0
1001
ACAD
1000
AcDbSavedByObjectVersion
1070
     0
  0
VISUALSTYLE
  5
513F3
102
{ACAD_XDICTIONARY
360
994DA
102
}
102
{ACAD_REACTORS
330
513E8
102
}
330
513E8
100
AcDbVisualStyle
  2
Dim
 70
    11
 71
     2
 72
     2
 73
     0
 90
        0
 40
-0.6
 41
-30.0
 62
     5
 63
     7
 74
     1
 91
        4
 64
     7
 65
   257
 75
     1
175
     1
 42
1.0
 92
        8
 66
     7
 43
1.0
 76
     1
 77
     6
 78
     2
 67
     7
 79
     5
170
     0
171
     0
290
     0
174
     0
 93
        1
 44
-50.0
173
     0
291
     1
 45
0.0
1001
ACAD
1000
AcDbSavedByObjectVersion
1070
     0
  0
VISUALSTYLE
  5
70D09
102
{ACAD_XDICTIONARY
360
994F9
102
}
102
{ACAD_REACTORS
330
513E8
102
}
330
513E8
100
AcDbVisualStyle
  2
EdgeColorOff
 70
    22
 71
     2
 72
     2
 73
     0
 90
        0
 40
-0.6
 41
-30.0
 62
     5
 63
     7
 74
     1
 91
        4
 64
     7
 65
   257
 75
     1
175
     1
 42
1.0
 92
        8
 66
     7
 43
1.0
 76
     1
 77
     6
 78
     2
 67
     7
 79
     5
170
     0
171
     0
290
     0
174
     0
 93
        1
 44
0.0
173
     0
291
     1
 45
0.0
1001
ACAD
1000
AcDbSavedByObjectVersion
1070
     0
  0
VISUALSTYLE
  5
513F7
102
{ACAD_XDICTIONARY
360
994E2
102
}
102
{ACAD_REACTORS
330
513E8
102
}
330
513E8
100
AcDbVisualStyle
  2
Facepattern
 70
    15
 71
     2
 72
     2
 73
     0
 90
        0
 40
-0.6
 41
-30.0
 62
     5
 63
     7
 74
     1
 91
        4
 64
     7
 65
   257
 75
     1
175
     1
 42
1.0
 92
        8
 66
     7
 43
1.0
 76
     1
 77
     6
 78
     2
 67
     7
 79
     5
170
     0
171
     0
290
     0
174
     0
 93
        1
 44
0.0
173
     0
291
     1
 45
0.0
1001
ACAD
1000
AcDbSavedByObjectVersion
1070
     0
  0
VISUALSTYLE
  5
513E9
102
{ACAD_XDICTIONARY
360
994C6
102
}
102
{ACAD_REACTORS
330
513E8
102
}
330
513E8
100
AcDbVisualStyle
  2
Flat
 70
     0
 71
     2
 72
     1
 73
     1
 90
        2
 40
-0.6
 41
30.0
 62
     5
 63
     7
 74
     0
 91
        4
 64
     7
 65
   257
 75
     1
175
     1
 42
1.0
 92
        8
 66
     7
 43
1.0
 76
     1
 77
     6
 78
     2
 67
     7
 79
     5
170
     0
171
     0
290
     0
174
     0
 93
       13
 44
0.0
173
     0
291
     1
 45
0.0
1001
ACAD
1000
AcDbSavedByObjectVersion
1070
     0
  0
VISUALSTYLE
  5
513EA
102
{ACAD_XDICTIONARY
360
994C8
102
}
102
{ACAD_REACTORS
330
513E8
102
}
330
513E8
100
AcDbVisualStyle
  2
FlatWithEdges
 70
     1
 71
     2
 72
     1
 73
     1
 90
        2
 40
-0.6
 41
30.0
 62
     5
 63
     7
 74
     1
 91
        4
 64
     7
 65
   257
 75
     1
175
     1
 42
1.0
 92
        0
 66
   257
 43
1.0
 76
     1
 77
     6
 78
     2
 67
     7
 79
     5
170
     0
171
     0
290
     0
174
     0
 93
       13
 44
0.0
173
     0
291
     1
 45
0.0
1001
ACAD
1000
AcDbSavedByObjectVersion
1070
     0
  0
VISUALSTYLE
  5
513EB
102
{ACAD_XDICTIONARY
360
994CA
102
}
102
{ACAD_REACTORS
330
513E8
102
}
330
513E8
100
AcDbVisualStyle
  2
Gouraud
 70
     2
 71
     2
 72
     2
 73
     1
 90
        2
 40
-0.6
 41
30.0
 62
     5
 63
     7
 74
     0
 91
        4
 64
     7
 65
   257
 75
     1
175
     1
 42
1.0
 92
        0
 66
     7
 43
1.0
 76
     1
 77
     6
 78
     2
 67
     7
 79
     5
170
     0
171
     0
290
     0
174
     0
 93
       13
 44
0.0
173
     0
291
     1
 45
0.0
1001
ACAD
1000
AcDbSavedByObjectVersion
1070
     0
  0
VISUALSTYLE
  5
513EC
102
{ACAD_XDICTIONARY
360
994CC
102
}
102
{ACAD_REACTORS
330
513E8
102
}
330
513E8
100
AcDbVisualStyle
  2
GouraudWithEdges
 70
     3
 71
     2
 72
     2
 73
     1
 90
        2
 40
-0.6
 41
30.0
 62
     5
 63
     7
 74
     1
 91
        4
 64
     7
 65
   257
 75
     1
175
     1
 42
1.0
 92
        0
 66
   257
 43
1.0
 76
     1
 77
     6
 78
     2
 67
     7
 79
     5
170
     0
171
     0
290
     0
174
     0
 93
       13
 44
0.0
173
     0
291
     1
 45
0.0
1001
ACAD
1000
AcDbSavedByObjectVersion
1070
     0
  0
VISUALSTYLE
  5
70D01
102
{ACAD_XDICTIONARY
360
994E9
102
}
102
{ACAD_REACTORS
330
513E8
102
}
330
513E8
100
AcDbVisualStyle
  2
Hidden
 70
     6
 71
     1
 72
     2
 73
     2
 90
        0
 40
-0.6
 41
-30.0
 62
     5
 63
     7
 74
     2
 91
        2
 64
     7
 65
   257
 75
     2
175
     1
 42
40.0
 92
        0
 66
   257
 43
1.0
 76
     1
 77
     6
 78
     2
 67
     7
 79
     3
170
     0
171
     0
290
     0
174
     0
 93
        1
 44
0.0
173
     0
291
     0
 45
0.0
1001
ACAD
1000
AcDbSavedByObjectVersion
1070
     0
  0
VISUALSTYLE
  5
70D07
102
{ACAD_XDICTIONARY
360
994F5
102
}
102
{ACAD_REACTORS
330
513E8
102
}
330
513E8
100
AcDbVisualStyle
  2
JitterOff
 70
    20
 71
     2
 72
     2
 73
     0
 90
        0
 40
-0.6
 41
-30.0
 62
     5
 63
     7
 74
     1
 91
        4
 64
     7
 65
   257
 75
     1
175
     1
 42
1.0
 92
       10
 66
     7
 43
1.0
 76
     1
 77
     6
 78
     2
 67
     7
 79
     5
170
     0
171
     0
290
     0
174
     0
 93
        1
 44
0.0
173
     0
291
     1
 45
0.0
1001
ACAD
1000
AcDbSavedByObjectVersion
1070
     0
  0
VISUALSTYLE
  5
513F6
102
{ACAD_XDICTIONARY
360
994E0
102
}
102
{ACAD_REACTORS
330
513E8
102
}
330
513E8
100
AcDbVisualStyle
  2
Linepattern
 70
    14
 71
     2
 72
     2
 73
     0
 90
        0
 40
-0.6
 41
-30.0
 62
     5
 63
     7
 74
     1
 91
        4
 64
     7
 65
   257
 75
     7
175
     7
 42
1.0
 92
        8
 66
     7
 43
1.0
 76
     1
 77
     6
 78
     2
 67
     7
 79
     5
170
     0
171
     0
290
     0
174
     0
 93
        1
 44
0.0
173
     0
291
     1
 45
0.0
1001
ACAD
1000
AcDbSavedByObjectVersion
1070
     0
  0
VISUALSTYLE
  5
70D08
102
{ACAD_XDICTIONARY
360
994F7
102
}
102
{ACAD_REACTORS
330
513E8
102
}
330
513E8
100
AcDbVisualStyle
  2
OverhangOff
 70
    21
 71
     2
 72
     2
 73
     0
 90
        0
 40
-0.6
 41
-30.0
 62
     5
 63
     7
 74
     1
 91
        4
 64
     7
 65
   257
 75
     1
175
     1
 42
1.0
 92
        9
 66
     7
 43
1.0
 76
     1
 77
     6
 78
     2
 67
     7
 79
     5
170
     0
171
     0
290
     0
174
     0
 93
        1
 44
0.0
173
     0
291
     1
 45
0.0
1001
ACAD
1000
AcDbSavedByObjectVersion
1070
     0
  0
VISUALSTYLE
  5
513F2
102
{ACAD_XDICTIONARY
360
994D8
102
}
102
{ACAD_REACTORS
330
513E8
102
}
330
513E8
100
AcDbVisualStyle
  2
Realistic
 70
     8
 71
     2
 72
     2
 73
     0
 90
        0
 40
-0.6
 41
-30.0
 62
     5
 63
     7
 74
     1
 91
        0
 64
     7
 65
   257
 75
     1
175
     1
 42
1.0
 92
        8
 66
     8
 43
1.0
 76
     1
 77
     6
 78
     2
 67
     7
 79
     5
170
     0
171
     0
290
     0
174
     0
 93
       13
 44
0.0
173
     0
291
     0
 45
0.0
1001
ACAD
1000
AcDbSavedByObjectVersion
1070
     0
  0
VISUALSTYLE
  5
70D06
102
{ACAD_XDICTIONARY
360
994F3
102
}
102
{ACAD_REACTORS
330
513E8
102
}
330
513E8
100
AcDbVisualStyle
  2
Shaded
 70
    27
 71
     2
 72
     2
 73
     1
 90
        2
 40
-0.6
 41
30.0
 62
     5
 63
     7
 74
     0
 91
        4
 64
     7
 65
   257
 75
     1
175
     1
 42
1.0
 92
        8
 66
   257
 43
1.0
 76
     1
 77
     6
 78
     2
 67
     8
 79
     3
170
     0
171
     0
290
     0
174
     0
 93
        5
 44
0.0
173
     0
291
     0
 45
0.0
1001
ACAD
1000
AcDbSavedByObjectVersion
1070
     0
  0
VISUALSTYLE
  5
70D05
102
{ACAD_XDICTIONARY
360
994F1
102
}
102
{ACAD_REACTORS
330
513E8
102
}
330
513E8
100
AcDbVisualStyle
  2
Shaded with edges
 70
    26
 71
     2
 72
     2
 73
     1
 90
        2
 40
-0.6
 41
30.0
 62
     5
 63
     7
 74
     1
 91
        2
 64
     7
 65
   257
 75
     2
175
     1
 42
1.0
 92
        8
 66
   257
 43
1.0
 76
     1
 77
     6
 78
     2
 67
     7
 79
     3
170
     0
171
     0
290
     0
174
     0
 93
        5
 44
0.0
173
     0
291
     0
 45
0.0
1001
ACAD
1000
AcDbSavedByObjectVersion
1070
     0
  0
VISUALSTYLE
  5
70D02
102
{ACAD_XDICTIONARY
360
994EB
102
}
102
{ACAD_REACTORS
330
513E8
102
}
330
513E8
100
AcDbVisualStyle
  2
Shades of Gray
 70
    23
 71
     2
 72
     2
 73
     3
 90
        0
 40
-0.6
 41
-30.0
 62
     5
 63
     7
 74
     2
 91
        2
 64
     7
 65
     7
 75
     1
175
     1
 42
40.0
 92
        8
 66
     7
 43
1.0
 76
     1
 77
     6
 78
     2
 67
     7
 79
     3
170
     0
171
     0
290
     0
174
     0
 93
        1
 44
0.0
173
     0
291
     0
 45
0.0
1001
ACAD
1000
AcDbSavedByObjectVersion
1070
     0
  0
VISUALSTYLE
  5
70D03
102
{ACAD_XDICTIONARY
360
994ED
102
}
102
{ACAD_REACTORS
330
513E8
102
}
330
513E8
100
AcDbVisualStyle
  2
Sketchy
 70
    24
 71
     1
 72
     2
 73
     2
 90
        0
 40
-0.6
 41
-30.0
 62
     5
 63
     7
 74
     2
 91
        2
 64
     7
 65
     7
 75
     1
175
     1
 42
40.0
 92
       11
 66
     7
 43
1.0
 76
     1
 77
     6
 78
     2
 67
     7
 79
     6
170
     0
171
     0
290
     0
174
     0
 93
        1
 44
0.0
173
     0
291
     0
 45
0.0
1001
ACAD
1000
AcDbSavedByObjectVersion
1070
     0
  0
VISUALSTYLE
  5
513F5
102
{ACAD_XDICTIONARY
360
994DE
102
}
102
{ACAD_REACTORS
330
513E8
102
}
330
513E8
100
AcDbVisualStyle
  2
Thicken
 70
    13
 71
     2
 72
     2
 73
     0
 90
        0
 40
-0.6
 41
-30.0
 62
     5
 63
     7
 74
     1
 91
        4
 64
     7
 65
   257
 75
     1
175
     1
 42
1.0
 92
       12
 66
     7
 43
1.0
 76
     1
 77
     6
 78
     2
 67
     7
 79
     5
170
     0
171
     0
290
     0
174
     0
 93
        1
 44
0.0
173
     0
291
     1
 45
0.0
1001
ACAD
1000
AcDbSavedByObjectVersion
1070
     0
  0
VISUALSTYLE
  5
70D00
102
{ACAD_XDICTIONARY
360
994E7
102
}
102
{ACAD_REACTORS
330
513E8
102
}
330
513E8
100
AcDbVisualStyle
  2
Wireframe
 70
     5
 71
     0
 72
     2
 73
     0
 90
        0
 40
-0.6
 41
-30.0
 62
     5
 63
     7
 74
     1
 91
        4
 64
     7
 65
   257
 75
     1
175
     1
 42
1.0
 92
        0
 66
   257
 43
1.0
 76
     1
 77
     6
 78
     2
 67
     7
 79
     3
170
     0
171
     0
290
     0
174
     0
 93
        1
 44
0.0
173
     0
291
     0
 45
0.0
1001
ACAD
1000
AcDbSavedByObjectVersion
1070
     0
  0
VISUALSTYLE
  5
70D04
102
{ACAD_XDICTIONARY
360
994EF
102
}
102
{ACAD_REACTORS
330
513E8
102
}
330
513E8
100
AcDbVisualStyle
  2
X-Ray
 70
    25
 71
     2
 72
     2
 73
     1
 90
        1
 40
0.5
 41
-30.0
 62
     5
 63
     7
 74
     1
 91
        0
 64
     7
 65
   257
 75
     1
175
     1
 42
1.0
 92
        8
 66
     7
 43
1.0
 76
     1
 77
     6
 78
     2
 67
     7
 79
     3
170
     0
171
     0
290
     0
174
     0
 93
       13
 44
0.0
173
     0
291
     0
 45
0.0
1001
ACAD
1000
AcDbSavedByObjectVersion
1070
     0
  0
DICTIONARYVAR
  5
51480
102
{ACAD_REACTORS
330
28B1
102
}
330
28B1
100
DictionaryVariables
280
     0
  1
1:1
  0
DICTIONARYVAR
  5
5147E
102
{ACAD_REACTORS
330
28B1
102
}
330
28B1
100
DictionaryVariables
280
     0
  1
STANDARD
  0
DICTIONARYVAR
  5
5147D
102
{ACAD_REACTORS
330
28B1
102
}
330
28B1
100
DictionaryVariables
280
     0
  1
STANDARD
  0
DICTIONARYVAR
  5
994B9
102
{ACAD_REACTORS
330
28B1
102
}
330
28B1
100
DictionaryVariables
280
     0
  1
Imperial24
  0
DICTIONARYVAR
  5
994BA
102
{ACAD_REACTORS
330
28B1
102
}
330
28B1
100
DictionaryVariables
280
     0
  1
Imperial24
  0
DICTIONARYVAR
  5
5135B
102
{ACAD_REACTORS
330
28B1
102
}
330
28B1
100
DictionaryVariables
280
     0
  1
1
  0
DICTIONARYVAR
  5
70D55
102
{ACAD_REACTORS
330
28B1
102
}
330
28B1
100
DictionaryVariables
280
     0
  1
0
  0
DICTIONARYVAR
  5
51481
102
{ACAD_REACTORS
330
28B1
102
}
330
28B1
100
DictionaryVariables
280
     0
  1
0
  0
DICTIONARYVAR
  5
5147F
102
{ACAD_REACTORS
330
28B1
102
}
330
28B1
100
DictionaryVariables
280
     0
  1
0
  0
DICTIONARYVAR
  5
70D57
102
{ACAD_REACTORS
330
28B1
102
}
330
28B1
100
DictionaryVariables
280
     0
  1
1
  0
DICTIONARYVAR
  5
28B2
102
{ACAD_REACTORS
330
28B1
102
}
330
28B1
100
DictionaryVariables
280
     0
  1
127
  0
DICTIONARYVAR
  5
994BB
102
{ACAD_REACTORS
330
28B1
102
}
330
28B1
100
DictionaryVariables
280
     0
  1
2
  0
DICTIONARY
  5
994FD
330
99249
100
AcDbDictionary
280
     1
281
     1
  3
ACAD_XREC_ROUNDTRIP
360
994FE
  0
DICTIONARY
  5
994BF
330
21F3
100
AcDbDictionary
280
     1
281
     1
  3
ACAD_XREC_ROUNDTRIP
360
994C0
  0
DICTIONARY
  5
994C1
330
21F4
100
AcDbDictionary
280
     1
281
     1
  3
ACAD_XREC_ROUNDTRIP
360
994C2
  0
DICTIONARY
  5
513D9
330
513D8
100
AcDbDictionary
280
     1
281
     1
  3
ACAD_XREC_ROUNDTRIP
360
994C4
  3
BUMPTILE
360
513DB
  3
DIFFUSETILE
360
513DA
  3
OPACITYTILE
360
513DE
  3
REFLECTIONTILE
360
513DD
  3
REFRACTIONTILE
360
513DF
  3
SPECULARTILE
360
513DC
  0
DICTIONARY
  5
513D1
330
513D0
100
AcDbDictionary
280
     1
281
     1
  3
ACAD_XREC_ROUNDTRIP
360
994C3
  3
BUMPTILE
360
513D3
  3
DIFFUSETILE
360
513D2
  3
OPACITYTILE
360
513D6
  3
REFLECTIONTILE
360
513D5
  3
REFRACTIONTILE
360
513D7
  3
SPECULARTILE
360
513D4
  0
DICTIONARY
  5
513E1
330
513E0
100
AcDbDictionary
280
     1
281
     1
  3
ACAD_XREC_ROUNDTRIP
360
994C5
  3
BUMPTILE
360
513E3
  3
DIFFUSETILE
360
513E2
  3
OPACITYTILE
360
513E6
  3
REFLECTIONTILE
360
513E5
  3
REFRACTIONTILE
360
513E7
  3
SPECULARTILE
360
513E4
  0
DICTIONARY
  5
994FB
330
99247
100
AcDbDictionary
280
     1
281
     1
  3
ACAD_XREC_ROUNDTRIP
360
994FC
  0
DICTIONARY
  5
5147A
330
513FB
100
AcDbDictionary
280
     1
281
     1
  3
ACAD_ROUNDTRIP_2008_TABLESTYLE_CELLSTYLEMAP
360
994BC
  3
ACAD_XREC_ROUNDTRIP
360
994E6
  0
DICTIONARY
  5
994D0
330
513EE
100
AcDbDictionary
280
     1
281
     1
  3
ACAD_XREC_ROUNDTRIP
360
994D1
  0
DICTIONARY
  5
994D4
330
513F0
100
AcDbDictionary
280
     1
281
     1
  3
ACAD_XREC_ROUNDTRIP
360
994D5
  0
DICTIONARY
  5
994D2
330
513EF
100
AcDbDictionary
280
     1
281
     1
  3
ACAD_XREC_ROUNDTRIP
360
994D3
  0
DICTIONARY
  5
994CE
330
513ED
100
AcDbDictionary
280
     1
281
     1
  3
ACAD_XREC_ROUNDTRIP
360
994CF
  0
DICTIONARY
  5
994DC
330
513F4
100
AcDbDictionary
280
     1
281
     1
  3
ACAD_XREC_ROUNDTRIP
360
994DD
  0
DICTIONARY
  5
994E4
330
513F8
100
AcDbDictionary
280
     1
281
     1
  3
ACAD_XREC_ROUNDTRIP
360
994E5
  0
DICTIONARY
  5
994D6
330
513F1
100
AcDbDictionary
280
     1
281
     1
  3
ACAD_XREC_ROUNDTRIP
360
994D7
  0
DICTIONARY
  5
994DA
330
513F3
100
AcDbDictionary
280
     1
281
     1
  3
ACAD_XREC_ROUNDTRIP
360
994DB
  0
DICTIONARY
  5
994F9
330
70D09
100
AcDbDictionary
280
     1
281
     1
  3
ACAD_XREC_ROUNDTRIP
360
994FA
  0
DICTIONARY
  5
994E2
330
513F7
100
AcDbDictionary
280
     1
281
     1
  3
ACAD_XREC_ROUNDTRIP
360
994E3
  0
DICTIONARY
  5
994C6
330
513E9
100
AcDbDictionary
280
     1
281
     1
  3
ACAD_XREC_ROUNDTRIP
360
994C7
  0
DICTIONARY
  5
994C8
330
513EA
100
AcDbDictionary
280
     1
281
     1
  3
ACAD_XREC_ROUNDTRIP
360
994C9
  0
DICTIONARY
  5
994CA
330
513EB
100
AcDbDictionary
280
     1
281
     1
  3
ACAD_XREC_ROUNDTRIP
360
994CB
  0
DICTIONARY
  5
994CC
330
513EC
100
AcDbDictionary
280
     1
281
     1
  3
ACAD_XREC_ROUNDTRIP
360
994CD
  0
DICTIONARY
  5
994E9
330
70D01
100
AcDbDictionary
280
     1
281
     1
  3
ACAD_XREC_ROUNDTRIP
360
994EA
  0
DICTIONARY
  5
994F5
330
70D07
100
AcDbDictionary
280
     1
281
     1
  3
ACAD_XREC_ROUNDTRIP
360
994F6
  0
DICTIONARY
  5
994E0
330
513F6
100
AcDbDictionary
280
     1
281
     1
  3
ACAD_XREC_ROUNDTRIP
360
994E1
  0
DICTIONARY
  5
994F7
330
70D08
100
AcDbDictionary
280
     1
281
     1
  3
ACAD_XREC_ROUNDTRIP
360
994F8
  0
DICTIONARY
  5
994D8
330
513F2
100
AcDbDictionary
280
     1
281
     1
  3
ACAD_XREC_ROUNDTRIP
360
994D9
  0
DICTIONARY
  5
994F3
330
70D06
100
AcDbDictionary
280
     1
281
     1
  3
ACAD_XREC_ROUNDTRIP
360
994F4
  0
DICTIONARY
  5
994F1
330
70D05
100
AcDbDictionary
280
     1
281
     1
  3
ACAD_XREC_ROUNDTRIP
360
994F2
  0
DICTIONARY
  5
994EB
330
70D02
100
AcDbDictionary
280
     1
281
     1
  3
ACAD_XREC_ROUNDTRIP
360
994EC
  0
DICTIONARY
  5
994ED
330
70D03
100
AcDbDictionary
280
     1
281
     1
  3
ACAD_XREC_ROUNDTRIP
360
994EE
  0
DICTIONARY
  5
994DE
330
513F5
100
AcDbDictionary
280
     1
281
     1
  3
ACAD_XREC_ROUNDTRIP
360
994DF
  0
DICTIONARY
  5
994E7
330
70D00
100
AcDbDictionary
280
     1
281
     1
  3
ACAD_XREC_ROUNDTRIP
360
994E8
  0
DICTIONARY
  5
994EF
330
70D04
100
AcDbDictionary
280
     1
281
     1
  3
ACAD_XREC_ROUNDTRIP
360
994F0
  0
XRECORD
  5
994FE
102
{ACAD_REACTORS
330
994FD
102
}
330
994FD
100
AcDbXrecord
280
     1
102
DISPLAYNAME
  1
Imperial24
102
FLAGS
 90
        0
  0
XRECORD
  5
994C0
102
{ACAD_REACTORS
330
994BF
102
}
330
994BF
100
AcDbXrecord
280
     1
102
SHADEPLOT
 70
     0
102
SHADEPLOTRESLEVEL
 70
     2
102
SHADEPLOTCUSTOMDPI
 70
   300
  0
XRECORD
  5
994C2
102
{ACAD_REACTORS
330
994C1
102
}
330
994C1
100
AcDbXrecord
280
     1
102
SHADEPLOT
 70
     0
102
SHADEPLOTRESLEVEL
 70
     2
102
SHADEPLOTCUSTOMDPI
 70
   300
  0
XRECORD
  5
994C4
102
{ACAD_REACTORS
330
513D9
102
}
330
513D9
100
AcDbXrecord
280
     1
102
MATERIAL
148
0.0
149
0.0
149
0.0
 93
        0
 94
      127
282
     0
 72
     0
 77
     0
171
     0
175
     0
179
     0
273
     0
  0
XRECORD
  5
513DB
102
{ACAD_REACTORS
330
513D9
102
}
330
513D9
100
AcDbXrecord
280
     1
270
     1
271
     1
  0
XRECORD
  5
513DA
102
{ACAD_REACTORS
330
513D9
102
}
330
513D9
100
AcDbXrecord
280
     1
270
     1
271
     1
  0
XRECORD
  5
513DE
102
{ACAD_REACTORS
330
513D9
102
}
330
513D9
100
AcDbXrecord
280
     1
270
     1
271
     1
  0
XRECORD
  5
513DD
102
{ACAD_REACTORS
330
513D9
102
}
330
513D9
100
AcDbXrecord
280
     1
270
     1
271
     1
  0
XRECORD
  5
513DF
102
{ACAD_REACTORS
330
513D9
102
}
330
513D9
100
AcDbXrecord
280
     1
270
     1
271
     1
  0
XRECORD
  5
513DC
102
{ACAD_REACTORS
330
513D9
102
}
330
513D9
100
AcDbXrecord
280
     1
270
     1
271
     1
  0
XRECORD
  5
994C3
102
{ACAD_REACTORS
330
513D1
102
}
330
513D1
100
AcDbXrecord
280
     1
102
MATERIAL
148
0.0
149
0.0
149
0.0
 93
        0
 94
      127
282
     0
 72
     0
 77
     0
171
     0
175
     0
179
     0
273
     0
  0
XRECORD
  5
513D3
102
{ACAD_REACTORS
330
513D1
102
}
330
513D1
100
AcDbXrecord
280
     1
270
     1
271
     1
  0
XRECORD
  5
513D2
102
{ACAD_REACTORS
330
513D1
102
}
330
513D1
100
AcDbXrecord
280
     1
270
     1
271
     1
  0
XRECORD
  5
513D6
102
{ACAD_REACTORS
330
513D1
102
}
330
513D1
100
AcDbXrecord
280
     1
270
     1
271
     1
  0
XRECORD
  5
513D5
102
{ACAD_REACTORS
330
513D1
102
}
330
513D1
100
AcDbXrecord
280
     1
270
     1
271
     1
  0
XRECORD
  5
513D7
102
{ACAD_REACTORS
330
513D1
102
}
330
513D1
100
AcDbXrecord
280
     1
270
     1
271
     1
  0
XRECORD
  5
513D4
102
{ACAD_REACTORS
330
513D1
102
}
330
513D1
100
AcDbXrecord
280
     1
270
     1
271
     1
  0
XRECORD
  5
994C5
102
{ACAD_REACTORS
330
513E1
102
}
330
513E1
100
AcDbXrecord
280
     1
102
MATERIAL
148
0.0
149
0.0
149
0.0
 93
        0
 94
      127
282
     0
 72
     0
 77
     0
171
     0
175
     0
179
     0
273
     0
  0
XRECORD
  5
513E3
102
{ACAD_REACTORS
330
513E1
102
}
330
513E1
100
AcDbXrecord
280
     1
270
     1
271
     1
  0
XRECORD
  5
513E2
102
{ACAD_REACTORS
330
513E1
102
}
330
513E1
100
AcDbXrecord
280
     1
270
     1
271
     1
  0
XRECORD
  5
513E6
102
{ACAD_REACTORS
330
513E1
102
}
330
513E1
100
AcDbXrecord
280
     1
270
     1
271
     1
  0
XRECORD
  5
513E5
102
{ACAD_REACTORS
330
513E1
102
}
330
513E1
100
AcDbXrecord
280
     1
270
     1
271
     1
  0
XRECORD
  5
513E7
102
{ACAD_REACTORS
330
513E1
102
}
330
513E1
100
AcDbXrecord
280
     1
270
     1
271
     1
  0
XRECORD
  5
513E4
102
{ACAD_REACTORS
330
513E1
102
}
330
513E1
100
AcDbXrecord
280
     1
270
     1
271
     1
  0
XRECORD
  5
994FC
102
{ACAD_REACTORS
330
994FB
102
}
330
994FB
100
AcDbXrecord
280
     1
102
DISPLAYNAME
  1
Imperial24
102
FLAGS
 90
        0
  0
CELLSTYLEMAP
  5
994BC
102
{ACAD_REACTORS
330
5147A
102
}
330
5147A
100
AcDbCellStyleMap
 90
        3
300
CELLSTYLE
  1
TABLEFORMAT_BEGIN
 90
        5
170
     1
 91
        0
 92
    32768
 62
   257
 93
        1
300
CONTENTFORMAT
  1
CONTENTFORMAT_BEGIN
 90
        0
 91
        0
 92
      512
 93
        0
300

 40
0.0
140
1.0
 94
        5
 62
     0
340
F
144
0.25
309
CONTENTFORMAT_END
171
     0
 94
        0
309
TABLEFORMAT_END
  1
CELLSTYLE_BEGIN
 90
        1
 91
        1
300
_TITLE
309
CELLSTYLE_END
300
CELLSTYLE
  1
TABLEFORMAT_BEGIN
 90
        5
170
     1
 91
        0
 92
        0
 62
   257
 93
        1
300
CONTENTFORMAT
  1
CONTENTFORMAT_BEGIN
 90
        0
 91
        0
 92
      512
 93
        0
300

 40
0.0
140
1.0
 94
        5
 62
     0
340
F
144
0.18
309
CONTENTFORMAT_END
171
     0
 94
        0
309
TABLEFORMAT_END
  1
CELLSTYLE_BEGIN
 90
        2
 91
        1
300
_HEADER
309
CELLSTYLE_END
300
CELLSTYLE
  1
TABLEFORMAT_BEGIN
 90
        5
170
     1
 91
        0
 92
        0
 62
   257
 93
        1
300
CONTENTFORMAT
  1
CONTENTFORMAT_BEGIN
 90
        0
 91
        0
 92
      512
 93
        0
300

 40
0.0
140
1.0
 94
        2
 62
     0
340
F
144
0.18
309
CONTENTFORMAT_END
171
     0
 94
        0
309
TABLEFORMAT_END
  1
CELLSTYLE_BEGIN
 90
        3
 91
        2
300
_DATA
309
CELLSTYLE_END
  0
XRECORD
  5
994E6
102
{ACAD_REACTORS
330
5147A
102
}
330
5147A
100
AcDbXrecord
280
     1
102
ACAD_ROUNDTRIP_PRE2007_TABLESTYLE
 90
      512
 91
        0
  1

 92
      512
 93
        0
  2

 94
      512
 95
        0
  3

  0
XRECORD
  5
994D1
102
{ACAD_REACTORS
330
994D0
102
}
330
994D0
100
AcDbXrecord
280
     1
102
RTVSPost2010Prop28
280
     1
102
RTVSPost2010PropOp28
 70
     1
102
RTVSPost2010Prop29
280
     1
102
RTVSPost2010PropOp29
 70
     1
102
RTVSPost2010Prop30
280
     0
102
RTVSPost2010PropOp30
 70
     1
102
RTVSPost2010Prop31
280
     0
102
RTVSPost2010PropOp31
 70
     1
102
RTVSPost2010Prop32
280
     0
102
RTVSPost2010PropOp32
 70
     1
102
RTVSPost2010Prop33
280
     0
102
RTVSPost2010PropOp33
 70
     1
102
RTVSPost2010Prop34
280
     0
102
RTVSPost2010PropOp34
 70
     1
102
RTVSPost2010Prop35
280
     0
102
RTVSPost2010PropOp35
 70
     1
102
RTVSPost2010Prop36
280
     0
102
RTVSPost2010PropOp36
 70
     1
102
RTVSPost2010Prop37
 90
       50
102
RTVSPost2010PropOp37
 70
     1
102
RTVSPost2010Prop38
140
0.0
102
RTVSPost2010PropOp38
 70
     1
102
RTVSPost2010Prop39
140
1.0
102
RTVSPost2010PropOp39
 70
     1
102
RTVSPost2010Prop40
 90
        0
102
RTVSPost2010PropOp40
 70
     1
102
RTVSPost2010Prop41ColorIndex
 90
       18
102
RTVSPost2010Prop41ColorRGB
 90
        0
102
RTVSPost2010PropOp41
 70
     1
102
RTVSPost2010Prop42
 90
       50
102
RTVSPost2010PropOp42
 70
     1
102
RTVSPost2010Prop43
 90
        3
102
RTVSPost2010PropOp43
 70
     1
102
RTVSPost2010Prop44ColorIndex
 90
        5
102
RTVSPost2010Prop44ColorRGB
 90
      255
102
RTVSPost2010PropOp44
 70
     1
102
RTVSPost2010Prop45
280
     0
102
RTVSPost2010PropOp45
 70
     1
102
RTVSPost2010Prop46
 90
       50
102
RTVSPost2010PropOp46
 70
     1
102
RTVSPost2010Prop47
 90
       50
102
RTVSPost2010PropOp47
 70
     1
102
RTVSPost2010Prop48
 90
       50
102
RTVSPost2010PropOp48
 70
     1
102
RTVSPost2010Prop49
280
     0
102
RTVSPost2010PropOp49
 70
     1
102
RTVSPost2010Prop50
 90
       50
102
RTVSPost2010PropOp50
 70
     1
102
RTVSPost2010Prop51ColorIndex
 90
      256
102
RTVSPost2010Prop51ColorRGB
 90
-16777216
102
RTVSPost2010PropOp51
 70
     0
102
RTVSPost2010Prop52
140
1.0
102
RTVSPost2010PropOp52
 70
     0
102
RTVSPost2010Prop53
 90
        2
102
RTVSPost2010PropOp53
 70
     1
102
RTVSPost2010Prop54
  1
strokes_ogs.tif
102
RTVSPost2010PropOp54
 70
     1
102
RTVSPost2010Prop55
280
     0
102
RTVSPost2010PropOp55
 70
     1
102
RTVSPost2010Prop56
140
1.0
102
RTVSPost2010PropOp56
 70
     1
102
RTVSPost2010Prop57
140
1.0
102
RTVSPost2010PropOp57
 70
     1
102
RTVSPropertyOp0
 70
     1
102
RTVSPropertyOp1
 70
     1
102
RTVSPropertyOp2
 70
     1
102
RTVSPropertyOp3
 70
     1
102
RTVSPropertyOp4
 70
     1
102
RTVSPropertyOp5
 70
     1
102
RTVSPropertyOp6
 70
     1
102
RTVSPropertyOp7
 70
     1
102
RTVSPropertyOp8
 70
     1
102
RTVSPropertyOp9
 70
     1
102
RTVSPropertyOp10
 70
     1
102
RTVSPropertyOp11
 70
     1
102
RTVSPropertyOp12
 70
     1
102
RTVSPropertyOp13
 70
     1
102
RTVSPropertyOp14
 70
     1
102
RTVSPropertyOp15
 70
     1
102
RTVSPropertyOp16
 70
     1
102
RTVSPropertyOp17
 70
     1
102
RTVSPropertyOp18
 70
     1
102
RTVSPropertyOp19
 70
     1
102
RTVSPropertyOp20
 70
     1
102
RTVSPropertyOp21
 70
     1
102
RTVSPropertyOp22
 70
     1
102
RTVSPropertyOp23
 70
     1
102
RTVSPropertyOp24
 70
     1
102
RTVSPropertyOp25
 70
     1
102
RTVSPropertyOp26
 70
     1
102
RTVSPropertyOp27
 70
     1
102
RTVSPropertyOp28
 70
     1
102
RTVSPropertyOp29
 70
     1
102
RTVSPropertyOp30
 70
     1
102
RTVSPropertyOp31
 70
     1
102
RTVSPropertyOp32
 70
     1
102
RTVSPropertyOp33
 70
     1
102
RTVSPropertyOp34
 70
     1
102
RTVSPropertyOp35
 70
     1
102
RTVSPropertyOp36
 70
     1
102
RTVSPropertyOp37
 70
     1
102
RTVSPropertyOp38
 70
     1
102
RTVSPropertyOp39
 70
     1
102
RTVSPropertyOp40
 70
     1
102
RTVSPropertyOp41
 70
     1
102
RTVSPropertyOp42
 70
     1
102
RTVSPropertyOp43
 70
     1
102
RTVSPropertyOp44
 70
     1
102
RTVSPropertyOp45
 70
     1
102
RTVSPropertyOp46
 70
     1
102
RTVSPropertyOp47
 70
     1
102
RTVSPropertyOp48
 70
     1
102
RTVSPropertyOp49
 70
     1
102
RTVSPropertyOp50
 70
     1
102
RTVSPropertyOp51
 70
     0
102
RTVSPropertyOp52
 70
     0
102
RTVSPropertyOp53
 70
     1
102
RTVSPropertyOp54
 70
     1
102
RTVSPropertyOp55
 70
     1
102
RTVSPropertyOp56
 70
     1
102
RTVSPropertyOp57
 70
     1
102
RTVSPropertyOp58
 70
     1
102
RTVSPropertyOp59
 70
     1
102
RTVSPropertyOp60
 70
     1
102
RTVSPropertyOp61
 70
     1
102
RTVSPropertyOp62
 70
     1
  0
XRECORD
  5
994D5
102
{ACAD_REACTORS
330
994D4
102
}
330
994D4
100
AcDbXrecord
280
     1
102
RTVSPost2010Prop28
280
     0
102
RTVSPost2010PropOp28
 70
     1
102
RTVSPost2010Prop29
280
     1
102
RTVSPost2010PropOp29
 70
     1
102
RTVSPost2010Prop30
280
     1
102
RTVSPost2010PropOp30
 70
     1
102
RTVSPost2010Prop31
280
     0
102
RTVSPost2010PropOp31
 70
     1
102
RTVSPost2010Prop32
280
     0
102
RTVSPost2010PropOp32
 70
     1
102
RTVSPost2010Prop33
280
     0
102
RTVSPost2010PropOp33
 70
     1
102
RTVSPost2010Prop34
280
     0
102
RTVSPost2010PropOp34
 70
     1
102
RTVSPost2010Prop35
280
     0
102
RTVSPost2010PropOp35
 70
     1
102
RTVSPost2010Prop36
280
     0
102
RTVSPost2010PropOp36
 70
     1
102
RTVSPost2010Prop37
 90
       50
102
RTVSPost2010PropOp37
 70
     1
102
RTVSPost2010Prop38
140
0.0
102
RTVSPost2010PropOp38
 70
     1
102
RTVSPost2010Prop39
140
1.0
102
RTVSPost2010PropOp39
 70
     1
102
RTVSPost2010Prop40
 90
        0
102
RTVSPost2010PropOp40
 70
     1
102
RTVSPost2010Prop41ColorIndex
 90
       18
102
RTVSPost2010Prop41ColorRGB
 90
        0
102
RTVSPost2010PropOp41
 70
     1
102
RTVSPost2010Prop42
 90
       50
102
RTVSPost2010PropOp42
 70
     1
102
RTVSPost2010Prop43
 90
        3
102
RTVSPost2010PropOp43
 70
     1
102
RTVSPost2010Prop44ColorIndex
 90
        5
102
RTVSPost2010Prop44ColorRGB
 90
      255
102
RTVSPost2010PropOp44
 70
     1
102
RTVSPost2010Prop45
280
     0
102
RTVSPost2010PropOp45
 70
     1
102
RTVSPost2010Prop46
 90
       50
102
RTVSPost2010PropOp46
 70
     1
102
RTVSPost2010Prop47
 90
       50
102
RTVSPost2010PropOp47
 70
     1
102
RTVSPost2010Prop48
 90
       50
102
RTVSPost2010PropOp48
 70
     1
102
RTVSPost2010Prop49
280
     0
102
RTVSPost2010PropOp49
 70
     1
102
RTVSPost2010Prop50
 90
       50
102
RTVSPost2010PropOp50
 70
     1
102
RTVSPost2010Prop51ColorIndex
 90
      256
102
RTVSPost2010Prop51ColorRGB
 90
-16777216
102
RTVSPost2010PropOp51
 70
     0
102
RTVSPost2010Prop52
140
1.0
102
RTVSPost2010PropOp52
 70
     0
102
RTVSPost2010Prop53
 90
        2
102
RTVSPost2010PropOp53
 70
     1
102
RTVSPost2010Prop54
  1
strokes_ogs.tif
102
RTVSPost2010PropOp54
 70
     1
102
RTVSPost2010Prop55
280
     0
102
RTVSPost2010PropOp55
 70
     1
102
RTVSPost2010Prop56
140
1.0
102
RTVSPost2010PropOp56
 70
     1
102
RTVSPost2010Prop57
140
1.0
102
RTVSPost2010PropOp57
 70
     1
102
RTVSPropertyOp0
 70
     1
102
RTVSPropertyOp1
 70
     1
102
RTVSPropertyOp2
 70
     1
102
RTVSPropertyOp3
 70
     1
102
RTVSPropertyOp4
 70
     1
102
RTVSPropertyOp5
 70
     1
102
RTVSPropertyOp6
 70
     1
102
RTVSPropertyOp7
 70
     1
102
RTVSPropertyOp8
 70
     1
102
RTVSPropertyOp9
 70
     1
102
RTVSPropertyOp10
 70
     1
102
RTVSPropertyOp11
 70
     1
102
RTVSPropertyOp12
 70
     1
102
RTVSPropertyOp13
 70
     1
102
RTVSPropertyOp14
 70
     1
102
RTVSPropertyOp15
 70
     1
102
RTVSPropertyOp16
 70
     1
102
RTVSPropertyOp17
 70
     1
102
RTVSPropertyOp18
 70
     1
102
RTVSPropertyOp19
 70
     1
102
RTVSPropertyOp20
 70
     1
102
RTVSPropertyOp21
 70
     1
102
RTVSPropertyOp22
 70
     1
102
RTVSPropertyOp23
 70
     1
102
RTVSPropertyOp24
 70
     1
102
RTVSPropertyOp25
 70
     1
102
RTVSPropertyOp26
 70
     1
102
RTVSPropertyOp27
 70
     1
102
RTVSPropertyOp28
 70
     1
102
RTVSPropertyOp29
 70
     1
102
RTVSPropertyOp30
 70
     1
102
RTVSPropertyOp31
 70
     1
102
RTVSPropertyOp32
 70
     1
102
RTVSPropertyOp33
 70
     1
102
RTVSPropertyOp34
 70
     1
102
RTVSPropertyOp35
 70
     1
102
RTVSPropertyOp36
 70
     1
102
RTVSPropertyOp37
 70
     1
102
RTVSPropertyOp38
 70
     1
102
RTVSPropertyOp39
 70
     1
102
RTVSPropertyOp40
 70
     1
102
RTVSPropertyOp41
 70
     1
102
RTVSPropertyOp42
 70
     1
102
RTVSPropertyOp43
 70
     1
102
RTVSPropertyOp44
 70
     1
102
RTVSPropertyOp45
 70
     1
102
RTVSPropertyOp46
 70
     1
102
RTVSPropertyOp47
 70
     1
102
RTVSPropertyOp48
 70
     1
102
RTVSPropertyOp49
 70
     1
102
RTVSPropertyOp50
 70
     1
102
RTVSPropertyOp51
 70
     0
102
RTVSPropertyOp52
 70
     0
102
RTVSPropertyOp53
 70
     1
102
RTVSPropertyOp54
 70
     1
102
RTVSPropertyOp55
 70
     1
102
RTVSPropertyOp56
 70
     1
102
RTVSPropertyOp57
 70
     1
102
RTVSPropertyOp58
 70
     1
102
RTVSPropertyOp59
 70
     1
102
RTVSPropertyOp60
 70
     1
102
RTVSPropertyOp61
 70
     1
102
RTVSPropertyOp62
 70
     1
  0
XRECORD
  5
994D3
102
{ACAD_REACTORS
330
994D2
102
}
330
994D2
100
AcDbXrecord
280
     1
102
RTVSPost2010Prop28
280
     0
102
RTVSPost2010PropOp28
 70
     1
102
RTVSPost2010Prop29
280
     1
102
RTVSPost2010PropOp29
 70
     1
102
RTVSPost2010Prop30
280
     1
102
RTVSPost2010PropOp30
 70
     1
102
RTVSPost2010Prop31
280
     0
102
RTVSPost2010PropOp31
 70
     1
102
RTVSPost2010Prop32
280
     0
102
RTVSPost2010PropOp32
 70
     1
102
RTVSPost2010Prop33
280
     0
102
RTVSPost2010PropOp33
 70
     1
102
RTVSPost2010Prop34
280
     0
102
RTVSPost2010PropOp34
 70
     1
102
RTVSPost2010Prop35
280
     0
102
RTVSPost2010PropOp35
 70
     1
102
RTVSPost2010Prop36
280
     0
102
RTVSPost2010PropOp36
 70
     1
102
RTVSPost2010Prop37
 90
       50
102
RTVSPost2010PropOp37
 70
     1
102
RTVSPost2010Prop38
140
0.0
102
RTVSPost2010PropOp38
 70
     1
102
RTVSPost2010Prop39
140
1.0
102
RTVSPost2010PropOp39
 70
     1
102
RTVSPost2010Prop40
 90
        0
102
RTVSPost2010PropOp40
 70
     1
102
RTVSPost2010Prop41ColorIndex
 90
       18
102
RTVSPost2010Prop41ColorRGB
 90
        0
102
RTVSPost2010PropOp41
 70
     1
102
RTVSPost2010Prop42
 90
       50
102
RTVSPost2010PropOp42
 70
     1
102
RTVSPost2010Prop43
 90
        3
102
RTVSPost2010PropOp43
 70
     1
102
RTVSPost2010Prop44ColorIndex
 90
        5
102
RTVSPost2010Prop44ColorRGB
 90
      255
102
RTVSPost2010PropOp44
 70
     1
102
RTVSPost2010Prop45
280
     0
102
RTVSPost2010PropOp45
 70
     1
102
RTVSPost2010Prop46
 90
       50
102
RTVSPost2010PropOp46
 70
     1
102
RTVSPost2010Prop47
 90
       50
102
RTVSPost2010PropOp47
 70
     1
102
RTVSPost2010Prop48
 90
       50
102
RTVSPost2010PropOp48
 70
     1
102
RTVSPost2010Prop49
280
     0
102
RTVSPost2010PropOp49
 70
     1
102
RTVSPost2010Prop50
 90
       50
102
RTVSPost2010PropOp50
 70
     1
102
RTVSPost2010Prop51ColorIndex
 90
      256
102
RTVSPost2010Prop51ColorRGB
 90
-16777216
102
RTVSPost2010PropOp51
 70
     0
102
RTVSPost2010Prop52
140
1.0
102
RTVSPost2010PropOp52
 70
     0
102
RTVSPost2010Prop53
 90
        2
102
RTVSPost2010PropOp53
 70
     1
102
RTVSPost2010Prop54
  1
strokes_ogs.tif
102
RTVSPost2010PropOp54
 70
     1
102
RTVSPost2010Prop55
280
     0
102
RTVSPost2010PropOp55
 70
     1
102
RTVSPost2010Prop56
140
1.0
102
RTVSPost2010PropOp56
 70
     1
102
RTVSPost2010Prop57
140
1.0
102
RTVSPost2010PropOp57
 70
     1
102
RTVSPropertyOp0
 70
     1
102
RTVSPropertyOp1
 70
     1
102
RTVSPropertyOp2
 70
     1
102
RTVSPropertyOp3
 70
     1
102
RTVSPropertyOp4
 70
     1
102
RTVSPropertyOp5
 70
     1
102
RTVSPropertyOp6
 70
     1
102
RTVSPropertyOp7
 70
     1
102
RTVSPropertyOp8
 70
     1
102
RTVSPropertyOp9
 70
     1
102
RTVSPropertyOp10
 70
     1
102
RTVSPropertyOp11
 70
     1
102
RTVSPropertyOp12
 70
     1
102
RTVSPropertyOp13
 70
     1
102
RTVSPropertyOp14
 70
     1
102
RTVSPropertyOp15
 70
     1
102
RTVSPropertyOp16
 70
     1
102
RTVSPropertyOp17
 70
     1
102
RTVSPropertyOp18
 70
     1
102
RTVSPropertyOp19
 70
     1
102
RTVSPropertyOp20
 70
     1
102
RTVSPropertyOp21
 70
     1
102
RTVSPropertyOp22
 70
     1
102
RTVSPropertyOp23
 70
     1
102
RTVSPropertyOp24
 70
     1
102
RTVSPropertyOp25
 70
     1
102
RTVSPropertyOp26
 70
     1
102
RTVSPropertyOp27
 70
     1
102
RTVSPropertyOp28
 70
     1
102
RTVSPropertyOp29
 70
     1
102
RTVSPropertyOp30
 70
     1
102
RTVSPropertyOp31
 70
     1
102
RTVSPropertyOp32
 70
     1
102
RTVSPropertyOp33
 70
     1
102
RTVSPropertyOp34
 70
     1
102
RTVSPropertyOp35
 70
     1
102
RTVSPropertyOp36
 70
     1
102
RTVSPropertyOp37
 70
     1
102
RTVSPropertyOp38
 70
     1
102
RTVSPropertyOp39
 70
     1
102
RTVSPropertyOp40
 70
     1
102
RTVSPropertyOp41
 70
     1
102
RTVSPropertyOp42
 70
     1
102
RTVSPropertyOp43
 70
     1
102
RTVSPropertyOp44
 70
     1
102
RTVSPropertyOp45
 70
     1
102
RTVSPropertyOp46
 70
     1
102
RTVSPropertyOp47
 70
     1
102
RTVSPropertyOp48
 70
     1
102
RTVSPropertyOp49
 70
     1
102
RTVSPropertyOp50
 70
     1
102
RTVSPropertyOp51
 70
     0
102
RTVSPropertyOp52
 70
     0
102
RTVSPropertyOp53
 70
     1
102
RTVSPropertyOp54
 70
     1
102
RTVSPropertyOp55
 70
     1
102
RTVSPropertyOp56
 70
     1
102
RTVSPropertyOp57
 70
     1
102
RTVSPropertyOp58
 70
     1
102
RTVSPropertyOp59
 70
     1
102
RTVSPropertyOp60
 70
     1
102
RTVSPropertyOp61
 70
     1
102
RTVSPropertyOp62
 70
     1
  0
XRECORD
  5
994CF
102
{ACAD_REACTORS
330
994CE
102
}
330
994CE
100
AcDbXrecord
280
     1
102
RTVSPost2010Prop28
280
     0
102
RTVSPost2010PropOp28
 70
     1
102
RTVSPost2010Prop29
280
     1
102
RTVSPost2010PropOp29
 70
     1
102
RTVSPost2010Prop30
280
     1
102
RTVSPost2010PropOp30
 70
     1
102
RTVSPost2010Prop31
280
     0
102
RTVSPost2010PropOp31
 70
     1
102
RTVSPost2010Prop32
280
     0
102
RTVSPost2010PropOp32
 70
     1
102
RTVSPost2010Prop33
280
     0
102
RTVSPost2010PropOp33
 70
     1
102
RTVSPost2010Prop34
280
     0
102
RTVSPost2010PropOp34
 70
     1
102
RTVSPost2010Prop35
280
     0
102
RTVSPost2010PropOp35
 70
     1
102
RTVSPost2010Prop36
280
     0
102
RTVSPost2010PropOp36
 70
     1
102
RTVSPost2010Prop37
 90
       50
102
RTVSPost2010PropOp37
 70
     1
102
RTVSPost2010Prop38
140
0.0
102
RTVSPost2010PropOp38
 70
     1
102
RTVSPost2010Prop39
140
1.0
102
RTVSPost2010PropOp39
 70
     1
102
RTVSPost2010Prop40
 90
        0
102
RTVSPost2010PropOp40
 70
     1
102
RTVSPost2010Prop41ColorIndex
 90
       18
102
RTVSPost2010Prop41ColorRGB
 90
        0
102
RTVSPost2010PropOp41
 70
     1
102
RTVSPost2010Prop42
 90
       50
102
RTVSPost2010PropOp42
 70
     1
102
RTVSPost2010Prop43
 90
        3
102
RTVSPost2010PropOp43
 70
     1
102
RTVSPost2010Prop44ColorIndex
 90
        5
102
RTVSPost2010Prop44ColorRGB
 90
      255
102
RTVSPost2010PropOp44
 70
     1
102
RTVSPost2010Prop45
280
     0
102
RTVSPost2010PropOp45
 70
     1
102
RTVSPost2010Prop46
 90
       50
102
RTVSPost2010PropOp46
 70
     1
102
RTVSPost2010Prop47
 90
       50
102
RTVSPost2010PropOp47
 70
     1
102
RTVSPost2010Prop48
 90
       50
102
RTVSPost2010PropOp48
 70
     1
102
RTVSPost2010Prop49
280
     0
102
RTVSPost2010PropOp49
 70
     1
102
RTVSPost2010Prop50
 90
       50
102
RTVSPost2010PropOp50
 70
     1
102
RTVSPost2010Prop51ColorIndex
 90
      256
102
RTVSPost2010Prop51ColorRGB
 90
-16777216
102
RTVSPost2010PropOp51
 70
     0
102
RTVSPost2010Prop52
140
1.0
102
RTVSPost2010PropOp52
 70
     0
102
RTVSPost2010Prop53
 90
        2
102
RTVSPost2010PropOp53
 70
     1
102
RTVSPost2010Prop54
  1
strokes_ogs.tif
102
RTVSPost2010PropOp54
 70
     1
102
RTVSPost2010Prop55
280
     0
102
RTVSPost2010PropOp55
 70
     1
102
RTVSPost2010Prop56
140
1.0
102
RTVSPost2010PropOp56
 70
     1
102
RTVSPost2010Prop57
140
1.0
102
RTVSPost2010PropOp57
 70
     1
102
RTVSPropertyOp0
 70
     1
102
RTVSPropertyOp1
 70
     1
102
RTVSPropertyOp2
 70
     1
102
RTVSPropertyOp3
 70
     1
102
RTVSPropertyOp4
 70
     1
102
RTVSPropertyOp5
 70
     1
102
RTVSPropertyOp6
 70
     1
102
RTVSPropertyOp7
 70
     1
102
RTVSPropertyOp8
 70
     1
102
RTVSPropertyOp9
 70
     1
102
RTVSPropertyOp10
 70
     1
102
RTVSPropertyOp11
 70
     1
102
RTVSPropertyOp12
 70
     1
102
RTVSPropertyOp13
 70
     1
102
RTVSPropertyOp14
 70
     1
102
RTVSPropertyOp15
 70
     1
102
RTVSPropertyOp16
 70
     1
102
RTVSPropertyOp17
 70
     1
102
RTVSPropertyOp18
 70
     1
102
RTVSPropertyOp19
 70
     1
102
RTVSPropertyOp20
 70
     1
102
RTVSPropertyOp21
 70
     1
102
RTVSPropertyOp22
 70
     1
102
RTVSPropertyOp23
 70
     1
102
RTVSPropertyOp24
 70
     1
102
RTVSPropertyOp25
 70
     1
102
RTVSPropertyOp26
 70
     1
102
RTVSPropertyOp27
 70
     1
102
RTVSPropertyOp28
 70
     1
102
RTVSPropertyOp29
 70
     1
102
RTVSPropertyOp30
 70
     1
102
RTVSPropertyOp31
 70
     1
102
RTVSPropertyOp32
 70
     1
102
RTVSPropertyOp33
 70
     1
102
RTVSPropertyOp34
 70
     1
102
RTVSPropertyOp35
 70
     1
102
RTVSPropertyOp36
 70
     1
102
RTVSPropertyOp37
 70
     1
102
RTVSPropertyOp38
 70
     1
102
RTVSPropertyOp39
 70
     1
102
RTVSPropertyOp40
 70
     1
102
RTVSPropertyOp41
 70
     1
102
RTVSPropertyOp42
 70
     1
102
RTVSPropertyOp43
 70
     1
102
RTVSPropertyOp44
 70
     1
102
RTVSPropertyOp45
 70
     1
102
RTVSPropertyOp46
 70
     1
102
RTVSPropertyOp47
 70
     1
102
RTVSPropertyOp48
 70
     1
102
RTVSPropertyOp49
 70
     1
102
RTVSPropertyOp50
 70
     1
102
RTVSPropertyOp51
 70
     0
102
RTVSPropertyOp52
 70
     0
102
RTVSPropertyOp53
 70
     1
102
RTVSPropertyOp54
 70
     1
102
RTVSPropertyOp55
 70
     1
102
RTVSPropertyOp56
 70
     1
102
RTVSPropertyOp57
 70
     1
102
RTVSPropertyOp58
 70
     1
102
RTVSPropertyOp59
 70
     1
102
RTVSPropertyOp60
 70
     1
102
RTVSPropertyOp61
 70
     1
102
RTVSPropertyOp62
 70
     1
  0
XRECORD
  5
994DD
102
{ACAD_REACTORS
330
994DC
102
}
330
994DC
100
AcDbXrecord
280
     1
102
RTVSPost2010Prop28
280
     0
102
RTVSPost2010PropOp28
 70
     1
102
RTVSPost2010Prop29
280
     1
102
RTVSPost2010PropOp29
 70
     1
102
RTVSPost2010Prop30
280
     1
102
RTVSPost2010PropOp30
 70
     1
102
RTVSPost2010Prop31
280
     0
102
RTVSPost2010PropOp31
 70
     1
102
RTVSPost2010Prop32
280
     0
102
RTVSPost2010PropOp32
 70
     1
102
RTVSPost2010Prop33
280
     0
102
RTVSPost2010PropOp33
 70
     1
102
RTVSPost2010Prop34
280
     0
102
RTVSPost2010PropOp34
 70
     1
102
RTVSPost2010Prop35
280
     0
102
RTVSPost2010PropOp35
 70
     1
102
RTVSPost2010Prop36
280
     0
102
RTVSPost2010PropOp36
 70
     1
102
RTVSPost2010Prop37
 90
       50
102
RTVSPost2010PropOp37
 70
     1
102
RTVSPost2010Prop38
140
0.0
102
RTVSPost2010PropOp38
 70
     1
102
RTVSPost2010Prop39
140
1.0
102
RTVSPost2010PropOp39
 70
     1
102
RTVSPost2010Prop40
 90
        0
102
RTVSPost2010PropOp40
 70
     1
102
RTVSPost2010Prop41ColorIndex
 90
       18
102
RTVSPost2010Prop41ColorRGB
 90
        0
102
RTVSPost2010PropOp41
 70
     1
102
RTVSPost2010Prop42
 90
       50
102
RTVSPost2010PropOp42
 70
     1
102
RTVSPost2010Prop43
 90
        3
102
RTVSPost2010PropOp43
 70
     1
102
RTVSPost2010Prop44ColorIndex
 90
        5
102
RTVSPost2010Prop44ColorRGB
 90
      255
102
RTVSPost2010PropOp44
 70
     1
102
RTVSPost2010Prop45
280
     0
102
RTVSPost2010PropOp45
 70
     1
102
RTVSPost2010Prop46
 90
       50
102
RTVSPost2010PropOp46
 70
     1
102
RTVSPost2010Prop47
 90
       50
102
RTVSPost2010PropOp47
 70
     1
102
RTVSPost2010Prop48
 90
       50
102
RTVSPost2010PropOp48
 70
     1
102
RTVSPost2010Prop49
280
     0
102
RTVSPost2010PropOp49
 70
     1
102
RTVSPost2010Prop50
 90
       50
102
RTVSPost2010PropOp50
 70
     1
102
RTVSPost2010Prop51ColorIndex
 90
      256
102
RTVSPost2010Prop51ColorRGB
 90
-16777216
102
RTVSPost2010PropOp51
 70
     0
102
RTVSPost2010Prop52
140
1.0
102
RTVSPost2010PropOp52
 70
     0
102
RTVSPost2010Prop53
 90
        2
102
RTVSPost2010PropOp53
 70
     1
102
RTVSPost2010Prop54
  1
strokes_ogs.tif
102
RTVSPost2010PropOp54
 70
     1
102
RTVSPost2010Prop55
280
     0
102
RTVSPost2010PropOp55
 70
     1
102
RTVSPost2010Prop56
140
1.0
102
RTVSPost2010PropOp56
 70
     1
102
RTVSPost2010Prop57
140
1.0
102
RTVSPost2010PropOp57
 70
     1
102
RTVSPropertyOp0
 70
     1
102
RTVSPropertyOp1
 70
     1
102
RTVSPropertyOp2
 70
     1
102
RTVSPropertyOp3
 70
     1
102
RTVSPropertyOp4
 70
     1
102
RTVSPropertyOp5
 70
     1
102
RTVSPropertyOp6
 70
     1
102
RTVSPropertyOp7
 70
     1
102
RTVSPropertyOp8
 70
     1
102
RTVSPropertyOp9
 70
     1
102
RTVSPropertyOp10
 70
     1
102
RTVSPropertyOp11
 70
     1
102
RTVSPropertyOp12
 70
     1
102
RTVSPropertyOp13
 70
     1
102
RTVSPropertyOp14
 70
     1
102
RTVSPropertyOp15
 70
     1
102
RTVSPropertyOp16
 70
     1
102
RTVSPropertyOp17
 70
     1
102
RTVSPropertyOp18
 70
     1
102
RTVSPropertyOp19
 70
     1
102
RTVSPropertyOp20
 70
     1
102
RTVSPropertyOp21
 70
     1
102
RTVSPropertyOp22
 70
     1
102
RTVSPropertyOp23
 70
     1
102
RTVSPropertyOp24
 70
     1
102
RTVSPropertyOp25
 70
     1
102
RTVSPropertyOp26
 70
     1
102
RTVSPropertyOp27
 70
     1
102
RTVSPropertyOp28
 70
     1
102
RTVSPropertyOp29
 70
     1
102
RTVSPropertyOp30
 70
     1
102
RTVSPropertyOp31
 70
     1
102
RTVSPropertyOp32
 70
     1
102
RTVSPropertyOp33
 70
     1
102
RTVSPropertyOp34
 70
     1
102
RTVSPropertyOp35
 70
     1
102
RTVSPropertyOp36
 70
     1
102
RTVSPropertyOp37
 70
     1
102
RTVSPropertyOp38
 70
     1
102
RTVSPropertyOp39
 70
     1
102
RTVSPropertyOp40
 70
     1
102
RTVSPropertyOp41
 70
     1
102
RTVSPropertyOp42
 70
     1
102
RTVSPropertyOp43
 70
     1
102
RTVSPropertyOp44
 70
     1
102
RTVSPropertyOp45
 70
     1
102
RTVSPropertyOp46
 70
     1
102
RTVSPropertyOp47
 70
     1
102
RTVSPropertyOp48
 70
     1
102
RTVSPropertyOp49
 70
     1
102
RTVSPropertyOp50
 70
     1
102
RTVSPropertyOp51
 70
     0
102
RTVSPropertyOp52
 70
     0
102
RTVSPropertyOp53
 70
     1
102
RTVSPropertyOp54
 70
     1
102
RTVSPropertyOp55
 70
     1
102
RTVSPropertyOp56
 70
     1
102
RTVSPropertyOp57
 70
     1
102
RTVSPropertyOp58
 70
     1
102
RTVSPropertyOp59
 70
     1
102
RTVSPropertyOp60
 70
     1
102
RTVSPropertyOp61
 70
     1
102
RTVSPropertyOp62
 70
     1
  0
XRECORD
  5
994E5
102
{ACAD_REACTORS
330
994E4
102
}
330
994E4
100
AcDbXrecord
280
     1
102
RTVSPost2010Prop28
280
     0
102
RTVSPost2010PropOp28
 70
     1
102
RTVSPost2010Prop29
280
     1
102
RTVSPost2010PropOp29
 70
     1
102
RTVSPost2010Prop30
280
     1
102
RTVSPost2010PropOp30
 70
     1
102
RTVSPost2010Prop31
280
     0
102
RTVSPost2010PropOp31
 70
     1
102
RTVSPost2010Prop32
280
     0
102
RTVSPost2010PropOp32
 70
     1
102
RTVSPost2010Prop33
280
     0
102
RTVSPost2010PropOp33
 70
     1
102
RTVSPost2010Prop34
280
     0
102
RTVSPost2010PropOp34
 70
     1
102
RTVSPost2010Prop35
280
     0
102
RTVSPost2010PropOp35
 70
     1
102
RTVSPost2010Prop36
280
     0
102
RTVSPost2010PropOp36
 70
     1
102
RTVSPost2010Prop37
 90
       50
102
RTVSPost2010PropOp37
 70
     1
102
RTVSPost2010Prop38
140
0.0
102
RTVSPost2010PropOp38
 70
     1
102
RTVSPost2010Prop39
140
1.0
102
RTVSPost2010PropOp39
 70
     1
102
RTVSPost2010Prop40
 90
        0
102
RTVSPost2010PropOp40
 70
     1
102
RTVSPost2010Prop41ColorIndex
 90
       18
102
RTVSPost2010Prop41ColorRGB
 90
        0
102
RTVSPost2010PropOp41
 70
     1
102
RTVSPost2010Prop42
 90
       50
102
RTVSPost2010PropOp42
 70
     1
102
RTVSPost2010Prop43
 90
        3
102
RTVSPost2010PropOp43
 70
     1
102
RTVSPost2010Prop44ColorIndex
 90
        5
102
RTVSPost2010Prop44ColorRGB
 90
      255
102
RTVSPost2010PropOp44
 70
     1
102
RTVSPost2010Prop45
280
     0
102
RTVSPost2010PropOp45
 70
     1
102
RTVSPost2010Prop46
 90
       50
102
RTVSPost2010PropOp46
 70
     1
102
RTVSPost2010Prop47
 90
       50
102
RTVSPost2010PropOp47
 70
     1
102
RTVSPost2010Prop48
 90
       50
102
RTVSPost2010PropOp48
 70
     1
102
RTVSPost2010Prop49
280
     0
102
RTVSPost2010PropOp49
 70
     1
102
RTVSPost2010Prop50
 90
       50
102
RTVSPost2010PropOp50
 70
     1
102
RTVSPost2010Prop51ColorIndex
 90
      256
102
RTVSPost2010Prop51ColorRGB
 90
-16777216
102
RTVSPost2010PropOp51
 70
     0
102
RTVSPost2010Prop52
140
1.0
102
RTVSPost2010PropOp52
 70
     0
102
RTVSPost2010Prop53
 90
        2
102
RTVSPost2010PropOp53
 70
     1
102
RTVSPost2010Prop54
  1
strokes_ogs.tif
102
RTVSPost2010PropOp54
 70
     1
102
RTVSPost2010Prop55
280
     0
102
RTVSPost2010PropOp55
 70
     1
102
RTVSPost2010Prop56
140
1.0
102
RTVSPost2010PropOp56
 70
     1
102
RTVSPost2010Prop57
140
1.0
102
RTVSPost2010PropOp57
 70
     1
102
RTVSPropertyOp0
 70
     1
102
RTVSPropertyOp1
 70
     1
102
RTVSPropertyOp2
 70
     1
102
RTVSPropertyOp3
 70
     1
102
RTVSPropertyOp4
 70
     1
102
RTVSPropertyOp5
 70
     1
102
RTVSPropertyOp6
 70
     1
102
RTVSPropertyOp7
 70
     1
102
RTVSPropertyOp8
 70
     1
102
RTVSPropertyOp9
 70
     1
102
RTVSPropertyOp10
 70
     1
102
RTVSPropertyOp11
 70
     1
102
RTVSPropertyOp12
 70
     1
102
RTVSPropertyOp13
 70
     1
102
RTVSPropertyOp14
 70
     1
102
RTVSPropertyOp15
 70
     1
102
RTVSPropertyOp16
 70
     1
102
RTVSPropertyOp17
 70
     1
102
RTVSPropertyOp18
 70
     1
102
RTVSPropertyOp19
 70
     1
102
RTVSPropertyOp20
 70
     1
102
RTVSPropertyOp21
 70
     1
102
RTVSPropertyOp22
 70
     1
102
RTVSPropertyOp23
 70
     1
102
RTVSPropertyOp24
 70
     1
102
RTVSPropertyOp25
 70
     1
102
RTVSPropertyOp26
 70
     1
102
RTVSPropertyOp27
 70
     1
102
RTVSPropertyOp28
 70
     1
102
RTVSPropertyOp29
 70
     1
102
RTVSPropertyOp30
 70
     1
102
RTVSPropertyOp31
 70
     1
102
RTVSPropertyOp32
 70
     1
102
RTVSPropertyOp33
 70
     1
102
RTVSPropertyOp34
 70
     1
102
RTVSPropertyOp35
 70
     1
102
RTVSPropertyOp36
 70
     1
102
RTVSPropertyOp37
 70
     1
102
RTVSPropertyOp38
 70
     1
102
RTVSPropertyOp39
 70
     1
102
RTVSPropertyOp40
 70
     1
102
RTVSPropertyOp41
 70
     1
102
RTVSPropertyOp42
 70
     1
102
RTVSPropertyOp43
 70
     1
102
RTVSPropertyOp44
 70
     1
102
RTVSPropertyOp45
 70
     1
102
RTVSPropertyOp46
 70
     1
102
RTVSPropertyOp47
 70
     1
102
RTVSPropertyOp48
 70
     1
102
RTVSPropertyOp49
 70
     1
102
RTVSPropertyOp50
 70
     1
102
RTVSPropertyOp51
 70
     0
102
RTVSPropertyOp52
 70
     0
102
RTVSPropertyOp53
 70
     1
102
RTVSPropertyOp54
 70
     1
102
RTVSPropertyOp55
 70
     1
102
RTVSPropertyOp56
 70
     1
102
RTVSPropertyOp57
 70
     1
102
RTVSPropertyOp58
 70
     1
102
RTVSPropertyOp59
 70
     1
102
RTVSPropertyOp60
 70
     1
102
RTVSPropertyOp61
 70
     1
102
RTVSPropertyOp62
 70
     1
  0
XRECORD
  5
994D7
102
{ACAD_REACTORS
330
994D6
102
}
330
994D6
100
AcDbXrecord
280
     1
102
RTVSPost2010Prop28
280
     0
102
RTVSPost2010PropOp28
 70
     1
102
RTVSPost2010Prop29
280
     1
102
RTVSPost2010PropOp29
 70
     1
102
RTVSPost2010Prop30
280
     1
102
RTVSPost2010PropOp30
 70
     1
102
RTVSPost2010Prop31
280
     0
102
RTVSPost2010PropOp31
 70
     1
102
RTVSPost2010Prop32
280
     0
102
RTVSPost2010PropOp32
 70
     1
102
RTVSPost2010Prop33
280
     0
102
RTVSPost2010PropOp33
 70
     1
102
RTVSPost2010Prop34
280
     0
102
RTVSPost2010PropOp34
 70
     1
102
RTVSPost2010Prop35
280
     0
102
RTVSPost2010PropOp35
 70
     1
102
RTVSPost2010Prop36
280
     0
102
RTVSPost2010PropOp36
 70
     1
102
RTVSPost2010Prop37
 90
       50
102
RTVSPost2010PropOp37
 70
     1
102
RTVSPost2010Prop38
140
0.0
102
RTVSPost2010PropOp38
 70
     1
102
RTVSPost2010Prop39
140
1.0
102
RTVSPost2010PropOp39
 70
     1
102
RTVSPost2010Prop40
 90
        0
102
RTVSPost2010PropOp40
 70
     1
102
RTVSPost2010Prop41ColorIndex
 90
       18
102
RTVSPost2010Prop41ColorRGB
 90
        0
102
RTVSPost2010PropOp41
 70
     1
102
RTVSPost2010Prop42
 90
       50
102
RTVSPost2010PropOp42
 70
     1
102
RTVSPost2010Prop43
 90
        3
102
RTVSPost2010PropOp43
 70
     1
102
RTVSPost2010Prop44ColorIndex
 90
        5
102
RTVSPost2010Prop44ColorRGB
 90
      255
102
RTVSPost2010PropOp44
 70
     1
102
RTVSPost2010Prop45
280
     0
102
RTVSPost2010PropOp45
 70
     1
102
RTVSPost2010Prop46
 90
       50
102
RTVSPost2010PropOp46
 70
     1
102
RTVSPost2010Prop47
 90
       50
102
RTVSPost2010PropOp47
 70
     1
102
RTVSPost2010Prop48
 90
       50
102
RTVSPost2010PropOp48
 70
     1
102
RTVSPost2010Prop49
280
     0
102
RTVSPost2010PropOp49
 70
     1
102
RTVSPost2010Prop50
 90
       50
102
RTVSPost2010PropOp50
 70
     1
102
RTVSPost2010Prop51ColorIndex
 90
      256
102
RTVSPost2010Prop51ColorRGB
 90
-16777216
102
RTVSPost2010PropOp51
 70
     0
102
RTVSPost2010Prop52
140
1.0
102
RTVSPost2010PropOp52
 70
     0
102
RTVSPost2010Prop53
 90
        2
102
RTVSPost2010PropOp53
 70
     1
102
RTVSPost2010Prop54
  1
strokes_ogs.tif
102
RTVSPost2010PropOp54
 70
     1
102
RTVSPost2010Prop55
280
     0
102
RTVSPost2010PropOp55
 70
     1
102
RTVSPost2010Prop56
140
1.0
102
RTVSPost2010PropOp56
 70
     1
102
RTVSPost2010Prop57
140
1.0
102
RTVSPost2010PropOp57
 70
     1
102
RTVSPropertyOp0
 70
     1
102
RTVSPropertyOp1
 70
     1
102
RTVSPropertyOp2
 70
     1
102
RTVSPropertyOp3
 70
     1
102
RTVSPropertyOp4
 70
     1
102
RTVSPropertyOp5
 70
     1
102
RTVSPropertyOp6
 70
     1
102
RTVSPropertyOp7
 70
     1
102
RTVSPropertyOp8
 70
     1
102
RTVSPropertyOp9
 70
     1
102
RTVSPropertyOp10
 70
     1
102
RTVSPropertyOp11
 70
     1
102
RTVSPropertyOp12
 70
     1
102
RTVSPropertyOp13
 70
     1
102
RTVSPropertyOp14
 70
     1
102
RTVSPropertyOp15
 70
     1
102
RTVSPropertyOp16
 70
     1
102
RTVSPropertyOp17
 70
     1
102
RTVSPropertyOp18
 70
     1
102
RTVSPropertyOp19
 70
     1
102
RTVSPropertyOp20
 70
     1
102
RTVSPropertyOp21
 70
     1
102
RTVSPropertyOp22
 70
     1
102
RTVSPropertyOp23
 70
     1
102
RTVSPropertyOp24
 70
     1
102
RTVSPropertyOp25
 70
     1
102
RTVSPropertyOp26
 70
     1
102
RTVSPropertyOp27
 70
     1
102
RTVSPropertyOp28
 70
     1
102
RTVSPropertyOp29
 70
     1
102
RTVSPropertyOp30
 70
     1
102
RTVSPropertyOp31
 70
     1
102
RTVSPropertyOp32
 70
     1
102
RTVSPropertyOp33
 70
     1
102
RTVSPropertyOp34
 70
     1
102
RTVSPropertyOp35
 70
     1
102
RTVSPropertyOp36
 70
     1
102
RTVSPropertyOp37
 70
     1
102
RTVSPropertyOp38
 70
     1
102
RTVSPropertyOp39
 70
     1
102
RTVSPropertyOp40
 70
     1
102
RTVSPropertyOp41
 70
     1
102
RTVSPropertyOp42
 70
     1
102
RTVSPropertyOp43
 70
     1
102
RTVSPropertyOp44
 70
     1
102
RTVSPropertyOp45
 70
     1
102
RTVSPropertyOp46
 70
     1
102
RTVSPropertyOp47
 70
     1
102
RTVSPropertyOp48
 70
     1
102
RTVSPropertyOp49
 70
     1
102
RTVSPropertyOp50
 70
     1
102
RTVSPropertyOp51
 70
     0
102
RTVSPropertyOp52
 70
     0
102
RTVSPropertyOp53
 70
     1
102
RTVSPropertyOp54
 70
     1
102
RTVSPropertyOp55
 70
     1
102
RTVSPropertyOp56
 70
     1
102
RTVSPropertyOp57
 70
     1
102
RTVSPropertyOp58
 70
     1
102
RTVSPropertyOp59
 70
     1
102
RTVSPropertyOp60
 70
     1
102
RTVSPropertyOp61
 70
     1
102
RTVSPropertyOp62
 70
     1
  0
XRECORD
  5
994DB
102
{ACAD_REACTORS
330
994DA
102
}
330
994DA
100
AcDbXrecord
280
     1
102
RTVSPost2010Prop28
280
     0
102
RTVSPost2010PropOp28
 70
     1
102
RTVSPost2010Prop29
280
     1
102
RTVSPost2010PropOp29
 70
     1
102
RTVSPost2010Prop30
280
     1
102
RTVSPost2010PropOp30
 70
     1
102
RTVSPost2010Prop31
280
     0
102
RTVSPost2010PropOp31
 70
     1
102
RTVSPost2010Prop32
280
     0
102
RTVSPost2010PropOp32
 70
     1
102
RTVSPost2010Prop33
280
     0
102
RTVSPost2010PropOp33
 70
     1
102
RTVSPost2010Prop34
280
     0
102
RTVSPost2010PropOp34
 70
     1
102
RTVSPost2010Prop35
280
     0
102
RTVSPost2010PropOp35
 70
     1
102
RTVSPost2010Prop36
280
     0
102
RTVSPost2010PropOp36
 70
     1
102
RTVSPost2010Prop37
 90
       50
102
RTVSPost2010PropOp37
 70
     1
102
RTVSPost2010Prop38
140
0.0
102
RTVSPost2010PropOp38
 70
     1
102
RTVSPost2010Prop39
140
1.0
102
RTVSPost2010PropOp39
 70
     1
102
RTVSPost2010Prop40
 90
        0
102
RTVSPost2010PropOp40
 70
     1
102
RTVSPost2010Prop41ColorIndex
 90
       18
102
RTVSPost2010Prop41ColorRGB
 90
        0
102
RTVSPost2010PropOp41
 70
     1
102
RTVSPost2010Prop42
 90
       50
102
RTVSPost2010PropOp42
 70
     1
102
RTVSPost2010Prop43
 90
        3
102
RTVSPost2010PropOp43
 70
     1
102
RTVSPost2010Prop44ColorIndex
 90
        5
102
RTVSPost2010Prop44ColorRGB
 90
      255
102
RTVSPost2010PropOp44
 70
     1
102
RTVSPost2010Prop45
280
     0
102
RTVSPost2010PropOp45
 70
     1
102
RTVSPost2010Prop46
 90
       50
102
RTVSPost2010PropOp46
 70
     1
102
RTVSPost2010Prop47
 90
       50
102
RTVSPost2010PropOp47
 70
     1
102
RTVSPost2010Prop48
 90
       50
102
RTVSPost2010PropOp48
 70
     1
102
RTVSPost2010Prop49
280
     0
102
RTVSPost2010PropOp49
 70
     1
102
RTVSPost2010Prop50
 90
       50
102
RTVSPost2010PropOp50
 70
     1
102
RTVSPost2010Prop51ColorIndex
 90
      256
102
RTVSPost2010Prop51ColorRGB
 90
-16777216
102
RTVSPost2010PropOp51
 70
     0
102
RTVSPost2010Prop52
140
1.0
102
RTVSPost2010PropOp52
 70
     0
102
RTVSPost2010Prop53
 90
        2
102
RTVSPost2010PropOp53
 70
     1
102
RTVSPost2010Prop54
  1
strokes_ogs.tif
102
RTVSPost2010PropOp54
 70
     1
102
RTVSPost2010Prop55
280
     0
102
RTVSPost2010PropOp55
 70
     1
102
RTVSPost2010Prop56
140
1.0
102
RTVSPost2010PropOp56
 70
     1
102
RTVSPost2010Prop57
140
1.0
102
RTVSPost2010PropOp57
 70
     1
102
RTVSPropertyOp0
 70
     1
102
RTVSPropertyOp1
 70
     1
102
RTVSPropertyOp2
 70
     1
102
RTVSPropertyOp3
 70
     1
102
RTVSPropertyOp4
 70
     1
102
RTVSPropertyOp5
 70
     1
102
RTVSPropertyOp6
 70
     1
102
RTVSPropertyOp7
 70
     1
102
RTVSPropertyOp8
 70
     1
102
RTVSPropertyOp9
 70
     1
102
RTVSPropertyOp10
 70
     1
102
RTVSPropertyOp11
 70
     1
102
RTVSPropertyOp12
 70
     1
102
RTVSPropertyOp13
 70
     1
102
RTVSPropertyOp14
 70
     1
102
RTVSPropertyOp15
 70
     1
102
RTVSPropertyOp16
 70
     1
102
RTVSPropertyOp17
 70
     1
102
RTVSPropertyOp18
 70
     1
102
RTVSPropertyOp19
 70
     1
102
RTVSPropertyOp20
 70
     1
102
RTVSPropertyOp21
 70
     1
102
RTVSPropertyOp22
 70
     1
102
RTVSPropertyOp23
 70
     1
102
RTVSPropertyOp24
 70
     1
102
RTVSPropertyOp25
 70
     1
102
RTVSPropertyOp26
 70
     1
102
RTVSPropertyOp27
 70
     1
102
RTVSPropertyOp28
 70
     1
102
RTVSPropertyOp29
 70
     1
102
RTVSPropertyOp30
 70
     1
102
RTVSPropertyOp31
 70
     1
102
RTVSPropertyOp32
 70
     1
102
RTVSPropertyOp33
 70
     1
102
RTVSPropertyOp34
 70
     1
102
RTVSPropertyOp35
 70
     1
102
RTVSPropertyOp36
 70
     1
102
RTVSPropertyOp37
 70
     1
102
RTVSPropertyOp38
 70
     1
102
RTVSPropertyOp39
 70
     1
102
RTVSPropertyOp40
 70
     1
102
RTVSPropertyOp41
 70
     1
102
RTVSPropertyOp42
 70
     1
102
RTVSPropertyOp43
 70
     1
102
RTVSPropertyOp44
 70
     1
102
RTVSPropertyOp45
 70
     1
102
RTVSPropertyOp46
 70
     1
102
RTVSPropertyOp47
 70
     1
102
RTVSPropertyOp48
 70
     1
102
RTVSPropertyOp49
 70
     1
102
RTVSPropertyOp50
 70
     1
102
RTVSPropertyOp51
 70
     0
102
RTVSPropertyOp52
 70
     0
102
RTVSPropertyOp53
 70
     1
102
RTVSPropertyOp54
 70
     1
102
RTVSPropertyOp55
 70
     1
102
RTVSPropertyOp56
 70
     1
102
RTVSPropertyOp57
 70
     1
102
RTVSPropertyOp58
 70
     1
102
RTVSPropertyOp59
 70
     1
102
RTVSPropertyOp60
 70
     1
102
RTVSPropertyOp61
 70
     1
102
RTVSPropertyOp62
 70
     1
  0
XRECORD
  5
994FA
102
{ACAD_REACTORS
330
994F9
102
}
330
994F9
100
AcDbXrecord
280
     1
102
RTVSPost2010Prop28
280
     0
102
RTVSPost2010PropOp28
 70
     0
102
RTVSPost2010Prop29
280
     1
102
RTVSPost2010PropOp29
 70
     0
102
RTVSPost2010Prop30
280
     1
102
RTVSPost2010PropOp30
 70
     0
102
RTVSPost2010Prop31
280
     0
102
RTVSPost2010PropOp31
 70
     0
102
RTVSPost2010Prop32
280
     0
102
RTVSPost2010PropOp32
 70
     0
102
RTVSPost2010Prop33
280
     0
102
RTVSPost2010PropOp33
 70
     1
102
RTVSPost2010Prop34
280
     0
102
RTVSPost2010PropOp34
 70
     1
102
RTVSPost2010Prop35
280
     0
102
RTVSPost2010PropOp35
 70
     1
102
RTVSPost2010Prop36
280
     0
102
RTVSPost2010PropOp36
 70
     1
102
RTVSPost2010Prop37
 90
       50
102
RTVSPost2010PropOp37
 70
     1
102
RTVSPost2010Prop38
140
0.0
102
RTVSPost2010PropOp38
 70
     1
102
RTVSPost2010Prop39
140
1.0
102
RTVSPost2010PropOp39
 70
     1
102
RTVSPost2010Prop40
 90
        0
102
RTVSPost2010PropOp40
 70
     1
102
RTVSPost2010Prop41ColorIndex
 90
       18
102
RTVSPost2010Prop41ColorRGB
 90
        0
102
RTVSPost2010PropOp41
 70
     1
102
RTVSPost2010Prop42
 90
       50
102
RTVSPost2010PropOp42
 70
     1
102
RTVSPost2010Prop43
 90
        3
102
RTVSPost2010PropOp43
 70
     1
102
RTVSPost2010Prop44ColorIndex
 90
        5
102
RTVSPost2010Prop44ColorRGB
 90
      255
102
RTVSPost2010PropOp44
 70
     1
102
RTVSPost2010Prop45
280
     0
102
RTVSPost2010PropOp45
 70
     1
102
RTVSPost2010Prop46
 90
       50
102
RTVSPost2010PropOp46
 70
     1
102
RTVSPost2010Prop47
 90
       50
102
RTVSPost2010PropOp47
 70
     1
102
RTVSPost2010Prop48
 90
       50
102
RTVSPost2010PropOp48
 70
     1
102
RTVSPost2010Prop49
280
     0
102
RTVSPost2010PropOp49
 70
     1
102
RTVSPost2010Prop50
 90
       50
102
RTVSPost2010PropOp50
 70
     1
102
RTVSPost2010Prop51ColorIndex
 90
      256
102
RTVSPost2010Prop51ColorRGB
 90
-16777216
102
RTVSPost2010PropOp51
 70
     0
102
RTVSPost2010Prop52
140
1.0
102
RTVSPost2010PropOp52
 70
     0
102
RTVSPost2010Prop53
 90
        2
102
RTVSPost2010PropOp53
 70
     1
102
RTVSPost2010Prop54
  1
strokes_ogs.tif
102
RTVSPost2010PropOp54
 70
     1
102
RTVSPost2010Prop55
280
     0
102
RTVSPost2010PropOp55
 70
     1
102
RTVSPost2010Prop56
140
1.0
102
RTVSPost2010PropOp56
 70
     1
102
RTVSPost2010Prop57
140
1.0
102
RTVSPost2010PropOp57
 70
     1
102
RTVSPropertyOp0
 70
     0
102
RTVSPropertyOp1
 70
     0
102
RTVSPropertyOp2
 70
     0
102
RTVSPropertyOp3
 70
     0
102
RTVSPropertyOp4
 70
     0
102
RTVSPropertyOp5
 70
     0
102
RTVSPropertyOp6
 70
     0
102
RTVSPropertyOp7
 70
     0
102
RTVSPropertyOp8
 70
     0
102
RTVSPropertyOp9
 70
     0
102
RTVSPropertyOp10
 70
     0
102
RTVSPropertyOp11
 70
     0
102
RTVSPropertyOp12
 70
     0
102
RTVSPropertyOp13
 70
     0
102
RTVSPropertyOp14
 70
     2
102
RTVSPropertyOp15
 70
     0
102
RTVSPropertyOp16
 70
     0
102
RTVSPropertyOp17
 70
     0
102
RTVSPropertyOp18
 70
     0
102
RTVSPropertyOp19
 70
     0
102
RTVSPropertyOp20
 70
     0
102
RTVSPropertyOp21
 70
     0
102
RTVSPropertyOp22
 70
     0
102
RTVSPropertyOp23
 70
     0
102
RTVSPropertyOp24
 70
     0
102
RTVSPropertyOp25
 70
     0
102
RTVSPropertyOp26
 70
     0
102
RTVSPropertyOp27
 70
     0
102
RTVSPropertyOp28
 70
     0
102
RTVSPropertyOp29
 70
     0
102
RTVSPropertyOp30
 70
     0
102
RTVSPropertyOp31
 70
     0
102
RTVSPropertyOp32
 70
     0
102
RTVSPropertyOp33
 70
     1
102
RTVSPropertyOp34
 70
     1
102
RTVSPropertyOp35
 70
     1
102
RTVSPropertyOp36
 70
     1
102
RTVSPropertyOp37
 70
     1
102
RTVSPropertyOp38
 70
     1
102
RTVSPropertyOp39
 70
     1
102
RTVSPropertyOp40
 70
     1
102
RTVSPropertyOp41
 70
     1
102
RTVSPropertyOp42
 70
     1
102
RTVSPropertyOp43
 70
     1
102
RTVSPropertyOp44
 70
     1
102
RTVSPropertyOp45
 70
     1
102
RTVSPropertyOp46
 70
     1
102
RTVSPropertyOp47
 70
     1
102
RTVSPropertyOp48
 70
     1
102
RTVSPropertyOp49
 70
     1
102
RTVSPropertyOp50
 70
     1
102
RTVSPropertyOp51
 70
     0
102
RTVSPropertyOp52
 70
     0
102
RTVSPropertyOp53
 70
     1
102
RTVSPropertyOp54
 70
     1
102
RTVSPropertyOp55
 70
     1
102
RTVSPropertyOp56
 70
     1
102
RTVSPropertyOp57
 70
     1
102
RTVSPropertyOp58
 70
     1
102
RTVSPropertyOp59
 70
     1
102
RTVSPropertyOp60
 70
     1
102
RTVSPropertyOp61
 70
     1
102
RTVSPropertyOp62
 70
     1
  0
XRECORD
  5
994E3
102
{ACAD_REACTORS
330
994E2
102
}
330
994E2
100
AcDbXrecord
280
     1
102
RTVSPost2010Prop28
280
     0
102
RTVSPost2010PropOp28
 70
     1
102
RTVSPost2010Prop29
280
     1
102
RTVSPost2010PropOp29
 70
     1
102
RTVSPost2010Prop30
280
     1
102
RTVSPost2010PropOp30
 70
     1
102
RTVSPost2010Prop31
280
     0
102
RTVSPost2010PropOp31
 70
     1
102
RTVSPost2010Prop32
280
     0
102
RTVSPost2010PropOp32
 70
     1
102
RTVSPost2010Prop33
280
     0
102
RTVSPost2010PropOp33
 70
     1
102
RTVSPost2010Prop34
280
     0
102
RTVSPost2010PropOp34
 70
     1
102
RTVSPost2010Prop35
280
     0
102
RTVSPost2010PropOp35
 70
     1
102
RTVSPost2010Prop36
280
     0
102
RTVSPost2010PropOp36
 70
     1
102
RTVSPost2010Prop37
 90
       50
102
RTVSPost2010PropOp37
 70
     1
102
RTVSPost2010Prop38
140
0.0
102
RTVSPost2010PropOp38
 70
     1
102
RTVSPost2010Prop39
140
1.0
102
RTVSPost2010PropOp39
 70
     1
102
RTVSPost2010Prop40
 90
        0
102
RTVSPost2010PropOp40
 70
     1
102
RTVSPost2010Prop41ColorIndex
 90
       18
102
RTVSPost2010Prop41ColorRGB
 90
        0
102
RTVSPost2010PropOp41
 70
     1
102
RTVSPost2010Prop42
 90
       50
102
RTVSPost2010PropOp42
 70
     1
102
RTVSPost2010Prop43
 90
        3
102
RTVSPost2010PropOp43
 70
     1
102
RTVSPost2010Prop44ColorIndex
 90
        5
102
RTVSPost2010Prop44ColorRGB
 90
      255
102
RTVSPost2010PropOp44
 70
     1
102
RTVSPost2010Prop45
280
     0
102
RTVSPost2010PropOp45
 70
     1
102
RTVSPost2010Prop46
 90
       50
102
RTVSPost2010PropOp46
 70
     1
102
RTVSPost2010Prop47
 90
       50
102
RTVSPost2010PropOp47
 70
     1
102
RTVSPost2010Prop48
 90
       50
102
RTVSPost2010PropOp48
 70
     1
102
RTVSPost2010Prop49
280
     0
102
RTVSPost2010PropOp49
 70
     1
102
RTVSPost2010Prop50
 90
       50
102
RTVSPost2010PropOp50
 70
     1
102
RTVSPost2010Prop51ColorIndex
 90
      256
102
RTVSPost2010Prop51ColorRGB
 90
-16777216
102
RTVSPost2010PropOp51
 70
     0
102
RTVSPost2010Prop52
140
1.0
102
RTVSPost2010PropOp52
 70
     0
102
RTVSPost2010Prop53
 90
        2
102
RTVSPost2010PropOp53
 70
     1
102
RTVSPost2010Prop54
  1
strokes_ogs.tif
102
RTVSPost2010PropOp54
 70
     1
102
RTVSPost2010Prop55
280
     0
102
RTVSPost2010PropOp55
 70
     1
102
RTVSPost2010Prop56
140
1.0
102
RTVSPost2010PropOp56
 70
     1
102
RTVSPost2010Prop57
140
1.0
102
RTVSPost2010PropOp57
 70
     1
102
RTVSPropertyOp0
 70
     1
102
RTVSPropertyOp1
 70
     1
102
RTVSPropertyOp2
 70
     1
102
RTVSPropertyOp3
 70
     1
102
RTVSPropertyOp4
 70
     1
102
RTVSPropertyOp5
 70
     1
102
RTVSPropertyOp6
 70
     1
102
RTVSPropertyOp7
 70
     1
102
RTVSPropertyOp8
 70
     1
102
RTVSPropertyOp9
 70
     1
102
RTVSPropertyOp10
 70
     1
102
RTVSPropertyOp11
 70
     1
102
RTVSPropertyOp12
 70
     1
102
RTVSPropertyOp13
 70
     1
102
RTVSPropertyOp14
 70
     1
102
RTVSPropertyOp15
 70
     1
102
RTVSPropertyOp16
 70
     1
102
RTVSPropertyOp17
 70
     1
102
RTVSPropertyOp18
 70
     1
102
RTVSPropertyOp19
 70
     1
102
RTVSPropertyOp20
 70
     1
102
RTVSPropertyOp21
 70
     1
102
RTVSPropertyOp22
 70
     1
102
RTVSPropertyOp23
 70
     1
102
RTVSPropertyOp24
 70
     1
102
RTVSPropertyOp25
 70
     1
102
RTVSPropertyOp26
 70
     1
102
RTVSPropertyOp27
 70
     1
102
RTVSPropertyOp28
 70
     1
102
RTVSPropertyOp29
 70
     1
102
RTVSPropertyOp30
 70
     1
102
RTVSPropertyOp31
 70
     1
102
RTVSPropertyOp32
 70
     1
102
RTVSPropertyOp33
 70
     1
102
RTVSPropertyOp34
 70
     1
102
RTVSPropertyOp35
 70
     1
102
RTVSPropertyOp36
 70
     1
102
RTVSPropertyOp37
 70
     1
102
RTVSPropertyOp38
 70
     1
102
RTVSPropertyOp39
 70
     1
102
RTVSPropertyOp40
 70
     1
102
RTVSPropertyOp41
 70
     1
102
RTVSPropertyOp42
 70
     1
102
RTVSPropertyOp43
 70
     1
102
RTVSPropertyOp44
 70
     1
102
RTVSPropertyOp45
 70
     1
102
RTVSPropertyOp46
 70
     1
102
RTVSPropertyOp47
 70
     1
102
RTVSPropertyOp48
 70
     1
102
RTVSPropertyOp49
 70
     1
102
RTVSPropertyOp50
 70
     1
102
RTVSPropertyOp51
 70
     0
102
RTVSPropertyOp52
 70
     0
102
RTVSPropertyOp53
 70
     1
102
RTVSPropertyOp54
 70
     1
102
RTVSPropertyOp55
 70
     1
102
RTVSPropertyOp56
 70
     1
102
RTVSPropertyOp57
 70
     1
102
RTVSPropertyOp58
 70
     1
102
RTVSPropertyOp59
 70
     1
102
RTVSPropertyOp60
 70
     1
102
RTVSPropertyOp61
 70
     1
102
RTVSPropertyOp62
 70
     1
  0
XRECORD
  5
994C7
102
{ACAD_REACTORS
330
994C6
102
}
330
994C6
100
AcDbXrecord
280
     1
102
RTVSPost2010Prop28
280
     0
102
RTVSPost2010PropOp28
 70
     1
102
RTVSPost2010Prop29
280
     1
102
RTVSPost2010PropOp29
 70
     1
102
RTVSPost2010Prop30
280
     1
102
RTVSPost2010PropOp30
 70
     1
102
RTVSPost2010Prop31
280
     0
102
RTVSPost2010PropOp31
 70
     1
102
RTVSPost2010Prop32
280
     0
102
RTVSPost2010PropOp32
 70
     1
102
RTVSPost2010Prop33
280
     0
102
RTVSPost2010PropOp33
 70
     1
102
RTVSPost2010Prop34
280
     0
102
RTVSPost2010PropOp34
 70
     1
102
RTVSPost2010Prop35
280
     0
102
RTVSPost2010PropOp35
 70
     1
102
RTVSPost2010Prop36
280
     0
102
RTVSPost2010PropOp36
 70
     1
102
RTVSPost2010Prop37
 90
       50
102
RTVSPost2010PropOp37
 70
     1
102
RTVSPost2010Prop38
140
0.0
102
RTVSPost2010PropOp38
 70
     1
102
RTVSPost2010Prop39
140
1.0
102
RTVSPost2010PropOp39
 70
     1
102
RTVSPost2010Prop40
 90
        0
102
RTVSPost2010PropOp40
 70
     1
102
RTVSPost2010Prop41ColorIndex
 90
       18
102
RTVSPost2010Prop41ColorRGB
 90
        0
102
RTVSPost2010PropOp41
 70
     1
102
RTVSPost2010Prop42
 90
       50
102
RTVSPost2010PropOp42
 70
     1
102
RTVSPost2010Prop43
 90
        3
102
RTVSPost2010PropOp43
 70
     1
102
RTVSPost2010Prop44ColorIndex
 90
        5
102
RTVSPost2010Prop44ColorRGB
 90
      255
102
RTVSPost2010PropOp44
 70
     1
102
RTVSPost2010Prop45
280
     0
102
RTVSPost2010PropOp45
 70
     1
102
RTVSPost2010Prop46
 90
       50
102
RTVSPost2010PropOp46
 70
     1
102
RTVSPost2010Prop47
 90
       50
102
RTVSPost2010PropOp47
 70
     1
102
RTVSPost2010Prop48
 90
       50
102
RTVSPost2010PropOp48
 70
     1
102
RTVSPost2010Prop49
280
     0
102
RTVSPost2010PropOp49
 70
     1
102
RTVSPost2010Prop50
 90
       50
102
RTVSPost2010PropOp50
 70
     1
102
RTVSPost2010Prop51ColorIndex
 90
      256
102
RTVSPost2010Prop51ColorRGB
 90
-16777216
102
RTVSPost2010PropOp51
 70
     0
102
RTVSPost2010Prop52
140
1.0
102
RTVSPost2010PropOp52
 70
     0
102
RTVSPost2010Prop53
 90
        2
102
RTVSPost2010PropOp53
 70
     1
102
RTVSPost2010Prop54
  1
strokes_ogs.tif
102
RTVSPost2010PropOp54
 70
     1
102
RTVSPost2010Prop55
280
     0
102
RTVSPost2010PropOp55
 70
     1
102
RTVSPost2010Prop56
140
1.0
102
RTVSPost2010PropOp56
 70
     1
102
RTVSPost2010Prop57
140
1.0
102
RTVSPost2010PropOp57
 70
     1
102
RTVSPropertyOp0
 70
     1
102
RTVSPropertyOp1
 70
     1
102
RTVSPropertyOp2
 70
     1
102
RTVSPropertyOp3
 70
     1
102
RTVSPropertyOp4
 70
     1
102
RTVSPropertyOp5
 70
     1
102
RTVSPropertyOp6
 70
     1
102
RTVSPropertyOp7
 70
     1
102
RTVSPropertyOp8
 70
     1
102
RTVSPropertyOp9
 70
     1
102
RTVSPropertyOp10
 70
     1
102
RTVSPropertyOp11
 70
     1
102
RTVSPropertyOp12
 70
     1
102
RTVSPropertyOp13
 70
     1
102
RTVSPropertyOp14
 70
     1
102
RTVSPropertyOp15
 70
     1
102
RTVSPropertyOp16
 70
     1
102
RTVSPropertyOp17
 70
     1
102
RTVSPropertyOp18
 70
     1
102
RTVSPropertyOp19
 70
     1
102
RTVSPropertyOp20
 70
     1
102
RTVSPropertyOp21
 70
     1
102
RTVSPropertyOp22
 70
     1
102
RTVSPropertyOp23
 70
     1
102
RTVSPropertyOp24
 70
     1
102
RTVSPropertyOp25
 70
     1
102
RTVSPropertyOp26
 70
     1
102
RTVSPropertyOp27
 70
     1
102
RTVSPropertyOp28
 70
     1
102
RTVSPropertyOp29
 70
     1
102
RTVSPropertyOp30
 70
     1
102
RTVSPropertyOp31
 70
     1
102
RTVSPropertyOp32
 70
     1
102
RTVSPropertyOp33
 70
     1
102
RTVSPropertyOp34
 70
     1
102
RTVSPropertyOp35
 70
     1
102
RTVSPropertyOp36
 70
     1
102
RTVSPropertyOp37
 70
     1
102
RTVSPropertyOp38
 70
     1
102
RTVSPropertyOp39
 70
     1
102
RTVSPropertyOp40
 70
     1
102
RTVSPropertyOp41
 70
     1
102
RTVSPropertyOp42
 70
     1
102
RTVSPropertyOp43
 70
     1
102
RTVSPropertyOp44
 70
     1
102
RTVSPropertyOp45
 70
     1
102
RTVSPropertyOp46
 70
     1
102
RTVSPropertyOp47
 70
     1
102
RTVSPropertyOp48
 70
     1
102
RTVSPropertyOp49
 70
     1
102
RTVSPropertyOp50
 70
     1
102
RTVSPropertyOp51
 70
     0
102
RTVSPropertyOp52
 70
     0
102
RTVSPropertyOp53
 70
     1
102
RTVSPropertyOp54
 70
     1
102
RTVSPropertyOp55
 70
     1
102
RTVSPropertyOp56
 70
     1
102
RTVSPropertyOp57
 70
     1
102
RTVSPropertyOp58
 70
     1
102
RTVSPropertyOp59
 70
     1
102
RTVSPropertyOp60
 70
     1
102
RTVSPropertyOp61
 70
     1
102
RTVSPropertyOp62
 70
     1
  0
XRECORD
  5
994C9
102
{ACAD_REACTORS
330
994C8
102
}
330
994C8
100
AcDbXrecord
280
     1
102
RTVSPost2010Prop28
280
     0
102
RTVSPost2010PropOp28
 70
     1
102
RTVSPost2010Prop29
280
     1
102
RTVSPost2010PropOp29
 70
     1
102
RTVSPost2010Prop30
280
     1
102
RTVSPost2010PropOp30
 70
     1
102
RTVSPost2010Prop31
280
     0
102
RTVSPost2010PropOp31
 70
     1
102
RTVSPost2010Prop32
280
     0
102
RTVSPost2010PropOp32
 70
     1
102
RTVSPost2010Prop33
280
     0
102
RTVSPost2010PropOp33
 70
     1
102
RTVSPost2010Prop34
280
     0
102
RTVSPost2010PropOp34
 70
     1
102
RTVSPost2010Prop35
280
     0
102
RTVSPost2010PropOp35
 70
     1
102
RTVSPost2010Prop36
280
     0
102
RTVSPost2010PropOp36
 70
     1
102
RTVSPost2010Prop37
 90
       50
102
RTVSPost2010PropOp37
 70
     1
102
RTVSPost2010Prop38
140
0.0
102
RTVSPost2010PropOp38
 70
     1
102
RTVSPost2010Prop39
140
1.0
102
RTVSPost2010PropOp39
 70
     1
102
RTVSPost2010Prop40
 90
        0
102
RTVSPost2010PropOp40
 70
     1
102
RTVSPost2010Prop41ColorIndex
 90
       18
102
RTVSPost2010Prop41ColorRGB
 90
        0
102
RTVSPost2010PropOp41
 70
     1
102
RTVSPost2010Prop42
 90
       50
102
RTVSPost2010PropOp42
 70
     1
102
RTVSPost2010Prop43
 90
        3
102
RTVSPost2010PropOp43
 70
     1
102
RTVSPost2010Prop44ColorIndex
 90
        5
102
RTVSPost2010Prop44ColorRGB
 90
      255
102
RTVSPost2010PropOp44
 70
     1
102
RTVSPost2010Prop45
280
     0
102
RTVSPost2010PropOp45
 70
     1
102
RTVSPost2010Prop46
 90
       50
102
RTVSPost2010PropOp46
 70
     1
102
RTVSPost2010Prop47
 90
       50
102
RTVSPost2010PropOp47
 70
     1
102
RTVSPost2010Prop48
 90
       50
102
RTVSPost2010PropOp48
 70
     1
102
RTVSPost2010Prop49
280
     0
102
RTVSPost2010PropOp49
 70
     1
102
RTVSPost2010Prop50
 90
       50
102
RTVSPost2010PropOp50
 70
     1
102
RTVSPost2010Prop51ColorIndex
 90
      256
102
RTVSPost2010Prop51ColorRGB
 90
-16777216
102
RTVSPost2010PropOp51
 70
     0
102
RTVSPost2010Prop52
140
1.0
102
RTVSPost2010PropOp52
 70
     0
102
RTVSPost2010Prop53
 90
        2
102
RTVSPost2010PropOp53
 70
     1
102
RTVSPost2010Prop54
  1
strokes_ogs.tif
102
RTVSPost2010PropOp54
 70
     1
102
RTVSPost2010Prop55
280
     0
102
RTVSPost2010PropOp55
 70
     1
102
RTVSPost2010Prop56
140
1.0
102
RTVSPost2010PropOp56
 70
     1
102
RTVSPost2010Prop57
140
1.0
102
RTVSPost2010PropOp57
 70
     1
102
RTVSPropertyOp0
 70
     1
102
RTVSPropertyOp1
 70
     1
102
RTVSPropertyOp2
 70
     1
102
RTVSPropertyOp3
 70
     1
102
RTVSPropertyOp4
 70
     1
102
RTVSPropertyOp5
 70
     1
102
RTVSPropertyOp6
 70
     1
102
RTVSPropertyOp7
 70
     1
102
RTVSPropertyOp8
 70
     1
102
RTVSPropertyOp9
 70
     1
102
RTVSPropertyOp10
 70
     1
102
RTVSPropertyOp11
 70
     1
102
RTVSPropertyOp12
 70
     1
102
RTVSPropertyOp13
 70
     1
102
RTVSPropertyOp14
 70
     1
102
RTVSPropertyOp15
 70
     1
102
RTVSPropertyOp16
 70
     1
102
RTVSPropertyOp17
 70
     1
102
RTVSPropertyOp18
 70
     1
102
RTVSPropertyOp19
 70
     1
102
RTVSPropertyOp20
 70
     1
102
RTVSPropertyOp21
 70
     1
102
RTVSPropertyOp22
 70
     1
102
RTVSPropertyOp23
 70
     1
102
RTVSPropertyOp24
 70
     1
102
RTVSPropertyOp25
 70
     1
102
RTVSPropertyOp26
 70
     1
102
RTVSPropertyOp27
 70
     1
102
RTVSPropertyOp28
 70
     1
102
RTVSPropertyOp29
 70
     1
102
RTVSPropertyOp30
 70
     1
102
RTVSPropertyOp31
 70
     1
102
RTVSPropertyOp32
 70
     1
102
RTVSPropertyOp33
 70
     1
102
RTVSPropertyOp34
 70
     1
102
RTVSPropertyOp35
 70
     1
102
RTVSPropertyOp36
 70
     1
102
RTVSPropertyOp37
 70
     1
102
RTVSPropertyOp38
 70
     1
102
RTVSPropertyOp39
 70
     1
102
RTVSPropertyOp40
 70
     1
102
RTVSPropertyOp41
 70
     1
102
RTVSPropertyOp42
 70
     1
102
RTVSPropertyOp43
 70
     1
102
RTVSPropertyOp44
 70
     1
102
RTVSPropertyOp45
 70
     1
102
RTVSPropertyOp46
 70
     1
102
RTVSPropertyOp47
 70
     1
102
RTVSPropertyOp48
 70
     1
102
RTVSPropertyOp49
 70
     1
102
RTVSPropertyOp50
 70
     1
102
RTVSPropertyOp51
 70
     0
102
RTVSPropertyOp52
 70
     0
102
RTVSPropertyOp53
 70
     1
102
RTVSPropertyOp54
 70
     1
102
RTVSPropertyOp55
 70
     1
102
RTVSPropertyOp56
 70
     1
102
RTVSPropertyOp57
 70
     1
102
RTVSPropertyOp58
 70
     1
102
RTVSPropertyOp59
 70
     1
102
RTVSPropertyOp60
 70
     1
102
RTVSPropertyOp61
 70
     1
102
RTVSPropertyOp62
 70
     1
  0
XRECORD
  5
994CB
102
{ACAD_REACTORS
330
994CA
102
}
330
994CA
100
AcDbXrecord
280
     1
102
RTVSPost2010Prop28
280
     0
102
RTVSPost2010PropOp28
 70
     1
102
RTVSPost2010Prop29
280
     1
102
RTVSPost2010PropOp29
 70
     1
102
RTVSPost2010Prop30
280
     1
102
RTVSPost2010PropOp30
 70
     1
102
RTVSPost2010Prop31
280
     0
102
RTVSPost2010PropOp31
 70
     1
102
RTVSPost2010Prop32
280
     0
102
RTVSPost2010PropOp32
 70
     1
102
RTVSPost2010Prop33
280
     0
102
RTVSPost2010PropOp33
 70
     1
102
RTVSPost2010Prop34
280
     0
102
RTVSPost2010PropOp34
 70
     1
102
RTVSPost2010Prop35
280
     0
102
RTVSPost2010PropOp35
 70
     1
102
RTVSPost2010Prop36
280
     0
102
RTVSPost2010PropOp36
 70
     1
102
RTVSPost2010Prop37
 90
       50
102
RTVSPost2010PropOp37
 70
     1
102
RTVSPost2010Prop38
140
0.0
102
RTVSPost2010PropOp38
 70
     1
102
RTVSPost2010Prop39
140
1.0
102
RTVSPost2010PropOp39
 70
     1
102
RTVSPost2010Prop40
 90
        0
102
RTVSPost2010PropOp40
 70
     1
102
RTVSPost2010Prop41ColorIndex
 90
       18
102
RTVSPost2010Prop41ColorRGB
 90
        0
102
RTVSPost2010PropOp41
 70
     1
102
RTVSPost2010Prop42
 90
       50
102
RTVSPost2010PropOp42
 70
     1
102
RTVSPost2010Prop43
 90
        3
102
RTVSPost2010PropOp43
 70
     1
102
RTVSPost2010Prop44ColorIndex
 90
        5
102
RTVSPost2010Prop44ColorRGB
 90
      255
102
RTVSPost2010PropOp44
 70
     1
102
RTVSPost2010Prop45
280
     0
102
RTVSPost2010PropOp45
 70
     1
102
RTVSPost2010Prop46
 90
       50
102
RTVSPost2010PropOp46
 70
     1
102
RTVSPost2010Prop47
 90
       50
102
RTVSPost2010PropOp47
 70
     1
102
RTVSPost2010Prop48
 90
       50
102
RTVSPost2010PropOp48
 70
     1
102
RTVSPost2010Prop49
280
     0
102
RTVSPost2010PropOp49
 70
     1
102
RTVSPost2010Prop50
 90
       50
102
RTVSPost2010PropOp50
 70
     1
102
RTVSPost2010Prop51ColorIndex
 90
      256
102
RTVSPost2010Prop51ColorRGB
 90
-16777216
102
RTVSPost2010PropOp51
 70
     0
102
RTVSPost2010Prop52
140
1.0
102
RTVSPost2010PropOp52
 70
     0
102
RTVSPost2010Prop53
 90
        2
102
RTVSPost2010PropOp53
 70
     1
102
RTVSPost2010Prop54
  1
strokes_ogs.tif
102
RTVSPost2010PropOp54
 70
     1
102
RTVSPost2010Prop55
280
     0
102
RTVSPost2010PropOp55
 70
     1
102
RTVSPost2010Prop56
140
1.0
102
RTVSPost2010PropOp56
 70
     1
102
RTVSPost2010Prop57
140
1.0
102
RTVSPost2010PropOp57
 70
     1
102
RTVSPropertyOp0
 70
     1
102
RTVSPropertyOp1
 70
     1
102
RTVSPropertyOp2
 70
     1
102
RTVSPropertyOp3
 70
     1
102
RTVSPropertyOp4
 70
     1
102
RTVSPropertyOp5
 70
     1
102
RTVSPropertyOp6
 70
     1
102
RTVSPropertyOp7
 70
     1
102
RTVSPropertyOp8
 70
     1
102
RTVSPropertyOp9
 70
     1
102
RTVSPropertyOp10
 70
     1
102
RTVSPropertyOp11
 70
     1
102
RTVSPropertyOp12
 70
     1
102
RTVSPropertyOp13
 70
     1
102
RTVSPropertyOp14
 70
     1
102
RTVSPropertyOp15
 70
     1
102
RTVSPropertyOp16
 70
     1
102
RTVSPropertyOp17
 70
     1
102
RTVSPropertyOp18
 70
     1
102
RTVSPropertyOp19
 70
     1
102
RTVSPropertyOp20
 70
     1
102
RTVSPropertyOp21
 70
     1
102
RTVSPropertyOp22
 70
     1
102
RTVSPropertyOp23
 70
     1
102
RTVSPropertyOp24
 70
     1
102
RTVSPropertyOp25
 70
     1
102
RTVSPropertyOp26
 70
     1
102
RTVSPropertyOp27
 70
     1
102
RTVSPropertyOp28
 70
     1
102
RTVSPropertyOp29
 70
     1
102
RTVSPropertyOp30
 70
     1
102
RTVSPropertyOp31
 70
     1
102
RTVSPropertyOp32
 70
     1
102
RTVSPropertyOp33
 70
     1
102
RTVSPropertyOp34
 70
     1
102
RTVSPropertyOp35
 70
     1
102
RTVSPropertyOp36
 70
     1
102
RTVSPropertyOp37
 70
     1
102
RTVSPropertyOp38
 70
     1
102
RTVSPropertyOp39
 70
     1
102
RTVSPropertyOp40
 70
     1
102
RTVSPropertyOp41
 70
     1
102
RTVSPropertyOp42
 70
     1
102
RTVSPropertyOp43
 70
     1
102
RTVSPropertyOp44
 70
     1
102
RTVSPropertyOp45
 70
     1
102
RTVSPropertyOp46
 70
     1
102
RTVSPropertyOp47
 70
     1
102
RTVSPropertyOp48
 70
     1
102
RTVSPropertyOp49
 70
     1
102
RTVSPropertyOp50
 70
     1
102
RTVSPropertyOp51
 70
     0
102
RTVSPropertyOp52
 70
     0
102
RTVSPropertyOp53
 70
     1
102
RTVSPropertyOp54
 70
     1
102
RTVSPropertyOp55
 70
     1
102
RTVSPropertyOp56
 70
     1
102
RTVSPropertyOp57
 70
     1
102
RTVSPropertyOp58
 70
     1
102
RTVSPropertyOp59
 70
     1
102
RTVSPropertyOp60
 70
     1
102
RTVSPropertyOp61
 70
     1
102
RTVSPropertyOp62
 70
     1
  0
XRECORD
  5
994CD
102
{ACAD_REACTORS
330
994CC
102
}
330
994CC
100
AcDbXrecord
280
     1
102
RTVSPost2010Prop28
280
     0
102
RTVSPost2010PropOp28
 70
     1
102
RTVSPost2010Prop29
280
     1
102
RTVSPost2010PropOp29
 70
     1
102
RTVSPost2010Prop30
280
     1
102
RTVSPost2010PropOp30
 70
     1
102
RTVSPost2010Prop31
280
     0
102
RTVSPost2010PropOp31
 70
     1
102
RTVSPost2010Prop32
280
     0
102
RTVSPost2010PropOp32
 70
     1
102
RTVSPost2010Prop33
280
     0
102
RTVSPost2010PropOp33
 70
     1
102
RTVSPost2010Prop34
280
     0
102
RTVSPost2010PropOp34
 70
     1
102
RTVSPost2010Prop35
280
     0
102
RTVSPost2010PropOp35
 70
     1
102
RTVSPost2010Prop36
280
     0
102
RTVSPost2010PropOp36
 70
     1
102
RTVSPost2010Prop37
 90
       50
102
RTVSPost2010PropOp37
 70
     1
102
RTVSPost2010Prop38
140
0.0
102
RTVSPost2010PropOp38
 70
     1
102
RTVSPost2010Prop39
140
1.0
102
RTVSPost2010PropOp39
 70
     1
102
RTVSPost2010Prop40
 90
        0
102
RTVSPost2010PropOp40
 70
     1
102
RTVSPost2010Prop41ColorIndex
 90
       18
102
RTVSPost2010Prop41ColorRGB
 90
        0
102
RTVSPost2010PropOp41
 70
     1
102
RTVSPost2010Prop42
 90
       50
102
RTVSPost2010PropOp42
 70
     1
102
RTVSPost2010Prop43
 90
        3
102
RTVSPost2010PropOp43
 70
     1
102
RTVSPost2010Prop44ColorIndex
 90
        5
102
RTVSPost2010Prop44ColorRGB
 90
      255
102
RTVSPost2010PropOp44
 70
     1
102
RTVSPost2010Prop45
280
     0
102
RTVSPost2010PropOp45
 70
     1
102
RTVSPost2010Prop46
 90
       50
102
RTVSPost2010PropOp46
 70
     1
102
RTVSPost2010Prop47
 90
       50
102
RTVSPost2010PropOp47
 70
     1
102
RTVSPost2010Prop48
 90
       50
102
RTVSPost2010PropOp48
 70
     1
102
RTVSPost2010Prop49
280
     0
102
RTVSPost2010PropOp49
 70
     1
102
RTVSPost2010Prop50
 90
       50
102
RTVSPost2010PropOp50
 70
     1
102
RTVSPost2010Prop51ColorIndex
 90
      256
102
RTVSPost2010Prop51ColorRGB
 90
-16777216
102
RTVSPost2010PropOp51
 70
     0
102
RTVSPost2010Prop52
140
1.0
102
RTVSPost2010PropOp52
 70
     0
102
RTVSPost2010Prop53
 90
        2
102
RTVSPost2010PropOp53
 70
     1
102
RTVSPost2010Prop54
  1
strokes_ogs.tif
102
RTVSPost2010PropOp54
 70
     1
102
RTVSPost2010Prop55
280
     0
102
RTVSPost2010PropOp55
 70
     1
102
RTVSPost2010Prop56
140
1.0
102
RTVSPost2010PropOp56
 70
     1
102
RTVSPost2010Prop57
140
1.0
102
RTVSPost2010PropOp57
 70
     1
102
RTVSPropertyOp0
 70
     1
102
RTVSPropertyOp1
 70
     1
102
RTVSPropertyOp2
 70
     1
102
RTVSPropertyOp3
 70
     1
102
RTVSPropertyOp4
 70
     1
102
RTVSPropertyOp5
 70
     1
102
RTVSPropertyOp6
 70
     1
102
RTVSPropertyOp7
 70
     1
102
RTVSPropertyOp8
 70
     1
102
RTVSPropertyOp9
 70
     1
102
RTVSPropertyOp10
 70
     1
102
RTVSPropertyOp11
 70
     1
102
RTVSPropertyOp12
 70
     1
102
RTVSPropertyOp13
 70
     1
102
RTVSPropertyOp14
 70
     1
102
RTVSPropertyOp15
 70
     1
102
RTVSPropertyOp16
 70
     1
102
RTVSPropertyOp17
 70
     1
102
RTVSPropertyOp18
 70
     1
102
RTVSPropertyOp19
 70
     1
102
RTVSPropertyOp20
 70
     1
102
RTVSPropertyOp21
 70
     1
102
RTVSPropertyOp22
 70
     1
102
RTVSPropertyOp23
 70
     1
102
RTVSPropertyOp24
 70
     1
102
RTVSPropertyOp25
 70
     1
102
RTVSPropertyOp26
 70
     1
102
RTVSPropertyOp27
 70
     1
102
RTVSPropertyOp28
 70
     1
102
RTVSPropertyOp29
 70
     1
102
RTVSPropertyOp30
 70
     1
102
RTVSPropertyOp31
 70
     1
102
RTVSPropertyOp32
 70
     1
102
RTVSPropertyOp33
 70
     1
102
RTVSPropertyOp34
 70
     1
102
RTVSPropertyOp35
 70
     1
102
RTVSPropertyOp36
 70
     1
102
RTVSPropertyOp37
 70
     1
102
RTVSPropertyOp38
 70
     1
102
RTVSPropertyOp39
 70
     1
102
RTVSPropertyOp40
 70
     1
102
RTVSPropertyOp41
 70
     1
102
RTVSPropertyOp42
 70
     1
102
RTVSPropertyOp43
 70
     1
102
RTVSPropertyOp44
 70
     1
102
RTVSPropertyOp45
 70
     1
102
RTVSPropertyOp46
 70
     1
102
RTVSPropertyOp47
 70
     1
102
RTVSPropertyOp48
 70
     1
102
RTVSPropertyOp49
 70
     1
102
RTVSPropertyOp50
 70
     1
102
RTVSPropertyOp51
 70
     0
102
RTVSPropertyOp52
 70
     0
102
RTVSPropertyOp53
 70
     1
102
RTVSPropertyOp54
 70
     1
102
RTVSPropertyOp55
 70
     1
102
RTVSPropertyOp56
 70
     1
102
RTVSPropertyOp57
 70
     1
102
RTVSPropertyOp58
 70
     1
102
RTVSPropertyOp59
 70
     1
102
RTVSPropertyOp60
 70
     1
102
RTVSPropertyOp61
 70
     1
102
RTVSPropertyOp62
 70
     1
  0
XRECORD
  5
994EA
102
{ACAD_REACTORS
330
994E9
102
}
330
994E9
100
AcDbXrecord
280
     1
102
RTVSPost2010Prop28
280
     0
102
RTVSPost2010PropOp28
 70
     1
102
RTVSPost2010Prop29
280
     1
102
RTVSPost2010PropOp29
 70
     1
102
RTVSPost2010Prop30
280
     1
102
RTVSPost2010PropOp30
 70
     1
102
RTVSPost2010Prop31
280
     0
102
RTVSPost2010PropOp31
 70
     1
102
RTVSPost2010Prop32
280
     0
102
RTVSPost2010PropOp32
 70
     1
102
RTVSPost2010Prop33
280
     0
102
RTVSPost2010PropOp33
 70
     1
102
RTVSPost2010Prop34
280
     0
102
RTVSPost2010PropOp34
 70
     1
102
RTVSPost2010Prop35
280
     0
102
RTVSPost2010PropOp35
 70
     1
102
RTVSPost2010Prop36
280
     0
102
RTVSPost2010PropOp36
 70
     1
102
RTVSPost2010Prop37
 90
       50
102
RTVSPost2010PropOp37
 70
     1
102
RTVSPost2010Prop38
140
0.0
102
RTVSPost2010PropOp38
 70
     1
102
RTVSPost2010Prop39
140
1.0
102
RTVSPost2010PropOp39
 70
     1
102
RTVSPost2010Prop40
 90
        0
102
RTVSPost2010PropOp40
 70
     1
102
RTVSPost2010Prop41ColorIndex
 90
       18
102
RTVSPost2010Prop41ColorRGB
 90
        0
102
RTVSPost2010PropOp41
 70
     1
102
RTVSPost2010Prop42
 90
       50
102
RTVSPost2010PropOp42
 70
     1
102
RTVSPost2010Prop43
 90
        3
102
RTVSPost2010PropOp43
 70
     1
102
RTVSPost2010Prop44ColorIndex
 90
        5
102
RTVSPost2010Prop44ColorRGB
 90
      255
102
RTVSPost2010PropOp44
 70
     1
102
RTVSPost2010Prop45
280
     0
102
RTVSPost2010PropOp45
 70
     1
102
RTVSPost2010Prop46
 90
       50
102
RTVSPost2010PropOp46
 70
     1
102
RTVSPost2010Prop47
 90
       50
102
RTVSPost2010PropOp47
 70
     1
102
RTVSPost2010Prop48
 90
       50
102
RTVSPost2010PropOp48
 70
     1
102
RTVSPost2010Prop49
280
     0
102
RTVSPost2010PropOp49
 70
     1
102
RTVSPost2010Prop50
 90
       50
102
RTVSPost2010PropOp50
 70
     1
102
RTVSPost2010Prop51ColorIndex
 90
      256
102
RTVSPost2010Prop51ColorRGB
 90
-16777216
102
RTVSPost2010PropOp51
 70
     0
102
RTVSPost2010Prop52
140
1.0
102
RTVSPost2010PropOp52
 70
     0
102
RTVSPost2010Prop53
 90
        2
102
RTVSPost2010PropOp53
 70
     1
102
RTVSPost2010Prop54
  1
strokes_ogs.tif
102
RTVSPost2010PropOp54
 70
     1
102
RTVSPost2010Prop55
280
     0
102
RTVSPost2010PropOp55
 70
     1
102
RTVSPost2010Prop56
140
1.0
102
RTVSPost2010PropOp56
 70
     1
102
RTVSPost2010Prop57
140
1.0
102
RTVSPost2010PropOp57
 70
     1
102
RTVSPropertyOp0
 70
     1
102
RTVSPropertyOp1
 70
     1
102
RTVSPropertyOp2
 70
     1
102
RTVSPropertyOp3
 70
     1
102
RTVSPropertyOp4
 70
     1
102
RTVSPropertyOp5
 70
     1
102
RTVSPropertyOp6
 70
     1
102
RTVSPropertyOp7
 70
     1
102
RTVSPropertyOp8
 70
     1
102
RTVSPropertyOp9
 70
     1
102
RTVSPropertyOp10
 70
     1
102
RTVSPropertyOp11
 70
     1
102
RTVSPropertyOp12
 70
     1
102
RTVSPropertyOp13
 70
     1
102
RTVSPropertyOp14
 70
     1
102
RTVSPropertyOp15
 70
     1
102
RTVSPropertyOp16
 70
     1
102
RTVSPropertyOp17
 70
     1
102
RTVSPropertyOp18
 70
     1
102
RTVSPropertyOp19
 70
     1
102
RTVSPropertyOp20
 70
     1
102
RTVSPropertyOp21
 70
     1
102
RTVSPropertyOp22
 70
     1
102
RTVSPropertyOp23
 70
     1
102
RTVSPropertyOp24
 70
     1
102
RTVSPropertyOp25
 70
     1
102
RTVSPropertyOp26
 70
     1
102
RTVSPropertyOp27
 70
     1
102
RTVSPropertyOp28
 70
     1
102
RTVSPropertyOp29
 70
     1
102
RTVSPropertyOp30
 70
     1
102
RTVSPropertyOp31
 70
     1
102
RTVSPropertyOp32
 70
     1
102
RTVSPropertyOp33
 70
     1
102
RTVSPropertyOp34
 70
     1
102
RTVSPropertyOp35
 70
     1
102
RTVSPropertyOp36
 70
     1
102
RTVSPropertyOp37
 70
     1
102
RTVSPropertyOp38
 70
     1
102
RTVSPropertyOp39
 70
     1
102
RTVSPropertyOp40
 70
     1
102
RTVSPropertyOp41
 70
     1
102
RTVSPropertyOp42
 70
     1
102
RTVSPropertyOp43
 70
     1
102
RTVSPropertyOp44
 70
     1
102
RTVSPropertyOp45
 70
     1
102
RTVSPropertyOp46
 70
     1
102
RTVSPropertyOp47
 70
     1
102
RTVSPropertyOp48
 70
     1
102
RTVSPropertyOp49
 70
     1
102
RTVSPropertyOp50
 70
     1
102
RTVSPropertyOp51
 70
     0
102
RTVSPropertyOp52
 70
     0
102
RTVSPropertyOp53
 70
     1
102
RTVSPropertyOp54
 70
     1
102
RTVSPropertyOp55
 70
     1
102
RTVSPropertyOp56
 70
     1
102
RTVSPropertyOp57
 70
     1
102
RTVSPropertyOp58
 70
     1
102
RTVSPropertyOp59
 70
     1
102
RTVSPropertyOp60
 70
     1
102
RTVSPropertyOp61
 70
     1
102
RTVSPropertyOp62
 70
     1
  0
XRECORD
  5
994F6
102
{ACAD_REACTORS
330
994F5
102
}
330
994F5
100
AcDbXrecord
280
     1
102
RTVSPost2010Prop28
280
     0
102
RTVSPost2010PropOp28
 70
     0
102
RTVSPost2010Prop29
280
     1
102
RTVSPost2010PropOp29
 70
     0
102
RTVSPost2010Prop30
280
     1
102
RTVSPost2010PropOp30
 70
     0
102
RTVSPost2010Prop31
280
     0
102
RTVSPost2010PropOp31
 70
     0
102
RTVSPost2010Prop32
280
     0
102
RTVSPost2010PropOp32
 70
     0
102
RTVSPost2010Prop33
280
     0
102
RTVSPost2010PropOp33
 70
     1
102
RTVSPost2010Prop34
280
     0
102
RTVSPost2010PropOp34
 70
     1
102
RTVSPost2010Prop35
280
     0
102
RTVSPost2010PropOp35
 70
     1
102
RTVSPost2010Prop36
280
     0
102
RTVSPost2010PropOp36
 70
     1
102
RTVSPost2010Prop37
 90
       50
102
RTVSPost2010PropOp37
 70
     1
102
RTVSPost2010Prop38
140
0.0
102
RTVSPost2010PropOp38
 70
     1
102
RTVSPost2010Prop39
140
1.0
102
RTVSPost2010PropOp39
 70
     1
102
RTVSPost2010Prop40
 90
        0
102
RTVSPost2010PropOp40
 70
     1
102
RTVSPost2010Prop41ColorIndex
 90
       18
102
RTVSPost2010Prop41ColorRGB
 90
        0
102
RTVSPost2010PropOp41
 70
     1
102
RTVSPost2010Prop42
 90
       50
102
RTVSPost2010PropOp42
 70
     1
102
RTVSPost2010Prop43
 90
        3
102
RTVSPost2010PropOp43
 70
     1
102
RTVSPost2010Prop44ColorIndex
 90
        5
102
RTVSPost2010Prop44ColorRGB
 90
      255
102
RTVSPost2010PropOp44
 70
     1
102
RTVSPost2010Prop45
280
     0
102
RTVSPost2010PropOp45
 70
     1
102
RTVSPost2010Prop46
 90
       50
102
RTVSPost2010PropOp46
 70
     1
102
RTVSPost2010Prop47
 90
       50
102
RTVSPost2010PropOp47
 70
     1
102
RTVSPost2010Prop48
 90
       50
102
RTVSPost2010PropOp48
 70
     1
102
RTVSPost2010Prop49
280
     0
102
RTVSPost2010PropOp49
 70
     1
102
RTVSPost2010Prop50
 90
       50
102
RTVSPost2010PropOp50
 70
     1
102
RTVSPost2010Prop51ColorIndex
 90
      256
102
RTVSPost2010Prop51ColorRGB
 90
-16777216
102
RTVSPost2010PropOp51
 70
     0
102
RTVSPost2010Prop52
140
1.0
102
RTVSPost2010PropOp52
 70
     0
102
RTVSPost2010Prop53
 90
        2
102
RTVSPost2010PropOp53
 70
     1
102
RTVSPost2010Prop54
  1
strokes_ogs.tif
102
RTVSPost2010PropOp54
 70
     1
102
RTVSPost2010Prop55
280
     0
102
RTVSPost2010PropOp55
 70
     1
102
RTVSPost2010Prop56
140
1.0
102
RTVSPost2010PropOp56
 70
     1
102
RTVSPost2010Prop57
140
1.0
102
RTVSPost2010PropOp57
 70
     1
102
RTVSPropertyOp0
 70
     0
102
RTVSPropertyOp1
 70
     0
102
RTVSPropertyOp2
 70
     0
102
RTVSPropertyOp3
 70
     0
102
RTVSPropertyOp4
 70
     0
102
RTVSPropertyOp5
 70
     0
102
RTVSPropertyOp6
 70
     0
102
RTVSPropertyOp7
 70
     0
102
RTVSPropertyOp8
 70
     0
102
RTVSPropertyOp9
 70
     0
102
RTVSPropertyOp10
 70
     0
102
RTVSPropertyOp11
 70
     0
102
RTVSPropertyOp12
 70
     0
102
RTVSPropertyOp13
 70
     0
102
RTVSPropertyOp14
 70
     2
102
RTVSPropertyOp15
 70
     0
102
RTVSPropertyOp16
 70
     0
102
RTVSPropertyOp17
 70
     0
102
RTVSPropertyOp18
 70
     0
102
RTVSPropertyOp19
 70
     0
102
RTVSPropertyOp20
 70
     0
102
RTVSPropertyOp21
 70
     0
102
RTVSPropertyOp22
 70
     0
102
RTVSPropertyOp23
 70
     0
102
RTVSPropertyOp24
 70
     0
102
RTVSPropertyOp25
 70
     0
102
RTVSPropertyOp26
 70
     0
102
RTVSPropertyOp27
 70
     0
102
RTVSPropertyOp28
 70
     0
102
RTVSPropertyOp29
 70
     0
102
RTVSPropertyOp30
 70
     0
102
RTVSPropertyOp31
 70
     0
102
RTVSPropertyOp32
 70
     0
102
RTVSPropertyOp33
 70
     1
102
RTVSPropertyOp34
 70
     1
102
RTVSPropertyOp35
 70
     1
102
RTVSPropertyOp36
 70
     1
102
RTVSPropertyOp37
 70
     1
102
RTVSPropertyOp38
 70
     1
102
RTVSPropertyOp39
 70
     1
102
RTVSPropertyOp40
 70
     1
102
RTVSPropertyOp41
 70
     1
102
RTVSPropertyOp42
 70
     1
102
RTVSPropertyOp43
 70
     1
102
RTVSPropertyOp44
 70
     1
102
RTVSPropertyOp45
 70
     1
102
RTVSPropertyOp46
 70
     1
102
RTVSPropertyOp47
 70
     1
102
RTVSPropertyOp48
 70
     1
102
RTVSPropertyOp49
 70
     1
102
RTVSPropertyOp50
 70
     1
102
RTVSPropertyOp51
 70
     0
102
RTVSPropertyOp52
 70
     0
102
RTVSPropertyOp53
 70
     1
102
RTVSPropertyOp54
 70
     1
102
RTVSPropertyOp55
 70
     1
102
RTVSPropertyOp56
 70
     1
102
RTVSPropertyOp57
 70
     1
102
RTVSPropertyOp58
 70
     1
102
RTVSPropertyOp59
 70
     1
102
RTVSPropertyOp60
 70
     1
102
RTVSPropertyOp61
 70
     1
102
RTVSPropertyOp62
 70
     1
  0
XRECORD
  5
994E1
102
{ACAD_REACTORS
330
994E0
102
}
330
994E0
100
AcDbXrecord
280
     1
102
RTVSPost2010Prop28
280
     0
102
RTVSPost2010PropOp28
 70
     1
102
RTVSPost2010Prop29
280
     1
102
RTVSPost2010PropOp29
 70
     1
102
RTVSPost2010Prop30
280
     1
102
RTVSPost2010PropOp30
 70
     1
102
RTVSPost2010Prop31
280
     0
102
RTVSPost2010PropOp31
 70
     1
102
RTVSPost2010Prop32
280
     0
102
RTVSPost2010PropOp32
 70
     1
102
RTVSPost2010Prop33
280
     0
102
RTVSPost2010PropOp33
 70
     1
102
RTVSPost2010Prop34
280
     0
102
RTVSPost2010PropOp34
 70
     1
102
RTVSPost2010Prop35
280
     0
102
RTVSPost2010PropOp35
 70
     1
102
RTVSPost2010Prop36
280
     0
102
RTVSPost2010PropOp36
 70
     1
102
RTVSPost2010Prop37
 90
       50
102
RTVSPost2010PropOp37
 70
     1
102
RTVSPost2010Prop38
140
0.0
102
RTVSPost2010PropOp38
 70
     1
102
RTVSPost2010Prop39
140
1.0
102
RTVSPost2010PropOp39
 70
     1
102
RTVSPost2010Prop40
 90
        0
102
RTVSPost2010PropOp40
 70
     1
102
RTVSPost2010Prop41ColorIndex
 90
       18
102
RTVSPost2010Prop41ColorRGB
 90
        0
102
RTVSPost2010PropOp41
 70
     1
102
RTVSPost2010Prop42
 90
       50
102
RTVSPost2010PropOp42
 70
     1
102
RTVSPost2010Prop43
 90
        3
102
RTVSPost2010PropOp43
 70
     1
102
RTVSPost2010Prop44ColorIndex
 90
        5
102
RTVSPost2010Prop44ColorRGB
 90
      255
102
RTVSPost2010PropOp44
 70
     1
102
RTVSPost2010Prop45
280
     0
102
RTVSPost2010PropOp45
 70
     1
102
RTVSPost2010Prop46
 90
       50
102
RTVSPost2010PropOp46
 70
     1
102
RTVSPost2010Prop47
 90
       50
102
RTVSPost2010PropOp47
 70
     1
102
RTVSPost2010Prop48
 90
       50
102
RTVSPost2010PropOp48
 70
     1
102
RTVSPost2010Prop49
280
     0
102
RTVSPost2010PropOp49
 70
     1
102
RTVSPost2010Prop50
 90
       50
102
RTVSPost2010PropOp50
 70
     1
102
RTVSPost2010Prop51ColorIndex
 90
      256
102
RTVSPost2010Prop51ColorRGB
 90
-16777216
102
RTVSPost2010PropOp51
 70
     0
102
RTVSPost2010Prop52
140
1.0
102
RTVSPost2010PropOp52
 70
     0
102
RTVSPost2010Prop53
 90
        2
102
RTVSPost2010PropOp53
 70
     1
102
RTVSPost2010Prop54
  1
strokes_ogs.tif
102
RTVSPost2010PropOp54
 70
     1
102
RTVSPost2010Prop55
280
     0
102
RTVSPost2010PropOp55
 70
     1
102
RTVSPost2010Prop56
140
1.0
102
RTVSPost2010PropOp56
 70
     1
102
RTVSPost2010Prop57
140
1.0
102
RTVSPost2010PropOp57
 70
     1
102
RTVSPropertyOp0
 70
     1
102
RTVSPropertyOp1
 70
     1
102
RTVSPropertyOp2
 70
     1
102
RTVSPropertyOp3
 70
     1
102
RTVSPropertyOp4
 70
     1
102
RTVSPropertyOp5
 70
     1
102
RTVSPropertyOp6
 70
     1
102
RTVSPropertyOp7
 70
     1
102
RTVSPropertyOp8
 70
     1
102
RTVSPropertyOp9
 70
     1
102
RTVSPropertyOp10
 70
     1
102
RTVSPropertyOp11
 70
     1
102
RTVSPropertyOp12
 70
     1
102
RTVSPropertyOp13
 70
     1
102
RTVSPropertyOp14
 70
     1
102
RTVSPropertyOp15
 70
     1
102
RTVSPropertyOp16
 70
     1
102
RTVSPropertyOp17
 70
     1
102
RTVSPropertyOp18
 70
     1
102
RTVSPropertyOp19
 70
     1
102
RTVSPropertyOp20
 70
     1
102
RTVSPropertyOp21
 70
     1
102
RTVSPropertyOp22
 70
     1
102
RTVSPropertyOp23
 70
     1
102
RTVSPropertyOp24
 70
     1
102
RTVSPropertyOp25
 70
     1
102
RTVSPropertyOp26
 70
     1
102
RTVSPropertyOp27
 70
     1
102
RTVSPropertyOp28
 70
     1
102
RTVSPropertyOp29
 70
     1
102
RTVSPropertyOp30
 70
     1
102
RTVSPropertyOp31
 70
     1
102
RTVSPropertyOp32
 70
     1
102
RTVSPropertyOp33
 70
     1
102
RTVSPropertyOp34
 70
     1
102
RTVSPropertyOp35
 70
     1
102
RTVSPropertyOp36
 70
     1
102
RTVSPropertyOp37
 70
     1
102
RTVSPropertyOp38
 70
     1
102
RTVSPropertyOp39
 70
     1
102
RTVSPropertyOp40
 70
     1
102
RTVSPropertyOp41
 70
     1
102
RTVSPropertyOp42
 70
     1
102
RTVSPropertyOp43
 70
     1
102
RTVSPropertyOp44
 70
     1
102
RTVSPropertyOp45
 70
     1
102
RTVSPropertyOp46
 70
     1
102
RTVSPropertyOp47
 70
     1
102
RTVSPropertyOp48
 70
     1
102
RTVSPropertyOp49
 70
     1
102
RTVSPropertyOp50
 70
     1
102
RTVSPropertyOp51
 70
     0
102
RTVSPropertyOp52
 70
     0
102
RTVSPropertyOp53
 70
     1
102
RTVSPropertyOp54
 70
     1
102
RTVSPropertyOp55
 70
     1
102
RTVSPropertyOp56
 70
     1
102
RTVSPropertyOp57
 70
     1
102
RTVSPropertyOp58
 70
     1
102
RTVSPropertyOp59
 70
     1
102
RTVSPropertyOp60
 70
     1
102
RTVSPropertyOp61
 70
     1
102
RTVSPropertyOp62
 70
     1
  0
XRECORD
  5
994F8
102
{ACAD_REACTORS
330
994F7
102
}
330
994F7
100
AcDbXrecord
280
     1
102
RTVSPost2010Prop28
280
     0
102
RTVSPost2010PropOp28
 70
     0
102
RTVSPost2010Prop29
280
     1
102
RTVSPost2010PropOp29
 70
     0
102
RTVSPost2010Prop30
280
     1
102
RTVSPost2010PropOp30
 70
     0
102
RTVSPost2010Prop31
280
     0
102
RTVSPost2010PropOp31
 70
     0
102
RTVSPost2010Prop32
280
     0
102
RTVSPost2010PropOp32
 70
     0
102
RTVSPost2010Prop33
280
     0
102
RTVSPost2010PropOp33
 70
     1
102
RTVSPost2010Prop34
280
     0
102
RTVSPost2010PropOp34
 70
     1
102
RTVSPost2010Prop35
280
     0
102
RTVSPost2010PropOp35
 70
     1
102
RTVSPost2010Prop36
280
     0
102
RTVSPost2010PropOp36
 70
     1
102
RTVSPost2010Prop37
 90
       50
102
RTVSPost2010PropOp37
 70
     1
102
RTVSPost2010Prop38
140
0.0
102
RTVSPost2010PropOp38
 70
     1
102
RTVSPost2010Prop39
140
1.0
102
RTVSPost2010PropOp39
 70
     1
102
RTVSPost2010Prop40
 90
        0
102
RTVSPost2010PropOp40
 70
     1
102
RTVSPost2010Prop41ColorIndex
 90
       18
102
RTVSPost2010Prop41ColorRGB
 90
        0
102
RTVSPost2010PropOp41
 70
     1
102
RTVSPost2010Prop42
 90
       50
102
RTVSPost2010PropOp42
 70
     1
102
RTVSPost2010Prop43
 90
        3
102
RTVSPost2010PropOp43
 70
     1
102
RTVSPost2010Prop44ColorIndex
 90
        5
102
RTVSPost2010Prop44ColorRGB
 90
      255
102
RTVSPost2010PropOp44
 70
     1
102
RTVSPost2010Prop45
280
     0
102
RTVSPost2010PropOp45
 70
     1
102
RTVSPost2010Prop46
 90
       50
102
RTVSPost2010PropOp46
 70
     1
102
RTVSPost2010Prop47
 90
       50
102
RTVSPost2010PropOp47
 70
     1
102
RTVSPost2010Prop48
 90
       50
102
RTVSPost2010PropOp48
 70
     1
102
RTVSPost2010Prop49
280
     0
102
RTVSPost2010PropOp49
 70
     1
102
RTVSPost2010Prop50
 90
       50
102
RTVSPost2010PropOp50
 70
     1
102
RTVSPost2010Prop51ColorIndex
 90
      256
102
RTVSPost2010Prop51ColorRGB
 90
-16777216
102
RTVSPost2010PropOp51
 70
     0
102
RTVSPost2010Prop52
140
1.0
102
RTVSPost2010PropOp52
 70
     0
102
RTVSPost2010Prop53
 90
        2
102
RTVSPost2010PropOp53
 70
     1
102
RTVSPost2010Prop54
  1
strokes_ogs.tif
102
RTVSPost2010PropOp54
 70
     1
102
RTVSPost2010Prop55
280
     0
102
RTVSPost2010PropOp55
 70
     1
102
RTVSPost2010Prop56
140
1.0
102
RTVSPost2010PropOp56
 70
     1
102
RTVSPost2010Prop57
140
1.0
102
RTVSPost2010PropOp57
 70
     1
102
RTVSPropertyOp0
 70
     0
102
RTVSPropertyOp1
 70
     0
102
RTVSPropertyOp2
 70
     0
102
RTVSPropertyOp3
 70
     0
102
RTVSPropertyOp4
 70
     0
102
RTVSPropertyOp5
 70
     0
102
RTVSPropertyOp6
 70
     0
102
RTVSPropertyOp7
 70
     0
102
RTVSPropertyOp8
 70
     0
102
RTVSPropertyOp9
 70
     0
102
RTVSPropertyOp10
 70
     0
102
RTVSPropertyOp11
 70
     0
102
RTVSPropertyOp12
 70
     0
102
RTVSPropertyOp13
 70
     0
102
RTVSPropertyOp14
 70
     2
102
RTVSPropertyOp15
 70
     0
102
RTVSPropertyOp16
 70
     0
102
RTVSPropertyOp17
 70
     0
102
RTVSPropertyOp18
 70
     0
102
RTVSPropertyOp19
 70
     0
102
RTVSPropertyOp20
 70
     0
102
RTVSPropertyOp21
 70
     0
102
RTVSPropertyOp22
 70
     0
102
RTVSPropertyOp23
 70
     0
102
RTVSPropertyOp24
 70
     0
102
RTVSPropertyOp25
 70
     0
102
RTVSPropertyOp26
 70
     0
102
RTVSPropertyOp27
 70
     0
102
RTVSPropertyOp28
 70
     0
102
RTVSPropertyOp29
 70
     0
102
RTVSPropertyOp30
 70
     0
102
RTVSPropertyOp31
 70
     0
102
RTVSPropertyOp32
 70
     0
102
RTVSPropertyOp33
 70
     1
102
RTVSPropertyOp34
 70
     1
102
RTVSPropertyOp35
 70
     1
102
RTVSPropertyOp36
 70
     1
102
RTVSPropertyOp37
 70
     1
102
RTVSPropertyOp38
 70
     1
102
RTVSPropertyOp39
 70
     1
102
RTVSPropertyOp40
 70
     1
102
RTVSPropertyOp41
 70
     1
102
RTVSPropertyOp42
 70
     1
102
RTVSPropertyOp43
 70
     1
102
RTVSPropertyOp44
 70
     1
102
RTVSPropertyOp45
 70
     1
102
RTVSPropertyOp46
 70
     1
102
RTVSPropertyOp47
 70
     1
102
RTVSPropertyOp48
 70
     1
102
RTVSPropertyOp49
 70
     1
102
RTVSPropertyOp50
 70
     1
102
RTVSPropertyOp51
 70
     0
102
RTVSPropertyOp52
 70
     0
102
RTVSPropertyOp53
 70
     1
102
RTVSPropertyOp54
 70
     1
102
RTVSPropertyOp55
 70
     1
102
RTVSPropertyOp56
 70
     1
102
RTVSPropertyOp57
 70
     1
102
RTVSPropertyOp58
 70
     1
102
RTVSPropertyOp59
 70
     1
102
RTVSPropertyOp60
 70
     1
102
RTVSPropertyOp61
 70
     1
102
RTVSPropertyOp62
 70
     1
  0
XRECORD
  5
994D9
102
{ACAD_REACTORS
330
994D8
102
}
330
994D8
100
AcDbXrecord
280
     1
102
RTVSPost2010Prop28
280
     0
102
RTVSPost2010PropOp28
 70
     1
102
RTVSPost2010Prop29
280
     1
102
RTVSPost2010PropOp29
 70
     1
102
RTVSPost2010Prop30
280
     1
102
RTVSPost2010PropOp30
 70
     1
102
RTVSPost2010Prop31
280
     0
102
RTVSPost2010PropOp31
 70
     1
102
RTVSPost2010Prop32
280
     0
102
RTVSPost2010PropOp32
 70
     1
102
RTVSPost2010Prop33
280
     0
102
RTVSPost2010PropOp33
 70
     1
102
RTVSPost2010Prop34
280
     0
102
RTVSPost2010PropOp34
 70
     1
102
RTVSPost2010Prop35
280
     0
102
RTVSPost2010PropOp35
 70
     1
102
RTVSPost2010Prop36
280
     0
102
RTVSPost2010PropOp36
 70
     1
102
RTVSPost2010Prop37
 90
       50
102
RTVSPost2010PropOp37
 70
     1
102
RTVSPost2010Prop38
140
0.0
102
RTVSPost2010PropOp38
 70
     1
102
RTVSPost2010Prop39
140
1.0
102
RTVSPost2010PropOp39
 70
     1
102
RTVSPost2010Prop40
 90
        0
102
RTVSPost2010PropOp40
 70
     1
102
RTVSPost2010Prop41ColorIndex
 90
       18
102
RTVSPost2010Prop41ColorRGB
 90
        0
102
RTVSPost2010PropOp41
 70
     1
102
RTVSPost2010Prop42
 90
       50
102
RTVSPost2010PropOp42
 70
     1
102
RTVSPost2010Prop43
 90
        3
102
RTVSPost2010PropOp43
 70
     1
102
RTVSPost2010Prop44ColorIndex
 90
        5
102
RTVSPost2010Prop44ColorRGB
 90
      255
102
RTVSPost2010PropOp44
 70
     1
102
RTVSPost2010Prop45
280
     0
102
RTVSPost2010PropOp45
 70
     1
102
RTVSPost2010Prop46
 90
       50
102
RTVSPost2010PropOp46
 70
     1
102
RTVSPost2010Prop47
 90
       50
102
RTVSPost2010PropOp47
 70
     1
102
RTVSPost2010Prop48
 90
       50
102
RTVSPost2010PropOp48
 70
     1
102
RTVSPost2010Prop49
280
     0
102
RTVSPost2010PropOp49
 70
     1
102
RTVSPost2010Prop50
 90
       50
102
RTVSPost2010PropOp50
 70
     1
102
RTVSPost2010Prop51ColorIndex
 90
      256
102
RTVSPost2010Prop51ColorRGB
 90
-16777216
102
RTVSPost2010PropOp51
 70
     0
102
RTVSPost2010Prop52
140
1.0
102
RTVSPost2010PropOp52
 70
     0
102
RTVSPost2010Prop53
 90
        2
102
RTVSPost2010PropOp53
 70
     1
102
RTVSPost2010Prop54
  1
strokes_ogs.tif
102
RTVSPost2010PropOp54
 70
     1
102
RTVSPost2010Prop55
280
     0
102
RTVSPost2010PropOp55
 70
     1
102
RTVSPost2010Prop56
140
1.0
102
RTVSPost2010PropOp56
 70
     1
102
RTVSPost2010Prop57
140
1.0
102
RTVSPost2010PropOp57
 70
     1
102
RTVSPropertyOp0
 70
     1
102
RTVSPropertyOp1
 70
     1
102
RTVSPropertyOp2
 70
     1
102
RTVSPropertyOp3
 70
     1
102
RTVSPropertyOp4
 70
     1
102
RTVSPropertyOp5
 70
     1
102
RTVSPropertyOp6
 70
     1
102
RTVSPropertyOp7
 70
     1
102
RTVSPropertyOp8
 70
     1
102
RTVSPropertyOp9
 70
     1
102
RTVSPropertyOp10
 70
     1
102
RTVSPropertyOp11
 70
     1
102
RTVSPropertyOp12
 70
     1
102
RTVSPropertyOp13
 70
     1
102
RTVSPropertyOp14
 70
     1
102
RTVSPropertyOp15
 70
     1
102
RTVSPropertyOp16
 70
     1
102
RTVSPropertyOp17
 70
     1
102
RTVSPropertyOp18
 70
     1
102
RTVSPropertyOp19
 70
     1
102
RTVSPropertyOp20
 70
     1
102
RTVSPropertyOp21
 70
     1
102
RTVSPropertyOp22
 70
     1
102
RTVSPropertyOp23
 70
     1
102
RTVSPropertyOp24
 70
     1
102
RTVSPropertyOp25
 70
     1
102
RTVSPropertyOp26
 70
     1
102
RTVSPropertyOp27
 70
     1
102
RTVSPropertyOp28
 70
     1
102
RTVSPropertyOp29
 70
     1
102
RTVSPropertyOp30
 70
     1
102
RTVSPropertyOp31
 70
     1
102
RTVSPropertyOp32
 70
     1
102
RTVSPropertyOp33
 70
     1
102
RTVSPropertyOp34
 70
     1
102
RTVSPropertyOp35
 70
     1
102
RTVSPropertyOp36
 70
     1
102
RTVSPropertyOp37
 70
     1
102
RTVSPropertyOp38
 70
     1
102
RTVSPropertyOp39
 70
     1
102
RTVSPropertyOp40
 70
     1
102
RTVSPropertyOp41
 70
     1
102
RTVSPropertyOp42
 70
     1
102
RTVSPropertyOp43
 70
     1
102
RTVSPropertyOp44
 70
     1
102
RTVSPropertyOp45
 70
     1
102
RTVSPropertyOp46
 70
     1
102
RTVSPropertyOp47
 70
     1
102
RTVSPropertyOp48
 70
     1
102
RTVSPropertyOp49
 70
     1
102
RTVSPropertyOp50
 70
     1
102
RTVSPropertyOp51
 70
     0
102
RTVSPropertyOp52
 70
     0
102
RTVSPropertyOp53
 70
     1
102
RTVSPropertyOp54
 70
     1
102
RTVSPropertyOp55
 70
     1
102
RTVSPropertyOp56
 70
     1
102
RTVSPropertyOp57
 70
     1
102
RTVSPropertyOp58
 70
     1
102
RTVSPropertyOp59
 70
     1
102
RTVSPropertyOp60
 70
     1
102
RTVSPropertyOp61
 70
     1
102
RTVSPropertyOp62
 70
     1
  0
XRECORD
  5
994F4
102
{ACAD_REACTORS
330
994F3
102
}
330
994F3
100
AcDbXrecord
280
     1
102
RTVSPost2010Prop28
280
     0
102
RTVSPost2010PropOp28
 70
     1
102
RTVSPost2010Prop29
280
     1
102
RTVSPost2010PropOp29
 70
     1
102
RTVSPost2010Prop30
280
     1
102
RTVSPost2010PropOp30
 70
     1
102
RTVSPost2010Prop31
280
     0
102
RTVSPost2010PropOp31
 70
     1
102
RTVSPost2010Prop32
280
     0
102
RTVSPost2010PropOp32
 70
     1
102
RTVSPost2010Prop33
280
     0
102
RTVSPost2010PropOp33
 70
     1
102
RTVSPost2010Prop34
280
     0
102
RTVSPost2010PropOp34
 70
     1
102
RTVSPost2010Prop35
280
     0
102
RTVSPost2010PropOp35
 70
     1
102
RTVSPost2010Prop36
280
     0
102
RTVSPost2010PropOp36
 70
     1
102
RTVSPost2010Prop37
 90
       50
102
RTVSPost2010PropOp37
 70
     1
102
RTVSPost2010Prop38
140
0.0
102
RTVSPost2010PropOp38
 70
     1
102
RTVSPost2010Prop39
140
1.0
102
RTVSPost2010PropOp39
 70
     1
102
RTVSPost2010Prop40
 90
        0
102
RTVSPost2010PropOp40
 70
     1
102
RTVSPost2010Prop41ColorIndex
 90
       18
102
RTVSPost2010Prop41ColorRGB
 90
        0
102
RTVSPost2010PropOp41
 70
     1
102
RTVSPost2010Prop42
 90
       50
102
RTVSPost2010PropOp42
 70
     1
102
RTVSPost2010Prop43
 90
        3
102
RTVSPost2010PropOp43
 70
     1
102
RTVSPost2010Prop44ColorIndex
 90
        5
102
RTVSPost2010Prop44ColorRGB
 90
      255
102
RTVSPost2010PropOp44
 70
     1
102
RTVSPost2010Prop45
280
     0
102
RTVSPost2010PropOp45
 70
     1
102
RTVSPost2010Prop46
 90
       50
102
RTVSPost2010PropOp46
 70
     1
102
RTVSPost2010Prop47
 90
       50
102
RTVSPost2010PropOp47
 70
     1
102
RTVSPost2010Prop48
 90
       50
102
RTVSPost2010PropOp48
 70
     1
102
RTVSPost2010Prop49
280
     0
102
RTVSPost2010PropOp49
 70
     1
102
RTVSPost2010Prop50
 90
       50
102
RTVSPost2010PropOp50
 70
     1
102
RTVSPost2010Prop51ColorIndex
 90
      256
102
RTVSPost2010Prop51ColorRGB
 90
-16777216
102
RTVSPost2010PropOp51
 70
     0
102
RTVSPost2010Prop52
140
1.0
102
RTVSPost2010PropOp52
 70
     0
102
RTVSPost2010Prop53
 90
        2
102
RTVSPost2010PropOp53
 70
     1
102
RTVSPost2010Prop54
  1
strokes_ogs.tif
102
RTVSPost2010PropOp54
 70
     1
102
RTVSPost2010Prop55
280
     0
102
RTVSPost2010PropOp55
 70
     1
102
RTVSPost2010Prop56
140
1.0
102
RTVSPost2010PropOp56
 70
     1
102
RTVSPost2010Prop57
140
1.0
102
RTVSPost2010PropOp57
 70
     1
102
RTVSPropertyOp0
 70
     1
102
RTVSPropertyOp1
 70
     1
102
RTVSPropertyOp2
 70
     1
102
RTVSPropertyOp3
 70
     1
102
RTVSPropertyOp4
 70
     1
102
RTVSPropertyOp5
 70
     1
102
RTVSPropertyOp6
 70
     1
102
RTVSPropertyOp7
 70
     1
102
RTVSPropertyOp8
 70
     1
102
RTVSPropertyOp9
 70
     1
102
RTVSPropertyOp10
 70
     1
102
RTVSPropertyOp11
 70
     1
102
RTVSPropertyOp12
 70
     1
102
RTVSPropertyOp13
 70
     1
102
RTVSPropertyOp14
 70
     1
102
RTVSPropertyOp15
 70
     1
102
RTVSPropertyOp16
 70
     1
102
RTVSPropertyOp17
 70
     1
102
RTVSPropertyOp18
 70
     1
102
RTVSPropertyOp19
 70
     1
102
RTVSPropertyOp20
 70
     1
102
RTVSPropertyOp21
 70
     1
102
RTVSPropertyOp22
 70
     1
102
RTVSPropertyOp23
 70
     1
102
RTVSPropertyOp24
 70
     1
102
RTVSPropertyOp25
 70
     1
102
RTVSPropertyOp26
 70
     1
102
RTVSPropertyOp27
 70
     1
102
RTVSPropertyOp28
 70
     1
102
RTVSPropertyOp29
 70
     1
102
RTVSPropertyOp30
 70
     1
102
RTVSPropertyOp31
 70
     1
102
RTVSPropertyOp32
 70
     1
102
RTVSPropertyOp33
 70
     1
102
RTVSPropertyOp34
 70
     1
102
RTVSPropertyOp35
 70
     1
102
RTVSPropertyOp36
 70
     1
102
RTVSPropertyOp37
 70
     1
102
RTVSPropertyOp38
 70
     1
102
RTVSPropertyOp39
 70
     1
102
RTVSPropertyOp40
 70
     1
102
RTVSPropertyOp41
 70
     1
102
RTVSPropertyOp42
 70
     1
102
RTVSPropertyOp43
 70
     1
102
RTVSPropertyOp44
 70
     1
102
RTVSPropertyOp45
 70
     1
102
RTVSPropertyOp46
 70
     1
102
RTVSPropertyOp47
 70
     1
102
RTVSPropertyOp48
 70
     1
102
RTVSPropertyOp49
 70
     1
102
RTVSPropertyOp50
 70
     1
102
RTVSPropertyOp51
 70
     0
102
RTVSPropertyOp52
 70
     0
102
RTVSPropertyOp53
 70
     1
102
RTVSPropertyOp54
 70
     1
102
RTVSPropertyOp55
 70
     1
102
RTVSPropertyOp56
 70
     1
102
RTVSPropertyOp57
 70
     1
102
RTVSPropertyOp58
 70
     1
102
RTVSPropertyOp59
 70
     1
102
RTVSPropertyOp60
 70
     1
102
RTVSPropertyOp61
 70
     1
102
RTVSPropertyOp62
 70
     1
  0
XRECORD
  5
994F2
102
{ACAD_REACTORS
330
994F1
102
}
330
994F1
100
AcDbXrecord
280
     1
102
RTVSPost2010Prop28
280
     0
102
RTVSPost2010PropOp28
 70
     1
102
RTVSPost2010Prop29
280
     1
102
RTVSPost2010PropOp29
 70
     1
102
RTVSPost2010Prop30
280
     1
102
RTVSPost2010PropOp30
 70
     1
102
RTVSPost2010Prop31
280
     0
102
RTVSPost2010PropOp31
 70
     1
102
RTVSPost2010Prop32
280
     0
102
RTVSPost2010PropOp32
 70
     1
102
RTVSPost2010Prop33
280
     0
102
RTVSPost2010PropOp33
 70
     1
102
RTVSPost2010Prop34
280
     0
102
RTVSPost2010PropOp34
 70
     1
102
RTVSPost2010Prop35
280
     0
102
RTVSPost2010PropOp35
 70
     1
102
RTVSPost2010Prop36
280
     0
102
RTVSPost2010PropOp36
 70
     1
102
RTVSPost2010Prop37
 90
       50
102
RTVSPost2010PropOp37
 70
     1
102
RTVSPost2010Prop38
140
0.0
102
RTVSPost2010PropOp38
 70
     1
102
RTVSPost2010Prop39
140
1.0
102
RTVSPost2010PropOp39
 70
     1
102
RTVSPost2010Prop40
 90
        0
102
RTVSPost2010PropOp40
 70
     1
102
RTVSPost2010Prop41ColorIndex
 90
       18
102
RTVSPost2010Prop41ColorRGB
 90
        0
102
RTVSPost2010PropOp41
 70
     1
102
RTVSPost2010Prop42
 90
       50
102
RTVSPost2010PropOp42
 70
     1
102
RTVSPost2010Prop43
 90
        3
102
RTVSPost2010PropOp43
 70
     1
102
RTVSPost2010Prop44ColorIndex
 90
        5
102
RTVSPost2010Prop44ColorRGB
 90
      255
102
RTVSPost2010PropOp44
 70
     1
102
RTVSPost2010Prop45
280
     0
102
RTVSPost2010PropOp45
 70
     1
102
RTVSPost2010Prop46
 90
       50
102
RTVSPost2010PropOp46
 70
     1
102
RTVSPost2010Prop47
 90
       50
102
RTVSPost2010PropOp47
 70
     1
102
RTVSPost2010Prop48
 90
       50
102
RTVSPost2010PropOp48
 70
     1
102
RTVSPost2010Prop49
280
     0
102
RTVSPost2010PropOp49
 70
     1
102
RTVSPost2010Prop50
 90
       50
102
RTVSPost2010PropOp50
 70
     1
102
RTVSPost2010Prop51ColorIndex
 90
      256
102
RTVSPost2010Prop51ColorRGB
 90
-16777216
102
RTVSPost2010PropOp51
 70
     0
102
RTVSPost2010Prop52
140
1.0
102
RTVSPost2010PropOp52
 70
     0
102
RTVSPost2010Prop53
 90
        2
102
RTVSPost2010PropOp53
 70
     1
102
RTVSPost2010Prop54
  1
strokes_ogs.tif
102
RTVSPost2010PropOp54
 70
     1
102
RTVSPost2010Prop55
280
     0
102
RTVSPost2010PropOp55
 70
     1
102
RTVSPost2010Prop56
140
1.0
102
RTVSPost2010PropOp56
 70
     1
102
RTVSPost2010Prop57
140
1.0
102
RTVSPost2010PropOp57
 70
     1
102
RTVSPropertyOp0
 70
     1
102
RTVSPropertyOp1
 70
     1
102
RTVSPropertyOp2
 70
     1
102
RTVSPropertyOp3
 70
     1
102
RTVSPropertyOp4
 70
     1
102
RTVSPropertyOp5
 70
     1
102
RTVSPropertyOp6
 70
     1
102
RTVSPropertyOp7
 70
     1
102
RTVSPropertyOp8
 70
     1
102
RTVSPropertyOp9
 70
     1
102
RTVSPropertyOp10
 70
     1
102
RTVSPropertyOp11
 70
     1
102
RTVSPropertyOp12
 70
     1
102
RTVSPropertyOp13
 70
     1
102
RTVSPropertyOp14
 70
     1
102
RTVSPropertyOp15
 70
     1
102
RTVSPropertyOp16
 70
     1
102
RTVSPropertyOp17
 70
     1
102
RTVSPropertyOp18
 70
     1
102
RTVSPropertyOp19
 70
     1
102
RTVSPropertyOp20
 70
     1
102
RTVSPropertyOp21
 70
     1
102
RTVSPropertyOp22
 70
     1
102
RTVSPropertyOp23
 70
     1
102
RTVSPropertyOp24
 70
     1
102
RTVSPropertyOp25
 70
     1
102
RTVSPropertyOp26
 70
     1
102
RTVSPropertyOp27
 70
     1
102
RTVSPropertyOp28
 70
     1
102
RTVSPropertyOp29
 70
     1
102
RTVSPropertyOp30
 70
     1
102
RTVSPropertyOp31
 70
     1
102
RTVSPropertyOp32
 70
     1
102
RTVSPropertyOp33
 70
     1
102
RTVSPropertyOp34
 70
     1
102
RTVSPropertyOp35
 70
     1
102
RTVSPropertyOp36
 70
     1
102
RTVSPropertyOp37
 70
     1
102
RTVSPropertyOp38
 70
     1
102
RTVSPropertyOp39
 70
     1
102
RTVSPropertyOp40
 70
     1
102
RTVSPropertyOp41
 70
     1
102
RTVSPropertyOp42
 70
     1
102
RTVSPropertyOp43
 70
     1
102
RTVSPropertyOp44
 70
     1
102
RTVSPropertyOp45
 70
     1
102
RTVSPropertyOp46
 70
     1
102
RTVSPropertyOp47
 70
     1
102
RTVSPropertyOp48
 70
     1
102
RTVSPropertyOp49
 70
     1
102
RTVSPropertyOp50
 70
     1
102
RTVSPropertyOp51
 70
     0
102
RTVSPropertyOp52
 70
     0
102
RTVSPropertyOp53
 70
     1
102
RTVSPropertyOp54
 70
     1
102
RTVSPropertyOp55
 70
     1
102
RTVSPropertyOp56
 70
     1
102
RTVSPropertyOp57
 70
     1
102
RTVSPropertyOp58
 70
     1
102
RTVSPropertyOp59
 70
     1
102
RTVSPropertyOp60
 70
     1
102
RTVSPropertyOp61
 70
     1
102
RTVSPropertyOp62
 70
     1
  0
XRECORD
  5
994EC
102
{ACAD_REACTORS
330
994EB
102
}
330
994EB
100
AcDbXrecord
280
     1
102
RTVSPost2010Prop28
280
     0
102
RTVSPost2010PropOp28
 70
     1
102
RTVSPost2010Prop29
280
     1
102
RTVSPost2010PropOp29
 70
     1
102
RTVSPost2010Prop30
280
     1
102
RTVSPost2010PropOp30
 70
     1
102
RTVSPost2010Prop31
280
     0
102
RTVSPost2010PropOp31
 70
     1
102
RTVSPost2010Prop32
280
     0
102
RTVSPost2010PropOp32
 70
     1
102
RTVSPost2010Prop33
280
     0
102
RTVSPost2010PropOp33
 70
     1
102
RTVSPost2010Prop34
280
     0
102
RTVSPost2010PropOp34
 70
     1
102
RTVSPost2010Prop35
280
     0
102
RTVSPost2010PropOp35
 70
     1
102
RTVSPost2010Prop36
280
     0
102
RTVSPost2010PropOp36
 70
     1
102
RTVSPost2010Prop37
 90
       50
102
RTVSPost2010PropOp37
 70
     1
102
RTVSPost2010Prop38
140
0.0
102
RTVSPost2010PropOp38
 70
     1
102
RTVSPost2010Prop39
140
1.0
102
RTVSPost2010PropOp39
 70
     1
102
RTVSPost2010Prop40
 90
        0
102
RTVSPost2010PropOp40
 70
     1
102
RTVSPost2010Prop41ColorIndex
 90
       18
102
RTVSPost2010Prop41ColorRGB
 90
        0
102
RTVSPost2010PropOp41
 70
     1
102
RTVSPost2010Prop42
 90
       50
102
RTVSPost2010PropOp42
 70
     1
102
RTVSPost2010Prop43
 90
        3
102
RTVSPost2010PropOp43
 70
     1
102
RTVSPost2010Prop44ColorIndex
 90
        5
102
RTVSPost2010Prop44ColorRGB
 90
      255
102
RTVSPost2010PropOp44
 70
     1
102
RTVSPost2010Prop45
280
     0
102
RTVSPost2010PropOp45
 70
     1
102
RTVSPost2010Prop46
 90
       50
102
RTVSPost2010PropOp46
 70
     1
102
RTVSPost2010Prop47
 90
       50
102
RTVSPost2010PropOp47
 70
     1
102
RTVSPost2010Prop48
 90
       50
102
RTVSPost2010PropOp48
 70
     1
102
RTVSPost2010Prop49
280
     0
102
RTVSPost2010PropOp49
 70
     1
102
RTVSPost2010Prop50
 90
       50
102
RTVSPost2010PropOp50
 70
     1
102
RTVSPost2010Prop51ColorIndex
 90
      256
102
RTVSPost2010Prop51ColorRGB
 90
-16777216
102
RTVSPost2010PropOp51
 70
     0
102
RTVSPost2010Prop52
140
1.0
102
RTVSPost2010PropOp52
 70
     0
102
RTVSPost2010Prop53
 90
        2
102
RTVSPost2010PropOp53
 70
     1
102
RTVSPost2010Prop54
  1
strokes_ogs.tif
102
RTVSPost2010PropOp54
 70
     1
102
RTVSPost2010Prop55
280
     0
102
RTVSPost2010PropOp55
 70
     1
102
RTVSPost2010Prop56
140
1.0
102
RTVSPost2010PropOp56
 70
     1
102
RTVSPost2010Prop57
140
1.0
102
RTVSPost2010PropOp57
 70
     1
102
RTVSPropertyOp0
 70
     1
102
RTVSPropertyOp1
 70
     1
102
RTVSPropertyOp2
 70
     1
102
RTVSPropertyOp3
 70
     1
102
RTVSPropertyOp4
 70
     1
102
RTVSPropertyOp5
 70
     1
102
RTVSPropertyOp6
 70
     1
102
RTVSPropertyOp7
 70
     1
102
RTVSPropertyOp8
 70
     1
102
RTVSPropertyOp9
 70
     1
102
RTVSPropertyOp10
 70
     1
102
RTVSPropertyOp11
 70
     1
102
RTVSPropertyOp12
 70
     1
102
RTVSPropertyOp13
 70
     1
102
RTVSPropertyOp14
 70
     1
102
RTVSPropertyOp15
 70
     1
102
RTVSPropertyOp16
 70
     1
102
RTVSPropertyOp17
 70
     1
102
RTVSPropertyOp18
 70
     1
102
RTVSPropertyOp19
 70
     1
102
RTVSPropertyOp20
 70
     1
102
RTVSPropertyOp21
 70
     1
102
RTVSPropertyOp22
 70
     1
102
RTVSPropertyOp23
 70
     1
102
RTVSPropertyOp24
 70
     1
102
RTVSPropertyOp25
 70
     1
102
RTVSPropertyOp26
 70
     1
102
RTVSPropertyOp27
 70
     1
102
RTVSPropertyOp28
 70
     1
102
RTVSPropertyOp29
 70
     1
102
RTVSPropertyOp30
 70
     1
102
RTVSPropertyOp31
 70
     1
102
RTVSPropertyOp32
 70
     1
102
RTVSPropertyOp33
 70
     1
102
RTVSPropertyOp34
 70
     1
102
RTVSPropertyOp35
 70
     1
102
RTVSPropertyOp36
 70
     1
102
RTVSPropertyOp37
 70
     1
102
RTVSPropertyOp38
 70
     1
102
RTVSPropertyOp39
 70
     1
102
RTVSPropertyOp40
 70
     1
102
RTVSPropertyOp41
 70
     1
102
RTVSPropertyOp42
 70
     1
102
RTVSPropertyOp43
 70
     1
102
RTVSPropertyOp44
 70
     1
102
RTVSPropertyOp45
 70
     1
102
RTVSPropertyOp46
 70
     1
102
RTVSPropertyOp47
 70
     1
102
RTVSPropertyOp48
 70
     1
102
RTVSPropertyOp49
 70
     1
102
RTVSPropertyOp50
 70
     1
102
RTVSPropertyOp51
 70
     0
102
RTVSPropertyOp52
 70
     0
102
RTVSPropertyOp53
 70
     1
102
RTVSPropertyOp54
 70
     1
102
RTVSPropertyOp55
 70
     1
102
RTVSPropertyOp56
 70
     1
102
RTVSPropertyOp57
 70
     1
102
RTVSPropertyOp58
 70
     1
102
RTVSPropertyOp59
 70
     1
102
RTVSPropertyOp60
 70
     1
102
RTVSPropertyOp61
 70
     1
102
RTVSPropertyOp62
 70
     1
  0
XRECORD
  5
994EE
102
{ACAD_REACTORS
330
994ED
102
}
330
994ED
100
AcDbXrecord
280
     1
102
RTVSPost2010Prop28
280
     0
102
RTVSPost2010PropOp28
 70
     1
102
RTVSPost2010Prop29
280
     1
102
RTVSPost2010PropOp29
 70
     1
102
RTVSPost2010Prop30
280
     1
102
RTVSPost2010PropOp30
 70
     1
102
RTVSPost2010Prop31
280
     0
102
RTVSPost2010PropOp31
 70
     1
102
RTVSPost2010Prop32
280
     0
102
RTVSPost2010PropOp32
 70
     1
102
RTVSPost2010Prop33
280
     0
102
RTVSPost2010PropOp33
 70
     1
102
RTVSPost2010Prop34
280
     0
102
RTVSPost2010PropOp34
 70
     1
102
RTVSPost2010Prop35
280
     0
102
RTVSPost2010PropOp35
 70
     1
102
RTVSPost2010Prop36
280
     0
102
RTVSPost2010PropOp36
 70
     1
102
RTVSPost2010Prop37
 90
       50
102
RTVSPost2010PropOp37
 70
     1
102
RTVSPost2010Prop38
140
0.0
102
RTVSPost2010PropOp38
 70
     1
102
RTVSPost2010Prop39
140
1.0
102
RTVSPost2010PropOp39
 70
     1
102
RTVSPost2010Prop40
 90
        0
102
RTVSPost2010PropOp40
 70
     1
102
RTVSPost2010Prop41ColorIndex
 90
       18
102
RTVSPost2010Prop41ColorRGB
 90
        0
102
RTVSPost2010PropOp41
 70
     1
102
RTVSPost2010Prop42
 90
       50
102
RTVSPost2010PropOp42
 70
     1
102
RTVSPost2010Prop43
 90
        3
102
RTVSPost2010PropOp43
 70
     1
102
RTVSPost2010Prop44ColorIndex
 90
        5
102
RTVSPost2010Prop44ColorRGB
 90
      255
102
RTVSPost2010PropOp44
 70
     1
102
RTVSPost2010Prop45
280
     0
102
RTVSPost2010PropOp45
 70
     1
102
RTVSPost2010Prop46
 90
       50
102
RTVSPost2010PropOp46
 70
     1
102
RTVSPost2010Prop47
 90
       50
102
RTVSPost2010PropOp47
 70
     1
102
RTVSPost2010Prop48
 90
       50
102
RTVSPost2010PropOp48
 70
     1
102
RTVSPost2010Prop49
280
     0
102
RTVSPost2010PropOp49
 70
     1
102
RTVSPost2010Prop50
 90
       50
102
RTVSPost2010PropOp50
 70
     1
102
RTVSPost2010Prop51ColorIndex
 90
      256
102
RTVSPost2010Prop51ColorRGB
 90
-16777216
102
RTVSPost2010PropOp51
 70
     0
102
RTVSPost2010Prop52
140
1.0
102
RTVSPost2010PropOp52
 70
     0
102
RTVSPost2010Prop53
 90
        2
102
RTVSPost2010PropOp53
 70
     1
102
RTVSPost2010Prop54
  1
strokes_ogs.tif
102
RTVSPost2010PropOp54
 70
     1
102
RTVSPost2010Prop55
280
     0
102
RTVSPost2010PropOp55
 70
     1
102
RTVSPost2010Prop56
140
1.0
102
RTVSPost2010PropOp56
 70
     1
102
RTVSPost2010Prop57
140
1.0
102
RTVSPost2010PropOp57
 70
     1
102
RTVSPropertyOp0
 70
     1
102
RTVSPropertyOp1
 70
     1
102
RTVSPropertyOp2
 70
     1
102
RTVSPropertyOp3
 70
     1
102
RTVSPropertyOp4
 70
     1
102
RTVSPropertyOp5
 70
     1
102
RTVSPropertyOp6
 70
     1
102
RTVSPropertyOp7
 70
     1
102
RTVSPropertyOp8
 70
     1
102
RTVSPropertyOp9
 70
     1
102
RTVSPropertyOp10
 70
     1
102
RTVSPropertyOp11
 70
     1
102
RTVSPropertyOp12
 70
     1
102
RTVSPropertyOp13
 70
     1
102
RTVSPropertyOp14
 70
     1
102
RTVSPropertyOp15
 70
     1
102
RTVSPropertyOp16
 70
     1
102
RTVSPropertyOp17
 70
     1
102
RTVSPropertyOp18
 70
     1
102
RTVSPropertyOp19
 70
     1
102
RTVSPropertyOp20
 70
     1
102
RTVSPropertyOp21
 70
     1
102
RTVSPropertyOp22
 70
     1
102
RTVSPropertyOp23
 70
     1
102
RTVSPropertyOp24
 70
     1
102
RTVSPropertyOp25
 70
     1
102
RTVSPropertyOp26
 70
     1
102
RTVSPropertyOp27
 70
     1
102
RTVSPropertyOp28
 70
     1
102
RTVSPropertyOp29
 70
     1
102
RTVSPropertyOp30
 70
     1
102
RTVSPropertyOp31
 70
     1
102
RTVSPropertyOp32
 70
     1
102
RTVSPropertyOp33
 70
     1
102
RTVSPropertyOp34
 70
     1
102
RTVSPropertyOp35
 70
     1
102
RTVSPropertyOp36
 70
     1
102
RTVSPropertyOp37
 70
     1
102
RTVSPropertyOp38
 70
     1
102
RTVSPropertyOp39
 70
     1
102
RTVSPropertyOp40
 70
     1
102
RTVSPropertyOp41
 70
     1
102
RTVSPropertyOp42
 70
     1
102
RTVSPropertyOp43
 70
     1
102
RTVSPropertyOp44
 70
     1
102
RTVSPropertyOp45
 70
     1
102
RTVSPropertyOp46
 70
     1
102
RTVSPropertyOp47
 70
     1
102
RTVSPropertyOp48
 70
     1
102
RTVSPropertyOp49
 70
     1
102
RTVSPropertyOp50
 70
     1
102
RTVSPropertyOp51
 70
     0
102
RTVSPropertyOp52
 70
     0
102
RTVSPropertyOp53
 70
     1
102
RTVSPropertyOp54
 70
     1
102
RTVSPropertyOp55
 70
     1
102
RTVSPropertyOp56
 70
     1
102
RTVSPropertyOp57
 70
     1
102
RTVSPropertyOp58
 70
     1
102
RTVSPropertyOp59
 70
     1
102
RTVSPropertyOp60
 70
     1
102
RTVSPropertyOp61
 70
     1
102
RTVSPropertyOp62
 70
     1
  0
XRECORD
  5
994DF
102
{ACAD_REACTORS
330
994DE
102
}
330
994DE
100
AcDbXrecord
280
     1
102
RTVSPost2010Prop28
280
     0
102
RTVSPost2010PropOp28
 70
     1
102
RTVSPost2010Prop29
280
     1
102
RTVSPost2010PropOp29
 70
     1
102
RTVSPost2010Prop30
280
     1
102
RTVSPost2010PropOp30
 70
     1
102
RTVSPost2010Prop31
280
     0
102
RTVSPost2010PropOp31
 70
     1
102
RTVSPost2010Prop32
280
     0
102
RTVSPost2010PropOp32
 70
     1
102
RTVSPost2010Prop33
280
     0
102
RTVSPost2010PropOp33
 70
     1
102
RTVSPost2010Prop34
280
     0
102
RTVSPost2010PropOp34
 70
     1
102
RTVSPost2010Prop35
280
     0
102
RTVSPost2010PropOp35
 70
     1
102
RTVSPost2010Prop36
280
     0
102
RTVSPost2010PropOp36
 70
     1
102
RTVSPost2010Prop37
 90
       50
102
RTVSPost2010PropOp37
 70
     1
102
RTVSPost2010Prop38
140
0.0
102
RTVSPost2010PropOp38
 70
     1
102
RTVSPost2010Prop39
140
1.0
102
RTVSPost2010PropOp39
 70
     1
102
RTVSPost2010Prop40
 90
        0
102
RTVSPost2010PropOp40
 70
     1
102
RTVSPost2010Prop41ColorIndex
 90
       18
102
RTVSPost2010Prop41ColorRGB
 90
        0
102
RTVSPost2010PropOp41
 70
     1
102
RTVSPost2010Prop42
 90
       50
102
RTVSPost2010PropOp42
 70
     1
102
RTVSPost2010Prop43
 90
        3
102
RTVSPost2010PropOp43
 70
     1
102
RTVSPost2010Prop44ColorIndex
 90
        5
102
RTVSPost2010Prop44ColorRGB
 90
      255
102
RTVSPost2010PropOp44
 70
     1
102
RTVSPost2010Prop45
280
     0
102
RTVSPost2010PropOp45
 70
     1
102
RTVSPost2010Prop46
 90
       50
102
RTVSPost2010PropOp46
 70
     1
102
RTVSPost2010Prop47
 90
       50
102
RTVSPost2010PropOp47
 70
     1
102
RTVSPost2010Prop48
 90
       50
102
RTVSPost2010PropOp48
 70
     1
102
RTVSPost2010Prop49
280
     0
102
RTVSPost2010PropOp49
 70
     1
102
RTVSPost2010Prop50
 90
       50
102
RTVSPost2010PropOp50
 70
     1
102
RTVSPost2010Prop51ColorIndex
 90
      256
102
RTVSPost2010Prop51ColorRGB
 90
-16777216
102
RTVSPost2010PropOp51
 70
     0
102
RTVSPost2010Prop52
140
1.0
102
RTVSPost2010PropOp52
 70
     0
102
RTVSPost2010Prop53
 90
        2
102
RTVSPost2010PropOp53
 70
     1
102
RTVSPost2010Prop54
  1
strokes_ogs.tif
102
RTVSPost2010PropOp54
 70
     1
102
RTVSPost2010Prop55
280
     0
102
RTVSPost2010PropOp55
 70
     1
102
RTVSPost2010Prop56
140
1.0
102
RTVSPost2010PropOp56
 70
     1
102
RTVSPost2010Prop57
140
1.0
102
RTVSPost2010PropOp57
 70
     1
102
RTVSPropertyOp0
 70
     1
102
RTVSPropertyOp1
 70
     1
102
RTVSPropertyOp2
 70
     1
102
RTVSPropertyOp3
 70
     1
102
RTVSPropertyOp4
 70
     1
102
RTVSPropertyOp5
 70
     1
102
RTVSPropertyOp6
 70
     1
102
RTVSPropertyOp7
 70
     1
102
RTVSPropertyOp8
 70
     1
102
RTVSPropertyOp9
 70
     1
102
RTVSPropertyOp10
 70
     1
102
RTVSPropertyOp11
 70
     1
102
RTVSPropertyOp12
 70
     1
102
RTVSPropertyOp13
 70
     1
102
RTVSPropertyOp14
 70
     1
102
RTVSPropertyOp15
 70
     1
102
RTVSPropertyOp16
 70
     1
102
RTVSPropertyOp17
 70
     1
102
RTVSPropertyOp18
 70
     1
102
RTVSPropertyOp19
 70
     1
102
RTVSPropertyOp20
 70
     1
102
RTVSPropertyOp21
 70
     1
102
RTVSPropertyOp22
 70
     1
102
RTVSPropertyOp23
 70
     1
102
RTVSPropertyOp24
 70
     1
102
RTVSPropertyOp25
 70
     1
102
RTVSPropertyOp26
 70
     1
102
RTVSPropertyOp27
 70
     1
102
RTVSPropertyOp28
 70
     1
102
RTVSPropertyOp29
 70
     1
102
RTVSPropertyOp30
 70
     1
102
RTVSPropertyOp31
 70
     1
102
RTVSPropertyOp32
 70
     1
102
RTVSPropertyOp33
 70
     1
102
RTVSPropertyOp34
 70
     1
102
RTVSPropertyOp35
 70
     1
102
RTVSPropertyOp36
 70
     1
102
RTVSPropertyOp37
 70
     1
102
RTVSPropertyOp38
 70
     1
102
RTVSPropertyOp39
 70
     1
102
RTVSPropertyOp40
 70
     1
102
RTVSPropertyOp41
 70
     1
102
RTVSPropertyOp42
 70
     1
102
RTVSPropertyOp43
 70
     1
102
RTVSPropertyOp44
 70
     1
102
RTVSPropertyOp45
 70
     1
102
RTVSPropertyOp46
 70
     1
102
RTVSPropertyOp47
 70
     1
102
RTVSPropertyOp48
 70
     1
102
RTVSPropertyOp49
 70
     1
102
RTVSPropertyOp50
 70
     1
102
RTVSPropertyOp51
 70
     0
102
RTVSPropertyOp52
 70
     0
102
RTVSPropertyOp53
 70
     1
102
RTVSPropertyOp54
 70
     1
102
RTVSPropertyOp55
 70
     1
102
RTVSPropertyOp56
 70
     1
102
RTVSPropertyOp57
 70
     1
102
RTVSPropertyOp58
 70
     1
102
RTVSPropertyOp59
 70
     1
102
RTVSPropertyOp60
 70
     1
102
RTVSPropertyOp61
 70
     1
102
RTVSPropertyOp62
 70
     1
  0
XRECORD
  5
994E8
102
{ACAD_REACTORS
330
994E7
102
}
330
994E7
100
AcDbXrecord
280
     1
102
RTVSPost2010Prop28
280
     0
102
RTVSPost2010PropOp28
 70
     1
102
RTVSPost2010Prop29
280
     1
102
RTVSPost2010PropOp29
 70
     1
102
RTVSPost2010Prop30
280
     1
102
RTVSPost2010PropOp30
 70
     1
102
RTVSPost2010Prop31
280
     0
102
RTVSPost2010PropOp31
 70
     1
102
RTVSPost2010Prop32
280
     0
102
RTVSPost2010PropOp32
 70
     1
102
RTVSPost2010Prop33
280
     0
102
RTVSPost2010PropOp33
 70
     1
102
RTVSPost2010Prop34
280
     0
102
RTVSPost2010PropOp34
 70
     1
102
RTVSPost2010Prop35
280
     0
102
RTVSPost2010PropOp35
 70
     1
102
RTVSPost2010Prop36
280
     0
102
RTVSPost2010PropOp36
 70
     1
102
RTVSPost2010Prop37
 90
       50
102
RTVSPost2010PropOp37
 70
     1
102
RTVSPost2010Prop38
140
0.0
102
RTVSPost2010PropOp38
 70
     1
102
RTVSPost2010Prop39
140
1.0
102
RTVSPost2010PropOp39
 70
     1
102
RTVSPost2010Prop40
 90
        0
102
RTVSPost2010PropOp40
 70
     1
102
RTVSPost2010Prop41ColorIndex
 90
       18
102
RTVSPost2010Prop41ColorRGB
 90
        0
102
RTVSPost2010PropOp41
 70
     1
102
RTVSPost2010Prop42
 90
       50
102
RTVSPost2010PropOp42
 70
     1
102
RTVSPost2010Prop43
 90
        3
102
RTVSPost2010PropOp43
 70
     1
102
RTVSPost2010Prop44ColorIndex
 90
        5
102
RTVSPost2010Prop44ColorRGB
 90
      255
102
RTVSPost2010PropOp44
 70
     1
102
RTVSPost2010Prop45
280
     0
102
RTVSPost2010PropOp45
 70
     1
102
RTVSPost2010Prop46
 90
       50
102
RTVSPost2010PropOp46
 70
     1
102
RTVSPost2010Prop47
 90
       50
102
RTVSPost2010PropOp47
 70
     1
102
RTVSPost2010Prop48
 90
       50
102
RTVSPost2010PropOp48
 70
     1
102
RTVSPost2010Prop49
280
     0
102
RTVSPost2010PropOp49
 70
     1
102
RTVSPost2010Prop50
 90
       50
102
RTVSPost2010PropOp50
 70
     1
102
RTVSPost2010Prop51ColorIndex
 90
      256
102
RTVSPost2010Prop51ColorRGB
 90
-16777216
102
RTVSPost2010PropOp51
 70
     0
102
RTVSPost2010Prop52
140
1.0
102
RTVSPost2010PropOp52
 70
     0
102
RTVSPost2010Prop53
 90
        2
102
RTVSPost2010PropOp53
 70
     1
102
RTVSPost2010Prop54
  1
strokes_ogs.tif
102
RTVSPost2010PropOp54
 70
     1
102
RTVSPost2010Prop55
280
     0
102
RTVSPost2010PropOp55
 70
     1
102
RTVSPost2010Prop56
140
1.0
102
RTVSPost2010PropOp56
 70
     1
102
RTVSPost2010Prop57
140
1.0
102
RTVSPost2010PropOp57
 70
     1
102
RTVSPropertyOp0
 70
     1
102
RTVSPropertyOp1
 70
     1
102
RTVSPropertyOp2
 70
     1
102
RTVSPropertyOp3
 70
     1
102
RTVSPropertyOp4
 70
     1
102
RTVSPropertyOp5
 70
     1
102
RTVSPropertyOp6
 70
     1
102
RTVSPropertyOp7
 70
     1
102
RTVSPropertyOp8
 70
     1
102
RTVSPropertyOp9
 70
     1
102
RTVSPropertyOp10
 70
     1
102
RTVSPropertyOp11
 70
     1
102
RTVSPropertyOp12
 70
     1
102
RTVSPropertyOp13
 70
     1
102
RTVSPropertyOp14
 70
     1
102
RTVSPropertyOp15
 70
     1
102
RTVSPropertyOp16
 70
     1
102
RTVSPropertyOp17
 70
     1
102
RTVSPropertyOp18
 70
     1
102
RTVSPropertyOp19
 70
     1
102
RTVSPropertyOp20
 70
     1
102
RTVSPropertyOp21
 70
     1
102
RTVSPropertyOp22
 70
     1
102
RTVSPropertyOp23
 70
     1
102
RTVSPropertyOp24
 70
     1
102
RTVSPropertyOp25
 70
     1
102
RTVSPropertyOp26
 70
     1
102
RTVSPropertyOp27
 70
     1
102
RTVSPropertyOp28
 70
     1
102
RTVSPropertyOp29
 70
     1
102
RTVSPropertyOp30
 70
     1
102
RTVSPropertyOp31
 70
     1
102
RTVSPropertyOp32
 70
     1
102
RTVSPropertyOp33
 70
     1
102
RTVSPropertyOp34
 70
     1
102
RTVSPropertyOp35
 70
     1
102
RTVSPropertyOp36
 70
     1
102
RTVSPropertyOp37
 70
     1
102
RTVSPropertyOp38
 70
     1
102
RTVSPropertyOp39
 70
     1
102
RTVSPropertyOp40
 70
     1
102
RTVSPropertyOp41
 70
     1
102
RTVSPropertyOp42
 70
     1
102
RTVSPropertyOp43
 70
     1
102
RTVSPropertyOp44
 70
     1
102
RTVSPropertyOp45
 70
     1
102
RTVSPropertyOp46
 70
     1
102
RTVSPropertyOp47
 70
     1
102
RTVSPropertyOp48
 70
     1
102
RTVSPropertyOp49
 70
     1
102
RTVSPropertyOp50
 70
     1
102
RTVSPropertyOp51
 70
     0
102
RTVSPropertyOp52
 70
     0
102
RTVSPropertyOp53
 70
     1
102
RTVSPropertyOp54
 70
     1
102
RTVSPropertyOp55
 70
     1
102
RTVSPropertyOp56
 70
     1
102
RTVSPropertyOp57
 70
     1
102
RTVSPropertyOp58
 70
     1
102
RTVSPropertyOp59
 70
     1
102
RTVSPropertyOp60
 70
     1
102
RTVSPropertyOp61
 70
     1
102
RTVSPropertyOp62
 70
     1
  0
XRECORD
  5
994F0
102
{ACAD_REACTORS
330
994EF
102
}
330
994EF
100
AcDbXrecord
280
     1
102
RTVSPost2010Prop28
280
     0
102
RTVSPost2010PropOp28
 70
     1
102
RTVSPost2010Prop29
280
     1
102
RTVSPost2010PropOp29
 70
     1
102
RTVSPost2010Prop30
280
     1
102
RTVSPost2010PropOp30
 70
     1
102
RTVSPost2010Prop31
280
     0
102
RTVSPost2010PropOp31
 70
     1
102
RTVSPost2010Prop32
280
     0
102
RTVSPost2010PropOp32
 70
     1
102
RTVSPost2010Prop33
280
     0
102
RTVSPost2010PropOp33
 70
     1
102
RTVSPost2010Prop34
280
     0
102
RTVSPost2010PropOp34
 70
     1
102
RTVSPost2010Prop35
280
     0
102
RTVSPost2010PropOp35
 70
     1
102
RTVSPost2010Prop36
280
     0
102
RTVSPost2010PropOp36
 70
     1
102
RTVSPost2010Prop37
 90
       50
102
RTVSPost2010PropOp37
 70
     1
102
RTVSPost2010Prop38
140
0.0
102
RTVSPost2010PropOp38
 70
     1
102
RTVSPost2010Prop39
140
1.0
102
RTVSPost2010PropOp39
 70
     1
102
RTVSPost2010Prop40
 90
        0
102
RTVSPost2010PropOp40
 70
     1
102
RTVSPost2010Prop41ColorIndex
 90
       18
102
RTVSPost2010Prop41ColorRGB
 90
        0
102
RTVSPost2010PropOp41
 70
     1
102
RTVSPost2010Prop42
 90
       50
102
RTVSPost2010PropOp42
 70
     1
102
RTVSPost2010Prop43
 90
        3
102
RTVSPost2010PropOp43
 70
     1
102
RTVSPost2010Prop44ColorIndex
 90
        5
102
RTVSPost2010Prop44ColorRGB
 90
      255
102
RTVSPost2010PropOp44
 70
     1
102
RTVSPost2010Prop45
280
     0
102
RTVSPost2010PropOp45
 70
     1
102
RTVSPost2010Prop46
 90
       50
102
RTVSPost2010PropOp46
 70
     1
102
RTVSPost2010Prop47
 90
       50
102
RTVSPost2010PropOp47
 70
     1
102
RTVSPost2010Prop48
 90
       50
102
RTVSPost2010PropOp48
 70
     1
102
RTVSPost2010Prop49
280
     0
102
RTVSPost2010PropOp49
 70
     1
102
RTVSPost2010Prop50
 90
       50
102
RTVSPost2010PropOp50
 70
     1
102
RTVSPost2010Prop51ColorIndex
 90
      256
102
RTVSPost2010Prop51ColorRGB
 90
-16777216
102
RTVSPost2010PropOp51
 70
     0
102
RTVSPost2010Prop52
140
1.0
102
RTVSPost2010PropOp52
 70
     0
102
RTVSPost2010Prop53
 90
        2
102
RTVSPost2010PropOp53
 70
     1
102
RTVSPost2010Prop54
  1
strokes_ogs.tif
102
RTVSPost2010PropOp54
 70
     1
102
RTVSPost2010Prop55
280
     0
102
RTVSPost2010PropOp55
 70
     1
102
RTVSPost2010Prop56
140
1.0
102
RTVSPost2010PropOp56
 70
     1
102
RTVSPost2010Prop57
140
1.0
102
RTVSPost2010PropOp57
 70
     1
102
RTVSPropertyOp0
 70
     1
102
RTVSPropertyOp1
 70
     1
102
RTVSPropertyOp2
 70
     1
102
RTVSPropertyOp3
 70
     1
102
RTVSPropertyOp4
 70
     1
102
RTVSPropertyOp5
 70
     1
102
RTVSPropertyOp6
 70
     1
102
RTVSPropertyOp7
 70
     1
102
RTVSPropertyOp8
 70
     1
102
RTVSPropertyOp9
 70
     1
102
RTVSPropertyOp10
 70
     1
102
RTVSPropertyOp11
 70
     1
102
RTVSPropertyOp12
 70
     1
102
RTVSPropertyOp13
 70
     1
102
RTVSPropertyOp14
 70
     1
102
RTVSPropertyOp15
 70
     1
102
RTVSPropertyOp16
 70
     1
102
RTVSPropertyOp17
 70
     1
102
RTVSPropertyOp18
 70
     1
102
RTVSPropertyOp19
 70
     1
102
RTVSPropertyOp20
 70
     1
102
RTVSPropertyOp21
 70
     1
102
RTVSPropertyOp22
 70
     1
102
RTVSPropertyOp23
 70
     1
102
RTVSPropertyOp24
 70
     1
102
RTVSPropertyOp25
 70
     1
102
RTVSPropertyOp26
 70
     1
102
RTVSPropertyOp27
 70
     1
102
RTVSPropertyOp28
 70
     1
102
RTVSPropertyOp29
 70
     1
102
RTVSPropertyOp30
 70
     1
102
RTVSPropertyOp31
 70
     1
102
RTVSPropertyOp32
 70
     1
102
RTVSPropertyOp33
 70
     1
102
RTVSPropertyOp34
 70
     1
102
RTVSPropertyOp35
 70
     1
102
RTVSPropertyOp36
 70
     1
102
RTVSPropertyOp37
 70
     1
102
RTVSPropertyOp38
 70
     1
102
RTVSPropertyOp39
 70
     1
102
RTVSPropertyOp40
 70
     1
102
RTVSPropertyOp41
 70
     1
102
RTVSPropertyOp42
 70
     1
102
RTVSPropertyOp43
 70
     1
102
RTVSPropertyOp44
 70
     1
102
RTVSPropertyOp45
 70
     1
102
RTVSPropertyOp46
 70
     1
102
RTVSPropertyOp47
 70
     1
102
RTVSPropertyOp48
 70
     1
102
RTVSPropertyOp49
 70
     1
102
RTVSPropertyOp50
 70
     1
102
RTVSPropertyOp51
 70
     0
102
RTVSPropertyOp52
 70
     0
102
RTVSPropertyOp53
 70
     1
102
RTVSPropertyOp54
 70
     1
102
RTVSPropertyOp55
 70
     1
102
RTVSPropertyOp56
 70
     1
102
RTVSPropertyOp57
 70
     1
102
RTVSPropertyOp58
 70
     1
102
RTVSPropertyOp59
 70
     1
102
RTVSPropertyOp60
 70
     1
102
RTVSPropertyOp61
 70
     1
102
RTVSPropertyOp62
 70
     1
  0
ENDSEC
  0
EOF
