  0
SECTION
  2
HEADER
  9
$ACADVER
  1
AC1009
  9
$DWGCODEPAGE
  3
ansi_932
  9
$INSBASE
 10
0.0
 20
0.0
 30
0.0
  9
$EXTMIN
 10
-79.37216670699854
 20
348.954742087979
 30
-0.0000000000112498
  9
$EXTMAX
 10
2163.737983820345
 20
2467.434370143634
 30
0.0000000000002956
  9
$LIMMIN
 10
-4267.152221060483
 20
-2696.083210198413
  9
$LIMMAX
 10
7190.717422586465
 20
5141.155363923066
  9
$ORTHOMODE
 70
     0
  9
$REGENMODE
 70
     1
  9
$FILLMODE
 70
     1
  9
$QTEXTMODE
 70
     0
  9
$MIRRTEXT
 70
     0
  9
$DRAGMODE
 70
     2
  9
$LTSCALE
 40
20.0
  9
$OSMODE
 70
    37
  9
$ATTMODE
 70
     1
  9
$TEXTSIZE
 40
60.0
  9
$TRACEWID
 40
0.05
  9
$TEXTSTYLE
  7
STANDARD1
  9
$CLAYER
  8
0
  9
$CELTYPE
  6
BYLAYER
  9
$CECOLOR
 62
   256
  9
$DIMSCALE
 40
1.0
  9
$DIMASZ
 40
20.0
  9
$DIMEXO
 40
20.0
  9
$DIMDLI
 40
80.0
  9
$DIMRND
 40
0.0
  9
$DIMDLE
 40
0.0
  9
$DIMEXE
 40
20.0
  9
$DIMTP
 40
0.0
  9
$DIMTM
 40
0.0
  9
$DIMTXT
 40
64.0
  9
$DIMCEN
 40
0.09
  9
$DIMTSZ
 40
0.0
  9
$DIMTOL
 70
     0
  9
$DIMLIM
 70
     0
  9
$DIMTIH
 70
     0
  9
$DIMTOH
 70
     0
  9
$DIMSE1
 70
     0
  9
$DIMSE2
 70
     0
  9
$DIMTAD
 70
     1
  9
$DIMZIN
 70
     8
  9
$DIMBLK
  1
SMALL
  9
$DIMASO
 70
     1
  9
$DIMSHO
 70
     0
  9
$DIMPOST
  1

  9
$DIMAPOST
  1

  9
$DIMALT
 70
     0
  9
$DIMALTD
 70
     2
  9
$DIMALTF
 40
25.4
  9
$DIMLFAC
 40
1.0
  9
$DIMTOFL
 70
     1
  9
$DIMTVP
 40
0.0
  9
$DIMTIX
 70
     0
  9
$DIMSOXD
 70
     0
  9
$DIMSAH
 70
     0
  9
$DIMBLK1
  1

  9
$DIMBLK2
  1

  9
$DIMSTYLE
  2
KAIGAI_CADSYMBOL
  9
$DIMCLRD
 70
     0
  9
$DIMCLRE
 70
     0
  9
$DIMCLRT
 70
     0
  9
$DIMTFAC
 40
1.0
  9
$DIMGAP
 40
20.0
  9
$LUNITS
 70
     2
  9
$LUPREC
 70
     4
  9
$SKETCHINC
 40
0.1
  9
$FILLETRAD
 40
0.0
  9
$AUNITS
 70
     1
  9
$AUPREC
 70
     3
  9
$MENU
  1
ACAD
  9
$ELEVATION
 40
0.0
  9
$PELEVATION
 40
0.0
  9
$THICKNESS
 40
0.0
  9
$LIMCHECK
 70
     0
  9
$CHAMFERA
 40
0.0
  9
$CHAMFERB
 40
0.0
  9
$SKPOLY
 70
     0
  9
$TDCREATE
 40
2455902.607164352
  9
$TDUPDATE
 40
2458795.73090831
  9
$TDINDWG
 40
1.8727167593
  9
$TDUSRTIMER
 40
1.8727131366
  9
$USRTIMER
 70
     1
  9
$ANGBASE
 50
0.0
  9
$ANGDIR
 70
     0
  9
$PDMODE
 70
     3
  9
$PDSIZE
 40
-2.0
  9
$PLINEWID
 40
0.0
  9
$COORDS
 70
     1
  9
$SPLFRAME
 70
     0
  9
$SPLINETYPE
 70
     6
  9
$SPLINESEGS
 70
     8
  9
$ATTDIA
 70
     0
  9
$ATTREQ
 70
     1
  9
$HANDLING
 70
     1
  9
$HANDSEED
  5
90A2011
  9
$SURFTAB1
 70
     6
  9
$SURFTAB2
 70
     6
  9
$SURFTYPE
 70
     6
  9
$SURFU
 70
     6
  9
$SURFV
 70
     6
  9
$UCSNAME
  2

  9
$UCSORG
 10
0.0
 20
0.0
 30
0.0
  9
$UCSXDIR
 10
1.0
 20
0.0
 30
0.0
  9
$UCSYDIR
 10
0.0
 20
1.0
 30
0.0
  9
$PUCSNAME
  2

  9
$PUCSORG
 10
0.0
 20
0.0
 30
0.0
  9
$PUCSXDIR
 10
1.0
 20
0.0
 30
0.0
  9
$PUCSYDIR
 10
0.0
 20
1.0
 30
0.0
  9
$USERI1
 70
     0
  9
$USERI2
 70
     0
  9
$USERI3
 70
     0
  9
$USERI4
 70
     0
  9
$USERI5
 70
     0
  9
$USERR1
 40
20.0
  9
$USERR2
 40
0.0
  9
$USERR3
 40
0.0
  9
$USERR4
 40
0.0
  9
$USERR5
 40
0.0
  9
$WORLDVIEW
 70
     1
  9
$SHADEDGE
 70
     3
  9
$SHADEDIF
 70
    70
  9
$TILEMODE
 70
     1
  9
$MAXACTVP
 70
    48
  9
$PLIMCHECK
 70
     0
  9
$PEXTMIN
 10
1.000000000000000E+20
 20
1.000000000000000E+20
 30
1.000000000000000E+20
  9
$PEXTMAX
 10
-1.000000000000000E+20
 20
-1.000000000000000E+20
 30
-1.000000000000000E+20
  9
$PLIMMIN
 10
0.0
 20
0.0
  9
$PLIMMAX
 10
12.0
 20
9.0
  9
$UNITMODE
 70
     0
  9
$VISRETAIN
 70
     1
  9
$PLINEGEN
 70
     0
  9
$PSLTSCALE
 70
     1
  0
ENDSEC
  0
SECTION
  2
TABLES
  0
TABLE
  2
VPORT
 70
     1
  0
VPORT
  2
*ACTIVE
 70
     0
 10
0.0
 20
0.0
 11
1.0
 21
1.0
 12
1042.182908556673
 22
1408.194556115806
 13
0.0
 23
0.0
 14
50.0
 24
50.0
 15
100.0
 25
100.0
 16
0.0
 26
0.0
 36
1.0
 17
0.0
 27
0.0
 37
0.0
 40
2134.901950753761
 41
1.952134540750323
 42
50.0
 43
0.0
 44
0.0
 50
0.0
 51
0.0
 71
     0
 72
  1000
 73
     1
 74
     0
 75
     0
 76
     0
 77
     0
 78
     0
  0
ENDTAB
  0
TABLE
  2
LTYPE
 70
     7
  0
LTYPE
  2
CONTINUOUS
 70
     0
  3
実線
 72
    65
 73
     0
 40
0.0
  0
LTYPE
  2
DASHDOT
 70
     0
  3
____ _ ____ _ ____ _ ____ _ ____ _ ____ _ ____
 72
    65
 73
     4
 40
5.5
 49
4.0
 49
-0.6
 49
0.3
 49
-0.6
  0
LTYPE
  2
CENTERZ
 70
     0
  3
Center ____ _ ____ _ ____ _ ____ _ ____ _ ____
 72
    65
 73
     4
 40
6.999999999999998
 49
4.299999999999998
 49
-0.7
 49
1.3
 49
-0.7
  0
LTYPE
  2
DASHEDZ
 70
     0
  3
Dashed __ __ __ __ __ __ __ __ __ __ __ __ __ _
 72
    65
 73
     2
 40
2.5
 49
1.8
 49
-0.7
  0
LTYPE
  2
PHANTOMZ
 70
     0
  3
Phantom ______  __  __  ______  __  __  ______
 72
    65
 73
     6
 40
8.999999999999998
 49
4.299999999999998
 49
-0.7
 49
1.3
 49
-0.7
 49
1.3
 49
-0.7
  0
LTYPE
  2
AM_ISO08W050X2
 70
     0
  3
__ . __ . __ . __ . __ . __
 72
    65
 73
     4
 40
9.0
 49
6.0
 49
-0.75
 49
1.5
 49
-0.75
  0
LTYPE
  2
HIDDEN
 70
     0
  3
Hidden __ __ __ __ __ __ __ __ __ __ __ __ __ _
 72
    65
 73
     2
 40
9.524999999999995
 49
6.349999999999998
 49
-3.174999999999998
  0
ENDTAB
  0
TABLE
  2
LAYER
 70
    12
  0
LAYER
  2
0
 70
     0
 62
     7
  6
CONTINUOUS
  0
LAYER
  2
OUTLINE
 70
     0
 62
     3
  6
CONTINUOUS
  0
LAYER
  2
DETAIL
 70
     0
 62
     5
  6
CONTINUOUS
  0
LAYER
  2
BASIS
 70
     0
 62
     6
  6
DASHDOT
  0
LAYER
  2
SIZE
 70
     0
 62
    30
  6
CONTINUOUS
  0
LAYER
  2
NOTE
 70
     0
 62
     4
  6
CONTINUOUS
  0
LAYER
  2
DEFPOINTS
 70
     0
 62
     7
  6
CONTINUOUS
  0
LAYER
  2
FIX
 70
     0
 62
    11
  6
CONTINUOUS
  0
LAYER
  2
ARRANGE
 70
     0
 62
     1
  6
CONTINUOUS
  0
LAYER
  2
ETC
 70
     0
 62
    61
  6
CONTINUOUS
  0
LAYER
  2
SERVICESPACE
 70
     0
 62
     2
  6
DASHDOT
  0
LAYER
  2
SYMBOLLINE
 70
     0
 62
    15
  6
CONTINUOUS
  0
ENDTAB
  0
TABLE
  2
STYLE
 70
     5
  0
STYLE
  2
STANDARD
 70
     0
 40
0.0
 41
0.9
 50
0.0
 71
     0
 42
64.0
  3
SIMPLEX
  4
BIGFONT
  0
STYLE
  2
STANDARD1
 70
     0
 40
60.0
 41
0.7
 50
0.0
 71
     0
 42
60.0
  3
MONOTXT.shx
  4
BIGFONT.shx
  0
STYLE
  2
STANDARD_MODELNAME
 70
     0
 40
80.0
 41
0.8
 50
0.0
 71
     0
 42
64.0
  3
MONOTXT.shx
  4
BIGFONT.shx
  0
STYLE
  2
KAIGAI_STANDARD_1
 70
     0
 40
53.0
 41
0.51
 50
0.0
 71
     0
 42
53.0
  3
MONOTXT.shx
  4
BIGFONT.shx
  0
STYLE
  2
スタイル1
 70
     0
 40
0.0
 41
1.0
 50
0.0
 71
     0
 42
3.0
  3
exthalf2.shx
  4
extfont2.shx
  0
ENDTAB
  0
TABLE
  2
VIEW
 70
     1
  0
VIEW
  2
ALL
 70
     0
 40
9000.0
 10
241.506647
 20
0.0
 41
12483.01
 11
0.0
 21
0.0
 31
1.0
 12
0.0
 22
0.0
 32
0.0
 42
50.0
 43
0.0
 44
0.0
 50
0.0
 71
     0
  0
ENDTAB
  0
TABLE
  2
UCS
 70
     0
  0
ENDTAB
  0
TABLE
  2
APPID
 70
    27
  0
APPID
  2
ACAD
 70
     0
  0
APPID
  2
ACAD_MLEADERVER
 70
     0
  0
APPID
  2
ACADANNOPO
 70
     0
  0
APPID
  2
ACAD_PSEXT
 70
     0
  0
APPID
  2
ACAD_EXEMPT_FROM_CAD_STAND
 70
     0
  0
APPID
  2
ACAD_DSTYLE_DIMJAG
 70
     0
  0
APPID
  2
ACAD_DSTYLE_DIMTALN
 70
     0
  0
APPID
  2
ACAD_DSTYLE_DIMBREAK
 70
     0
  0
APPID
  2
ACAD_NAV_VCDISPLAY
 70
     0
  0
APPID
  2
ACAUTHENVIRON
 70
     0
  0
APPID
  2
ACDBDYNAMICBLOCKTRUENAME
 70
     0
  0
APPID
  2
ACDBDYNAMICBLOCKGUID
 70
     0
  0
APPID
  2
ACAD_DSTYLE_DIMRADIAL_EXTE
 70
     0
  0
APPID
  2
ACAECLAYERSTANDARD
 70
     0
  0
APPID
  2
ACCMTRANSPARENCY
 70
     0
  0
APPID
  2
GRADIENTCOLOR1ACI
 70
     0
  0
APPID
  2
GRADIENTCOLOR2ACI
 70
     0
  0
APPID
  2
GENIUS_GENODEF_13
 70
     0
  0
APPID
  2
ACAD_DSTYLE_DIMINSPECT
 70
     0
  0
APPID
  2
GENIUS_GENREC_14
 70
     0
  0
APPID
  2
GENIUS_GENOBJ-N-REC_13
 70
     0
  0
APPID
  2
GENIUS_GENOREF_13
 70
     0
  0
APPID
  2
ACLAYERTOOLS
 70
     0
  0
APPID
  2
ACAD_DSTYLE_DIM_LINETYPE
 70
     0
  0
APPID
  2
ACAD_DSTYLE_DIM_EXT1_LINET
 70
     0
  0
APPID
  2
ACAD_DSTYLE_DIM_EXT2_LINET
 70
     0
  0
APPID
  2
CONTENTBLOCKICON
 70
     0
  0
ENDTAB
  0
TABLE
  2
DIMSTYLE
 70
     5
  0
DIMSTYLE
  2
STANDARD
 70
     0
  3

  4

  5

  6

  7

 40
1.0
 41
0.18
 42
0.0625
 43
0.38
 44
0.18
 45
0.0
 46
0.0
 47
0.0
 48
0.0
140
40.0
141
0.09
142
0.0
143
25.4
144
1.0
145
0.0
146
1.0
147
15.0
 71
     0
 72
     0
 73
     0
 74
     0
 75
     0
 76
     0
 77
     1
 78
     0
170
     0
171
     2
172
     0
173
     0
174
     0
175
     0
176
     0
177
     0
178
     0
  0
DIMSTYLE
  2
KAIGAI_CADSYMBOL
 70
     0
  3

  4

  5
SMALL
  6

  7

 40
1.0
 41
20.0
 42
20.0
 43
80.0
 44
20.0
 45
0.0
 46
0.0
 47
0.0
 48
0.0
140
64.0
141
0.09
142
0.0
143
25.4
144
1.0
145
0.0
146
1.0
147
20.0
 71
     0
 72
     0
 73
     0
 74
     0
 75
     0
 76
     0
 77
     1
 78
     8
170
     0
171
     2
172
     1
173
     0
174
     0
175
     0
176
     0
177
     0
178
     0
  0
DIMSTYLE
  2
CADSYMBOL
 70
     0
  3

  4

  5
SMALL
  6

  7

 40
1.0
 41
30.0
 42
20.0
 43
80.0
 44
20.0
 45
0.0
 46
0.0
 47
0.0
 48
0.0
140
60.0
141
0.09
142
0.0
143
25.4
144
1.0
145
0.0
146
1.0
147
20.0
 71
     0
 72
     0
 73
     0
 74
     0
 75
     0
 76
     0
 77
     1
 78
     8
170
     0
171
     2
172
     1
173
     0
174
     0
175
     0
176
     0
177
     0
178
     0
  0
DIMSTYLE
  2
AM_スタイル1
 70
     0
  3

  4

  5
OPEN30
  6

  7

 40
1.0
 41
2.0
 42
0.7
 43
6.0
 44
0.7
 45
0.0
 46
0.0
 47
0.0
 48
0.0
140
3.2
141
-3.0
142
0.0
143
25.4
144
1.0
145
0.0
146
1.0
147
1.0
 71
     0
 72
     0
 73
     0
 74
     0
 75
     0
 76
     0
 77
     3
 78
     8
170
     0
171
     2
172
     1
173
     0
174
     1
175
     0
176
   256
177
   256
178
   256
  0
DIMSTYLE
  2
AM_スタイル1$0
 70
     0
  3

  4

  5
OPEN30
  6

  7

 40
1.0
 41
2.0
 42
0.7
 43
6.0
 44
0.7
 45
0.0
 46
0.0
 47
0.0
 48
0.0
140
3.2
141
-3.0
142
0.0
143
25.4
144
1.0
145
0.0
146
1.0
147
1.0
 71
     0
 72
     0
 73
     0
 74
     0
 75
     0
 76
     0
 77
     3
 78
     8
170
     0
171
     2
172
     1
173
     0
174
     1
175
     0
176
   256
177
   256
178
   256
  0
ENDTAB
  0
ENDSEC
  0
SECTION
  2
BLOCKS
  0
BLOCK
  8
0
  2
$MODEL_SPACE
 70
     0
 10
0.0
 20
0.0
 30
0.0
  3
$MODEL_SPACE
  1

  0
ENDBLK
  5
1A
  8
0
  0
BLOCK
 67
     1
  8
0
  2
$PAPER_SPACE
 70
     0
 10
0.0
 20
0.0
 30
0.0
  3
$PAPER_SPACE
  1

  0
ENDBLK
  5
17
 67
     1
  8
0
  0
BLOCK
  8
0
  2
_SMALL
 70
     0
 10
0.0
 20
0.0
 30
0.0
  3
_SMALL
  1

  0
CIRCLE
  5
4C0C0
  8
0
  6
BYBLOCK
 62
     0
 10
0.0
 20
0.0
 30
0.0
 40
0.25
  0
ENDBLK
  5
4C0C2
  8
0
  0
BLOCK
  8
0
  2
_OPEN30
 70
     0
 10
0.0
 20
0.0
 30
0.0
  3
_OPEN30
  1

  0
LINE
  5
990C6
  8
NOTE
 10
-1.0
 20
0.26794919
 30
0.0
 11
0.0
 21
0.0
 31
0.0
  0
LINE
  5
990C7
  8
NOTE
 10
0.0
 20
0.0
 30
0.0
 11
-1.0
 21
-0.26794919
 31
0.0
  0
LINE
  5
990C8
  8
NOTE
 10
0.0
 20
0.0
 30
0.0
 11
-1.0
 21
0.0
 31
0.0
  0
ENDBLK
  5
4C0C8
  8
0
  0
BLOCK
  8
0
  2
_DOTSMALL
 70
     0
 10
0.0
 20
0.0
 30
0.0
  3
_DOTSMALL
  1

  0
POLYLINE
  5
909BE50
  8
0
  6
BYBLOCK
 62
     0
 66
     1
 10
0.0
 20
0.0
 30
0.0
 70
     1
 40
1.0
 41
1.0
  0
VERTEX
  5
90A200E
  8
0
  6
BYBLOCK
 62
     0
 10
-0.125
 20
0.0
 30
0.0
 42
1.0
  0
VERTEX
  5
90A200F
  8
0
  6
BYBLOCK
 62
     0
 10
0.125
 20
0.0
 30
0.0
 42
1.0
  0
SEQEND
  5
90A2010
  8
0
  6
BYBLOCK
 62
     0
  0
ENDBLK
  5
909BE51
  8
0
  0
BLOCK
  8
0
  2
A$C791E0D91
 70
     0
 10
0.0
 20
0.0
 30
0.0
  3
A$C791E0D91
  1

  0
LINE
  5
909EAF1
  8
DETAIL
  6
CONTINUOUS
 10
-707.1999999999969
 20
0.0
 30
0.0
 11
-707.1999999999969
 21
1.900000000000544
 31
0.0
  0
LINE
  5
909EAF2
  8
DETAIL
  6
CONTINUOUS
 10
-707.1999999999969
 20
1.900000000000544
 30
0.0
 11
-38.8000000000029
 21
1.900000000000544
 31
0.0
  0
LINE
  5
909EAF3
  8
DETAIL
  6
CONTINUOUS
 10
-38.8000000000029
 20
0.0
 30
0.0
 11
-38.8000000000029
 21
1.900000000000544
 31
0.0
  0
ENDBLK
  5
909EAF7
  8
0
  0
BLOCK
  8
0
  2
_DOTBLANK
 70
     0
 10
0.0
 20
0.0
 30
0.0
  3
_DOTBLANK
  1

  0
CIRCLE
  5
909EDB2
  8
0
  6
CONTINUOUS
 62
     7
 10
0.0
 20
0.0
 30
0.0
 40
0.5
  0
LINE
  5
909EDB3
  8
0
  6
CONTINUOUS
 62
     7
 10
-0.5
 20
0.0
 30
0.0
 11
-1.0
 21
0.0
 31
0.0
  0
ENDBLK
  5
909EDB4
  8
0
  0
BLOCK
  8
0
  2
*D5
 70
     1
 10
0.0
 20
0.0
 30
0.0
  3
*D5
  1

  0
LINE
  5
90A1D9F
  8
SIZE
 62
     0
 10
-416.5576658963591
 20
10.00004465542997
 30
0.0
 11
-985.3375233401022
 21
10.00004465543003
 31
0.0
  0
LINE
  5
90A1DA0
  8
SIZE
 62
     0
 10
-483.5576658963591
 20
-391.99995534457
 30
0.0
 11
-985.3375233401022
 21
-391.99995534457
 31
0.0
  0
LINE
  5
90A1DA1
  8
SIZE
 62
     0
 10
-985.1575233401022
 20
9.820044655430031
 30
0.0
 11
-985.1575233401022
 21
-391.81995534457
 31
0.0
  0
SOLID
  5
90A1DA2
  8
SIZE
 62
     0
 10
-985.1275233401022
 20
9.820044655430031
 30
0.0
 11
-985.1875233401022
 21
9.820044655430031
 31
0.0
 12
-985.1575233401022
 22
10.00004465543003
 32
0.0
 13
-985.1575233401022
 23
10.00004465543003
 33
0.0
  0
SOLID
  5
90A1DA3
  8
SIZE
 62
     0
 10
-985.1875233401022
 20
-391.81995534457
 30
0.0
 11
-985.1275233401022
 21
-391.81995534457
 31
0.0
 12
-985.1575233401022
 22
-391.99995534457
 32
0.0
 13
-985.1575233401022
 23
-391.99995534457
 33
0.0
  0
TEXT
  5
90A1DA4
  8
SIZE
  6
CONTINUOUS
 62
     0
 10
-1000.157523340102
 20
-340.999955344568
 30
0.0
 40
60.0
  1
402.0000
 50
90.0
 41
0.7
  7
STANDARD1
  0
POINT
  5
90A1DA5
  8
DEFPOINTS
 62
     0
 10
-416.4951658963591
 20
10.00004465542997
 30
0.0
  0
POINT
  5
90A1DA6
  8
DEFPOINTS
 62
     0
 10
-483.4951658963591
 20
-391.99995534457
 30
0.0
  0
POINT
  5
90A1DA7
  8
DEFPOINTS
 62
     0
 10
-985.1575233401026
 20
-391.99995534457
 30
0.0
  0
ENDBLK
  5
90A1C25
  8
0
  0
BLOCK
  8
0
  2
*D6
 70
     1
 10
0.0
 20
0.0
 30
0.0
  3
*D6
  1

  0
LINE
  5
90A1DA8
  8
SIZE
 62
     0
 10
-561.5094000000008
 20
-453.06245534457
 30
0.0
 11
-561.5094000000008
 21
-1161.958033444679
 31
0.0
  0
LINE
  5
90A1DA9
  8
SIZE
 62
     0
 10
-467.5
 20
-368.4576212409279
 30
0.0
 11
-467.5
 21
-1161.958033444679
 31
0.0
  0
LINE
  5
90A1DAA
  8
SIZE
 62
     0
 10
-561.5094000000008
 20
-1161.778033444679
 30
0.0
 11
-841.6894000000009
 21
-1161.778033444679
 31
0.0
  0
LINE
  5
90A1DAB
  8
SIZE
 62
     0
 10
-561.3294000000009
 20
-1161.778033444679
 30
0.0
 11
-467.68
 21
-1161.778033444679
 31
0.0
  0
SOLID
  5
90A1DAC
  8
SIZE
 62
     0
 10
-561.3294000000009
 20
-1161.748033444679
 30
0.0
 11
-561.3294000000009
 21
-1161.808033444679
 31
0.0
 12
-561.5094000000008
 22
-1161.778033444679
 32
0.0
 13
-561.5094000000008
 23
-1161.778033444679
 33
0.0
  0
SOLID
  5
90A1DAD
  8
SIZE
 62
     0
 10
-467.68
 20
-1161.808033444679
 30
0.0
 11
-467.68
 21
-1161.748033444679
 31
0.0
 12
-467.5
 22
-1161.778033444679
 32
0.0
 13
-467.5
 23
-1161.778033444679
 33
0.0
  0
TEXT
  5
90A1DAE
  8
SIZE
  6
CONTINUOUS
 62
     0
 10
-832.6894000000009
 20
-1146.778033444679
 30
0.0
 40
60.0
  1
94.0094
 41
0.7
  7
STANDARD1
  0
POINT
  5
90A1DAF
  8
DEFPOINTS
 62
     0
 10
-561.5094000000008
 20
-452.99995534457
 30
0.0
  0
POINT
  5
90A1DB0
  8
DEFPOINTS
 62
     0
 10
-467.5
 20
-368.3951212409279
 30
0.0
  0
POINT
  5
90A1DB1
  8
DEFPOINTS
 62
     0
 10
-467.5
 20
-1161.778033444679
 30
0.0
  0
ENDBLK
  5
90A1C31
  8
0
  0
BLOCK
  8
0
  2
*D7
 70
     1
 10
0.0
 20
0.0
 30
0.0
  3
*D7
  1

  0
LINE
  5
90A1DB2
  8
SIZE
 62
     0
 10
-416.5576658963591
 20
10.00004465542997
 30
0.0
 11
-755.0950321039787
 21
10.00004465543003
 31
0.0
  0
LINE
  5
90A1DB3
  8
SIZE
 62
     0
 10
-482.5576658963591
 20
-352.99995534457
 30
0.0
 11
-755.0950321039787
 21
-352.99995534457
 31
0.0
  0
LINE
  5
90A1DB4
  8
SIZE
 62
     0
 10
-754.9150321039788
 20
9.820044655430031
 30
0.0
 11
-754.9150321039788
 21
-352.81995534457
 31
0.0
  0
SOLID
  5
90A1DB5
  8
SIZE
 62
     0
 10
-754.8850321039788
 20
9.820044655430031
 30
0.0
 11
-754.9450321039787
 21
9.820044655430031
 31
0.0
 12
-754.9150321039788
 22
10.00004465543003
 32
0.0
 13
-754.9150321039788
 23
10.00004465543003
 33
0.0
  0
SOLID
  5
90A1DB6
  8
SIZE
 62
     0
 10
-754.9450321039787
 20
-352.81995534457
 30
0.0
 11
-754.8850321039788
 21
-352.81995534457
 31
0.0
 12
-754.9150321039788
 22
-352.99995534457
 32
0.0
 13
-754.9150321039788
 23
-352.99995534457
 33
0.0
  0
TEXT
  5
90A1DB7
  8
SIZE
  6
CONTINUOUS
 62
     0
 10
-769.9150321039788
 20
-322.3497391014489
 30
0.0
 40
60.0
  1
363.0000
 50
90.0
 41
0.7
  7
STANDARD1
  0
POINT
  5
90A1DB8
  8
DEFPOINTS
 62
     0
 10
-416.4951658963591
 20
10.00004465542997
 30
0.0
  0
POINT
  5
90A1DB9
  8
DEFPOINTS
 62
     0
 10
-482.4951658963591
 20
-352.99995534457
 30
0.0
  0
POINT
  5
90A1DBA
  8
DEFPOINTS
 62
     0
 10
-754.9150321039792
 20
-352.99995534457
 30
0.0
  0
ENDBLK
  5
90A1C3E
  8
0
  0
BLOCK
  8
0
  2
*D8
 70
     1
 10
0.0
 20
0.0
 30
0.0
  3
*D8
  1

  0
LINE
  5
90A1DBB
  8
SIZE
 62
     0
 10
-416.5576658963591
 20
10.00004465542997
 30
0.0
 11
-879.0688251558682
 21
10.00004465543003
 31
0.0
  0
LINE
  5
90A1DBC
  8
SIZE
 62
     0
 10
-510.5576658963591
 20
-365.99995534457
 30
0.0
 11
-879.0688251558682
 21
-365.99995534457
 31
0.0
  0
LINE
  5
90A1DBD
  8
SIZE
 62
     0
 10
-878.8888251558683
 20
9.820044655430031
 30
0.0
 11
-878.8888251558683
 21
-365.81995534457
 31
0.0
  0
SOLID
  5
90A1DBE
  8
SIZE
 62
     0
 10
-878.8588251558683
 20
9.820044655430031
 30
0.0
 11
-878.9188251558683
 21
9.820044655430031
 31
0.0
 12
-878.8888251558683
 22
10.00004465543003
 32
0.0
 13
-878.8888251558683
 23
10.00004465543003
 33
0.0
  0
SOLID
  5
90A1DBF
  8
SIZE
 62
     0
 10
-878.9188251558683
 20
-365.81995534457
 30
0.0
 11
-878.8588251558683
 21
-365.81995534457
 31
0.0
 12
-878.8888251558683
 22
-365.99995534457
 32
0.0
 13
-878.8888251558683
 23
-365.99995534457
 33
0.0
  0
TEXT
  5
90A1DC0
  8
SIZE
  6
CONTINUOUS
 62
     0
 10
-893.8888251558683
 20
-327.999955344568
 30
0.0
 40
60.0
  1
376.0000
 50
90.0
 41
0.7
  7
STANDARD1
  0
POINT
  5
90A1DC1
  8
DEFPOINTS
 62
     0
 10
-416.4951658963591
 20
10.00004465542997
 30
0.0
  0
POINT
  5
90A1DC2
  8
DEFPOINTS
 62
     0
 10
-510.4951658963591
 20
-365.99995534457
 30
0.0
  0
POINT
  5
90A1DC3
  8
DEFPOINTS
 62
     0
 10
-878.8888251558685
 20
-365.99995534457
 30
0.0
  0
ENDBLK
  5
90A1C4A
  8
0
  0
BLOCK
  8
0
  2
*D9
 70
     1
 10
0.0
 20
0.0
 30
0.0
  3
*D9
  1

  0
LINE
  5
90A1DC4
  8
SIZE
 62
     0
 10
-561.5094000000049
 20
-453.06245534457
 30
0.0
 11
-561.5094000000049
 21
-949.7304767061747
 31
0.0
  0
LINE
  5
90A1DC5
  8
SIZE
 62
     0
 10
-495.500000000001
 20
-381.4576212409279
 30
0.0
 11
-495.500000000001
 21
-949.7304767061747
 31
0.0
  0
LINE
  5
90A1DC6
  8
SIZE
 62
     0
 10
-561.5094000000049
 20
-949.5504767061748
 30
0.0
 11
-839.689400000005
 21
-949.5504767061748
 31
0.0
  0
LINE
  5
90A1DC7
  8
SIZE
 62
     0
 10
-561.329400000005
 20
-949.5504767061748
 30
0.0
 11
-495.680000000001
 21
-949.5504767061748
 31
0.0
  0
SOLID
  5
90A1DC8
  8
SIZE
 62
     0
 10
-561.329400000005
 20
-949.5204767061748
 30
0.0
 11
-561.329400000005
 21
-949.5804767061747
 31
0.0
 12
-561.5094000000049
 22
-949.5504767061748
 32
0.0
 13
-561.5094000000049
 23
-949.5504767061748
 33
0.0
  0
SOLID
  5
90A1DC9
  8
SIZE
 62
     0
 10
-495.680000000001
 20
-949.5804767061747
 30
0.0
 11
-495.680000000001
 21
-949.5204767061748
 31
0.0
 12
-495.500000000001
 22
-949.5504767061748
 32
0.0
 13
-495.500000000001
 23
-949.5504767061748
 33
0.0
  0
TEXT
  5
90A1DCA
  8
SIZE
  6
CONTINUOUS
 62
     0
 10
-832.689400000005
 20
-934.5504767061748
 30
0.0
 40
60.0
  1
66.0094
 41
0.7
  7
STANDARD1
  0
POINT
  5
90A1DCB
  8
DEFPOINTS
 62
     0
 10
-561.5094000000049
 20
-452.99995534457
 30
0.0
  0
POINT
  5
90A1DCC
  8
DEFPOINTS
 62
     0
 10
-495.500000000001
 20
-381.3951212409279
 30
0.0
  0
POINT
  5
90A1DCD
  8
DEFPOINTS
 62
     0
 10
-495.500000000001
 20
-949.5504767061748
 30
0.0
  0
ENDBLK
  5
90A1C56
  8
0
  0
BLOCK
  8
0
  2
*U10
 70
     1
 10
0.0
 20
0.0
 30
0.0
  3
*U10
  1

  0
TEXT
  5
90A1F38
  8
SIZE
 62
     0
 10
185.5706870411527
 20
1265.698720426509
 30
0.0
 40
64.0
  1
402
 50
90.0
 41
0.9
  0
ENDBLK
  5
90A1F3A
  8
0
  0
BLOCK
  8
0
  2
*U11
 70
     1
 10
0.0
 20
0.0
 30
0.0
  3
*U11
  1

  0
TEXT
  5
90A1F3C
  8
SIZE
 62
     0
 10
493.2188103812541
 20
388.9777851835407
 30
0.0
 40
64.0
  1
94
 41
0.9
  0
ENDBLK
  5
90A1F3E
  8
0
  0
BLOCK
  8
0
  2
*U12
 70
     1
 10
0.0
 20
0.0
 30
0.0
  3
*U12
  1

  0
TEXT
  5
90A1F40
  8
SIZE
 62
     0
 10
415.8131782772761
 20
1284.348936669628
 30
0.0
 40
64.0
  1
363
 50
90.0
 41
0.9
  0
ENDBLK
  5
90A1F42
  8
0
  0
BLOCK
  8
0
  2
*U13
 70
     1
 10
0.0
 20
0.0
 30
0.0
  3
*U13
  1

  0
TEXT
  5
90A1F44
  8
SIZE
 62
     0
 10
291.8393852253867
 20
1280.070148997938
 30
0.0
 40
64.0
  1
376
 50
90.0
 41
0.9
  0
ENDBLK
  5
90A1F46
  8
0
  0
BLOCK
  8
0
  2
*U14
 70
     1
 10
0.0
 20
0.0
 30
0.0
  3
*U14
  1

  0
TEXT
  5
90A1F48
  8
SIZE
 62
     0
 10
498.7045246669643
 20
601.2053419220451
 30
0.0
 40
64.0
  1
66
 41
0.9
  0
ENDBLK
  5
90A1F4A
  8
0
  0
ENDSEC
  0
SECTION
  2
ENTITIES
  0
LINE
  5
90A1B6E
  8
NOTE
  6
CONTINUOUS
 62
     4
 10
-163.024866352557
 20
-665.1930329550198
 30
0.0
 11
-423.3427744484688
 21
-665.1930329550198
 31
0.0
  0
TEXT
  5
90A1B6F
  8
NOTE
  6
CONTINUOUS
 62
     4
 10
-397.2778234151052
 20
-653.8829718031658
 30
0.0
 40
64.0
  1
D %%C34
 50
359.9999969216753
 41
0.7
  7
STANDARD1
  0
LINE
  5
90A1B70
  8
NOTE
  6
CONTINUOUS
 62
     4
 10
-501.9930760132879
 20
-513.0030222902549
 30
0.0
 11
-511.500000000001
 21
-502.9999553445709
 31
0.0
  0
LINE
  5
90A1B71
  8
NOTE
  6
CONTINUOUS
 62
     4
 10
-511.500000000001
 20
-502.9999553445709
 30
0.0
 11
-508.2682957276379
 21
-516.4163274139839
 31
0.0
  0
LINE
  5
90A1B72
  8
NOTE
  6
CONTINUOUS
 62
     4
 10
-511.500000000001
 20
-502.9999553445709
 30
0.0
 11
-423.3427744484688
 21
-665.1930329550198
 31
0.0
  0
LINE
  5
90A1B73
  8
NOTE
  6
CONTINUOUS
 62
     4
 10
-147.681672493205
 20
185.9117499472152
 30
0.0
 11
418.3527128353142
 21
185.9117499472152
 31
0.0
  0
TEXT
  5
90A1B74
  8
NOTE
  6
CONTINUOUS
 62
     4
 10
-116.680054780893
 20
275.739440415864
 30
0.0
 40
64.0
  1
AH 2-%%C12(M10)
 50
359.9999969216753
 41
0.7
  7
STANDARD1
  0
LINE
  5
90A1B75
  8
NOTE
  6
CONTINUOUS
 62
     4
 10
518.3990252270951
 20
19.40287724173913
 30
0.0
 11
528.5
 21
10.00004465542997
 31
0.0
  0
LINE
  5
90A1B76
  8
NOTE
  6
CONTINUOUS
 62
     4
 10
528.5
 20
10.00004465542997
 30
0.0
 11
524.4537154769791
 21
23.19362391080313
 31
0.0
  0
LINE
  5
90A1B77
  8
NOTE
  6
CONTINUOUS
 62
     4
 10
528.5
 20
10.00004465542997
 30
0.0
 11
418.3527128353142
 21
185.9117499472152
 31
0.0
  0
TEXT
  5
90A1B78
  8
NOTE
  6
CONTINUOUS
 62
     4
 10
-133.4800547808929
 20
201.165537541199
 30
0.0
 40
64.0
  1
AH 2-切欠き(M10)
 50
359.9999969216753
 41
0.7
  7
STANDARD1
  0
LINE
  5
90A1B79
  8
NOTE
  6
CONTINUOUS
 62
     4
 10
0.1986662458580213
 20
-554.2181448904624
 30
0.0
 11
-380.2600230057278
 21
-554.2181448904624
 31
0.0
  0
LINE
  5
90A1B7A
  8
NOTE
  6
CONTINUOUS
 62
     4
 10
-458.9930760133281
 20
-402.0030222900839
 30
0.0
 11
-468.5000000000418
 21
-391.9999553443988
 31
0.0
  0
LINE
  5
90A1B7B
  8
NOTE
  6
CONTINUOUS
 62
     4
 10
-468.5000000000418
 20
-391.9999553443988
 30
0.0
 11
-465.2682957276812
 21
-405.4163274138139
 31
0.0
  0
LINE
  5
90A1B7C
  8
NOTE
  6
CONTINUOUS
 62
     4
 10
-468.5000000000011
 20
-391.99995534457
 30
0.0
 11
-380.2600230057278
 21
-554.2181448904624
 31
0.0
  0
TEXT
  5
90A1B7D
  8
NOTE
  6
CONTINUOUS
 62
     4
 10
-363.6233456996077
 20
-537.2431820043315
 30
0.0
 40
64.0
  1
RG %%C22.22
 50
359.9999969216753
 41
0.7
  7
STANDARD1
  0
LINE
  5
90A1B7E
  8
DETAIL
  6
CONTINUOUS
 62
     5
 10
-528.8758243794903
 20
-464.6793362776468
 30
0.0
 11
-546.8668149542851
 21
-452.856598330063
 31
0.0
  0
LINE
  5
90A1B7F
  8
DETAIL
  6
CONTINUOUS
 62
     5
 10
-561.5094000000008
 20
-452.99995534457
 30
0.0
 11
-561.5094000000008
 21
-411.8634521015558
 31
0.0
  0
LINE
  5
90A1B80
  8
DETAIL
  6
CONTINUOUS
 62
     5
 10
-558.0071597610408
 20
-321.2054619159378
 30
0.0
 11
-558.0071597610408
 21
-64.04096436953182
 31
0.0
  0
LINE
  5
90A1B81
  8
DETAIL
  6
CONTINUOUS
 62
     5
 10
543.4999999999991
 20
0.0
 30
0.0
 11
556.5
 21
0.0
 31
0.0
  0
LINE
  5
90A1B82
  8
DETAIL
  6
CONTINUOUS
 62
     5
 10
-386.500000000001
 20
0.0
 30
0.0
 11
513.4999999999991
 21
0.0
 31
0.0
  0
LINE
  5
90A1B83
  8
DETAIL
  6
CONTINUOUS
 62
     5
 10
-556.5000000000011
 20
0.0
 30
0.0
 11
-416.500000000001
 21
0.0
 31
0.0
  0
LINE
  5
90A1B84
  8
DETAIL
  6
CONTINUOUS
 62
     5
 10
-556.5009639896807
 20
-64.04096436953182
 30
0.0
 11
-558.0071597610408
 21
-64.04096436953182
 31
0.0
  0
LINE
  5
90A1B85
  8
DETAIL
  6
CONTINUOUS
 62
     5
 10
-476.4873830319898
 20
-452.1672156850429
 30
0.0
 11
-494.2274879311583
 21
-464.3164841760899
 31
0.0
  0
LINE
  5
90A1B86
  8
DETAIL
  6
CONTINUOUS
 62
     5
 10
-561.500000000001
 20
-411.8634521015558
 30
0.0
 11
561.4999999999991
 21
-411.8634521015558
 31
0.0
  0
LINE
  5
90A1B87
  8
DETAIL
  6
CONTINUOUS
 62
     5
 10
561.500000000003
 20
-441.999976772632
 30
0.0
 11
-561.5094000000049
 21
-453.0000188322308
 31
0.0
  0
LINE
  5
90A1B88
  8
DETAIL
  6
CONTINUOUS
 62
     5
 10
-528.8758243794903
 20
-464.6793362776468
 30
0.0
 11
-494.2274879311583
 21
-464.3164841760899
 31
0.0
  0
LINE
  5
90A1B89
  8
DETAIL
  6
CONTINUOUS
 62
     5
 10
561.4999999999991
 20
-411.8634521015558
 30
0.0
 11
561.4999999999991
 21
-441.9999553445709
 31
0.0
  0
ARC
  5
90A1B8A
  8
DETAIL
  6
CONTINUOUS
 62
     5
 10
-411.9971196927681
 20
-50.53867947514391
 30
0.0
 40
4.502880307232768
 50
180.0
 51
270.0
  0
ARC
  5
90A1B8B
  8
DETAIL
  6
CONTINUOUS
 62
     5
 10
-391.0028803072332
 20
-50.53867947514391
 30
0.0
 40
4.502880307232768
 50
270.0
 51
0.0
  0
ARC
  5
90A1B8C
  8
DETAIL
  6
CONTINUOUS
 62
     5
 10
518.0028803072321
 20
-50.53867947514391
 30
0.0
 40
4.502880307232768
 50
180.0
 51
270.0
  0
ARC
  5
90A1B8D
  8
DETAIL
  6
CONTINUOUS
 62
     5
 10
538.997119692767
 20
-50.53867947514391
 30
0.0
 40
4.502880307232768
 50
270.0
 51
0.0
  0
LINE
  5
90A1B8E
  8
DETAIL
  6
CONTINUOUS
 62
     5
 10
-528.5616033852513
 20
-464.676047507289
 30
0.0
 11
-528.5
 21
-502.9999553445709
 31
0.0
  0
LINE
  5
90A1B8F
  8
DETAIL
  6
CONTINUOUS
 62
     5
 10
-494.5417089253972
 20
-464.3197796173799
 30
0.0
 11
-494.500000000001
 21
-502.9999553445709
 31
0.0
  0
LINE
  5
90A1B90
  8
DETAIL
  6
CONTINUOUS
 62
     5
 10
-416.500000000001
 20
-50.53867947514391
 30
0.0
 11
-416.500000000001
 21
10.00004465542997
 31
0.0
  0
LINE
  5
90A1B91
  8
DETAIL
  6
CONTINUOUS
 62
     5
 10
-386.500000000001
 20
-50.53867947514391
 30
0.0
 11
-386.500000000001
 21
10.00004465542997
 31
0.0
  0
LINE
  5
90A1B92
  8
DETAIL
  6
CONTINUOUS
 62
     5
 10
-386.500000000001
 20
10.00004465542997
 30
0.0
 11
-416.500000000001
 21
10.00004465542997
 31
0.0
  0
LINE
  5
90A1B93
  8
DETAIL
  6
CONTINUOUS
 62
     5
 10
543.4999999999991
 20
10.00004465542997
 30
0.0
 11
513.4999999999991
 21
10.00004465542997
 31
0.0
  0
LINE
  5
90A1B94
  8
DETAIL
  6
CONTINUOUS
 62
     5
 10
-386.500000000001
 20
6.998124450607975
 30
0.0
 11
-416.500000000001
 21
6.998124450607975
 31
0.0
  0
LINE
  5
90A1B95
  8
DETAIL
  6
CONTINUOUS
 62
     5
 10
543.4999999999991
 20
6.998124450607975
 30
0.0
 11
513.4807979517811
 21
6.998124450607975
 31
0.0
  0
LINE
  5
90A1B96
  8
DETAIL
  6
CONTINUOUS
 62
     5
 10
-391.0028803072332
 20
-55.041559782376
 30
0.0
 11
-411.9971196927681
 21
-55.041559782376
 31
0.0
  0
LINE
  5
90A1B97
  8
DETAIL
  6
CONTINUOUS
 62
     5
 10
538.997119692767
 20
-55.041559782376
 30
0.0
 11
518.0028803072321
 21
-55.041559782376
 31
0.0
  0
LINE
  5
90A1B98
  8
DETAIL
  6
CONTINUOUS
 62
     5
 10
-528.5616033852513
 20
-464.676047507289
 30
0.0
 11
-494.5417089253972
 21
-464.3197796173799
 31
0.0
  0
LINE
  5
90A1B99
  8
DETAIL
  6
CONTINUOUS
 62
     5
 10
-528.5
 20
-502.9999553445709
 30
0.0
 11
-494.500000000001
 21
-502.9999553445709
 31
0.0
  0
LINE
  5
90A1B9A
  8
DETAIL
  6
CONTINUOUS
 62
     5
 10
513.4999999999991
 20
-50.53867947514391
 30
0.0
 11
513.4999999999991
 21
10.00004465542997
 31
0.0
  0
LINE
  5
90A1B9B
  8
DETAIL
  6
CONTINUOUS
 62
     5
 10
543.4999999999991
 20
-50.53867947514391
 30
0.0
 11
543.4999999999991
 21
10.00004465542997
 31
0.0
  0
LINE
  5
90A1B9C
  8
DETAIL
  6
CONTINUOUS
 62
     5
 10
-556.5000000000011
 20
0.0
 30
0.0
 11
-556.5061996586311
 21
-411.8634521015558
 31
0.0
  0
LINE
  5
90A1B9D
  8
DETAIL
  6
CONTINUOUS
 62
     5
 10
-558.0071597610408
 20
-321.2054619159378
 30
0.0
 11
-556.5048349784311
 21
-321.2033155532069
 31
0.0
  0
LINE
  5
90A1B9E
  8
DETAIL
  6
CONTINUOUS
 62
     5
 10
556.5
 20
-411.8634521015558
 30
0.0
 11
556.5
 21
0.0
 31
0.0
  0
LINE
  5
90A1B9F
  8
NOTE
  6
CONTINUOUS
 62
     4
 10
-386.5048341036432
 20
10.00004465542997
 30
0.0
 11
-416.4951658963591
 21
10.00004465542997
 31
0.0
  0
LINE
  5
90A1BA0
  8
NOTE
  6
CONTINUOUS
 62
     4
 10
-401.500000000001
 20
25.19521055178802
 30
0.0
 11
-401.500000000001
 21
-5.195121240927847
 31
0.0
  0
CIRCLE
  5
90A1BA1
  8
FIX
  6
CONTINUOUS
 62
    11
 10
-401.500000000001
 20
10.00004465542997
 30
0.0
 40
12.42149793872491
  0
LINE
  5
90A1BA2
  8
NOTE
  6
CONTINUOUS
 62
     4
 10
543.4951658963571
 20
10.00004465542997
 30
0.0
 11
513.5048341036411
 21
10.00004465542997
 31
0.0
  0
LINE
  5
90A1BA3
  8
NOTE
  6
CONTINUOUS
 62
     4
 10
528.5
 20
25.19521055178802
 30
0.0
 11
528.5
 21
-5.195121240927847
 31
0.0
  0
CIRCLE
  5
90A1BA4
  8
FIX
  6
CONTINUOUS
 62
    11
 10
528.5
 20
10.00004465542997
 30
0.0
 40
12.42149793872491
  0
LINE
  5
90A1BA5
  8
SIZE
  6
CONTINUOUS
 62
    30
 10
-561.5094000000008
 20
-391.863452101557
 30
0.0
 11
-561.5094000000008
 21
413.1260296917351
 31
0.0
  0
LINE
  5
90A1BA6
  8
SIZE
  6
CONTINUOUS
 62
    30
 10
-401.5069890761688
 20
44.99521055178798
 30
0.0
 11
-401.5069890761688
 21
413.1260296917351
 31
0.0
  0
LINE
  5
90A1BA7
  8
SIZE
  6
CONTINUOUS
 62
    30
 10
-561.5094000000008
 20
393.1260296917321
 30
0.0
 11
-401.5069890761688
 21
393.1260296917321
 31
0.0
  0
CIRCLE
  5
90A1BA8
  8
SIZE
  6
CONTINUOUS
 62
    30
 10
-561.5094000000008
 20
393.1260296917321
 30
0.0
 40
7.5
  0
CIRCLE
  5
90A1BA9
  8
SIZE
  6
CONTINUOUS
 62
    30
 10
-401.5069890761688
 20
393.1260296917321
 30
0.0
 40
7.5
  0
TEXT
  5
90A1BAA
  8
SIZE
  6
CONTINUOUS
 62
    30
 10
-550.6252682518141
 20
413.1260296917351
 30
0.0
 40
64.0
  1
160
 41
0.9
 72
     1
 11
-475.082868251814
 21
413.1260296917351
 31
0.0
  0
POINT
  5
90A1BAB
  8
DEFPOINTS
  6
CONTINUOUS
 62
     7
 10
-561.5094000000008
 20
-411.8634521015558
 30
0.0
 50
180.0
  0
POINT
  5
90A1BAC
  8
DEFPOINTS
  6
CONTINUOUS
 62
     7
 10
-401.5069890761688
 20
24.99521055178798
 30
0.0
 50
180.0
  0
POINT
  5
90A1BAD
  8
DEFPOINTS
  6
CONTINUOUS
 62
     7
 10
-401.5069890761688
 20
393.1260296917321
 30
0.0
 50
180.0
  0
LINE
  5
90A1BAE
  8
SIZE
  6
CONTINUOUS
 62
    30
 10
-401.5069890761688
 20
44.99521055178798
 30
0.0
 11
-401.5069890761688
 21
413.1260296917351
 31
0.0
  0
LINE
  5
90A1BAF
  8
SIZE
  6
CONTINUOUS
 62
    30
 10
528.4882744186041
 20
44.99521055178798
 30
0.0
 11
528.4882744186041
 21
413.1260296917351
 31
0.0
  0
LINE
  5
90A1BB0
  8
SIZE
  6
CONTINUOUS
 62
    30
 10
-401.5069890761688
 20
393.1260296917321
 30
0.0
 11
528.4882744186041
 21
393.1260296917321
 31
0.0
  0
CIRCLE
  5
90A1BB1
  8
SIZE
  6
CONTINUOUS
 62
    30
 10
-401.5069890761688
 20
393.1260296917321
 30
0.0
 40
7.5
  0
CIRCLE
  5
90A1BB2
  8
SIZE
  6
CONTINUOUS
 62
    30
 10
528.4882744186041
 20
393.1260296917321
 30
0.0
 40
7.5
  0
TEXT
  5
90A1BB3
  8
SIZE
  6
CONTINUOUS
 62
    30
 10
-17.46615732878202
 20
413.1260296917351
 30
0.0
 40
64.0
  1
930
 41
0.9
 72
     1
 11
63.49064267121798
 21
413.1260296917351
 31
0.0
  0
POINT
  5
90A1BB4
  8
DEFPOINTS
  6
CONTINUOUS
 62
     7
 10
-401.5069890761688
 20
24.99521055178798
 30
0.0
 50
180.0
  0
POINT
  5
90A1BB5
  8
DEFPOINTS
  6
CONTINUOUS
 62
     7
 10
528.4882744186041
 20
393.1260296917321
 30
0.0
 50
180.0
  0
LINE
  5
90A1BB6
  8
SIZE
  6
CONTINUOUS
 62
    30
 10
528.4882744186041
 20
44.99521055178798
 30
0.0
 11
528.4882744186041
 21
413.1260296917351
 31
0.0
  0
LINE
  5
90A1BB7
  8
SIZE
  6
CONTINUOUS
 62
    30
 10
561.5093966716452
 20
-391.863452101557
 30
0.0
 11
561.5093966716452
 21
413.1260296917351
 31
0.0
  0
LINE
  5
90A1BB8
  8
SIZE
  6
CONTINUOUS
 62
    30
 10
528.4882744186041
 20
393.1260296917321
 30
0.0
 11
498.4882744186041
 21
393.1260296917321
 31
0.0
  0
LINE
  5
90A1BB9
  8
SIZE
  6
CONTINUOUS
 62
    30
 10
561.5093966716452
 20
393.1260296917321
 30
0.0
 11
818.3665395287871
 21
393.1260296917321
 31
0.0
  0
LINE
  5
90A1BBA
  8
SIZE
  6
CONTINUOUS
 62
    30
 10
528.4882744186041
 20
393.1260296917321
 30
0.0
 11
561.5093966716452
 21
393.1260296917321
 31
0.0
  0
CIRCLE
  5
90A1BBB
  8
SIZE
  6
CONTINUOUS
 62
    30
 10
528.4882744186041
 20
393.1260296917321
 30
0.0
 40
7.5
  0
CIRCLE
  5
90A1BBC
  8
SIZE
  6
CONTINUOUS
 62
    30
 10
561.5093966716452
 20
393.1260296917321
 30
0.0
 40
7.5
  0
TEXT
  5
90A1BBD
  8
SIZE
  6
CONTINUOUS
 62
    30
 10
628.296368100216
 20
428.840315406019
 30
0.0
 40
64.0
  1
(33)
 41
0.9
 72
     1
 11
719.937968100216
 21
428.840315406019
 31
0.0
  0
POINT
  5
90A1BBE
  8
DEFPOINTS
  6
CONTINUOUS
 62
     7
 10
561.5093966716452
 20
393.1260296917321
 30
0.0
 50
180.0
  0
LINE
  5
90A1BBF
  8
SIZE
  6
CONTINUOUS
 62
    30
 10
561.5093966716452
 20
-391.863452101557
 30
0.0
 11
561.509396671644
 21
533.947027824514
 31
0.0
  0
LINE
  5
90A1BC0
  8
SIZE
  6
CONTINUOUS
 62
    30
 10
-561.5094000000008
 20
-391.863452101557
 30
0.0
 11
-561.5094000000008
 21
533.947027824514
 31
0.0
  0
LINE
  5
90A1BC1
  8
SIZE
  6
CONTINUOUS
 62
    30
 10
561.5093966716452
 20
513.9470278245142
 30
0.0
 11
-561.5094000000008
 21
513.9470278245142
 31
0.0
  0
CIRCLE
  5
90A1BC2
  8
SIZE
  6
CONTINUOUS
 62
    30
 10
561.5093966716452
 20
513.9470278245142
 30
0.0
 40
7.5
  0
CIRCLE
  5
90A1BC3
  8
SIZE
  6
CONTINUOUS
 62
    30
 10
-561.5094000000008
 20
513.9470278245142
 30
0.0
 40
7.5
  0
TEXT
  5
90A1BC4
  8
SIZE
  6
CONTINUOUS
 62
    30
 10
-97.11360166418
 20
533.947027824514
 30
0.0
 40
64.0
  1
1123
 41
0.9
 72
     1
 11
-0.0000016641799903
 21
533.947027824514
 31
0.0
  0
POINT
  5
90A1BC5
  8
DEFPOINTS
  6
CONTINUOUS
 62
     7
 10
-561.5094000000008
 20
-411.8634521015558
 30
0.0
 50
180.0
  0
POINT
  5
90A1BC6
  8
DEFPOINTS
  6
CONTINUOUS
 62
     7
 10
-561.5094000000008
 20
513.9470278245142
 30
0.0
 50
180.0
  0
LINE
  5
90A1BC7
  8
SIZE
  6
CONTINUOUS
 62
    30
 10
564.1978754427121
 20
10.00004465542997
 30
0.0
 11
972.3674737836591
 21
10.00004465542997
 31
0.0
  0
LINE
  5
90A1BC8
  8
SIZE
  6
CONTINUOUS
 62
    30
 10
576.1059403029651
 20
0.0
 30
0.0
 11
972.3674737836591
 21
0.0
 31
0.0
  0
LINE
  5
90A1BC9
  8
SIZE
  6
CONTINUOUS
 62
    30
 10
952.36747378366
 20
0.0
 30
0.0
 11
952.36747378366
 21
-29.99999999999886
 31
0.0
  0
LINE
  5
90A1BCA
  8
SIZE
  6
CONTINUOUS
 62
    30
 10
952.36747378366
 20
10.00004465542997
 30
0.0
 11
952.36747378366
 21
203.4632875125742
 31
0.0
  0
LINE
  5
90A1BCB
  8
SIZE
  6
CONTINUOUS
 62
    30
 10
952.36747378366
 20
0.0
 30
0.0
 11
952.36747378366
 21
10.00004465542997
 31
0.0
  0
CIRCLE
  5
90A1BCC
  8
SIZE
  6
CONTINUOUS
 62
    30
 10
952.36747378366
 20
0.0
 30
0.0
 40
7.5
  0
CIRCLE
  5
90A1BCD
  8
SIZE
  6
CONTINUOUS
 62
    30
 10
952.36747378366
 20
10.00004465542997
 30
0.0
 40
7.5
  0
TEXT
  5
90A1BCE
  8
SIZE
  6
CONTINUOUS
 62
    30
 10
934.9553673375012
 20
96.33505894114506
 30
0.0
 40
64.0
  1
10
 50
90.0
 41
0.9
 72
     1
 11
934.9553673375012
 21
144.8918589411451
 31
0.0
  0
POINT
  5
90A1BCF
  8
DEFPOINTS
  6
CONTINUOUS
 62
     7
 10
952.36747378366
 20
0.0
 30
0.0
 50
180.0
  0
LINE
  5
90A1BD0
  8
SIZE
  6
CONTINUOUS
 62
    30
 10
576.1059403029651
 20
0.0
 30
0.0
 11
972.3674737836609
 21
0.0
 31
0.0
  0
LINE
  5
90A1BD1
  8
SIZE
  6
CONTINUOUS
 62
    30
 10
580.1231699594621
 20
-441.999976772632
 30
0.0
 11
972.3674737836609
 21
-441.999976772632
 31
0.0
  0
LINE
  5
90A1BD2
  8
SIZE
  6
CONTINUOUS
 62
    30
 10
952.3674737836609
 20
0.0
 30
0.0
 11
952.3674737836609
 21
-441.999976772632
 31
0.0
  0
CIRCLE
  5
90A1BD3
  8
SIZE
  6
CONTINUOUS
 62
    30
 10
952.3674737836609
 20
0.0
 30
0.0
 40
7.5
  0
CIRCLE
  5
90A1BD4
  8
SIZE
  6
CONTINUOUS
 62
    30
 10
952.3674737836609
 20
-441.999976772632
 30
0.0
 40
7.5
  0
TEXT
  5
90A1BD5
  8
SIZE
  6
CONTINUOUS
 62
    30
 10
934.9553673375021
 20
-301.956788386317
 30
0.0
 40
64.0
  1
442
 50
90.0
 41
0.9
 72
     1
 11
934.9553673375021
 21
-220.999988386317
 31
0.0
  0
POINT
  5
90A1BD6
  8
DEFPOINTS
  6
CONTINUOUS
 62
     7
 10
952.3674737836609
 20
-441.999976772632
 30
0.0
 50
180.0
  0
LINE
  5
90A1BD7
  8
SIZE
  6
CONTINUOUS
 62
    30
 10
-436.5021549725273
 20
10.00004465542997
 30
0.0
 11
-1145.750511806445
 21
10.00004465542997
 31
0.0
  0
LINE
  5
90A1BD8
  8
SIZE
  6
CONTINUOUS
 62
    30
 10
-576.5061996586311
 20
0.0
 30
0.0
 11
-1145.750511806445
 21
0.0
 31
0.0
  0
LINE
  5
90A1BD9
  8
SIZE
  6
CONTINUOUS
 62
    30
 10
-1125.750511806445
 20
0.0
 30
0.0
 11
-1125.750511806445
 21
-29.99999999999886
 31
0.0
  0
LINE
  5
90A1BDA
  8
SIZE
  6
CONTINUOUS
 62
    30
 10
-1125.750511806445
 20
10.00004465542997
 30
0.0
 11
-1125.750511806445
 21
187.1429017982871
 31
0.0
  0
LINE
  5
90A1BDB
  8
SIZE
  6
CONTINUOUS
 62
    30
 10
-1125.750511806445
 20
0.0
 30
0.0
 11
-1125.750511806445
 21
10.00004465542997
 31
0.0
  0
CIRCLE
  5
90A1BDC
  8
SIZE
  6
CONTINUOUS
 62
    30
 10
-1125.750511806445
 20
0.0
 30
0.0
 40
7.5
  0
CIRCLE
  5
90A1BDD
  8
SIZE
  6
CONTINUOUS
 62
    30
 10
-1125.750511806445
 20
10.00004465542997
 30
0.0
 40
7.5
  0
TEXT
  5
90A1BDE
  8
SIZE
  6
CONTINUOUS
 62
    30
 10
-1143.162618252603
 20
80.01467322685909
 30
0.0
 40
64.0
  1
10
 50
90.0
 41
0.9
 72
     1
 11
-1143.162618252603
 21
128.5714732268591
 31
0.0
  0
POINT
  5
90A1BDF
  8
DEFPOINTS
  6
CONTINUOUS
 62
     7
 10
-556.5061996586311
 20
0.0
 30
0.0
 50
180.0
  0
POINT
  5
90A1BE0
  8
DEFPOINTS
  6
CONTINUOUS
 62
     7
 10
-1125.750511806445
 20
0.0
 30
0.0
 50
180.0
  0
LINE
  5
90A1BE1
  8
SIZE
  6
CONTINUOUS
 62
    30
 10
-576.5061996586311
 20
0.0
 30
0.0
 11
-1145.750511806445
 21
0.0
 31
0.0
  0
LINE
  5
90A1BE2
  8
SIZE
  6
CONTINUOUS
 62
    30
 10
-580.0938345210172
 20
-453.0000188322308
 30
0.0
 11
-1145.750511806445
 21
-453.0000188322308
 31
0.0
  0
LINE
  5
90A1BE3
  8
SIZE
  6
CONTINUOUS
 62
    30
 10
-1125.750511806445
 20
0.0
 30
0.0
 11
-1125.750511806445
 21
-453.0000188322308
 31
0.0
  0
CIRCLE
  5
90A1BE4
  8
SIZE
  6
CONTINUOUS
 62
    30
 10
-1125.750511806445
 20
0.0
 30
0.0
 40
7.5
  0
CIRCLE
  5
90A1BE5
  8
SIZE
  6
CONTINUOUS
 62
    30
 10
-1125.750511806445
 20
-453.0000188322308
 30
0.0
 40
7.5
  0
TEXT
  5
90A1BE6
  8
SIZE
  6
CONTINUOUS
 62
    30
 10
-1143.162618252602
 20
-307.4568094161148
 30
0.0
 40
64.0
  1
453
 50
90.0
 41
0.9
 72
     1
 11
-1143.162618252602
 21
-226.5000094161148
 31
0.0
  0
POINT
  5
90A1BE7
  8
DEFPOINTS
  6
CONTINUOUS
 62
     7
 10
-556.5061996586311
 20
0.0
 30
0.0
 50
180.0
  0
POINT
  5
90A1BE8
  8
DEFPOINTS
  6
CONTINUOUS
 62
     7
 10
-1125.750511806445
 20
-453.0000188322308
 30
0.0
 50
180.0
  0
LINE
  5
90A1BE9
  8
SIZE
  6
CONTINUOUS
 62
    30
 10
-580.093834022936
 20
-453.0000154004799
 30
0.0
 11
-1145.750511806445
 21
-453.0000154004799
 31
0.0
  0
LINE
  5
90A1BEA
  8
SIZE
  6
CONTINUOUS
 62
    30
 10
-531.551656155324
 20
-503.0246672793619
 30
0.0
 11
-1145.750511806445
 21
-503.0246672793619
 31
0.0
  0
LINE
  5
90A1BEB
  8
SIZE
  6
CONTINUOUS
 62
    30
 10
-1125.750511806445
 20
-453.0000154004799
 30
0.0
 11
-1125.750511806445
 21
-503.0246672793619
 31
0.0
  0
LINE
  5
90A1BEC
  8
SIZE
  6
CONTINUOUS
 62
    30
 10
-1125.750511806445
 20
-503.0246672793619
 30
0.0
 11
-1125.750511806445
 21
-660.4532387079325
 31
0.0
  0
CIRCLE
  5
90A1BED
  8
SIZE
  6
CONTINUOUS
 62
    30
 10
-1125.750511806445
 20
-453.0000154004799
 30
0.0
 40
7.5
  0
CIRCLE
  5
90A1BEE
  8
SIZE
  6
CONTINUOUS
 62
    30
 10
-1125.750511806445
 20
-503.0246672793619
 30
0.0
 40
7.5
  0
TEXT
  5
90A1BEF
  8
SIZE
  6
CONTINUOUS
 62
    30
 10
-1143.162618252602
 20
-650.7101529936466
 30
0.0
 40
64.0
  1
50
 50
90.0
 41
0.9
 72
     1
 11
-1143.162618252602
 21
-596.7389529936466
 31
0.0
  0
POINT
  5
90A1BF0
  8
DEFPOINTS
  6
CONTINUOUS
 62
     7
 10
-1125.750511806445
 20
-503.0246672793619
 30
0.0
 50
180.0
  0
LINE
  5
90A1BF1
  8
NOTE
  6
CONTINUOUS
 62
     4
 10
-453.5048341036432
 20
-391.99995534457
 30
0.0
 11
-483.4951658963591
 21
-391.99995534457
 31
0.0
  0
LINE
  5
90A1BF2
  8
NOTE
  6
CONTINUOUS
 62
     4
 10
-468.5000000000011
 20
-377.004789448212
 30
0.0
 11
-468.5000000000011
 21
-407.3951212409279
 31
0.0
  0
LINE
  5
90A1BF3
  8
SIZE
  6
CONTINUOUS
 62
    30
 10
-436.5021549725273
 20
10.00004465542997
 30
0.0
 11
-988.0913314060986
 21
10.00004465542997
 31
0.0
  0
POINT
  5
90A1BF4
  8
DEFPOINTS
  6
CONTINUOUS
 62
     7
 10
-958.2625060960004
 20
10.00004465542997
 30
0.0
 50
180.0
  0
LINE
  5
90A1BF5
  8
NOTE
  6
CONTINUOUS
 62
     4
 10
-496.5048341036422
 20
-502.9999553445709
 30
0.0
 11
-526.4951658963593
 21
-502.9999553445709
 31
0.0
  0
LINE
  5
90A1BF6
  8
NOTE
  6
CONTINUOUS
 62
     4
 10
-511.500000000001
 20
-487.804789448212
 30
0.0
 11
-511.500000000001
 21
-518.195121240928
 31
0.0
  0
LINE
  5
90A1BF7
  8
SIZE
  6
CONTINUOUS
 62
    30
 10
-511.5516561553241
 20
-538.4198331757198
 30
0.0
 11
-511.5516561553241
 21
-862.0756729562196
 31
0.0
  0
LINE
  5
90A1BF8
  8
SIZE
  6
CONTINUOUS
 62
    30
 10
-561.5094000000008
 20
-471.5991961169188
 30
0.0
 11
-561.5094000000008
 21
-862.0756729562196
 31
0.0
  0
LINE
  5
90A1BF9
  8
SIZE
  6
CONTINUOUS
 62
    30
 10
-511.5516561553241
 20
-842.0756729562195
 30
0.0
 11
-561.5094000000008
 21
-842.0756729562195
 31
0.0
  0
LINE
  5
90A1BFA
  8
SIZE
  6
CONTINUOUS
 62
    30
 10
-561.5094000000008
 20
-842.0756729562195
 30
0.0
 11
-718.937971428572
 21
-842.0756729562195
 31
0.0
  0
CIRCLE
  5
90A1BFB
  8
SIZE
  6
CONTINUOUS
 62
    30
 10
-511.5516561553241
 20
-842.0756729562195
 30
0.0
 40
7.5
  0
CIRCLE
  5
90A1BFC
  8
SIZE
  6
CONTINUOUS
 62
    30
 10
-561.5094000000008
 20
-842.0756729562195
 30
0.0
 40
7.5
  0
TEXT
  5
90A1BFD
  8
SIZE
  6
CONTINUOUS
 62
    30
 10
-709.1948857142863
 20
-822.0756729562195
 30
0.0
 40
64.0
  1
50
 41
0.9
 72
     1
 11
-655.2236857142864
 21
-822.0756729562195
 31
0.0
  0
POINT
  5
90A1BFE
  8
DEFPOINTS
  6
CONTINUOUS
 62
     7
 10
-561.5094000000008
 20
-842.0756729562195
 30
0.0
 50
180.0
  0
LINE
  5
90A1BFF
  8
SIZE
  6
CONTINUOUS
 62
    30
 10
-561.5094000000008
 20
-471.5991961169188
 30
0.0
 11
-561.5094000000008
 21
-1074.6026782863
 31
0.0
  0
LINE
  5
90A1C00
  8
SIZE
  6
CONTINUOUS
 62
    30
 10
-468.5124670222608
 20
-427.4449451113319
 30
0.0
 11
-468.5124670222608
 21
-1074.6026782863
 31
0.0
  0
LINE
  5
90A1C01
  8
SIZE
  6
CONTINUOUS
 62
    30
 10
-468.5124670222608
 20
-1054.602678286299
 30
0.0
 11
-561.5094000000008
 21
-1054.602678286299
 31
0.0
  0
LINE
  5
90A1C02
  8
SIZE
  6
CONTINUOUS
 62
    30
 10
-561.5094000000008
 20
-1054.602678286299
 30
0.0
 11
-718.937971428572
 21
-1054.602678286299
 31
0.0
  0
CIRCLE
  5
90A1C03
  8
SIZE
  6
CONTINUOUS
 62
    30
 10
-468.5124670222608
 20
-1054.602678286299
 30
0.0
 40
7.5
  0
CIRCLE
  5
90A1C04
  8
SIZE
  6
CONTINUOUS
 62
    30
 10
-561.5094000000008
 20
-1054.602678286299
 30
0.0
 40
7.5
  0
TEXT
  5
90A1C05
  8
SIZE
  6
CONTINUOUS
 62
    30
 10
-709.1948857142863
 20
-1034.6026782863
 30
0.0
 40
64.0
  1
93
 41
0.9
 72
     1
 11
-655.2236857142864
 21
-1034.6026782863
 31
0.0
  0
POINT
  5
90A1C06
  8
DEFPOINTS
  6
CONTINUOUS
 62
     7
 10
-468.5000000000011
 20
-407.3951212409279
 30
0.0
 50
180.0
  0
POINT
  5
90A1C07
  8
DEFPOINTS
  6
CONTINUOUS
 62
     7
 10
-468.5124670222608
 20
-1054.602678286299
 30
0.0
 50
180.0
  0
LINE
  5
90A1C08
  8
BASIS
  6
DASHDOT
 62
     6
 10
-0.0000000000009095
 20
100.1544252260742
 30
0.0
 11
-0.0000000000009095
 21
-467.3334439444618
 31
0.0
  0
CIRCLE
  5
90A1C09
  8
ARRANGE
  6
CONTINUOUS
 62
     1
 10
0.0
 20
0.0
 30
0.0
 40
50.0
  0
LINE
  5
90A1C0A
  8
ARRANGE
  6
CONTINUOUS
 62
     1
 10
-50.03735003132897
 20
-49.52235315032681
 30
0.0
 11
50.03735003132897
 21
49.52235315032499
 31
0.0
  0
LINE
  5
90A1C0B
  8
ARRANGE
  6
CONTINUOUS
 62
     1
 10
-49.96376331050192
 20
49.59659479798506
 30
0.0
 11
49.96376331049896
 21
-49.59659479798393
 31
0.0
  0
LINE
  5
90A1C0C
  8
OUTLINE
  6
CONTINUOUS
 62
     3
 10
-561.5094000000049
 20
-452.99995534457
 30
0.0
 11
-561.5094000000049
 21
-411.8634521015579
 31
0.0
  0
LINE
  5
90A1C0D
  8
OUTLINE
  6
CONTINUOUS
 62
     3
 10
-556.5000000000011
 20
0.0
 30
0.0
 11
556.5
 21
0.0
 31
0.0
  0
LINE
  5
90A1C0E
  8
OUTLINE
  6
CONTINUOUS
 62
     3
 10
-561.500000000001
 20
-411.8634521015579
 30
0.0
 11
561.4999999999991
 21
-411.8634521015558
 31
0.0
  0
LINE
  5
90A1C0F
  8
OUTLINE
  6
CONTINUOUS
 62
     3
 10
561.4999999999991
 20
-441.999976772634
 30
0.0
 11
-561.5094000000049
 21
-453.0000246780189
 31
0.0
  0
LINE
  5
90A1C10
  8
OUTLINE
  6
CONTINUOUS
 62
     3
 10
561.4999999999991
 20
-411.8634521015579
 30
0.0
 11
561.4999999999991
 21
-441.9999553445709
 31
0.0
  0
LINE
  5
90A1C11
  8
OUTLINE
  6
CONTINUOUS
 62
     3
 10
-556.5000000000011
 20
0.0
 30
0.0
 11
-556.5
 21
-411.8634521015579
 31
0.0
  0
LINE
  5
90A1C12
  8
OUTLINE
  6
CONTINUOUS
 62
     3
 10
556.499999999995
 20
-411.8634521015579
 30
0.0
 11
556.499999999993
 21
0.0
 31
0.0
  0
CIRCLE
  5
90A1C13
  8
DETAIL
  6
CONTINUOUS
 62
     5
 10
-468.5000000000011
 20
-391.99995534457
 30
0.0
 40
11.1
  0
DIMENSION
  5
90A1C14
  8
SIZE
  2
*D5
 10
-985.1575233401022
 20
-391.99995534457
 30
0.0
 11
-985.1575233401022
 21
-190.999955344568
 31
0.0
 70
   160
  3
STANDARD
 13
-416.4951658963591
 23
10.00004465542997
 33
0.0
 14
-483.4951658963591
 24
-391.99995534457
 34
0.0
 50
90.0
1001
ACAD
1000
DSTYLE
1002
{
1070
   140
1040
64.0
1070
   345
1005
13
1070
   346
1005
13
1070
   347
1005
13
1002
}
  0
LINE
  5
90A1C15
  8
NOTE
  6
CONTINUOUS
 62
     4
 10
-452.5048341036432
 20
-352.99995534457
 30
0.0
 11
-482.4951658963591
 21
-352.99995534457
 31
0.0
  0
LINE
  5
90A1C16
  8
NOTE
  6
CONTINUOUS
 62
     4
 10
-467.5
 20
-338.004789448212
 30
0.0
 11
-467.5
 21
-368.3951212409279
 31
0.0
  0
DIMENSION
  5
90A1C17
  8
SIZE
  2
*D6
 10
-467.5
 20
-1161.778033444679
 30
0.0
 11
-701.6894000000009
 21
-1161.778033444679
 31
0.0
 70
   160
  3
STANDARD
 13
-561.5094000000008
 23
-452.99995534457
 33
0.0
 14
-467.5
 24
-368.3951212409279
 34
0.0
1001
ACAD
1000
DSTYLE
1002
{
1070
   140
1040
64.0
1070
   345
1005
13
1070
   346
1005
13
1070
   347
1005
13
1002
}
  0
DIMENSION
  5
90A1C18
  8
SIZE
  2
*D7
 10
-754.9150321039788
 20
-352.99995534457
 30
0.0
 11
-754.9150321039788
 21
-172.3497391014489
 31
0.0
 70
   160
  3
STANDARD
 13
-416.4951658963591
 23
10.00004465542997
 33
0.0
 14
-482.4951658963591
 24
-352.99995534457
 34
0.0
 50
90.0
1001
ACAD
1000
DSTYLE
1002
{
1070
   140
1040
64.0
1070
   345
1005
13
1070
   346
1005
13
1070
   347
1005
13
1002
}
  0
LINE
  5
90A1C19
  8
NOTE
  6
CONTINUOUS
 62
     4
 10
-480.5048341036434
 20
-365.99995534457
 30
0.0
 11
-510.4951658963591
 21
-365.99995534457
 31
0.0
  0
LINE
  5
90A1C1A
  8
NOTE
  6
CONTINUOUS
 62
     4
 10
-495.500000000001
 20
-351.004789448212
 30
0.0
 11
-495.500000000001
 21
-381.3951212409279
 31
0.0
  0
DIMENSION
  5
90A1C1B
  8
SIZE
  2
*D8
 10
-878.8888251558683
 20
-365.99995534457
 30
0.0
 11
-878.8888251558683
 21
-177.999955344568
 31
0.0
 70
   160
  3
STANDARD
 13
-416.4951658963591
 23
10.00004465542997
 33
0.0
 14
-510.4951658963591
 24
-365.99995534457
 34
0.0
 50
90.0
1001
ACAD
1000
DSTYLE
1002
{
1070
   140
1040
64.0
1070
   345
1005
13
1070
   346
1005
13
1070
   347
1005
13
1002
}
  0
DIMENSION
  5
90A1C1C
  8
SIZE
  2
*D9
 10
-495.500000000001
 20
-949.5504767061748
 30
0.0
 11
-700.689400000005
 21
-949.5504767061748
 31
0.0
 70
   160
  3
STANDARD
 13
-561.5094000000049
 23
-452.99995534457
 33
0.0
 14
-495.500000000001
 24
-381.3951212409279
 34
0.0
1001
ACAD
1000
DSTYLE
1002
{
1070
   140
1040
64.0
1070
   345
1005
13
1070
   346
1005
13
1070
   347
1005
13
1002
}
  0
TEXT
  5
90A1C1D
  8
NOTE
  6
CONTINUOUS
 62
     4
 10
-941.2864887437729
 20
97.257499070638
 30
0.0
 40
64.0
  1
RL %%C12.7
 50
359.9999969216753
 41
0.7
  7
STANDARD1
  0
TEXT
  5
90A1C1F
  8
NOTE
  6
CONTINUOUS
 62
     4
 10
-1233.221363317855
 20
-802.4774993387161
 30
0.0
 40
64.0
  1
均圧管 %%C6.35
 50
359.9999969216753
 41
0.7
  7
STANDARD1
  0
TEXT
  5
90A1C21
  8
ETC
  6
CONTINUOUS
 62
    61
 10
-1269.916847849238
 20
728.7787123331591
 30
0.0
 40
79.99999999999999
  1
UCL-A4_5VHA_3
 50
0.0000029575586669
 41
0.8000000000000002
  7
STANDARD_MODELNAME
  0
TEXT
  5
90A1C22
  8
ETC
  6
CONTINUOUS
 62
    61
 10
-1269.916847849238
 20
856.5000071056479
 30
0.0
 40
79.99999999999999
  1
UCH-A4_5VNA_3
 50
0.0000029575586669
 41
0.8000000000000002
  7
STANDARD_MODELNAME
  0
LINE
  5
90A1EDE
  8
NOTE
 10
-469.4529293466433
 20
-332.3867369074678
 30
0.0
 11
-467.5
 21
-352.99995534457
 31
0.0
  0
LINE
  5
90A1EDF
  8
NOTE
 10
-467.5
 20
-352.99995534457
 30
0.0
 11
-479.4978955679858
 21
-336.124849143175
 31
0.0
  0
LINE
  5
90A1EE0
  8
NOTE
 10
-467.5
 20
-352.99995534457
 30
0.0
 11
-474.4754124573145
 21
-334.2557930253208
 31
0.0
  0
LINE
  5
90A1EE1
  8
NOTE
 10
-474.4754124573145
 20
-334.2557930253208
 30
0.0
 11
-628.870062327053
 21
80.62983504205704
 31
0.0
1001
ACAD
1000
DSTYLE
1002
{
1070
   147
1040
20.0
1070
    77
1070
     0
1070
   345
1005
13
1070
   346
1005
13
1070
   347
1005
13
1002
}
  0
LINE
  5
90A1EE2
  8
NOTE
 10
-628.870062327053
 20
80.62983504205704
 30
0.0
 11
-959.4303252837572
 21
80.62983504205704
 31
0.0
1001
ACAD
1000
DSTYLE
1002
{
1070
   147
1040
20.0
1070
    77
1070
     0
1070
   345
1005
13
1070
   346
1005
13
1070
   347
1005
13
1002
}
  0
LINE
  5
90A1EE3
  8
NOTE
 10
-512.0247244181841
 20
-378.4760200394878
 30
0.0
 11
-495.500000000001
 21
-365.99995534457
 31
0.0
  0
LINE
  5
90A1EE4
  8
NOTE
 10
-495.500000000001
 20
-365.99995534457
 30
0.0
 11
-503.5727988757237
 21
-385.0669064820959
 31
0.0
  0
LINE
  5
90A1EE5
  8
NOTE
 10
-495.500000000001
 20
-365.99995534457
 30
0.0
 11
-507.7987616469539
 21
-381.7714632607908
 31
0.0
  0
LINE
  5
90A1EE6
  8
NOTE
 10
-507.7987616469539
 20
-381.7714632607908
 30
0.0
 11
-853.2378353091049
 21
-824.7506217506757
 31
0.0
1001
ACAD
1000
DSTYLE
1002
{
1070
   147
1040
20.0
1070
    77
1070
     0
1070
   345
1005
13
1070
   346
1005
13
1070
   347
1005
13
1002
}
  0
LINE
  5
90A1EE7
  8
NOTE
 10
-853.2378353091049
 20
-824.7506217506757
 30
0.0
 11
-1245.757557568376
 21
-824.7506217506757
 31
0.0
1001
ACAD
1000
DSTYLE
1002
{
1070
   147
1040
20.0
1070
    77
1070
     0
1070
   345
1005
13
1070
   346
1005
13
1070
   347
1005
13
1002
}
  0
ENDSEC
  0
EOF
