  0
SECTION
  2
HEADER
  9
$ACADVER
  1
AC1009
  9
$DWGCODEPAGE
  3
ansi_932
  9
$INSBASE
 10
0.0
 20
0.0
 30
0.0
  9
$EXTMIN
 10
431.1408246015671
 20
903.8373566243862
 30
-0.000000000000013
  9
$EXTMAX
 10
2520.397744871534
 20
2945.781451640534
 30
0.0000000000000023
  9
$LIMMIN
 10
-4267.152221060483
 20
-2696.083210198413
  9
$LIMMAX
 10
7190.717422586465
 20
5141.155363923066
  9
$ORTHOMODE
 70
     0
  9
$REGENMODE
 70
     1
  9
$FILLMODE
 70
     1
  9
$QTEXTMODE
 70
     0
  9
$MIRRTEXT
 70
     0
  9
$DRAGMODE
 70
     2
  9
$LTSCALE
 40
20.0
  9
$OSMODE
 70
    37
  9
$ATTMODE
 70
     1
  9
$TEXTSIZE
 40
60.0
  9
$TRACEWID
 40
0.05
  9
$TEXTSTYLE
  7
STANDARD1
  9
$CLAYER
  8
0
  9
$CELTYPE
  6
BYLAYER
  9
$CECOLOR
 62
   256
  9
$DIMSCALE
 40
1.0
  9
$DIMASZ
 40
20.0
  9
$DIMEXO
 40
20.0
  9
$DIMDLI
 40
80.0
  9
$DIMRND
 40
0.0
  9
$DIMDLE
 40
0.0
  9
$DIMEXE
 40
20.0
  9
$DIMTP
 40
0.0
  9
$DIMTM
 40
0.0
  9
$DIMTXT
 40
64.0
  9
$DIMCEN
 40
0.09
  9
$DIMTSZ
 40
0.0
  9
$DIMTOL
 70
     0
  9
$DIMLIM
 70
     0
  9
$DIMTIH
 70
     0
  9
$DIMTOH
 70
     0
  9
$DIMSE1
 70
     0
  9
$DIMSE2
 70
     0
  9
$DIMTAD
 70
     1
  9
$DIMZIN
 70
     8
  9
$DIMBLK
  1
SMALL
  9
$DIMASO
 70
     1
  9
$DIMSHO
 70
     0
  9
$DIMPOST
  1

  9
$DIMAPOST
  1

  9
$DIMALT
 70
     0
  9
$DIMALTD
 70
     2
  9
$DIMALTF
 40
25.4
  9
$DIMLFAC
 40
1.0
  9
$DIMTOFL
 70
     1
  9
$DIMTVP
 40
0.0
  9
$DIMTIX
 70
     0
  9
$DIMSOXD
 70
     0
  9
$DIMSAH
 70
     0
  9
$DIMBLK1
  1

  9
$DIMBLK2
  1

  9
$DIMSTYLE
  2
KAIGAI_CADSYMBOL
  9
$DIMCLRD
 70
     0
  9
$DIMCLRE
 70
     0
  9
$DIMCLRT
 70
     0
  9
$DIMTFAC
 40
1.0
  9
$DIMGAP
 40
20.0
  9
$LUNITS
 70
     2
  9
$LUPREC
 70
     4
  9
$SKETCHINC
 40
0.1
  9
$FILLETRAD
 40
0.0
  9
$AUNITS
 70
     1
  9
$AUPREC
 70
     3
  9
$MENU
  1
ACAD
  9
$ELEVATION
 40
0.0
  9
$PELEVATION
 40
0.0
  9
$THICKNESS
 40
0.0
  9
$LIMCHECK
 70
     0
  9
$CHAMFERA
 40
0.0
  9
$CHAMFERB
 40
0.0
  9
$SKPOLY
 70
     0
  9
$TDCREATE
 40
2455902.607164352
  9
$TDUPDATE
 40
2458795.730908669
  9
$TDINDWG
 40
1.8709459144
  9
$TDUSRTIMER
 40
1.8709423032
  9
$USRTIMER
 70
     1
  9
$ANGBASE
 50
0.0
  9
$ANGDIR
 70
     0
  9
$PDMODE
 70
     3
  9
$PDSIZE
 40
-2.0
  9
$PLINEWID
 40
0.0
  9
$COORDS
 70
     1
  9
$SPLFRAME
 70
     0
  9
$SPLINETYPE
 70
     6
  9
$SPLINESEGS
 70
     8
  9
$ATTDIA
 70
     0
  9
$ATTREQ
 70
     1
  9
$HANDLING
 70
     1
  9
$HANDSEED
  5
90A21E1
  9
$SURFTAB1
 70
     6
  9
$SURFTAB2
 70
     6
  9
$SURFTYPE
 70
     6
  9
$SURFU
 70
     6
  9
$SURFV
 70
     6
  9
$UCSNAME
  2

  9
$UCSORG
 10
0.0
 20
0.0
 30
0.0
  9
$UCSXDIR
 10
1.0
 20
0.0
 30
0.0
  9
$UCSYDIR
 10
0.0
 20
1.0
 30
0.0
  9
$PUCSNAME
  2

  9
$PUCSORG
 10
0.0
 20
0.0
 30
0.0
  9
$PUCSXDIR
 10
1.0
 20
0.0
 30
0.0
  9
$PUCSYDIR
 10
0.0
 20
1.0
 30
0.0
  9
$USERI1
 70
     0
  9
$USERI2
 70
     0
  9
$USERI3
 70
     0
  9
$USERI4
 70
     0
  9
$USERI5
 70
     0
  9
$USERR1
 40
20.0
  9
$USERR2
 40
0.0
  9
$USERR3
 40
0.0
  9
$USERR4
 40
0.0
  9
$USERR5
 40
0.0
  9
$WORLDVIEW
 70
     1
  9
$SHADEDGE
 70
     3
  9
$SHADEDIF
 70
    70
  9
$TILEMODE
 70
     1
  9
$MAXACTVP
 70
    48
  9
$PLIMCHECK
 70
     0
  9
$PEXTMIN
 10
1.000000000000000E+20
 20
1.000000000000000E+20
 30
1.000000000000000E+20
  9
$PEXTMAX
 10
-1.000000000000000E+20
 20
-1.000000000000000E+20
 30
-1.000000000000000E+20
  9
$PLIMMIN
 10
0.0
 20
0.0
  9
$PLIMMAX
 10
12.0
 20
9.0
  9
$UNITMODE
 70
     0
  9
$VISRETAIN
 70
     1
  9
$PLINEGEN
 70
     0
  9
$PSLTSCALE
 70
     1
  0
ENDSEC
  0
SECTION
  2
TABLES
  0
TABLE
  2
VPORT
 70
     1
  0
VPORT
  2
*ACTIVE
 70
     0
 10
0.0
 20
0.0
 11
1.0
 21
1.0
 12
1475.76928473655
 22
1924.80940413246
 13
0.0
 23
0.0
 14
50.0
 24
50.0
 15
100.0
 25
100.0
 16
0.0
 26
0.0
 36
1.0
 17
0.0
 27
0.0
 37
0.0
 40
2058.323325724834
 41
1.985274431057563
 42
50.0
 43
0.0
 44
0.0
 50
0.0
 51
0.0
 71
     0
 72
  1000
 73
     1
 74
     0
 75
     0
 76
     0
 77
     0
 78
     0
  0
ENDTAB
  0
TABLE
  2
LTYPE
 70
     7
  0
LTYPE
  2
CONTINUOUS
 70
     0
  3
実線
 72
    65
 73
     0
 40
0.0
  0
LTYPE
  2
DASHDOT
 70
     0
  3
____ _ ____ _ ____ _ ____ _ ____ _ ____ _ ____
 72
    65
 73
     4
 40
5.5
 49
4.0
 49
-0.6
 49
0.3
 49
-0.6
  0
LTYPE
  2
CENTERZ
 70
     0
  3
Center ____ _ ____ _ ____ _ ____ _ ____ _ ____
 72
    65
 73
     4
 40
6.999999999999998
 49
4.299999999999998
 49
-0.7
 49
1.3
 49
-0.7
  0
LTYPE
  2
DASHEDZ
 70
     0
  3
Dashed __ __ __ __ __ __ __ __ __ __ __ __ __ _
 72
    65
 73
     2
 40
2.5
 49
1.8
 49
-0.7
  0
LTYPE
  2
PHANTOMZ
 70
     0
  3
Phantom ______  __  __  ______  __  __  ______
 72
    65
 73
     6
 40
8.999999999999998
 49
4.299999999999998
 49
-0.7
 49
1.3
 49
-0.7
 49
1.3
 49
-0.7
  0
LTYPE
  2
AM_ISO08W050X2
 70
     0
  3
__ . __ . __ . __ . __ . __
 72
    65
 73
     4
 40
9.0
 49
6.0
 49
-0.75
 49
1.5
 49
-0.75
  0
LTYPE
  2
HIDDEN
 70
     0
  3
Hidden __ __ __ __ __ __ __ __ __ __ __ __ __ _
 72
    65
 73
     2
 40
9.524999999999995
 49
6.349999999999998
 49
-3.174999999999998
  0
ENDTAB
  0
TABLE
  2
LAYER
 70
    12
  0
LAYER
  2
0
 70
     0
 62
     7
  6
CONTINUOUS
  0
LAYER
  2
OUTLINE
 70
     0
 62
     3
  6
CONTINUOUS
  0
LAYER
  2
DETAIL
 70
     0
 62
     5
  6
CONTINUOUS
  0
LAYER
  2
BASIS
 70
     0
 62
     6
  6
DASHDOT
  0
LAYER
  2
SIZE
 70
     0
 62
    30
  6
CONTINUOUS
  0
LAYER
  2
NOTE
 70
     0
 62
     4
  6
CONTINUOUS
  0
LAYER
  2
DEFPOINTS
 70
     0
 62
     7
  6
CONTINUOUS
  0
LAYER
  2
FIX
 70
     0
 62
    11
  6
CONTINUOUS
  0
LAYER
  2
ARRANGE
 70
     0
 62
     1
  6
CONTINUOUS
  0
LAYER
  2
ETC
 70
     0
 62
    61
  6
CONTINUOUS
  0
LAYER
  2
SERVICESPACE
 70
     0
 62
     2
  6
DASHDOT
  0
LAYER
  2
SYMBOLLINE
 70
     0
 62
    15
  6
CONTINUOUS
  0
ENDTAB
  0
TABLE
  2
STYLE
 70
     5
  0
STYLE
  2
STANDARD
 70
     0
 40
0.0
 41
0.9
 50
0.0
 71
     0
 42
64.0
  3
SIMPLEX
  4
BIGFONT
  0
STYLE
  2
STANDARD1
 70
     0
 40
60.0
 41
0.7
 50
0.0
 71
     0
 42
60.0
  3
MONOTXT.shx
  4
BIGFONT.shx
  0
STYLE
  2
STANDARD_MODELNAME
 70
     0
 40
80.0
 41
0.8
 50
0.0
 71
     0
 42
64.0
  3
MONOTXT.shx
  4
BIGFONT.shx
  0
STYLE
  2
KAIGAI_STANDARD_1
 70
     0
 40
53.0
 41
0.51
 50
0.0
 71
     0
 42
53.0
  3
MONOTXT.shx
  4
BIGFONT.shx
  0
STYLE
  2
スタイル1
 70
     0
 40
0.0
 41
1.0
 50
0.0
 71
     0
 42
3.0
  3
exthalf2.shx
  4
extfont2.shx
  0
ENDTAB
  0
TABLE
  2
VIEW
 70
     1
  0
VIEW
  2
ALL
 70
     0
 40
9000.0
 10
241.506647
 20
0.0
 41
12483.01
 11
0.0
 21
0.0
 31
1.0
 12
0.0
 22
0.0
 32
0.0
 42
50.0
 43
0.0
 44
0.0
 50
0.0
 71
     0
  0
ENDTAB
  0
TABLE
  2
UCS
 70
     0
  0
ENDTAB
  0
TABLE
  2
APPID
 70
    27
  0
APPID
  2
ACAD
 70
     0
  0
APPID
  2
ACAD_MLEADERVER
 70
     0
  0
APPID
  2
ACADANNOPO
 70
     0
  0
APPID
  2
ACAD_PSEXT
 70
     0
  0
APPID
  2
ACAD_EXEMPT_FROM_CAD_STAND
 70
     0
  0
APPID
  2
ACAD_DSTYLE_DIMJAG
 70
     0
  0
APPID
  2
ACAD_DSTYLE_DIMTALN
 70
     0
  0
APPID
  2
ACAD_DSTYLE_DIMBREAK
 70
     0
  0
APPID
  2
ACAD_NAV_VCDISPLAY
 70
     0
  0
APPID
  2
ACAUTHENVIRON
 70
     0
  0
APPID
  2
ACDBDYNAMICBLOCKTRUENAME
 70
     0
  0
APPID
  2
ACDBDYNAMICBLOCKGUID
 70
     0
  0
APPID
  2
ACAD_DSTYLE_DIMRADIAL_EXTE
 70
     0
  0
APPID
  2
ACAECLAYERSTANDARD
 70
     0
  0
APPID
  2
ACCMTRANSPARENCY
 70
     0
  0
APPID
  2
GRADIENTCOLOR1ACI
 70
     0
  0
APPID
  2
GRADIENTCOLOR2ACI
 70
     0
  0
APPID
  2
GENIUS_GENODEF_13
 70
     0
  0
APPID
  2
ACAD_DSTYLE_DIMINSPECT
 70
     0
  0
APPID
  2
GENIUS_GENREC_14
 70
     0
  0
APPID
  2
GENIUS_GENOBJ-N-REC_13
 70
     0
  0
APPID
  2
GENIUS_GENOREF_13
 70
     0
  0
APPID
  2
ACLAYERTOOLS
 70
     0
  0
APPID
  2
ACAD_DSTYLE_DIM_LINETYPE
 70
     0
  0
APPID
  2
ACAD_DSTYLE_DIM_EXT1_LINET
 70
     0
  0
APPID
  2
ACAD_DSTYLE_DIM_EXT2_LINET
 70
     0
  0
APPID
  2
CONTENTBLOCKICON
 70
     0
  0
ENDTAB
  0
TABLE
  2
DIMSTYLE
 70
     5
  0
DIMSTYLE
  2
STANDARD
 70
     0
  3

  4

  5

  6

  7

 40
1.0
 41
0.18
 42
0.0625
 43
0.38
 44
0.18
 45
0.0
 46
0.0
 47
0.0
 48
0.0
140
40.0
141
0.09
142
0.0
143
25.4
144
1.0
145
0.0
146
1.0
147
15.0
 71
     0
 72
     0
 73
     0
 74
     0
 75
     0
 76
     0
 77
     1
 78
     0
170
     0
171
     2
172
     0
173
     0
174
     0
175
     0
176
     0
177
     0
178
     0
  0
DIMSTYLE
  2
KAIGAI_CADSYMBOL
 70
     0
  3

  4

  5
SMALL
  6

  7

 40
1.0
 41
20.0
 42
20.0
 43
80.0
 44
20.0
 45
0.0
 46
0.0
 47
0.0
 48
0.0
140
64.0
141
0.09
142
0.0
143
25.4
144
1.0
145
0.0
146
1.0
147
20.0
 71
     0
 72
     0
 73
     0
 74
     0
 75
     0
 76
     0
 77
     1
 78
     8
170
     0
171
     2
172
     1
173
     0
174
     0
175
     0
176
     0
177
     0
178
     0
  0
DIMSTYLE
  2
CADSYMBOL
 70
     0
  3

  4

  5
SMALL
  6

  7

 40
1.0
 41
30.0
 42
20.0
 43
80.0
 44
20.0
 45
0.0
 46
0.0
 47
0.0
 48
0.0
140
60.0
141
0.09
142
0.0
143
25.4
144
1.0
145
0.0
146
1.0
147
20.0
 71
     0
 72
     0
 73
     0
 74
     0
 75
     0
 76
     0
 77
     1
 78
     8
170
     0
171
     2
172
     1
173
     0
174
     0
175
     0
176
     0
177
     0
178
     0
  0
DIMSTYLE
  2
AM_スタイル1
 70
     0
  3

  4

  5
OPEN30
  6

  7

 40
1.0
 41
2.0
 42
0.7
 43
6.0
 44
0.7
 45
0.0
 46
0.0
 47
0.0
 48
0.0
140
3.2
141
-3.0
142
0.0
143
25.4
144
1.0
145
0.0
146
1.0
147
1.0
 71
     0
 72
     0
 73
     0
 74
     0
 75
     0
 76
     0
 77
     3
 78
     8
170
     0
171
     2
172
     1
173
     0
174
     1
175
     0
176
   256
177
   256
178
   256
  0
DIMSTYLE
  2
AM_スタイル1$0
 70
     0
  3

  4

  5
OPEN30
  6

  7

 40
1.0
 41
2.0
 42
0.7
 43
6.0
 44
0.7
 45
0.0
 46
0.0
 47
0.0
 48
0.0
140
3.2
141
-3.0
142
0.0
143
25.4
144
1.0
145
0.0
146
1.0
147
1.0
 71
     0
 72
     0
 73
     0
 74
     0
 75
     0
 76
     0
 77
     3
 78
     8
170
     0
171
     2
172
     1
173
     0
174
     1
175
     0
176
   256
177
   256
178
   256
  0
ENDTAB
  0
ENDSEC
  0
SECTION
  2
BLOCKS
  0
BLOCK
  8
0
  2
$MODEL_SPACE
 70
     0
 10
0.0
 20
0.0
 30
0.0
  3
$MODEL_SPACE
  1

  0
ENDBLK
  5
1A
  8
0
  0
BLOCK
 67
     1
  8
0
  2
$PAPER_SPACE
 70
     0
 10
0.0
 20
0.0
 30
0.0
  3
$PAPER_SPACE
  1

  0
ENDBLK
  5
17
 67
     1
  8
0
  0
BLOCK
  8
0
  2
_SMALL
 70
     0
 10
0.0
 20
0.0
 30
0.0
  3
_SMALL
  1

  0
CIRCLE
  5
4C0C0
  8
0
  6
BYBLOCK
 62
     0
 10
0.0
 20
0.0
 30
0.0
 40
0.25
  0
ENDBLK
  5
4C0C2
  8
0
  0
BLOCK
  8
0
  2
_OPEN30
 70
     0
 10
0.0
 20
0.0
 30
0.0
  3
_OPEN30
  1

  0
LINE
  5
990C6
  8
NOTE
 10
-1.0
 20
0.26794919
 30
0.0
 11
0.0
 21
0.0
 31
0.0
  0
LINE
  5
990C7
  8
NOTE
 10
0.0
 20
0.0
 30
0.0
 11
-1.0
 21
-0.26794919
 31
0.0
  0
LINE
  5
990C8
  8
NOTE
 10
0.0
 20
0.0
 30
0.0
 11
-1.0
 21
0.0
 31
0.0
  0
ENDBLK
  5
4C0C8
  8
0
  0
BLOCK
  8
0
  2
_DOTSMALL
 70
     0
 10
0.0
 20
0.0
 30
0.0
  3
_DOTSMALL
  1

  0
POLYLINE
  5
909BE50
  8
0
  6
BYBLOCK
 62
     0
 66
     1
 10
0.0
 20
0.0
 30
0.0
 70
     1
 40
1.0
 41
1.0
  0
VERTEX
  5
90A21DE
  8
0
  6
BYBLOCK
 62
     0
 10
-0.125
 20
0.0
 30
0.0
 42
1.0
  0
VERTEX
  5
90A21DF
  8
0
  6
BYBLOCK
 62
     0
 10
0.125
 20
0.0
 30
0.0
 42
1.0
  0
SEQEND
  5
90A21E0
  8
0
  6
BYBLOCK
 62
     0
  0
ENDBLK
  5
909BE51
  8
0
  0
BLOCK
  8
0
  2
A$C791E0D91
 70
     0
 10
0.0
 20
0.0
 30
0.0
  3
A$C791E0D91
  1

  0
LINE
  5
909EAF1
  8
DETAIL
  6
CONTINUOUS
 10
-707.1999999999969
 20
0.0
 30
0.0
 11
-707.1999999999969
 21
1.900000000000544
 31
0.0
  0
LINE
  5
909EAF2
  8
DETAIL
  6
CONTINUOUS
 10
-707.1999999999969
 20
1.900000000000544
 30
0.0
 11
-38.8000000000029
 21
1.900000000000544
 31
0.0
  0
LINE
  5
909EAF3
  8
DETAIL
  6
CONTINUOUS
 10
-38.8000000000029
 20
0.0
 30
0.0
 11
-38.8000000000029
 21
1.900000000000544
 31
0.0
  0
ENDBLK
  5
909EAF7
  8
0
  0
BLOCK
  8
0
  2
_DOTBLANK
 70
     0
 10
0.0
 20
0.0
 30
0.0
  3
_DOTBLANK
  1

  0
CIRCLE
  5
909EDB2
  8
0
  6
CONTINUOUS
 62
     7
 10
0.0
 20
0.0
 30
0.0
 40
0.5
  0
LINE
  5
909EDB3
  8
0
  6
CONTINUOUS
 62
     7
 10
-0.5
 20
0.0
 30
0.0
 11
-1.0
 21
0.0
 31
0.0
  0
ENDBLK
  5
909EDB4
  8
0
  0
BLOCK
  8
0
  2
*D5
 70
     1
 10
0.0
 20
0.0
 30
0.0
  3
*D5
  1

  0
LINE
  5
90A1F92
  8
SIZE
 62
     0
 10
32.50064006827483
 20
-381.257665896358
 30
0.0
 11
32.50064006827483
 21
-734.7764806907111
 31
0.0
  0
LINE
  5
90A1F93
  8
SIZE
 62
     0
 10
185.500640068273
 20
-106.320646425582
 30
0.0
 11
185.500640068273
 21
-734.7764806907111
 31
0.0
  0
LINE
  5
90A1F94
  8
SIZE
 62
     0
 10
185.500640068273
 20
-734.5964806907111
 30
0.0
 11
497.680640068273
 21
-734.5964806907111
 31
0.0
  0
LINE
  5
90A1F95
  8
SIZE
 62
     0
 10
32.68064006827483
 20
-734.5964806907111
 30
0.0
 11
185.320640068273
 21
-734.5964806907111
 31
0.0
  0
SOLID
  5
90A1F96
  8
SIZE
 62
     0
 10
32.68064006827483
 20
-734.5664806907112
 30
0.0
 11
32.68064006827483
 21
-734.6264806907111
 31
0.0
 12
32.50064006827483
 22
-734.5964806907111
 32
0.0
 13
32.50064006827483
 23
-734.5964806907111
 33
0.0
  0
SOLID
  5
90A1F97
  8
SIZE
 62
     0
 10
185.320640068273
 20
-734.6264806907111
 30
0.0
 11
185.320640068273
 21
-734.5664806907112
 31
0.0
 12
185.500640068273
 22
-734.5964806907111
 32
0.0
 13
185.500640068273
 23
-734.5964806907111
 33
0.0
  0
TEXT
  5
90A1F98
  8
SIZE
  6
CONTINUOUS
 62
     0
 10
188.680640068273
 20
-719.5964806907111
 30
0.0
 40
60.0
  1
153.0000
 41
0.7
  7
STANDARD1
  0
POINT
  5
90A1F99
  8
DEFPOINTS
 62
     0
 10
32.50064006827483
 20
-381.195165896358
 30
0.0
  0
POINT
  5
90A1F9A
  8
DEFPOINTS
 62
     0
 10
185.500640068273
 20
-106.258146425582
 30
0.0
  0
POINT
  5
90A1F9B
  8
DEFPOINTS
 62
     0
 10
185.500640068273
 20
-734.5964806907111
 30
0.0
  0
ENDBLK
  5
90A1D21
  8
0
  0
BLOCK
  8
0
  2
*D6
 70
     1
 10
0.0
 20
0.0
 30
0.0
  3
*D6
  1

  0
LINE
  5
90A1EC2
  8
SIZE
 62
     0
 10
185.500640068273
 20
-106.320646425582
 30
0.0
 11
185.500640068273
 21
-1000.829584077509
 31
0.0
  0
LINE
  5
90A1EC3
  8
SIZE
 62
     0
 10
-105.499359931727
 20
-368.257665896356
 30
0.0
 11
-105.499359931727
 21
-1000.829584077509
 31
0.0
  0
LINE
  5
90A1EC4
  8
SIZE
 62
     0
 10
-105.499359931727
 20
-1000.649584077509
 30
0.0
 11
-423.679359931727
 21
-1000.649584077509
 31
0.0
  0
LINE
  5
90A1EC5
  8
SIZE
 62
     0
 10
185.320640068273
 20
-1000.649584077509
 30
0.0
 11
-105.319359931727
 21
-1000.649584077509
 31
0.0
  0
SOLID
  5
90A1EC6
  8
SIZE
 62
     0
 10
185.320640068273
 20
-1000.679584077509
 30
0.0
 11
185.320640068273
 21
-1000.619584077509
 31
0.0
 12
185.500640068273
 22
-1000.649584077509
 32
0.0
 13
185.500640068273
 23
-1000.649584077509
 33
0.0
  0
SOLID
  5
90A1EC7
  8
SIZE
 62
     0
 10
-105.319359931727
 20
-1000.619584077509
 30
0.0
 11
-105.319359931727
 21
-1000.679584077509
 31
0.0
 12
-105.499359931727
 22
-1000.649584077509
 32
0.0
 13
-105.499359931727
 23
-1000.649584077509
 33
0.0
  0
TEXT
  5
90A1EC8
  8
SIZE
  6
CONTINUOUS
 62
     0
 10
-414.679359931727
 20
-985.649584077509
 30
0.0
 40
60.0
  1
291.0000
 41
0.7
  7
STANDARD1
  0
POINT
  5
90A1EC9
  8
DEFPOINTS
 62
     0
 10
185.500640068273
 20
-106.258146425582
 30
0.0
  0
POINT
  5
90A1ECA
  8
DEFPOINTS
 62
     0
 10
-105.499359931727
 20
-368.195165896356
 30
0.0
  0
POINT
  5
90A21D5
  8
DEFPOINTS
 62
     0
 10
-105.499359931727
 20
-1000.649584077509
 30
0.0
  0
ENDBLK
  5
90A1D2E
  8
0
  0
BLOCK
  8
0
  2
*D7
 70
     1
 10
0.0
 20
0.0
 30
0.0
  3
*D7
  1

  0
LINE
  5
90A1F9C
  8
SIZE
 62
     0
 10
234.5624999999989
 20
10.0
 30
0.0
 11
623.6275651534178
 21
9.999999999999943
 31
0.0
  0
LINE
  5
90A1F9D
  8
SIZE
 62
     0
 10
47.55830596463193
 20
-366.0000000000009
 30
0.0
 11
623.6275651534178
 21
-366.000000000001
 31
0.0
  0
LINE
  5
90A1F9E
  8
SIZE
 62
     0
 10
623.4475651534178
 20
9.819999999999943
 30
0.0
 11
623.4475651534178
 21
-365.820000000001
 31
0.0
  0
SOLID
  5
90A1F9F
  8
SIZE
 62
     0
 10
623.4775651534178
 20
9.819999999999943
 30
0.0
 11
623.4175651534179
 21
9.819999999999943
 31
0.0
 12
623.4475651534178
 22
9.999999999999943
 32
0.0
 13
623.4475651534178
 23
9.999999999999943
 33
0.0
  0
SOLID
  5
90A1FA0
  8
SIZE
 62
     0
 10
623.4175651534179
 20
-365.820000000001
 30
0.0
 11
623.4775651534178
 21
-365.820000000001
 31
0.0
 12
623.4475651534178
 22
-366.000000000001
 32
0.0
 13
623.4475651534178
 23
-366.000000000001
 33
0.0
  0
TEXT
  5
90A1FA1
  8
SIZE
  6
CONTINUOUS
 62
     0
 10
608.4475651534178
 20
-328.0000000000005
 30
0.0
 40
60.0
  1
376.0000
 50
90.0
 41
0.7
  7
STANDARD1
  0
POINT
  5
90A1FA2
  8
DEFPOINTS
 62
     0
 10
234.4999999999989
 20
10.0
 30
0.0
  0
POINT
  5
90A1FA3
  8
DEFPOINTS
 62
     0
 10
47.49580596463193
 20
-366.0000000000009
 30
0.0
  0
POINT
  5
90A1FA4
  8
DEFPOINTS
 62
     0
 10
623.4475651534178
 20
-366.000000000001
 30
0.0
  0
ENDBLK
  5
90A1D3A
  8
0
  0
BLOCK
  8
0
  2
*D8
 70
     1
 10
0.0
 20
0.0
 30
0.0
  3
*D8
  1

  0
LINE
  5
90A1ED4
  8
SIZE
 62
     0
 10
234.5624999999989
 20
10.0
 30
0.0
 11
499.8242472160518
 21
9.999999999999943
 31
0.0
  0
LINE
  5
90A1ED5
  8
SIZE
 62
     0
 10
-90.44169403537012
 20
-352.999999999998
 30
0.0
 11
499.8242472160518
 21
-352.999999999998
 31
0.0
  0
LINE
  5
90A1ED6
  8
SIZE
 62
     0
 10
499.6442472160518
 20
9.819999999999943
 30
0.0
 11
499.6442472160518
 21
-352.819999999998
 31
0.0
  0
SOLID
  5
90A1ED7
  8
SIZE
 62
     0
 10
499.6742472160518
 20
9.819999999999943
 30
0.0
 11
499.6142472160518
 21
9.819999999999943
 31
0.0
 12
499.6442472160518
 22
9.999999999999943
 32
0.0
 13
499.6442472160518
 23
9.999999999999943
 33
0.0
  0
SOLID
  5
90A1ED8
  8
SIZE
 62
     0
 10
499.6142472160518
 20
-352.819999999998
 30
0.0
 11
499.6742472160518
 21
-352.819999999998
 31
0.0
 12
499.6442472160518
 22
-352.999999999998
 32
0.0
 13
499.6442472160518
 23
-352.999999999998
 33
0.0
  0
TEXT
  5
90A1ED9
  8
SIZE
  6
CONTINUOUS
 62
     0
 10
484.6442472160518
 20
-321.4999999999991
 30
0.0
 40
60.0
  1
363.0000
 50
90.0
 41
0.7
  7
STANDARD1
  0
POINT
  5
90A1EDA
  8
DEFPOINTS
 62
     0
 10
234.4999999999989
 20
10.0
 30
0.0
  0
POINT
  5
90A1EDB
  8
DEFPOINTS
 62
     0
 10
-90.50419403537012
 20
-352.999999999998
 30
0.0
  0
POINT
  5
90A1EDC
  8
DEFPOINTS
 62
     0
 10
499.6442472160518
 20
-352.999999999998
 30
0.0
  0
ENDBLK
  5
90A1D46
  8
0
  0
BLOCK
  8
0
  2
*U9
 70
     1
 10
0.0
 20
0.0
 30
0.0
  3
*U9
  1

  0
TEXT
  5
90A210F
  8
SIZE
 62
     0
 10
1586.944794119214
 20
1099.184857873927
 30
0.0
 40
64.0
  1
291
 41
0.9
  0
ENDBLK
  5
90A2111
  8
0
  0
BLOCK
  8
0
  2
*U10
 70
     1
 10
0.0
 20
0.0
 30
0.0
  3
*U10
  1

  0
TEXT
  5
90A2113
  8
SIZE
 62
     0
 10
2088.302686981279
 20
1834.277299094294
 30
0.0
 40
64.0
  1
363
 50
90.0
 41
0.9
  0
ENDBLK
  5
90A2115
  8
0
  0
BLOCK
  8
0
  2
*U11
 70
     1
 10
0.0
 20
0.0
 30
0.0
  3
*U11
  1

  0
TEXT
  5
90A2117
  8
SIZE
 62
     0
 10
1834.1590798335
 20
1365.237961260725
 30
0.0
 40
64.0
  1
153
 41
0.9
  0
ENDBLK
  5
90A2119
  8
0
  0
BLOCK
  8
0
  2
*U12
 70
     1
 10
0.0
 20
0.0
 30
0.0
  3
*U12
  1

  0
TEXT
  5
90A211B
  8
SIZE
 62
     0
 10
2212.106004918645
 20
1829.148727665721
 30
0.0
 40
64.0
  1
376
 50
90.0
 41
0.9
  0
ENDBLK
  5
90A211D
  8
0
  0
ENDSEC
  0
SECTION
  2
ENTITIES
  0
LINE
  5
90A1BE5
  8
NOTE
  6
CONTINUOUS
 62
     4
 10
256.3340977870009
 20
-399.099090190176
 30
0.0
 11
244.499999999018
 21
-391.9999999982319
 31
0.0
  0
LINE
  5
90A1BE6
  8
NOTE
  6
CONTINUOUS
 62
     4
 10
244.499999999018
 20
-391.9999999982319
 30
0.0
 11
251.199084273044
 21
-404.0650413118151
 31
0.0
  0
LINE
  5
90A1BE7
  8
NOTE
  6
CONTINUOUS
 62
     4
 10
244.5
 20
-392.0000000000009
 30
0.0
 11
429.0994709379988
 21
-577.990820912222
 31
0.0
  0
LINE
  5
90A1BE8
  8
NOTE
  6
CONTINUOUS
 62
     4
 10
429.0994709379988
 20
-577.990820912222
 30
0.0
 11
809.7354601493691
 21
-577.990820912222
 31
0.0
  0
TEXT
  5
90A1BE9
  8
NOTE
  6
CONTINUOUS
 62
     4
 10
442.7219281570717
 20
-561.015874006278
 30
0.0
 40
64.0
  1
RG %%C22.22
 50
0.0000030783246592
 41
0.7
  7
STANDARD1
  0
LINE
  5
90A1BEA
  8
NOTE
  6
CONTINUOUS
 62
     4
 10
890.6699469118091
 20
185.9117052917859
 30
0.0
 11
324.635561583289
 21
185.9117052917859
 31
0.0
  0
LINE
  5
90A1BEB
  8
NOTE
  6
CONTINUOUS
 62
     4
 10
224.6009747729029
 20
19.40283258630916
 30
0.0
 11
214.4999999999989
 21
10.0
 31
0.0
  0
LINE
  5
90A1BEC
  8
NOTE
  6
CONTINUOUS
 62
     4
 10
214.4999999999989
 20
10.0
 30
0.0
 11
218.5462845230179
 21
23.19357925537179
 31
0.0
  0
LINE
  5
90A1BED
  8
NOTE
  6
CONTINUOUS
 62
     4
 10
214.4999999999989
 20
10.0
 30
0.0
 11
324.635561583289
 21
185.9117052917859
 31
0.0
  0
TEXT
  5
90A1BEE
  8
NOTE
  6
CONTINUOUS
 62
     4
 10
350.068329199496
 20
201.1654653236128
 30
0.0
 40
64.0
  1
AH 2-切欠き(M10)
 50
0.0000030783246592
 41
0.7
  7
STANDARD1
  0
LINE
  5
90A1BEF
  8
NOTE
  6
CONTINUOUS
 62
     4
 10
-905.6722334869135
 20
221.2605420613281
 30
0.0
 11
-346.7669142552002
 21
221.2605420613281
 31
0.0
  0
LINE
  5
90A1BF0
  8
NOTE
  6
CONTINUOUS
 62
     4
 10
-224.6009747729051
 20
19.40283258630916
 30
0.0
 11
-214.5000000000011
 21
10.0
 31
0.0
  0
LINE
  5
90A1BF1
  8
NOTE
  6
CONTINUOUS
 62
     4
 10
-214.5000000000011
 20
10.0
 30
0.0
 11
-218.5462845230211
 21
23.19357925537179
 31
0.0
  0
LINE
  5
90A1BF2
  8
NOTE
  6
CONTINUOUS
 62
     4
 10
-214.5000000000011
 20
10.0
 30
0.0
 11
-346.7669142552002
 21
221.2605420613281
 31
0.0
  0
TEXT
  5
90A1BF3
  8
NOTE
  6
CONTINUOUS
 62
     4
 10
-866.3960394205412
 20
241.1645117838298
 30
0.0
 40
64.0
  1
AH 2-%%C12(M10)
 50
0.0000030783246592
 41
0.7
  7
STANDARD1
  0
ARC
  5
90A1BF4
  8
DETAIL
  6
CONTINUOUS
 62
     5
 10
-194.506400682739
 20
-27.06735850224004
 30
0.0
 40
10.00640068273948
 50
270.0
 51
314.4502309999878
  0
ARC
  5
90A1BF5
  8
DETAIL
  6
CONTINUOUS
 62
     5
 10
-240.0355237892031
 20
-37.27388719863507
 30
0.0
 40
2.50160017068487
 50
95.00000000002808
 51
180.0
  0
ARC
  5
90A1BF6
  8
DETAIL
  6
CONTINUOUS
 62
     5
 10
-240.0355237892031
 20
-37.27388719863507
 30
0.0
 40
4.502880307232768
 50
95.00000000002689
 51
180.0
  0
ARC
  5
90A1BF7
  8
DETAIL
  6
CONTINUOUS
 62
     5
 10
-186.000960102411
 20
-348.472948431832
 30
0.0
 40
1.500960102410919
 50
188.4629539999872
 51
354.2888420000137
  0
ARC
  5
90A1BF8
  8
DETAIL
  6
CONTINUOUS
 62
     5
 10
-186.000960102411
 20
-338.466547749093
 30
0.0
 40
1.500960102410919
 50
5.711157999986246
 51
180.0
  0
ARC
  5
90A1BF9
  8
DETAIL
  6
CONTINUOUS
 62
     5
 10
-194.506400682739
 20
-389.6993192447189
 30
0.0
 40
10.00640068273948
 50
0.0
 51
90.0
  0
ARC
  5
90A1BFA
  8
DETAIL
  6
CONTINUOUS
 62
     5
 10
-240.0355237892031
 20
-379.492790548325
 30
0.0
 40
2.50160017068487
 50
180.0
 51
264.9999999999719
  0
ARC
  5
90A1BFB
  8
DETAIL
  6
CONTINUOUS
 62
     5
 10
-240.0355237892031
 20
-379.492790548325
 30
0.0
 40
4.502880307232768
 50
180.0
 51
264.9999999999731
  0
ARC
  5
90A1BFC
  8
DETAIL
  6
CONTINUOUS
 62
     5
 10
-241.0361638574791
 20
-348.472948431832
 30
0.0
 40
1.500960102410919
 50
90.0
 51
270.0
  0
LINE
  5
90A1BFD
  8
DETAIL
  6
CONTINUOUS
 62
     5
 10
234.4999999999989
 20
-380.0000000000009
 30
0.0
 11
231.799999999999
 21
-380.9000000000001
 31
0.0
  0
LINE
  5
90A1BFE
  8
DETAIL
  6
CONTINUOUS
 62
     5
 10
244.5
 20
-380.0000000000009
 30
0.0
 11
244.5
 21
-404.0000000000009
 31
0.0
  0
LINE
  5
90A1BFF
  8
DETAIL
  6
CONTINUOUS
 62
     5
 10
234.4999999999989
 20
-380.0000000000009
 30
0.0
 11
234.4999999999989
 21
-404.0000000000009
 31
0.0
  0
LINE
  5
90A1C00
  8
DETAIL
  6
CONTINUOUS
 62
     5
 10
231.799999999999
 20
-380.9000000000001
 30
0.0
 11
231.799999999999
 21
-403.100000000001
 31
0.0
  0
LINE
  5
90A1C01
  8
DETAIL
  6
CONTINUOUS
 62
     5
 10
185.4999999999989
 20
-351.1246446127591
 30
0.0
 11
185.4999999999989
 21
-23.32918067704804
 31
0.0
  0
LINE
  5
90A1C02
  8
DETAIL
  6
CONTINUOUS
 62
     5
 10
184.9999999999989
 20
-411.8634967569869
 30
0.0
 11
184.9999999999989
 21
-453.000036867933
 31
0.0
  0
LINE
  5
90A1C03
  8
DETAIL
  6
CONTINUOUS
 62
     5
 10
-240.427974823981
 20
-32.78814452030406
 30
0.0
 11
-197.564183287107
 21
-29.03804573643311
 31
0.0
  0
LINE
  5
90A1C04
  8
DETAIL
  6
CONTINUOUS
 62
     5
 10
-240.2535499182131
 20
-34.78180645046496
 30
0.0
 11
-197.3897650522752
 21
-31.03171433752823
 31
0.0
  0
LINE
  5
90A1C05
  8
DETAIL
  6
CONTINUOUS
 62
     5
 10
-191.188918625988
 20
-345.9137380769509
 30
0.0
 11
-191.2041083422241
 21
-345.9213162577339
 31
0.0
  0
LINE
  5
90A1C06
  8
DETAIL
  6
CONTINUOUS
 62
     5
 10
-191.4008275087122
 20
-343.9897140246071
 30
0.0
 11
-191.442560870493
 21
-344.0106407439021
 31
0.0
  0
LINE
  5
90A1C07
  8
DETAIL
  6
CONTINUOUS
 62
     5
 10
-184.5
 20
-64.04100902496293
 30
0.0
 11
-263.0000000000011
 21
-64.04100902496293
 31
0.0
  0
LINE
  5
90A1C08
  8
DETAIL
  6
CONTINUOUS
 62
     5
 10
234.4999999999989
 20
-404.0000000000009
 30
0.0
 11
231.799999999999
 21
-403.100000000001
 31
0.0
  0
LINE
  5
90A1C09
  8
DETAIL
  6
CONTINUOUS
 62
     5
 10
-191.453561240311
 20
-344.8825651447271
 30
0.0
 11
-191.4008275087122
 21
-345.151237003058
 31
0.0
  0
LINE
  5
90A1C0A
  8
DETAIL
  6
CONTINUOUS
 62
     5
 10
-191.4867024393711
 20
-344.649609465898
 30
0.0
 11
-191.453561240311
 21
-344.8825651447271
 31
0.0
  0
LINE
  5
90A1C0B
  8
DETAIL
  6
CONTINUOUS
 62
     5
 10
-191.502946163147
 20
-344.462096188038
 30
0.0
 11
-191.4867024393711
 21
-344.649609465898
 31
0.0
  0
LINE
  5
90A1C0C
  8
DETAIL
  6
CONTINUOUS
 62
     5
 10
-191.506521783657
 20
-344.3085112794261
 30
0.0
 11
-191.502946163147
 21
-344.462096188038
 31
0.0
  0
LINE
  5
90A1C0D
  8
DETAIL
  6
CONTINUOUS
 62
     5
 10
-191.498076381481
 20
-344.1756929876969
 30
0.0
 11
-191.506521783657
 21
-344.3085112794261
 31
0.0
  0
LINE
  5
90A1C0E
  8
DETAIL
  6
CONTINUOUS
 62
     5
 10
-191.4764825688071
 20
-344.0734142308511
 30
0.0
 11
-191.498076381481
 21
-344.1756929876969
 31
0.0
  0
LINE
  5
90A1C0F
  8
DETAIL
  6
CONTINUOUS
 62
     5
 10
-191.442560870493
 20
-344.0106407439021
 30
0.0
 11
-191.4764825688071
 21
-344.0734142308511
 31
0.0
  0
LINE
  5
90A1C10
  8
DETAIL
  6
CONTINUOUS
 62
     5
 10
-191.249077106891
 20
-341.2138317402751
 30
0.0
 11
-191.188918625988
 21
-341.025764774909
 31
0.0
  0
LINE
  5
90A1C11
  8
DETAIL
  6
CONTINUOUS
 62
     5
 10
-191.304619301615
 20
-341.404160152194
 30
0.0
 11
-191.249077106891
 21
-341.2138317402751
 31
0.0
  0
LINE
  5
90A1C12
  8
DETAIL
  6
CONTINUOUS
 62
     5
 10
-191.3552717018711
 20
-341.595916143945
 30
0.0
 11
-191.304619301615
 21
-341.404160152194
 31
0.0
  0
LINE
  5
90A1C13
  8
DETAIL
  6
CONTINUOUS
 62
     5
 10
-191.4008275087122
 20
-341.7882658488011
 30
0.0
 11
-191.3552717018711
 21
-341.595916143945
 31
0.0
  0
LINE
  5
90A1C14
  8
DETAIL
  6
CONTINUOUS
 62
     5
 10
-191.4008275087122
 20
-341.7882658488011
 30
0.0
 11
-191.4535078728391
 21
-342.05668421165
 31
0.0
  0
LINE
  5
90A1C15
  8
DETAIL
  6
CONTINUOUS
 62
     5
 10
-191.4765692909471
 20
-342.865835125524
 30
0.0
 11
-191.4425675414282
 21
-342.928855437025
 31
0.0
  0
LINE
  5
90A1C16
  8
DETAIL
  6
CONTINUOUS
 62
     5
 10
-191.498163103621
 20
-342.763102745181
 30
0.0
 11
-191.4765692909471
 21
-342.865835125524
 31
0.0
  0
LINE
  5
90A1C17
  8
DETAIL
  6
CONTINUOUS
 62
     5
 10
-191.5065351255241
 20
-342.629937564896
 30
0.0
 11
-191.498163103621
 21
-342.763102745181
 31
0.0
  0
LINE
  5
90A1C18
  8
DETAIL
  6
CONTINUOUS
 62
     5
 10
-191.502886124742
 20
-342.47639935282
 30
0.0
 11
-191.5065351255241
 21
-342.629937564896
 31
0.0
  0
LINE
  5
90A1C19
  8
DETAIL
  6
CONTINUOUS
 62
     5
 10
-191.486609046299
 20
-342.2890261645671
 30
0.0
 11
-191.502886124742
 21
-342.47639935282
 31
0.0
  0
LINE
  5
90A1C1A
  8
DETAIL
  6
CONTINUOUS
 62
     5
 10
-191.4535078728391
 20
-342.05668421165
 30
0.0
 11
-191.486609046299
 21
-342.2890261645671
 31
0.0
  0
LINE
  5
90A1C1B
  8
DETAIL
  6
CONTINUOUS
 62
     5
 10
-197.564183287107
 20
-387.7286320105261
 30
0.0
 11
-197.3897650522752
 21
-385.7349700803641
 31
0.0
  0
LINE
  5
90A1C1C
  8
DETAIL
  6
CONTINUOUS
 62
     5
 10
-191.2024205959751
 20
-343.2997393428641
 30
0.0
 11
-191.204115013157
 21
-343.4697480904631
 31
0.0
  0
LINE
  5
90A1C1D
  8
DETAIL
  6
CONTINUOUS
 62
     5
 10
-191.197344015362
 20
-343.1300508000861
 30
0.0
 11
-191.2024205959751
 21
-343.2997393428641
 31
0.0
  0
LINE
  5
90A1C1E
  8
DETAIL
  6
CONTINUOUS
 62
     5
 10
-191.188918625988
 20
-342.9608959320101
 30
0.0
 11
-191.197344015362
 21
-343.1300508000861
 31
0.0
  0
LINE
  5
90A1C1F
  8
DETAIL
  6
CONTINUOUS
 62
     5
 10
-191.4008275087122
 20
-343.9897140246071
 30
0.0
 11
-191.188918625988
 21
-343.978606919849
 31
0.0
  0
LINE
  5
90A1C20
  8
DETAIL
  6
CONTINUOUS
 62
     5
 10
-184.5
 20
-411.8634967569869
 30
0.0
 11
-184.5000000000011
 21
3.99615959035691
 31
0.0
  0
LINE
  5
90A1C21
  8
DETAIL
  6
CONTINUOUS
 62
     5
 10
-189.0
 20
-411.8634967569869
 30
0.0
 11
-189.0
 21
-453.000036867933
 31
0.0
  0
LINE
  5
90A1C22
  8
DETAIL
  6
CONTINUOUS
 62
     5
 10
-194.506400682739
 20
-349.9739085342439
 30
0.0
 11
-194.506400682739
 21
-379.692918561979
 31
0.0
  0
LINE
  5
90A1C23
  8
DETAIL
  6
CONTINUOUS
 62
     5
 10
-194.506400682739
 20
-321.205506571368
 30
0.0
 11
-194.506400682739
 21
-346.971988329421
 31
0.0
  0
LINE
  5
90A1C24
  8
DETAIL
  6
CONTINUOUS
 62
     5
 10
-194.506400682739
 20
-37.07375918497996
 30
0.0
 11
-194.506400682739
 21
-64.04100902496293
 31
0.0
  0
LINE
  5
90A1C25
  8
DETAIL
  6
CONTINUOUS
 62
     5
 10
-191.197344015362
 20
-343.809472064577
 30
0.0
 11
-191.188918625988
 21
-343.978606919849
 31
0.0
  0
LINE
  5
90A1C26
  8
DETAIL
  6
CONTINUOUS
 62
     5
 10
-191.2024205959751
 20
-343.6397768508641
 30
0.0
 11
-191.197344015362
 21
-343.809472064577
 31
0.0
  0
LINE
  5
90A1C27
  8
DETAIL
  6
CONTINUOUS
 62
     5
 10
-191.204115013157
 20
-343.4697480904631
 30
0.0
 11
-191.2024205959751
 21
-343.6397768508641
 31
0.0
  0
LINE
  5
90A1C28
  8
DETAIL
  6
CONTINUOUS
 62
     5
 10
-197.564183287107
 20
-29.03804573643311
 30
0.0
 11
-197.3897650522752
 21
-31.03171433752823
 31
0.0
  0
LINE
  5
90A1C29
  8
DETAIL
  6
CONTINUOUS
 62
     5
 10
-191.3553450821421
 20
-345.343293186829
 30
0.0
 11
-191.4008275087122
 21
-345.151237003058
 31
0.0
  0
LINE
  5
90A1C2A
  8
DETAIL
  6
CONTINUOUS
 62
     5
 10
-191.3046459853481
 20
-345.535255977527
 30
0.0
 11
-191.3553450821421
 21
-345.343293186829
 31
0.0
  0
LINE
  5
90A1C2B
  8
DETAIL
  6
CONTINUOUS
 62
     5
 10
-191.4008275087122
 20
-342.9497888272531
 30
0.0
 11
-191.188918625988
 21
-342.9608959320101
 31
0.0
  0
LINE
  5
90A1C2C
  8
DETAIL
  6
CONTINUOUS
 62
     5
 10
-241.0361638574791
 20
-346.971988329421
 30
0.0
 11
-237.0336035843829
 21
-346.971988329421
 31
0.0
  0
LINE
  5
90A1C2D
  8
DETAIL
  6
CONTINUOUS
 62
     5
 10
-225.0259227650949
 20
-346.971988329421
 30
0.0
 11
-235.032323447834
 21
-346.971988329421
 31
0.0
  0
LINE
  5
90A1C2E
  8
DETAIL
  6
CONTINUOUS
 62
     5
 10
-213.0182419458081
 20
-346.971988329421
 30
0.0
 11
-223.024642628546
 21
-346.971988329421
 31
0.0
  0
LINE
  5
90A1C2F
  8
DETAIL
  6
CONTINUOUS
 62
     5
 10
-201.0105611265201
 20
-346.971988329421
 30
0.0
 11
-211.01696180926
 21
-346.971988329421
 31
0.0
  0
LINE
  5
90A1C30
  8
DETAIL
  6
CONTINUOUS
 62
     5
 10
-190.7087114572221
 20
-346.971988329421
 30
0.0
 11
-199.0092809899731
 21
-346.971988329421
 31
0.0
  0
LINE
  5
90A1C31
  8
DETAIL
  6
CONTINUOUS
 62
     5
 10
-199.0092809899731
 20
-349.9739085342439
 30
0.0
 11
-185.964919585298
 21
-349.973475775854
 31
0.0
  0
LINE
  5
90A1C32
  8
DETAIL
  6
CONTINUOUS
 62
     5
 10
-241.0361638574791
 20
-349.9739085342439
 30
0.0
 11
-237.0336035843829
 21
-349.9739085342439
 31
0.0
  0
LINE
  5
90A1C33
  8
DETAIL
  6
CONTINUOUS
 62
     5
 10
-225.0259227650949
 20
-349.9739085342439
 30
0.0
 11
-235.032323447834
 21
-349.9739085342439
 31
0.0
  0
LINE
  5
90A1C34
  8
DETAIL
  6
CONTINUOUS
 62
     5
 10
-213.0182419458081
 20
-349.9739085342439
 30
0.0
 11
-223.024642628546
 21
-349.9739085342439
 31
0.0
  0
LINE
  5
90A1C35
  8
DETAIL
  6
CONTINUOUS
 62
     5
 10
-201.0105611265201
 20
-349.9739085342439
 30
0.0
 11
-211.01696180926
 21
-349.9739085342439
 31
0.0
  0
LINE
  5
90A1C36
  8
DETAIL
  6
CONTINUOUS
 62
     5
 10
-191.2490570940911
 20
-345.7257378209231
 30
0.0
 11
-191.3046459853481
 21
-345.535255977527
 31
0.0
  0
LINE
  5
90A1C37
  8
DETAIL
  6
CONTINUOUS
 62
     5
 10
-191.188918625988
 20
-345.9137380769509
 30
0.0
 11
-191.2490570940911
 21
-345.7257378209231
 31
0.0
  0
LINE
  5
90A1C38
  8
DETAIL
  6
CONTINUOUS
 62
     5
 10
-197.3897650522752
 20
-385.7349700803641
 30
0.0
 11
-240.2535499182131
 21
-381.984871296494
 31
0.0
  0
LINE
  5
90A1C39
  8
DETAIL
  6
CONTINUOUS
 62
     5
 10
244.5
 20
-380.0000000000009
 30
0.0
 11
234.4999999999989
 21
-380.0000000000009
 31
0.0
  0
LINE
  5
90A1C3A
  8
DETAIL
  6
CONTINUOUS
 62
     5
 10
-242.537123959889
 20
-64.04100902496293
 30
0.0
 11
-242.537123959889
 21
-37.27388719863507
 31
0.0
  0
LINE
  5
90A1C3B
  8
DETAIL
  6
CONTINUOUS
 62
     5
 10
-242.537123959889
 20
-379.492790548325
 30
0.0
 11
-242.537123959889
 21
-321.205506571368
 31
0.0
  0
LINE
  5
90A1C3C
  8
DETAIL
  6
CONTINUOUS
 62
     5
 10
-244.538404096437
 20
-64.04100902496293
 30
0.0
 11
-244.538404096437
 21
-37.27388719863507
 31
0.0
  0
LINE
  5
90A1C3D
  8
DETAIL
  6
CONTINUOUS
 62
     5
 10
-244.538404096437
 20
-379.492790548325
 30
0.0
 11
-244.538404096437
 21
-321.205506571368
 31
0.0
  0
LINE
  5
90A1C3E
  8
DETAIL
  6
CONTINUOUS
 62
     5
 10
-263.0000000000011
 20
-321.205506571368
 30
0.0
 11
-263.0000000000011
 21
-64.04100902496293
 31
0.0
  0
LINE
  5
90A1C3F
  8
DETAIL
  6
CONTINUOUS
 62
     5
 10
-191.442554199559
 20
-342.928862107959
 30
0.0
 11
-191.4008275087122
 21
-342.9497888272531
 31
0.0
  0
LINE
  5
90A1C40
  8
DETAIL
  6
CONTINUOUS
 62
     5
 10
-191.2041083422241
 20
-341.0181865941249
 30
0.0
 11
-191.188918625988
 21
-341.025764774909
 31
0.0
  0
LINE
  5
90A1C41
  8
DETAIL
  6
CONTINUOUS
 62
     5
 10
-197.564183287107
 20
-387.7286320105261
 30
0.0
 11
-240.427974823981
 21
-383.9785398975901
 31
0.0
  0
LINE
  5
90A1C42
  8
DETAIL
  6
CONTINUOUS
 62
     5
 10
244.5
 20
-404.0000000000009
 30
0.0
 11
234.4999999999989
 21
-404.0000000000009
 31
0.0
  0
LINE
  5
90A1C43
  8
DETAIL
  6
CONTINUOUS
 62
     5
 10
184.9999999999989
 20
-411.8634967569869
 30
0.0
 11
-189.0
 21
-411.8634967569869
 31
0.0
  0
LINE
  5
90A1C44
  8
DETAIL
  6
CONTINUOUS
 62
     5
 10
-189.0
 20
-453.000036867933
 30
0.0
 11
184.9999999999989
 21
-453.000036867933
 31
0.0
  0
LINE
  5
90A1C45
  8
DETAIL
  6
CONTINUOUS
 62
     5
 10
-91.52851369035011
 20
-456.8695320247491
 30
0.0
 11
-19.36238532110315
 21
-464.4460238129611
 31
0.0
  0
LINE
  5
90A1C46
  8
DETAIL
  6
CONTINUOUS
 62
     5
 10
-127.7562604224481
 20
-453.000036867933
 30
0.0
 11
-91.52851369035011
 21
-456.8695320247491
 31
0.0
  0
LINE
  5
90A1C47
  8
DETAIL
  6
CONTINUOUS
 62
     5
 10
86.82551204039487
 20
-456.8695320247491
 30
0.0
 11
123.0532521015559
 21
-453.000036867933
 31
0.0
  0
LINE
  5
90A1C48
  8
DETAIL
  6
CONTINUOUS
 62
     5
 10
15.38215728747105
 20
-464.4460225069711
 30
0.0
 11
86.82551204039487
 21
-456.8695320247491
 31
0.0
  0
ARC
  5
90A1C49
  8
DETAIL
  6
CONTINUOUS
 62
     5
 10
190.503840409642
 20
3.99615959035691
 30
0.0
 40
3.001920204821846
 50
90.0
 51
180.0
  0
ARC
  5
90A1C4A
  8
DETAIL
  6
CONTINUOUS
 62
     5
 10
190.503840409642
 20
3.99615959035691
 30
0.0
 40
6.003840409643695
 50
90.0
 51
180.0
  0
ARC
  5
90A1C4B
  8
DETAIL
  6
CONTINUOUS
 62
     5
 10
-190.503840409644
 20
3.99615959035691
 30
0.0
 40
3.001920204821846
 50
0.0
 51
90.0
  0
ARC
  5
90A1C4C
  8
DETAIL
  6
CONTINUOUS
 62
     5
 10
-190.503840409644
 20
3.99615959035691
 30
0.0
 40
6.003840409643695
 50
0.0
 51
90.0
  0
ARC
  5
90A1C4D
  8
DETAIL
  6
CONTINUOUS
 62
     5
 10
-183.8996159590361
 20
-343.4697480904631
 30
0.0
 40
7.704928525709407
 50
129.9831209999933
 51
161.4074349999861
  0
ARC
  5
90A1C4E
  8
DETAIL
  6
CONTINUOUS
 62
     5
 10
-183.8996159590361
 20
-343.4697480904631
 30
0.0
 40
7.704928525709407
 50
198.5925650000139
 51
230.0168790000068
  0
LINE
  5
90A1C4F
  8
DETAIL
  6
CONTINUOUS
 62
     5
 10
234.4999999999989
 20
7.0
 30
0.0
 11
234.4999999999989
 21
10.0
 31
0.0
  0
LINE
  5
90A1C50
  8
DETAIL
  6
CONTINUOUS
 62
     5
 10
187.50192020482
 20
-55.04160443780711
 30
0.0
 11
187.50192020482
 21
3.99615959035691
 31
0.0
  0
LINE
  5
90A1C51
  8
DETAIL
  6
CONTINUOUS
 62
     5
 10
190.503840409642
 20
10.0
 30
0.0
 11
234.4999999999989
 21
10.0
 31
0.0
  0
LINE
  5
90A1C52
  8
DETAIL
  6
CONTINUOUS
 62
     5
 10
-234.5000000000011
 20
10.0
 30
0.0
 11
-190.503840409644
 21
10.0
 31
0.0
  0
LINE
  5
90A1C53
  8
DETAIL
  6
CONTINUOUS
 62
     5
 10
190.503840409642
 20
7.0
 30
0.0
 11
234.4999999999989
 21
7.0
 31
0.0
  0
LINE
  5
90A1C54
  8
DETAIL
  6
CONTINUOUS
 62
     5
 10
-234.5000000000011
 20
7.0
 30
0.0
 11
-190.503840409644
 21
7.0
 31
0.0
  0
LINE
  5
90A1C55
  8
DETAIL
  6
CONTINUOUS
 62
     5
 10
-235.032323447834
 20
-35.77292709622407
 30
0.0
 11
-237.0336035843829
 21
-35.77292709622407
 31
0.0
  0
LINE
  5
90A1C56
  8
DETAIL
  6
CONTINUOUS
 62
     5
 10
-223.024642628546
 20
-35.77292709622407
 30
0.0
 11
-225.0259227650949
 21
-35.77292709622407
 31
0.0
  0
LINE
  5
90A1C57
  8
DETAIL
  6
CONTINUOUS
 62
     5
 10
-211.01696180926
 20
-35.77292709622407
 30
0.0
 11
-213.0182419458081
 21
-35.77292709622407
 31
0.0
  0
LINE
  5
90A1C58
  8
DETAIL
  6
CONTINUOUS
 62
     5
 10
-199.0092809899731
 20
-35.77292709622407
 30
0.0
 11
-201.0105611265201
 21
-35.77292709622407
 31
0.0
  0
LINE
  5
90A1C59
  8
DETAIL
  6
CONTINUOUS
 62
     5
 10
-184.5
 20
-55.04160443780711
 30
0.0
 11
-187.501920204822
 21
-55.04160443780711
 31
0.0
  0
LINE
  5
90A1C5A
  8
DETAIL
  6
CONTINUOUS
 62
     5
 10
187.50192020482
 20
-55.04160443780711
 30
0.0
 11
185.500640068273
 21
-55.04160443780711
 31
0.0
  0
LINE
  5
90A1C5B
  8
DETAIL
  6
CONTINUOUS
 62
     5
 10
14.99999999999886
 20
-464.4460225069711
 30
0.0
 11
14.99999999999886
 21
-503.0
 31
0.0
  0
LINE
  5
90A1C5C
  8
DETAIL
  6
CONTINUOUS
 62
     5
 10
-19.00000000000114
 20
-464.4460238129611
 30
0.0
 11
-19.00000000000114
 21
-503.0
 31
0.0
  0
LINE
  5
90A1C5D
  8
DETAIL
  6
CONTINUOUS
 62
     5
 10
-188.502560273095
 20
-337.46590768082
 30
0.0
 11
-187.501920204822
 21
-337.46590768082
 31
0.0
  0
LINE
  5
90A1C5E
  8
DETAIL
  6
CONTINUOUS
 62
     5
 10
-188.8505095085691
 20
-337.5659716876471
 30
0.0
 11
-188.55259227651
 21
-337.5659716876471
 31
0.0
  0
LINE
  5
90A1C5F
  8
DETAIL
  6
CONTINUOUS
 62
     5
 10
-184.5147827892761
 20
-338.316451738852
 30
0.0
 11
-184.5
 21
-338.316451738852
 31
0.0
  0
LINE
  5
90A1C60
  8
DETAIL
  6
CONTINUOUS
 62
     5
 10
-187.501920204822
 20
-55.04160443780711
 30
0.0
 11
-187.501920204822
 21
3.99615959035691
 31
0.0
  0
LINE
  5
90A1C61
  8
DETAIL
  6
CONTINUOUS
 62
     5
 10
-187.501920204822
 20
-337.46590768082
 30
0.0
 11
-187.501920204822
 21
-349.4735885001071
 31
0.0
  0
LINE
  5
90A1C62
  8
DETAIL
  6
CONTINUOUS
 62
     5
 10
-188.502560273095
 20
-337.46590768082
 30
0.0
 11
-188.502560273095
 21
-349.4735885001071
 31
0.0
  0
LINE
  5
90A1C63
  8
DETAIL
  6
CONTINUOUS
 62
     5
 10
-188.8505095085691
 20
-337.5659716876471
 30
0.0
 11
-188.8505095085691
 21
-349.3735244932791
 31
0.0
  0
LINE
  5
90A1C64
  8
DETAIL
  6
CONTINUOUS
 62
     5
 10
-199.0092809899731
 20
-321.205506571368
 30
0.0
 11
-199.0092809899731
 21
-380.993750650736
 31
0.0
  0
LINE
  5
90A1C65
  8
DETAIL
  6
CONTINUOUS
 62
     5
 10
-199.0092809899731
 20
-35.77292709622407
 30
0.0
 11
-199.0092809899731
 21
-64.04100902496293
 31
0.0
  0
LINE
  5
90A1C66
  8
DETAIL
  6
CONTINUOUS
 62
     5
 10
-201.0105611265221
 20
-321.205506571368
 30
0.0
 11
-201.0105611265201
 21
-380.993750650736
 31
0.0
  0
LINE
  5
90A1C67
  8
DETAIL
  6
CONTINUOUS
 62
     5
 10
-201.0105611265201
 20
-35.77292709622407
 30
0.0
 11
-201.0105611265201
 21
-64.04100902496293
 31
0.0
  0
LINE
  5
90A1C68
  8
DETAIL
  6
CONTINUOUS
 62
     5
 10
-184.5147827892761
 20
-348.623044442073
 30
0.0
 11
-184.5
 21
-348.623044442073
 31
0.0
  0
LINE
  5
90A1C69
  8
DETAIL
  6
CONTINUOUS
 62
     5
 10
-188.8505095085691
 20
-349.3735244932791
 30
0.0
 11
-188.55259227651
 21
-349.3735244932791
 31
0.0
  0
LINE
  5
90A1C6A
  8
DETAIL
  6
CONTINUOUS
 62
     5
 10
-188.502560273095
 20
-349.4735885001071
 30
0.0
 11
-187.501920204822
 21
-349.4735885001071
 31
0.0
  0
LINE
  5
90A1C6B
  8
DETAIL
  6
CONTINUOUS
 62
     5
 10
-211.01696180926
 20
-321.205506571368
 30
0.0
 11
-211.01696180926
 21
-380.993750650736
 31
0.0
  0
LINE
  5
90A1C6C
  8
DETAIL
  6
CONTINUOUS
 62
     5
 10
-211.01696180926
 20
-35.77292709622407
 30
0.0
 11
-211.01696180926
 21
-64.04100902496293
 31
0.0
  0
LINE
  5
90A1C6D
  8
DETAIL
  6
CONTINUOUS
 62
     5
 10
-213.0182419458081
 20
-321.205506571368
 30
0.0
 11
-213.0182419458081
 21
-380.993750650736
 31
0.0
  0
LINE
  5
90A1C6E
  8
DETAIL
  6
CONTINUOUS
 62
     5
 10
-213.0182419458081
 20
-35.77292709622407
 30
0.0
 11
-213.0182419458081
 21
-64.04100902496293
 31
0.0
  0
LINE
  5
90A1C6F
  8
DETAIL
  6
CONTINUOUS
 62
     5
 10
-223.024642628546
 20
-321.205506571368
 30
0.0
 11
-223.024642628546
 21
-380.993750650736
 31
0.0
  0
LINE
  5
90A1C70
  8
DETAIL
  6
CONTINUOUS
 62
     5
 10
-223.024642628546
 20
-35.77292709622407
 30
0.0
 11
-223.024642628546
 21
-64.04100902496293
 31
0.0
  0
LINE
  5
90A1C71
  8
DETAIL
  6
CONTINUOUS
 62
     5
 10
-225.0259227650949
 20
-321.205506571368
 30
0.0
 11
-225.0259227650949
 21
-380.993750650736
 31
0.0
  0
LINE
  5
90A1C72
  8
DETAIL
  6
CONTINUOUS
 62
     5
 10
-225.0259227650949
 20
-35.77292709622407
 30
0.0
 11
-225.0259227650949
 21
-64.04100902496293
 31
0.0
  0
LINE
  5
90A1C73
  8
DETAIL
  6
CONTINUOUS
 62
     5
 10
-234.5000000000011
 20
10.0
 30
0.0
 11
-234.5000000000011
 21
7.0
 31
0.0
  0
LINE
  5
90A1C74
  8
DETAIL
  6
CONTINUOUS
 62
     5
 10
-235.032323447834
 20
-321.205506571368
 30
0.0
 11
-235.032323447834
 21
-380.993750650736
 31
0.0
  0
LINE
  5
90A1C75
  8
DETAIL
  6
CONTINUOUS
 62
     5
 10
-235.032323447834
 20
-35.77292709622407
 30
0.0
 11
-235.032323447834
 21
-64.04100902496293
 31
0.0
  0
LINE
  5
90A1C76
  8
DETAIL
  6
CONTINUOUS
 62
     5
 10
-237.0336035843829
 20
-321.205506571368
 30
0.0
 11
-237.0336035843829
 21
-380.993750650736
 31
0.0
  0
LINE
  5
90A1C77
  8
DETAIL
  6
CONTINUOUS
 62
     5
 10
-237.0336035843829
 20
-35.77292709622407
 30
0.0
 11
-237.0336035843829
 21
-64.04100902496293
 31
0.0
  0
LINE
  5
90A1C78
  8
DETAIL
  6
CONTINUOUS
 62
     5
 10
-235.032323447834
 20
-380.993750650736
 30
0.0
 11
-237.0336035843829
 21
-380.993750650736
 31
0.0
  0
LINE
  5
90A1C79
  8
DETAIL
  6
CONTINUOUS
 62
     5
 10
-223.024642628546
 20
-380.993750650736
 30
0.0
 11
-225.0259227650949
 21
-380.993750650736
 31
0.0
  0
LINE
  5
90A1C7A
  8
DETAIL
  6
CONTINUOUS
 62
     5
 10
-211.01696180926
 20
-380.993750650736
 30
0.0
 11
-213.0182419458081
 21
-380.993750650736
 31
0.0
  0
LINE
  5
90A1C7B
  8
DETAIL
  6
CONTINUOUS
 62
     5
 10
-199.0092809899731
 20
-380.993750650736
 30
0.0
 11
-201.0105611265201
 21
-380.993750650736
 31
0.0
  0
LINE
  5
90A1C7C
  8
DETAIL
  6
CONTINUOUS
 62
     5
 10
231.799999999999
 20
-380.9000000000001
 30
0.0
 11
184.5
 21
-380.898043779617
 31
0.0
  0
LINE
  5
90A1C7D
  8
DETAIL
  6
CONTINUOUS
 62
     5
 10
231.799999999999
 20
-403.100000000001
 30
0.0
 11
184.5
 21
-403.0980437814519
 31
0.0
  0
LINE
  5
90A1C7E
  8
DETAIL
  6
CONTINUOUS
 62
     5
 10
14.99999999999886
 20
-503.0
 30
0.0
 11
-19.00000000000114
 21
-503.0
 31
0.0
  0
LINE
  5
90A1C7F
  8
DETAIL
  6
CONTINUOUS
 62
     5
 10
184.5
 20
-411.8634967569869
 30
0.0
 11
184.5
 21
3.99615959035691
 31
0.0
  0
LINE
  5
90A1C80
  8
DETAIL
  6
CONTINUOUS
 62
     5
 10
184.5
 20
0.0
 30
0.0
 11
-184.5000000000011
 21
0.0
 31
0.0
  0
LINE
  5
90A1C81
  8
DETAIL
  6
CONTINUOUS
 62
     5
 10
184.5
 20
-23.32918067704804
 30
0.0
 11
185.4999999999989
 21
-23.32918067704804
 31
0.0
  0
LINE
  5
90A1C82
  8
DETAIL
  6
CONTINUOUS
 62
     5
 10
-188.55259227651
 20
-349.3735244932791
 30
0.0
 11
-188.502560273095
 21
-349.3234924898661
 31
0.0
  0
LINE
  5
90A1C83
  8
DETAIL
  6
CONTINUOUS
 62
     5
 10
-184.5
 20
-321.205506571368
 30
0.0
 11
-263.0000000000011
 21
-321.205506571368
 31
0.0
  0
LINE
  5
90A1C84
  8
DETAIL
  6
CONTINUOUS
 62
     5
 10
-188.55259227651
 20
-337.5659716876471
 30
0.0
 11
-188.55259227651
 21
-349.3735244932791
 31
0.0
  0
LINE
  5
90A1C85
  8
DETAIL
  6
CONTINUOUS
 62
     5
 10
185.4999999999989
 20
-351.1246446127591
 30
0.0
 11
184.5
 21
-351.1246446127591
 31
0.0
  0
LINE
  5
90A1C86
  8
DETAIL
  6
CONTINUOUS
 62
     5
 10
-188.55259227651
 20
-337.5659716876471
 30
0.0
 11
-188.502560273095
 21
-337.6160036910601
 31
0.0
  0
LINE
  5
90A1C87
  8
DETAIL
  6
CONTINUOUS
 62
     5
 10
-19.36238532110315
 20
-464.4460238129611
 30
0.0
 11
15.38215728747105
 21
-464.4460225069711
 31
0.0
  0
LINE
  5
90A1C88
  8
SIZE
  6
CONTINUOUS
 62
    30
 10
254.4999999999989
 20
10.0
 30
0.0
 11
770.3266150099919
 21
10.0
 31
0.0
  0
LINE
  5
90A1C89
  8
SIZE
  6
CONTINUOUS
 62
    30
 10
279.46381463392
 20
-392.0498238603241
 30
0.0
 11
770.3266150099919
 21
-392.0498238603241
 31
0.0
  0
LINE
  5
90A1C8A
  8
SIZE
  6
CONTINUOUS
 62
    30
 10
750.3266150099919
 20
10.0
 30
0.0
 11
750.3266150099919
 21
-392.0498238603241
 31
0.0
  0
CIRCLE
  5
90A1C8B
  8
SIZE
  6
CONTINUOUS
 62
    30
 10
750.3266150099919
 20
10.0
 30
0.0
 40
7.5
  0
CIRCLE
  5
90A1C8C
  8
SIZE
  6
CONTINUOUS
 62
    30
 10
750.3266150099919
 20
-392.0498238603241
 30
0.0
 40
7.5
  0
TEXT
  5
90A1C8D
  8
SIZE
  6
CONTINUOUS
 62
    30
 10
730.3266150099919
 20
-271.981711930162
 30
0.0
 40
64.0
  1
402
 50
90.0
 41
0.9
 72
     1
 11
730.3266150099919
 21
-191.024911930162
 31
0.0
  0
POINT
  5
90A1C8E
  8
DEFPOINTS
  6
CONTINUOUS
 62
     7
 10
750.3266150099919
 20
-392.0498238603241
 30
0.0
  0
LINE
  5
90A1C8F
  8
SIZE
  6
CONTINUOUS
 62
    30
 10
-254.5000000000011
 20
10.0
 30
0.0
 11
-726.3766144476167
 21
10.0
 31
0.0
  0
LINE
  5
90A1C90
  8
SIZE
  6
CONTINUOUS
 62
    30
 10
-203.2672285043741
 20
-0.0000446554281552
 30
0.0
 11
-726.3766144476167
 21
-0.0000446554281552
 31
0.0
  0
LINE
  5
90A1C91
  8
SIZE
  6
CONTINUOUS
 62
    30
 10
-706.3766144476165
 20
-0.0000446554281552
 30
0.0
 11
-706.3766144476165
 21
-30.00004465542997
 31
0.0
  0
LINE
  5
90A1C92
  8
SIZE
  6
CONTINUOUS
 62
    30
 10
-706.3766144476165
 20
10.0
 30
0.0
 11
-706.3766144476165
 21
187.1428571428578
 31
0.0
  0
LINE
  5
90A1C93
  8
SIZE
  6
CONTINUOUS
 62
    30
 10
-706.3766144476165
 20
-0.0000446554281552
 30
0.0
 11
-706.3766144476165
 21
10.0
 31
0.0
  0
CIRCLE
  5
90A1C94
  8
SIZE
  6
CONTINUOUS
 62
    30
 10
-706.3766144476165
 20
-0.0000446554281552
 30
0.0
 40
7.5
  0
CIRCLE
  5
90A1C95
  8
SIZE
  6
CONTINUOUS
 62
    30
 10
-706.3766144476165
 20
10.0
 30
0.0
 40
7.5
  0
TEXT
  5
90A1C96
  8
SIZE
  6
CONTINUOUS
 62
    30
 10
-726.3766144476167
 20
80.01462857142889
 30
0.0
 40
64.0
  1
10
 50
90.0
 41
0.9
 72
     1
 11
-726.3766144476167
 21
128.5714285714289
 31
0.0
  0
POINT
  5
90A1C97
  8
DEFPOINTS
  6
CONTINUOUS
 62
     7
 10
-706.3766144476165
 20
-0.0000446554281552
 30
0.0
  0
LINE
  5
90A1C98
  8
SIZE
  6
CONTINUOUS
 62
    30
 10
-203.2672285043741
 20
-0.0000446554281552
 30
0.0
 11
-726.3766144476167
 21
-0.0000446554281552
 31
0.0
  0
LINE
  5
90A1C99
  8
SIZE
  6
CONTINUOUS
 62
    30
 10
-209.3387969276721
 20
-453.000036867933
 30
0.0
 11
-726.3766144476167
 21
-453.0000368679321
 31
0.0
  0
LINE
  5
90A1C9A
  8
SIZE
  6
CONTINUOUS
 62
    30
 10
-706.3766144476172
 20
-0.0000446554281552
 30
0.0
 11
-706.3766144476172
 21
-453.0000368679321
 31
0.0
  0
CIRCLE
  5
90A1C9B
  8
SIZE
  6
CONTINUOUS
 62
    30
 10
-706.3766144476172
 20
-0.0000446554281552
 30
0.0
 40
7.5
  0
CIRCLE
  5
90A1C9C
  8
SIZE
  6
CONTINUOUS
 62
    30
 10
-706.3766144476172
 20
-453.0000368679321
 30
0.0
 40
7.5
  0
TEXT
  5
90A1C9D
  8
SIZE
  6
CONTINUOUS
 62
    30
 10
-726.3766144476167
 20
-307.4568407616801
 30
0.0
 40
64.0
  1
453
 50
90.0
 41
0.9
 72
     1
 11
-726.3766144476167
 21
-226.5000407616801
 31
0.0
  0
POINT
  5
90A1C9E
  8
DEFPOINTS
  6
CONTINUOUS
 62
     7
 10
-706.3766144476172
 20
-453.0000368679321
 30
0.0
  0
LINE
  5
90A1C9F
  8
SIZE
  6
CONTINUOUS
 62
    30
 10
-234.5000000000011
 20
30.0
 30
0.0
 11
-234.5000000000011
 21
495.1257032323501
 31
0.0
  0
LINE
  5
90A1CA0
  8
SIZE
  6
CONTINUOUS
 62
    30
 10
-184.4679965863031
 20
23.99615959035691
 30
0.0
 11
-184.4679965863031
 21
495.1257032323501
 31
0.0
  0
LINE
  5
90A1CA1
  8
SIZE
  6
CONTINUOUS
 62
    30
 10
-184.4679965863031
 20
475.1257032323488
 30
0.0
 11
-234.5000000000011
 21
475.1257032323488
 31
0.0
  0
LINE
  5
90A1CA2
  8
SIZE
  6
CONTINUOUS
 62
    30
 10
-234.5000000000011
 20
475.1257032323488
 30
0.0
 11
-413.2854658357592
 21
475.1257032323488
 31
0.0
  0
CIRCLE
  5
90A1CA3
  8
SIZE
  6
CONTINUOUS
 62
    30
 10
-184.4679965863031
 20
475.1257032323488
 30
0.0
 40
7.5
  0
CIRCLE
  5
90A1CA4
  8
SIZE
  6
CONTINUOUS
 62
    30
 10
-234.5000000000011
 20
475.1257032323488
 30
0.0
 40
7.5
  0
TEXT
  5
90A1CA5
  8
SIZE
  6
CONTINUOUS
 62
    30
 10
-403.5423801214741
 20
495.1257032323501
 30
0.0
 40
64.0
  1
50
 41
0.9
 72
     1
 11
-349.5711801214741
 21
495.1257032323501
 31
0.0
  0
POINT
  5
90A1CA6
  8
DEFPOINTS
  6
CONTINUOUS
 62
     7
 10
-184.5
 20
3.99615959035691
 30
0.0
  0
POINT
  5
90A1CA7
  8
DEFPOINTS
  6
CONTINUOUS
 62
     7
 10
-184.4679965863031
 20
475.1257032323488
 30
0.0
  0
LINE
  5
90A1CA8
  8
SIZE
  6
CONTINUOUS
 62
    30
 10
234.4999999999989
 20
30.0
 30
0.0
 11
234.4999999999989
 21
495.1257032323501
 31
0.0
  0
LINE
  5
90A1CA9
  8
SIZE
  6
CONTINUOUS
 62
    30
 10
184.4679965863029
 20
23.99615959035691
 30
0.0
 11
184.4679965863029
 21
495.1257032323501
 31
0.0
  0
LINE
  5
90A1CAA
  8
SIZE
  6
CONTINUOUS
 62
    30
 10
184.4679965863029
 20
475.1257032323488
 30
0.0
 11
234.4999999999989
 21
475.1257032323488
 31
0.0
  0
LINE
  5
90A1CAB
  8
SIZE
  6
CONTINUOUS
 62
    30
 10
234.4999999999989
 20
475.1257032323488
 30
0.0
 11
391.9285714285709
 21
475.1257032323488
 31
0.0
  0
CIRCLE
  5
90A1CAC
  8
SIZE
  6
CONTINUOUS
 62
    30
 10
184.4679965863029
 20
475.1257032323488
 30
0.0
 40
7.5
  0
CIRCLE
  5
90A1CAD
  8
SIZE
  6
CONTINUOUS
 62
    30
 10
234.4999999999989
 20
475.1257032323488
 30
0.0
 40
7.5
  0
TEXT
  5
90A1CAE
  8
SIZE
  6
CONTINUOUS
 62
    30
 10
274.2430857142849
 20
495.1257032323501
 30
0.0
 40
64.0
  1
50
 41
0.9
 72
     1
 11
328.2142857142849
 21
495.1257032323501
 31
0.0
  0
POINT
  5
90A1CAF
  8
DEFPOINTS
  6
CONTINUOUS
 62
     7
 10
184.4679965863029
 20
3.99615959035691
 30
0.0
  0
POINT
  5
90A1CB0
  8
DEFPOINTS
  6
CONTINUOUS
 62
     7
 10
184.4679965863029
 20
475.1257032323488
 30
0.0
  0
LINE
  5
90A1CB1
  8
NOTE
  6
CONTINUOUS
 62
     4
 10
-229.4951658963591
 20
10.0
 30
0.0
 11
-199.5048341036431
 21
10.0
 31
0.0
  0
LINE
  5
90A1CB2
  8
NOTE
  6
CONTINUOUS
 62
     4
 10
-214.5000000000011
 20
25.19516589635805
 30
0.0
 11
-214.5000000000011
 21
-5.195165896358048
 31
0.0
  0
CIRCLE
  5
90A1CB3
  8
FIX
  6
CONTINUOUS
 62
    11
 10
-214.5000000000011
 20
10.0
 30
0.0
 40
12.42149793872491
  0
LINE
  5
90A1CB4
  8
NOTE
  6
CONTINUOUS
 62
     4
 10
199.5048341036409
 20
10.0
 30
0.0
 11
229.4951658963569
 21
10.0
 31
0.0
  0
LINE
  5
90A1CB5
  8
NOTE
  6
CONTINUOUS
 62
     4
 10
214.4999999999989
 20
25.19516589635805
 30
0.0
 11
214.4999999999989
 21
-5.195165896358048
 31
0.0
  0
CIRCLE
  5
90A1CB6
  8
FIX
  6
CONTINUOUS
 62
    11
 10
214.4999999999989
 20
10.0
 30
0.0
 40
12.42149793872491
  0
LINE
  5
90A1CB7
  8
SIZE
  6
CONTINUOUS
 62
    30
 10
-214.5000000000011
 20
44.99516589635687
 30
0.0
 11
-214.5000000000011
 21
364.0273793970282
 31
0.0
  0
LINE
  5
90A1CB8
  8
SIZE
  6
CONTINUOUS
 62
    30
 10
214.4999999999989
 20
44.99516589635687
 30
0.0
 11
214.4999999999989
 21
364.0273793970282
 31
0.0
  0
LINE
  5
90A1CB9
  8
SIZE
  6
CONTINUOUS
 62
    30
 10
-214.5000000000011
 20
344.0273793970282
 30
0.0
 11
214.4999999999989
 21
344.0273793970282
 31
0.0
  0
CIRCLE
  5
90A1CBA
  8
SIZE
  6
CONTINUOUS
 62
    30
 10
-214.5000000000011
 20
344.0273793970282
 30
0.0
 40
7.5
  0
CIRCLE
  5
90A1CBB
  8
SIZE
  6
CONTINUOUS
 62
    30
 10
214.4999999999989
 20
344.0273793970282
 30
0.0
 40
7.5
  0
TEXT
  5
90A1CBC
  8
SIZE
  6
CONTINUOUS
 62
    30
 10
-80.9568
 20
364.0273793970282
 30
0.0
 40
64.0
  1
429
 41
0.9
 72
     1
 11
0.0
 21
364.0273793970282
 31
0.0
  0
POINT
  5
90A1CBD
  8
DEFPOINTS
  6
CONTINUOUS
 62
     7
 10
-214.5000000000011
 20
24.99516589635914
 30
0.0
  0
POINT
  5
90A1CBE
  8
DEFPOINTS
  6
CONTINUOUS
 62
     7
 10
214.532003413696
 20
24.99516589635914
 30
0.0
  0
POINT
  5
90A1CBF
  8
DEFPOINTS
  6
CONTINUOUS
 62
     7
 10
214.4999999999989
 20
344.0273793970282
 30
0.0
  0
LINE
  5
90A1CC0
  8
SIZE
  6
CONTINUOUS
 62
    30
 10
-234.5000000000011
 20
30.0
 30
0.0
 11
-234.5000000000011
 21
615.1166314217398
 31
0.0
  0
LINE
  5
90A1CC1
  8
SIZE
  6
CONTINUOUS
 62
    30
 10
234.4999999999989
 20
30.0
 30
0.0
 11
234.4999999999989
 21
615.1166314217398
 31
0.0
  0
LINE
  5
90A1CC2
  8
SIZE
  6
CONTINUOUS
 62
    30
 10
-234.5000000000011
 20
595.1166314217412
 30
0.0
 11
234.4999999999989
 21
595.1166314217412
 31
0.0
  0
CIRCLE
  5
90A1CC3
  8
SIZE
  6
CONTINUOUS
 62
    30
 10
-234.5000000000011
 20
595.1166314217412
 30
0.0
 40
7.5
  0
CIRCLE
  5
90A1CC4
  8
SIZE
  6
CONTINUOUS
 62
    30
 10
234.4999999999989
 20
595.1166314217412
 30
0.0
 40
7.5
  0
TEXT
  5
90A1CC5
  8
SIZE
  6
CONTINUOUS
 62
    30
 10
-80.9568
 20
615.1166314217398
 30
0.0
 40
64.0
  1
469
 41
0.9
 72
     1
 11
0.0
 21
615.1166314217398
 31
0.0
  0
POINT
  5
90A1CC6
  8
DEFPOINTS
  6
CONTINUOUS
 62
     7
 10
234.4999999999989
 20
595.1166314217412
 30
0.0
  0
LINE
  5
90A1CC7
  8
SIZE
  6
CONTINUOUS
 62
    30
 10
-189.338796927673
 20
-473.000036867933
 30
0.0
 11
-189.338796927673
 21
-1175.414968608595
 31
0.0
  0
LINE
  5
90A1CC8
  8
SIZE
  6
CONTINUOUS
 62
    30
 10
184.661218606783
 20
-473.000036867933
 30
0.0
 11
184.661218606783
 21
-1175.414968608595
 31
0.0
  0
LINE
  5
90A1CC9
  8
SIZE
  6
CONTINUOUS
 62
    30
 10
-189.338796927673
 20
-1155.414968608595
 30
0.0
 11
184.661218606783
 21
-1155.414968608595
 31
0.0
  0
CIRCLE
  5
90A1CCA
  8
SIZE
  6
CONTINUOUS
 62
    30
 10
-189.338796927673
 20
-1155.414968608595
 30
0.0
 40
7.5
  0
CIRCLE
  5
90A1CCB
  8
SIZE
  6
CONTINUOUS
 62
    30
 10
184.661218606783
 20
-1155.414968608595
 30
0.0
 40
7.5
  0
TEXT
  5
90A1CCC
  8
SIZE
  6
CONTINUOUS
 62
    30
 10
-83.29558916044614
 20
-1135.414968608595
 30
0.0
 40
64.0
  1
374
 41
0.9
 72
     1
 11
-2.33878916044614
 21
-1135.414968608595
 31
0.0
  0
POINT
  5
90A1CCD
  8
DEFPOINTS
  6
CONTINUOUS
 62
     7
 10
184.661218606783
 20
-1155.414968608595
 30
0.0
  0
LINE
  5
90A1CCE
  8
SIZE
  6
CONTINUOUS
 62
    30
 10
-263.3184339662901
 20
-341.205506571368
 30
0.0
 11
-263.3184339662901
 21
-1175.414968608595
 31
0.0
  0
LINE
  5
90A1CCF
  8
SIZE
  6
CONTINUOUS
 62
    30
 10
-189.338796927673
 20
-473.000036867933
 30
0.0
 11
-189.338796927673
 21
-1175.414968608595
 31
0.0
  0
LINE
  5
90A1CD0
  8
SIZE
  6
CONTINUOUS
 62
    30
 10
-189.338796927673
 20
-1155.414968608595
 30
0.0
 11
-263.3184339662901
 21
-1155.414968608595
 31
0.0
  0
LINE
  5
90A1CD1
  8
SIZE
  6
CONTINUOUS
 62
    30
 10
-263.3184339662901
 20
-1155.414968608595
 30
0.0
 11
-460.6041482520041
 21
-1155.414968608595
 31
0.0
  0
CIRCLE
  5
90A1CD2
  8
SIZE
  6
CONTINUOUS
 62
    30
 10
-189.338796927673
 20
-1155.414968608595
 30
0.0
 40
7.5
  0
CIRCLE
  5
90A1CD3
  8
SIZE
  6
CONTINUOUS
 62
    30
 10
-263.3184339662901
 20
-1155.414968608595
 30
0.0
 40
7.5
  0
TEXT
  5
90A1CD4
  8
SIZE
  6
CONTINUOUS
 62
    30
 10
-449.5753482520061
 20
-1135.414968608595
 30
0.0
 40
64.0
  1
74
 41
0.9
 72
     1
 11
-395.6041482520061
 21
-1135.414968608595
 31
0.0
  0
POINT
  5
90A1CD5
  8
DEFPOINTS
  6
CONTINUOUS
 62
     7
 10
-189.338796927673
 20
-1155.414968608595
 30
0.0
  0
LINE
  5
90A1CD6
  8
NOTE
  6
CONTINUOUS
 62
     4
 10
229.5048341036409
 20
-392.0000000000009
 30
0.0
 11
259.4951658963569
 21
-392.0000000000009
 31
0.0
  0
LINE
  5
90A1CD7
  8
NOTE
  6
CONTINUOUS
 62
     4
 10
244.5
 20
-376.8048341036431
 30
0.0
 11
244.5
 21
-407.195165896359
 31
0.0
  0
POINT
  5
90A1CD8
  8
DEFPOINTS
  6
CONTINUOUS
 62
     7
 10
185.4686366545759
 20
-351.1246446127591
 30
0.0
  0
LINE
  5
90A1CD9
  8
SIZE
  6
CONTINUOUS
 62
    30
 10
185.500640068273
 20
-331.1246446127579
 30
0.0
 11
185.500640068273
 21
-106.258146425582
 31
0.0
  0
LINE
  5
90A1CDA
  8
SIZE
  6
CONTINUOUS
 62
    30
 10
244.5006521512589
 20
-357.0546579639649
 30
0.0
 11
244.5006521512589
 21
-106.258146425582
 31
0.0
  0
LINE
  5
90A1CDB
  8
SIZE
  6
CONTINUOUS
 62
    30
 10
185.500640068273
 20
-126.2581464255811
 30
0.0
 11
244.5006521512589
 21
-126.2581464255811
 31
0.0
  0
LINE
  5
90A1CDC
  8
SIZE
  6
CONTINUOUS
 62
    30
 10
244.5006521512589
 20
-126.2581464255811
 30
0.0
 11
399.3577950084009
 21
-126.2581464255811
 31
0.0
  0
CIRCLE
  5
90A1CDD
  8
SIZE
  6
CONTINUOUS
 62
    30
 10
185.500640068273
 20
-126.2581464255811
 30
0.0
 40
7.5
  0
CIRCLE
  5
90A1CDE
  8
SIZE
  6
CONTINUOUS
 62
    30
 10
244.5006521512589
 20
-126.2581464255811
 30
0.0
 40
7.5
  0
TEXT
  5
90A1CDF
  8
SIZE
  6
CONTINUOUS
 62
    30
 10
282.95802357983
 20
-106.258146425582
 30
0.0
 40
64.0
  1
59
 41
0.9
 72
     1
 11
336.92922357983
 21
-106.258146425582
 31
0.0
  0
POINT
  5
90A1CE0
  8
DEFPOINTS
  6
CONTINUOUS
 62
     7
 10
185.4686366545759
 20
-351.1246446127591
 30
0.0
  0
POINT
  5
90A1CE1
  8
DEFPOINTS
  6
CONTINUOUS
 62
     7
 10
244.5006521512589
 20
-126.2581464255811
 30
0.0
  0
LINE
  5
90A1CE2
  8
BASIS
  6
DASHDOT
 62
     6
 10
0.0
 20
-571.753714764249
 30
0.0
 11
0.0
 21
80.98214017050304
 31
0.0
  0
LINE
  5
90A1CE3
  8
NOTE
  6
CONTINUOUS
 62
     4
 10
-16.99516589635914
 20
-503.0
 30
0.0
 11
12.99516589635687
 21
-503.0
 31
0.0
  0
LINE
  5
90A1CE4
  8
NOTE
  6
CONTINUOUS
 62
     4
 10
-2.000000000001137
 20
-487.8048341036431
 30
0.0
 11
-2.000000000001137
 21
-518.195165896359
 31
0.0
  0
CIRCLE
  5
90A1CE5
  8
ARRANGE
  6
CONTINUOUS
 62
     1
 10
0.0
 20
0.0
 30
0.0
 40
50.0
  0
LINE
  5
90A1CE6
  8
ARRANGE
  6
CONTINUOUS
 62
     1
 10
50.03735003132783
 20
-49.52235315032499
 30
0.0
 11
-50.03735003133102
 21
49.52235315032476
 31
0.0
  0
LINE
  5
90A1CE7
  8
ARRANGE
  6
CONTINUOUS
 62
     1
 10
49.96376331050101
 20
49.59659479798484
 30
0.0
 11
-49.96376331050101
 21
-49.59659479798393
 31
0.0
  0
LINE
  5
90A1CE8
  8
SIZE
  6
CONTINUOUS
 62
    30
 10
214.4999999999989
 20
44.99516589635687
 30
0.0
 11
214.4999999999989
 21
364.0273793970282
 31
0.0
  0
LINE
  5
90A1CE9
  8
SIZE
  6
CONTINUOUS
 62
    30
 10
234.4999999999989
 20
30.0
 30
0.0
 11
234.4999999999989
 21
364.0273793970282
 31
0.0
  0
LINE
  5
90A1CEA
  8
SIZE
  6
CONTINUOUS
 62
    30
 10
214.4999999999989
 20
344.0273793970282
 30
0.0
 11
184.5
 21
344.0273793970282
 31
0.0
  0
LINE
  5
90A1CEB
  8
SIZE
  6
CONTINUOUS
 62
    30
 10
234.4999999999989
 20
344.0273793970282
 30
0.0
 11
421.9285714285688
 21
344.0273793970282
 31
0.0
  0
LINE
  5
90A1CEC
  8
SIZE
  6
CONTINUOUS
 62
    30
 10
214.4999999999989
 20
344.0273793970282
 30
0.0
 11
234.4999999999989
 21
344.0273793970282
 31
0.0
  0
CIRCLE
  5
90A1CED
  8
SIZE
  6
CONTINUOUS
 62
    30
 10
214.4999999999989
 20
344.0273793970282
 30
0.0
 40
7.5
  0
CIRCLE
  5
90A1CEE
  8
SIZE
  6
CONTINUOUS
 62
    30
 10
234.4999999999989
 20
344.0273793970282
 30
0.0
 40
7.5
  0
TEXT
  5
90A1CEF
  8
SIZE
  6
CONTINUOUS
 62
    30
 10
304.2430857142849
 20
364.0273793970282
 30
0.0
 40
64.0
  1
20
 41
0.9
 72
     1
 11
358.2142857142849
 21
364.0273793970282
 31
0.0
  0
POINT
  5
90A1CF0
  8
DEFPOINTS
  6
CONTINUOUS
 62
     7
 10
214.532003413696
 20
24.99516589635914
 30
0.0
  0
POINT
  5
90A1CF1
  8
DEFPOINTS
  6
CONTINUOUS
 62
     7
 10
234.4999999999989
 20
344.0273793970282
 30
0.0
  0
LINE
  5
90A1CF2
  8
SIZE
  6
CONTINUOUS
 62
    30
 10
-214.5000000000011
 20
44.99516589635687
 30
0.0
 11
-214.5000000000011
 21
364.0273793970282
 31
0.0
  0
LINE
  5
90A1CF3
  8
SIZE
  6
CONTINUOUS
 62
    30
 10
-234.5000000000011
 20
30.0
 30
0.0
 11
-234.5000000000011
 21
364.0273793970282
 31
0.0
  0
LINE
  5
90A1CF4
  8
SIZE
  6
CONTINUOUS
 62
    30
 10
-214.5000000000011
 20
344.0273793970282
 30
0.0
 11
-184.5000000000011
 21
344.0273793970282
 31
0.0
  0
LINE
  5
90A1CF5
  8
SIZE
  6
CONTINUOUS
 62
    30
 10
-234.5000000000011
 20
344.0273793970282
 30
0.0
 11
-421.9285714285711
 21
344.0273793970282
 31
0.0
  0
LINE
  5
90A1CF6
  8
SIZE
  6
CONTINUOUS
 62
    30
 10
-214.5000000000011
 20
344.0273793970282
 30
0.0
 11
-234.5000000000011
 21
344.0273793970282
 31
0.0
  0
CIRCLE
  5
90A1CF7
  8
SIZE
  6
CONTINUOUS
 62
    30
 10
-214.5000000000011
 20
344.0273793970282
 30
0.0
 40
7.5
  0
CIRCLE
  5
90A1CF8
  8
SIZE
  6
CONTINUOUS
 62
    30
 10
-234.5000000000011
 20
344.0273793970282
 30
0.0
 40
7.5
  0
TEXT
  5
90A1CF9
  8
SIZE
  6
CONTINUOUS
 62
    30
 10
-412.1854857142872
 20
364.0273793970282
 30
0.0
 40
64.0
  1
20
 41
0.9
 72
     1
 11
-358.2142857142871
 21
364.0273793970282
 31
0.0
  0
POINT
  5
90A1CFA
  8
DEFPOINTS
  6
CONTINUOUS
 62
     7
 10
-214.5000000000011
 20
24.99516589635914
 30
0.0
  0
POINT
  5
90A1CFB
  8
DEFPOINTS
  6
CONTINUOUS
 62
     7
 10
-234.5000000000011
 20
344.0273793970282
 30
0.0
  0
LINE
  5
90A1CFC
  8
SIZE
  6
CONTINUOUS
 62
    30
 10
-2.351504160445074
 20
-493.6122161044971
 30
0.0
 11
-2.351504160445074
 21
-897.7651178519361
 31
0.0
  0
LINE
  5
90A1CFD
  8
SIZE
  6
CONTINUOUS
 62
    30
 10
184.661218606783
 20
-473.000036867933
 30
0.0
 11
184.661218606783
 21
-795.249913058482
 31
0.0
  0
LINE
  5
90A1CFE
  8
SIZE
  6
CONTINUOUS
 62
    30
 10
-2.351504160445074
 20
-876.5960410478201
 30
0.0
 11
184.661218606783
 21
-876.5960410478201
 31
0.0
  0
CIRCLE
  5
90A1CFF
  8
SIZE
  6
CONTINUOUS
 62
    30
 10
-2.351504160445074
 20
-876.5960410478201
 30
0.0
 40
7.5
  0
CIRCLE
  5
90A1D00
  8
SIZE
  6
CONTINUOUS
 62
    30
 10
184.661218606783
 20
-876.5960410478201
 30
0.0
 40
7.5
  0
TEXT
  5
90A1D01
  8
SIZE
  6
CONTINUOUS
 62
    30
 10
15.61245722316794
 20
-856.5960410478201
 30
0.0
 40
64.0
  1
187
 41
0.9
 72
     1
 11
91.15485722316794
 21
-856.5960410478201
 31
0.0
  0
POINT
  5
90A1D02
  8
DEFPOINTS
  6
CONTINUOUS
 62
     7
 10
184.661218606783
 20
-876.5960410478201
 30
0.0
  0
LINE
  5
90A1D03
  8
NOTE
  6
CONTINUOUS
 62
     4
 10
-506.0353021218662
 20
-663.1451404613131
 30
0.0
 11
-296.4523359828031
 21
-663.1451404613131
 31
0.0
  0
LINE
  5
90A1D04
  8
NOTE
  6
CONTINUOUS
 62
     4
 10
-15.49665277377403
 20
-505.8780750360531
 30
0.0
 11
-2.000000000001137
 21
-503.0
 31
0.0
  0
LINE
  5
90A1D05
  8
NOTE
  6
CONTINUOUS
 62
     4
 10
-2.000000000001137
 20
-503.0
 30
0.0
 11
-12.24940669204216
 21
-512.24081243561
 31
0.0
  0
LINE
  5
90A1D06
  8
NOTE
  6
CONTINUOUS
 62
     4
 10
-2.000000000001137
 20
-503.0
 30
0.0
 11
-296.4523359828031
 21
-663.1451404613131
 31
0.0
  0
TEXT
  5
90A1D07
  8
NOTE
  6
CONTINUOUS
 62
     4
 10
-499.529690493159
 20
-651.8350904516071
 30
0.0
 40
64.0
  1
D %%C34
 50
0.0000030783246592
 41
0.7
  7
STANDARD1
  0
LINE
  5
90A1D08
  8
OUTLINE
  6
CONTINUOUS
 62
     3
 10
184.9999999999989
 20
-411.8634967569869
 30
0.0
 11
184.9999999999989
 21
-453.000036867933
 31
0.0
  0
LINE
  5
90A1D09
  8
OUTLINE
  6
CONTINUOUS
 62
     3
 10
-184.499999999998
 20
-411.8634967569869
 30
0.0
 11
-184.5000000000011
 21
0.0
 31
0.0
  0
LINE
  5
90A1D0A
  8
OUTLINE
  6
CONTINUOUS
 62
     3
 10
-189.0
 20
-411.8634967569869
 30
0.0
 11
-189.0
 21
-453.000036867933
 31
0.0
  0
LINE
  5
90A1D0B
  8
OUTLINE
  6
CONTINUOUS
 62
     3
 10
-184.5147827892702
 20
-338.3164517388529
 30
0.0
 11
-184.499999999998
 21
-338.3164517388529
 31
0.0
  0
LINE
  5
90A1D0C
  8
OUTLINE
  6
CONTINUOUS
 62
     3
 10
-184.5147827892702
 20
-348.6230444420751
 30
0.0
 11
-184.499999999998
 21
-348.6230444420751
 31
0.0
  0
LINE
  5
90A1D0D
  8
OUTLINE
  6
CONTINUOUS
 62
     3
 10
184.500000000002
 20
-411.8634967569869
 30
0.0
 11
184.5
 21
0.0
 31
0.0
  0
LINE
  5
90A1D0E
  8
OUTLINE
  6
CONTINUOUS
 62
     3
 10
184.5
 20
0.0
 30
0.0
 11
-184.5000000000011
 21
0.0
 31
0.0
  0
LINE
  5
90A1D0F
  8
OUTLINE
  6
CONTINUOUS
 62
     3
 10
184.9999999999989
 20
-411.8634967569869
 30
0.0
 11
-189.0
 21
-411.8634967569869
 31
0.0
  0
LINE
  5
90A1D10
  8
OUTLINE
  6
CONTINUOUS
 62
     3
 10
-189.0
 20
-453.000036867933
 30
0.0
 11
184.9999999999989
 21
-453.000036867933
 31
0.0
  0
LINE
  5
90A1D11
  8
NOTE
  6
CONTINUOUS
 62
     4
 10
-120.494525828087
 20
-352.999999999998
 30
0.0
 11
-90.50419403537012
 21
-352.999999999998
 31
0.0
  0
LINE
  5
90A1D12
  8
NOTE
  6
CONTINUOUS
 62
     4
 10
-105.499359931727
 20
-337.8048341036401
 30
0.0
 11
-105.499359931727
 21
-368.195165896356
 31
0.0
  0
LINE
  5
90A1D13
  8
NOTE
  6
CONTINUOUS
 62
     4
 10
17.50547417191592
 20
-366.0000000000009
 30
0.0
 11
47.49580596463193
 21
-366.0000000000009
 31
0.0
  0
LINE
  5
90A1D14
  8
NOTE
  6
CONTINUOUS
 62
     4
 10
32.50064006827483
 20
-350.804834103641
 30
0.0
 11
32.50064006827483
 21
-381.195165896358
 31
0.0
  0
DIMENSION
  5
90A1D15
  8
SIZE
  2
*D5
 10
185.500640068273
 20
-734.5964806907111
 30
0.0
 11
341.680640068273
 21
-689.5964806907111
 31
0.0
 70
    32
  3
STANDARD
 13
32.50064006827483
 23
-381.195165896358
 33
0.0
 14
185.500640068273
 24
-106.258146425582
 34
0.0
1001
ACAD
1000
DSTYLE
1002
{
1070
   140
1040
64.0
1070
   345
1005
13
1070
   346
1005
13
1070
   347
1005
13
1002
}
  0
DIMENSION
  5
90A1D16
  8
SIZE
  2
*D6
 10
-105.499359931727
 20
-1000.649584077509
 30
0.0
 11
-264.679359931727
 21
-955.649584077509
 31
0.0
 70
    32
  3
STANDARD
 13
185.500640068273
 23
-106.258146425582
 33
0.0
 14
-105.499359931727
 24
-368.195165896356
 34
0.0
1001
ACAD
1000
DSTYLE
1002
{
1070
   140
1040
64.0
1070
   345
1005
13
1070
   346
1005
13
1070
   347
1005
13
1002
}
  0
DIMENSION
  5
90A1D17
  8
SIZE
  2
*D7
 10
623.4475651534178
 20
-366.000000000001
 30
0.0
 11
578.4475651534178
 21
-178.0000000000005
 31
0.0
 70
    32
  3
STANDARD
 13
234.4999999999989
 23
10.0
 33
0.0
 14
47.49580596463193
 24
-366.0000000000009
 34
0.0
 50
90.0
1001
ACAD
1000
DSTYLE
1002
{
1070
   140
1040
64.0
1070
   345
1005
13
1070
   346
1005
13
1070
   347
1005
13
1002
}
  0
DIMENSION
  5
90A1D18
  8
SIZE
  2
*D8
 10
499.6442472160518
 20
-352.999999999998
 30
0.0
 11
454.6442472160518
 21
-171.499999999999
 31
0.0
 70
    32
  3
STANDARD
 13
234.4999999999989
 23
10.0
 33
0.0
 14
-90.50419403537012
 24
-352.999999999998
 34
0.0
 50
90.0
1001
ACAD
1000
DSTYLE
1002
{
1070
   140
1040
64.0
1070
   345
1005
13
1070
   346
1005
13
1070
   347
1005
13
1002
}
  0
TEXT
  5
90A1D19
  8
NOTE
  6
CONTINUOUS
 62
     4
 10
-612.6498704315862
 20
-133.3711250144929
 30
0.0
 40
64.0
  1
RL %%C12.7
 50
359.9999969216753
 41
0.7
  7
STANDARD1
  0
TEXT
  5
90A1D1B
  8
NOTE
  6
CONTINUOUS
 62
     4
 10
445.881247660807
 20
-687.446715197658
 30
0.0
 40
64.0
  1
均圧管 %%C6.35
 50
359.9999969216753
 41
0.7
  7
STANDARD1
  0
TEXT
  5
90A1D1D
  8
ETC
  6
CONTINUOUS
 62
    61
 10
-1176.738883260058
 20
658.2179882188279
 30
0.0
 40
79.99999999999999
  1
UCL-A4_5VHA_4
 50
0.0000029575586669
 41
0.8000000000000002
  7
STANDARD_MODELNAME
  0
TEXT
  5
90A1D1E
  8
ETC
  6
CONTINUOUS
 62
    61
 10
-1176.738883260058
 20
785.9392829913181
 30
0.0
 40
79.99999999999999
  1
UCH-A4_5VNA_4
 50
0.0000029575586669
 41
0.8000000000000002
  7
STANDARD_MODELNAME
  0
LINE
  5
90A20B5
  8
NOTE
 10
48.06273324046083
 20
-378.56269302738
 30
0.0
 11
445.3526839394428
 21
-699.279940911109
 31
0.0
1001
ACAD
1000
DSTYLE
1002
{
1070
   147
1040
20.0
1070
    77
1070
     0
1070
   345
1005
13
1070
   346
1005
13
1070
   347
1005
13
1002
}
  0
LINE
  5
90A20B6
  8
NOTE
 10
445.3526839394428
 20
-699.279940911109
 30
0.0
 11
837.872406198712
 21
-699.279940911109
 31
0.0
1001
ACAD
1000
DSTYLE
1002
{
1070
   147
1040
20.0
1070
    77
1070
     0
1070
   345
1005
13
1070
   346
1005
13
1070
   347
1005
13
1002
}
  0
LINE
  5
90A20B7
  8
NOTE
 10
-119.34455370403
 20
-338.56703047161
 30
0.0
 11
-300.233444014867
 21
-149.998789043075
 31
0.0
1001
ACAD
1000
DSTYLE
1002
{
1070
   147
1040
20.0
1070
    77
1070
     0
1070
   345
1005
13
1070
   346
1005
13
1070
   347
1005
13
1002
}
  0
LINE
  5
90A20B8
  8
NOTE
 10
-300.233444014867
 20
-149.998789043075
 30
0.0
 11
-630.7937069715714
 21
-149.998789043075
 31
0.0
1001
ACAD
1000
DSTYLE
1002
{
1070
   147
1040
20.0
1070
    77
1070
     0
1070
   345
1005
13
1070
   346
1005
13
1070
   347
1005
13
1002
}
  0
LINE
  5
90A20B9
  8
NOTE
 10
44.69656981955586
 20
-382.7325432875721
 30
0.0
 11
32.50064006827392
 21
-366.0000000000009
 31
0.0
  0
LINE
  5
90A20BA
  8
NOTE
 10
32.50064006827392
 20
-366.0000000000009
 30
0.0
 11
51.42889666136603
 21
-374.3928427671881
 31
0.0
  0
LINE
  5
90A20BB
  8
NOTE
 10
32.50064006827392
 20
-366.0000000000009
 30
0.0
 11
48.06273324046083
 21
-378.56269302738
 31
0.0
  0
LINE
  5
90A20BC
  8
NOTE
 10
-115.4772512096031
 20
-334.8572220149281
 30
0.0
 11
-105.499359931727
 21
-352.999999999998
 31
0.0
  0
LINE
  5
90A20BD
  8
NOTE
 10
-105.499359931727
 20
-352.999999999998
 30
0.0
 11
-123.211856198456
 21
-342.276838928291
 31
0.0
  0
LINE
  5
90A20BE
  8
NOTE
 10
-105.499359931727
 20
-352.999999999998
 30
0.0
 11
-119.34455370403
 21
-338.56703047161
 31
0.0
  0
ENDSEC
  0
EOF
