  0
SECTION
  2
HEADER
  9
$ACADVER
  1
AC1009
  9
$DWGCODEPAGE
  3
ansi_932
  9
$INSBASE
 10
0.0
 20
0.0
 30
0.0
  9
$EXTMIN
 10
-496.4714620378408
 20
1146.794023834008
 30
0.0
  9
$EXTMAX
 10
1657.675167705029
 20
3179.868627627573
 30
0.0
  9
$LIMMIN
 10
-4267.152221060483
 20
-2696.083210198413
  9
$LIMMAX
 10
7190.717422586465
 20
5141.155363923066
  9
$ORTHOMODE
 70
     0
  9
$REGENMODE
 70
     1
  9
$FILLMODE
 70
     1
  9
$QTEXTMODE
 70
     0
  9
$MIRRTEXT
 70
     0
  9
$DRAGMODE
 70
     2
  9
$LTSCALE
 40
20.0
  9
$OSMODE
 70
    37
  9
$ATTMODE
 70
     1
  9
$TEXTSIZE
 40
60.0
  9
$TRACEWID
 40
0.05
  9
$TEXTSTYLE
  7
STANDARD1
  9
$CLAYER
  8
0
  9
$CELTYPE
  6
BYLAYER
  9
$CECOLOR
 62
   256
  9
$DIMSCALE
 40
1.0
  9
$DIMASZ
 40
20.0
  9
$DIMEXO
 40
20.0
  9
$DIMDLI
 40
80.0
  9
$DIMRND
 40
0.0
  9
$DIMDLE
 40
0.0
  9
$DIMEXE
 40
20.0
  9
$DIMTP
 40
0.0
  9
$DIMTM
 40
0.0
  9
$DIMTXT
 40
64.0
  9
$DIMCEN
 40
0.09
  9
$DIMTSZ
 40
0.0
  9
$DIMTOL
 70
     0
  9
$DIMLIM
 70
     0
  9
$DIMTIH
 70
     0
  9
$DIMTOH
 70
     0
  9
$DIMSE1
 70
     0
  9
$DIMSE2
 70
     0
  9
$DIMTAD
 70
     1
  9
$DIMZIN
 70
     8
  9
$DIMBLK
  1
SMALL
  9
$DIMASO
 70
     1
  9
$DIMSHO
 70
     0
  9
$DIMPOST
  1

  9
$DIMAPOST
  1

  9
$DIMALT
 70
     0
  9
$DIMALTD
 70
     2
  9
$DIMALTF
 40
25.4
  9
$DIMLFAC
 40
1.0
  9
$DIMTOFL
 70
     1
  9
$DIMTVP
 40
0.0
  9
$DIMTIX
 70
     0
  9
$DIMSOXD
 70
     0
  9
$DIMSAH
 70
     0
  9
$DIMBLK1
  1

  9
$DIMBLK2
  1

  9
$DIMSTYLE
  2
KAIGAI_CADSYMBOL
  9
$DIMCLRD
 70
     0
  9
$DIMCLRE
 70
     0
  9
$DIMCLRT
 70
     0
  9
$DIMTFAC
 40
1.0
  9
$DIMGAP
 40
20.0
  9
$LUNITS
 70
     2
  9
$LUPREC
 70
     4
  9
$SKETCHINC
 40
0.1
  9
$FILLETRAD
 40
0.0
  9
$AUNITS
 70
     1
  9
$AUPREC
 70
     3
  9
$MENU
  1
ACAD
  9
$ELEVATION
 40
0.0
  9
$PELEVATION
 40
0.0
  9
$THICKNESS
 40
0.0
  9
$LIMCHECK
 70
     0
  9
$CHAMFERA
 40
0.0
  9
$CHAMFERB
 40
0.0
  9
$SKPOLY
 70
     0
  9
$TDCREATE
 40
2455902.607164352
  9
$TDUPDATE
 40
2458795.730909398
  9
$TDINDWG
 40
1.882982963
  9
$TDUSRTIMER
 40
1.8829793519
  9
$USRTIMER
 70
     1
  9
$ANGBASE
 50
0.0
  9
$ANGDIR
 70
     0
  9
$PDMODE
 70
     3
  9
$PDSIZE
 40
-2.0
  9
$PLINEWID
 40
0.0
  9
$COORDS
 70
     1
  9
$SPLFRAME
 70
     0
  9
$SPLINETYPE
 70
     6
  9
$SPLINESEGS
 70
     8
  9
$ATTDIA
 70
     0
  9
$ATTREQ
 70
     1
  9
$HANDLING
 70
     1
  9
$HANDSEED
  5
90A2327
  9
$SURFTAB1
 70
     6
  9
$SURFTAB2
 70
     6
  9
$SURFTYPE
 70
     6
  9
$SURFU
 70
     6
  9
$SURFV
 70
     6
  9
$UCSNAME
  2

  9
$UCSORG
 10
0.0
 20
0.0
 30
0.0
  9
$UCSXDIR
 10
1.0
 20
0.0
 30
0.0
  9
$UCSYDIR
 10
0.0
 20
1.0
 30
0.0
  9
$PUCSNAME
  2

  9
$PUCSORG
 10
0.0
 20
0.0
 30
0.0
  9
$PUCSXDIR
 10
1.0
 20
0.0
 30
0.0
  9
$PUCSYDIR
 10
0.0
 20
1.0
 30
0.0
  9
$USERI1
 70
     0
  9
$USERI2
 70
     0
  9
$USERI3
 70
     0
  9
$USERI4
 70
     0
  9
$USERI5
 70
     0
  9
$USERR1
 40
20.0
  9
$USERR2
 40
0.0
  9
$USERR3
 40
0.0
  9
$USERR4
 40
0.0
  9
$USERR5
 40
0.0
  9
$WORLDVIEW
 70
     1
  9
$SHADEDGE
 70
     3
  9
$SHADEDIF
 70
    70
  9
$TILEMODE
 70
     1
  9
$MAXACTVP
 70
    48
  9
$PLIMCHECK
 70
     0
  9
$PEXTMIN
 10
1.000000000000000E+20
 20
1.000000000000000E+20
 30
1.000000000000000E+20
  9
$PEXTMAX
 10
-1.000000000000000E+20
 20
-1.000000000000000E+20
 30
-1.000000000000000E+20
  9
$PLIMMIN
 10
0.0
 20
0.0
  9
$PLIMMAX
 10
12.0
 20
9.0
  9
$UNITMODE
 70
     0
  9
$VISRETAIN
 70
     1
  9
$PLINEGEN
 70
     0
  9
$PSLTSCALE
 70
     1
  0
ENDSEC
  0
SECTION
  2
TABLES
  0
TABLE
  2
VPORT
 70
     1
  0
VPORT
  2
*ACTIVE
 70
     0
 10
0.0
 20
0.0
 11
1.0
 21
1.0
 12
868.6832963046775
 22
1889.970844673236
 13
0.0
 23
0.0
 14
50.0
 24
50.0
 15
100.0
 25
100.0
 16
0.0
 26
0.0
 36
1.0
 17
0.0
 27
0.0
 37
0.0
 40
805.3891647691315
 41
2.020804438280166
 42
50.0
 43
0.0
 44
0.0
 50
0.0
 51
0.0
 71
     0
 72
  1000
 73
     1
 74
     0
 75
     0
 76
     0
 77
     0
 78
     0
  0
ENDTAB
  0
TABLE
  2
LTYPE
 70
     7
  0
LTYPE
  2
CONTINUOUS
 70
     0
  3
実線
 72
    65
 73
     0
 40
0.0
  0
LTYPE
  2
DASHDOT
 70
     0
  3
____ _ ____ _ ____ _ ____ _ ____ _ ____ _ ____
 72
    65
 73
     4
 40
5.5
 49
4.0
 49
-0.6
 49
0.3
 49
-0.6
  0
LTYPE
  2
CENTERZ
 70
     0
  3
Center ____ _ ____ _ ____ _ ____ _ ____ _ ____
 72
    65
 73
     4
 40
6.999999999999998
 49
4.299999999999998
 49
-0.7
 49
1.3
 49
-0.7
  0
LTYPE
  2
DASHEDZ
 70
     0
  3
Dashed __ __ __ __ __ __ __ __ __ __ __ __ __ _
 72
    65
 73
     2
 40
2.5
 49
1.8
 49
-0.7
  0
LTYPE
  2
PHANTOMZ
 70
     0
  3
Phantom ______  __  __  ______  __  __  ______
 72
    65
 73
     6
 40
8.999999999999998
 49
4.299999999999998
 49
-0.7
 49
1.3
 49
-0.7
 49
1.3
 49
-0.7
  0
LTYPE
  2
AM_ISO08W050X2
 70
     0
  3
__ . __ . __ . __ . __ . __
 72
    65
 73
     4
 40
9.0
 49
6.0
 49
-0.75
 49
1.5
 49
-0.75
  0
LTYPE
  2
HIDDEN
 70
     0
  3
Hidden __ __ __ __ __ __ __ __ __ __ __ __ __ _
 72
    65
 73
     2
 40
9.524999999999995
 49
6.349999999999998
 49
-3.174999999999998
  0
ENDTAB
  0
TABLE
  2
LAYER
 70
    12
  0
LAYER
  2
0
 70
     0
 62
     7
  6
CONTINUOUS
  0
LAYER
  2
OUTLINE
 70
     0
 62
     3
  6
CONTINUOUS
  0
LAYER
  2
DETAIL
 70
     0
 62
     5
  6
CONTINUOUS
  0
LAYER
  2
BASIS
 70
     0
 62
     6
  6
DASHDOT
  0
LAYER
  2
SIZE
 70
     0
 62
    30
  6
CONTINUOUS
  0
LAYER
  2
NOTE
 70
     0
 62
     4
  6
CONTINUOUS
  0
LAYER
  2
DEFPOINTS
 70
     0
 62
     7
  6
CONTINUOUS
  0
LAYER
  2
FIX
 70
     0
 62
    11
  6
CONTINUOUS
  0
LAYER
  2
ARRANGE
 70
     0
 62
     1
  6
CONTINUOUS
  0
LAYER
  2
ETC
 70
     0
 62
    61
  6
CONTINUOUS
  0
LAYER
  2
SERVICESPACE
 70
     0
 62
     2
  6
DASHDOT
  0
LAYER
  2
SYMBOLLINE
 70
     0
 62
    15
  6
CONTINUOUS
  0
ENDTAB
  0
TABLE
  2
STYLE
 70
     5
  0
STYLE
  2
STANDARD
 70
     0
 40
0.0
 41
0.9
 50
0.0
 71
     0
 42
64.0
  3
SIMPLEX
  4
BIGFONT
  0
STYLE
  2
STANDARD1
 70
     0
 40
60.0
 41
0.7
 50
0.0
 71
     0
 42
60.0
  3
MONOTXT.shx
  4
BIGFONT.shx
  0
STYLE
  2
STANDARD_MODELNAME
 70
     0
 40
80.0
 41
0.8
 50
0.0
 71
     0
 42
64.0
  3
MONOTXT.shx
  4
BIGFONT.shx
  0
STYLE
  2
KAIGAI_STANDARD_1
 70
     0
 40
53.0
 41
0.51
 50
0.0
 71
     0
 42
53.0
  3
MONOTXT.shx
  4
BIGFONT.shx
  0
STYLE
  2
スタイル1
 70
     0
 40
0.0
 41
1.0
 50
0.0
 71
     0
 42
3.0
  3
exthalf2.shx
  4
extfont2.shx
  0
ENDTAB
  0
TABLE
  2
VIEW
 70
     1
  0
VIEW
  2
ALL
 70
     0
 40
9000.0
 10
241.506647
 20
0.0
 41
12483.01
 11
0.0
 21
0.0
 31
1.0
 12
0.0
 22
0.0
 32
0.0
 42
50.0
 43
0.0
 44
0.0
 50
0.0
 71
     0
  0
ENDTAB
  0
TABLE
  2
UCS
 70
     0
  0
ENDTAB
  0
TABLE
  2
APPID
 70
    27
  0
APPID
  2
ACAD
 70
     0
  0
APPID
  2
ACAD_MLEADERVER
 70
     0
  0
APPID
  2
ACADANNOPO
 70
     0
  0
APPID
  2
ACAD_PSEXT
 70
     0
  0
APPID
  2
ACAD_EXEMPT_FROM_CAD_STAND
 70
     0
  0
APPID
  2
ACAD_DSTYLE_DIMJAG
 70
     0
  0
APPID
  2
ACAD_DSTYLE_DIMTALN
 70
     0
  0
APPID
  2
ACAD_DSTYLE_DIMBREAK
 70
     0
  0
APPID
  2
ACAD_NAV_VCDISPLAY
 70
     0
  0
APPID
  2
ACAUTHENVIRON
 70
     0
  0
APPID
  2
ACDBDYNAMICBLOCKTRUENAME
 70
     0
  0
APPID
  2
ACDBDYNAMICBLOCKGUID
 70
     0
  0
APPID
  2
ACAD_DSTYLE_DIMRADIAL_EXTE
 70
     0
  0
APPID
  2
ACAECLAYERSTANDARD
 70
     0
  0
APPID
  2
ACCMTRANSPARENCY
 70
     0
  0
APPID
  2
GRADIENTCOLOR1ACI
 70
     0
  0
APPID
  2
GRADIENTCOLOR2ACI
 70
     0
  0
APPID
  2
GENIUS_GENODEF_13
 70
     0
  0
APPID
  2
ACAD_DSTYLE_DIMINSPECT
 70
     0
  0
APPID
  2
GENIUS_GENREC_14
 70
     0
  0
APPID
  2
GENIUS_GENOBJ-N-REC_13
 70
     0
  0
APPID
  2
GENIUS_GENOREF_13
 70
     0
  0
APPID
  2
ACLAYERTOOLS
 70
     0
  0
APPID
  2
ACAD_DSTYLE_DIM_LINETYPE
 70
     0
  0
APPID
  2
ACAD_DSTYLE_DIM_EXT1_LINET
 70
     0
  0
APPID
  2
ACAD_DSTYLE_DIM_EXT2_LINET
 70
     0
  0
APPID
  2
CONTENTBLOCKICON
 70
     0
  0
ENDTAB
  0
TABLE
  2
DIMSTYLE
 70
     5
  0
DIMSTYLE
  2
STANDARD
 70
     0
  3

  4

  5

  6

  7

 40
1.0
 41
0.18
 42
0.0625
 43
0.38
 44
0.18
 45
0.0
 46
0.0
 47
0.0
 48
0.0
140
40.0
141
0.09
142
0.0
143
25.4
144
1.0
145
0.0
146
1.0
147
15.0
 71
     0
 72
     0
 73
     0
 74
     0
 75
     0
 76
     0
 77
     1
 78
     0
170
     0
171
     2
172
     0
173
     0
174
     0
175
     0
176
     0
177
     0
178
     0
  0
DIMSTYLE
  2
KAIGAI_CADSYMBOL
 70
     0
  3

  4

  5
SMALL
  6

  7

 40
1.0
 41
20.0
 42
20.0
 43
80.0
 44
20.0
 45
0.0
 46
0.0
 47
0.0
 48
0.0
140
64.0
141
0.09
142
0.0
143
25.4
144
1.0
145
0.0
146
1.0
147
20.0
 71
     0
 72
     0
 73
     0
 74
     0
 75
     0
 76
     0
 77
     1
 78
     8
170
     0
171
     2
172
     1
173
     0
174
     0
175
     0
176
     0
177
     0
178
     0
  0
DIMSTYLE
  2
CADSYMBOL
 70
     0
  3

  4

  5
SMALL
  6

  7

 40
1.0
 41
30.0
 42
20.0
 43
80.0
 44
20.0
 45
0.0
 46
0.0
 47
0.0
 48
0.0
140
60.0
141
0.09
142
0.0
143
25.4
144
1.0
145
0.0
146
1.0
147
20.0
 71
     0
 72
     0
 73
     0
 74
     0
 75
     0
 76
     0
 77
     1
 78
     8
170
     0
171
     2
172
     1
173
     0
174
     0
175
     0
176
     0
177
     0
178
     0
  0
DIMSTYLE
  2
AM_スタイル1
 70
     0
  3

  4

  5
OPEN30
  6

  7

 40
1.0
 41
2.0
 42
0.7
 43
6.0
 44
0.7
 45
0.0
 46
0.0
 47
0.0
 48
0.0
140
3.2
141
-3.0
142
0.0
143
25.4
144
1.0
145
0.0
146
1.0
147
1.0
 71
     0
 72
     0
 73
     0
 74
     0
 75
     0
 76
     0
 77
     3
 78
     8
170
     0
171
     2
172
     1
173
     0
174
     1
175
     0
176
   256
177
   256
178
   256
  0
DIMSTYLE
  2
AM_スタイル1$0
 70
     0
  3

  4

  5
OPEN30
  6

  7

 40
1.0
 41
2.0
 42
0.7
 43
6.0
 44
0.7
 45
0.0
 46
0.0
 47
0.0
 48
0.0
140
3.2
141
-3.0
142
0.0
143
25.4
144
1.0
145
0.0
146
1.0
147
1.0
 71
     0
 72
     0
 73
     0
 74
     0
 75
     0
 76
     0
 77
     3
 78
     8
170
     0
171
     2
172
     1
173
     0
174
     1
175
     0
176
   256
177
   256
178
   256
  0
ENDTAB
  0
ENDSEC
  0
SECTION
  2
BLOCKS
  0
BLOCK
  8
0
  2
$MODEL_SPACE
 70
     0
 10
0.0
 20
0.0
 30
0.0
  3
$MODEL_SPACE
  1

  0
ENDBLK
  5
1A
  8
0
  0
BLOCK
 67
     1
  8
0
  2
$PAPER_SPACE
 70
     0
 10
0.0
 20
0.0
 30
0.0
  3
$PAPER_SPACE
  1

  0
ENDBLK
  5
17
 67
     1
  8
0
  0
BLOCK
  8
0
  2
_SMALL
 70
     0
 10
0.0
 20
0.0
 30
0.0
  3
_SMALL
  1

  0
CIRCLE
  5
4C0C0
  8
0
  6
BYBLOCK
 62
     0
 10
0.0
 20
0.0
 30
0.0
 40
0.25
  0
ENDBLK
  5
4C0C2
  8
0
  0
BLOCK
  8
0
  2
_OPEN30
 70
     0
 10
0.0
 20
0.0
 30
0.0
  3
_OPEN30
  1

  0
LINE
  5
990C6
  8
NOTE
 10
-1.0
 20
0.26794919
 30
0.0
 11
0.0
 21
0.0
 31
0.0
  0
LINE
  5
990C7
  8
NOTE
 10
0.0
 20
0.0
 30
0.0
 11
-1.0
 21
-0.26794919
 31
0.0
  0
LINE
  5
990C8
  8
NOTE
 10
0.0
 20
0.0
 30
0.0
 11
-1.0
 21
0.0
 31
0.0
  0
ENDBLK
  5
4C0C8
  8
0
  0
BLOCK
  8
0
  2
_DOTSMALL
 70
     0
 10
0.0
 20
0.0
 30
0.0
  3
_DOTSMALL
  1

  0
POLYLINE
  5
909BE50
  8
0
  6
BYBLOCK
 62
     0
 66
     1
 10
0.0
 20
0.0
 30
0.0
 70
     1
 40
1.0
 41
1.0
  0
VERTEX
  5
90A2324
  8
0
  6
BYBLOCK
 62
     0
 10
-0.125
 20
0.0
 30
0.0
 42
1.0
  0
VERTEX
  5
90A2325
  8
0
  6
BYBLOCK
 62
     0
 10
0.125
 20
0.0
 30
0.0
 42
1.0
  0
SEQEND
  5
90A2326
  8
0
  6
BYBLOCK
 62
     0
  0
ENDBLK
  5
909BE51
  8
0
  0
BLOCK
  8
0
  2
A$C791E0D91
 70
     0
 10
0.0
 20
0.0
 30
0.0
  3
A$C791E0D91
  1

  0
LINE
  5
909EAF1
  8
DETAIL
  6
CONTINUOUS
 10
-707.1999999999969
 20
0.0
 30
0.0
 11
-707.1999999999969
 21
1.900000000000544
 31
0.0
  0
LINE
  5
909EAF2
  8
DETAIL
  6
CONTINUOUS
 10
-707.1999999999969
 20
1.900000000000544
 30
0.0
 11
-38.8000000000029
 21
1.900000000000544
 31
0.0
  0
LINE
  5
909EAF3
  8
DETAIL
  6
CONTINUOUS
 10
-38.8000000000029
 20
0.0
 30
0.0
 11
-38.8000000000029
 21
1.900000000000544
 31
0.0
  0
ENDBLK
  5
909EAF7
  8
0
  0
BLOCK
  8
0
  2
_DOTBLANK
 70
     0
 10
0.0
 20
0.0
 30
0.0
  3
_DOTBLANK
  1

  0
CIRCLE
  5
909EDB2
  8
0
  6
CONTINUOUS
 62
     7
 10
0.0
 20
0.0
 30
0.0
 40
0.5
  0
LINE
  5
909EDB3
  8
0
  6
CONTINUOUS
 62
     7
 10
-0.5
 20
0.0
 30
0.0
 11
-1.0
 21
0.0
 31
0.0
  0
ENDBLK
  5
909EDB4
  8
0
  0
BLOCK
  8
0
  2
*D5
 70
     1
 10
0.0
 20
0.0
 30
0.0
  3
*D5
  1

  0
LINE
  5
90A207F
  8
SIZE
 62
     0
 10
-32.50064006827517
 20
-381.2576658963601
 30
0.0
 11
-32.50064006827515
 21
-734.776480690714
 31
0.0
  0
LINE
  5
90A2080
  8
SIZE
 62
     0
 10
-185.5006400682742
 20
-106.3206464255832
 30
0.0
 11
-185.5006400682741
 21
-734.776480690714
 31
0.0
  0
LINE
  5
90A2081
  8
SIZE
 62
     0
 10
-185.5006400682741
 20
-734.5964806907141
 30
0.0
 11
-497.6806400682741
 21
-734.5964806907141
 31
0.0
  0
LINE
  5
90A2082
  8
SIZE
 62
     0
 10
-32.68064006827515
 20
-734.5964806907141
 30
0.0
 11
-185.3206400682741
 21
-734.5964806907141
 31
0.0
  0
SOLID
  5
90A2083
  8
SIZE
 62
     0
 10
-32.68064006827515
 20
-734.6264806907141
 30
0.0
 11
-32.68064006827515
 21
-734.5664806907141
 31
0.0
 12
-32.50064006827515
 22
-734.5964806907141
 32
0.0
 13
-32.50064006827515
 23
-734.5964806907141
 33
0.0
  0
SOLID
  5
90A2084
  8
SIZE
 62
     0
 10
-185.3206400682741
 20
-734.5664806907141
 30
0.0
 11
-185.3206400682741
 21
-734.6264806907141
 31
0.0
 12
-185.5006400682741
 22
-734.5964806907141
 32
0.0
 13
-185.5006400682741
 23
-734.5964806907141
 33
0.0
  0
TEXT
  5
90A2085
  8
SIZE
  6
CONTINUOUS
 62
     0
 10
-494.6806400682741
 20
-719.5964806907141
 30
0.0
 40
60.0
  1
153.0000
 41
0.7
  7
STANDARD1
  0
POINT
  5
90A2086
  8
DEFPOINTS
 62
     0
 10
-32.50064006827517
 20
-381.1951658963601
 30
0.0
  0
POINT
  5
90A2087
  8
DEFPOINTS
 62
     0
 10
-185.5006400682742
 20
-106.2581464255832
 30
0.0
  0
POINT
  5
90A2088
  8
DEFPOINTS
 62
     0
 10
-185.5006400682741
 20
-734.5964806907141
 30
0.0
  0
ENDBLK
  5
90A1D93
  8
0
  0
BLOCK
  8
0
  2
*D6
 70
     1
 10
0.0
 20
0.0
 30
0.0
  3
*D6
  1

  0
LINE
  5
90A1DCC
  8
SIZE
 62
     0
 10
-185.5006400682742
 20
-106.3206464255832
 30
0.0
 11
-185.500640068274
 21
-1000.829584077511
 31
0.0
  0
LINE
  5
90A1DCD
  8
SIZE
 62
     0
 10
105.4993599317273
 20
-368.2576658963592
 30
0.0
 11
105.4993599317274
 21
-1000.829584077511
 31
0.0
  0
LINE
  5
90A1DCE
  8
SIZE
 62
     0
 10
105.4993599317274
 20
-1000.649584077511
 30
0.0
 11
423.6793599317274
 21
-1000.649584077511
 31
0.0
  0
LINE
  5
90A1DCF
  8
SIZE
 62
     0
 10
-185.320640068274
 20
-1000.649584077511
 30
0.0
 11
105.3193599317274
 21
-1000.649584077511
 31
0.0
  0
SOLID
  5
90A1DD0
  8
SIZE
 62
     0
 10
-185.320640068274
 20
-1000.619584077511
 30
0.0
 11
-185.320640068274
 21
-1000.679584077511
 31
0.0
 12
-185.500640068274
 22
-1000.649584077511
 32
0.0
 13
-185.500640068274
 23
-1000.649584077511
 33
0.0
  0
SOLID
  5
90A1DD1
  8
SIZE
 62
     0
 10
105.3193599317274
 20
-1000.679584077511
 30
0.0
 11
105.3193599317274
 21
-1000.619584077511
 31
0.0
 12
105.4993599317274
 22
-1000.649584077511
 32
0.0
 13
105.4993599317274
 23
-1000.649584077511
 33
0.0
  0
TEXT
  5
90A1DD2
  8
SIZE
  6
CONTINUOUS
 62
     0
 10
114.6793599317274
 20
-985.6495840775112
 30
0.0
 40
60.0
  1
291.0000
 41
0.7
  7
STANDARD1
  0
POINT
  5
90A1DD3
  8
DEFPOINTS
 62
     0
 10
-185.5006400682742
 20
-106.2581464255832
 30
0.0
  0
POINT
  5
90A1DD4
  8
DEFPOINTS
 62
     0
 10
105.4993599317273
 20
-368.1951658963592
 30
0.0
  0
POINT
  5
90A231B
  8
DEFPOINTS
 62
     0
 10
105.4993599317274
 20
-1000.649584077511
 30
0.0
  0
ENDBLK
  5
90A1DA0
  8
0
  0
BLOCK
  8
0
  2
*D7
 70
     1
 10
0.0
 20
0.0
 30
0.0
  3
*D7
  1

  0
LINE
  5
90A2089
  8
SIZE
 62
     0
 10
-234.5625
 20
9.999999999997726
 30
0.0
 11
-613.8071016822563
 21
9.999999999997783
 31
0.0
  0
LINE
  5
90A208A
  8
SIZE
 62
     0
 10
-47.55830596463181
 20
-366.0000000000023
 30
0.0
 11
-613.8071016822563
 21
-366.0000000000022
 31
0.0
  0
LINE
  5
90A208B
  8
SIZE
 62
     0
 10
-613.6271016822564
 20
9.819999999997783
 30
0.0
 11
-613.6271016822564
 21
-365.8200000000022
 31
0.0
  0
SOLID
  5
90A208C
  8
SIZE
 62
     0
 10
-613.5971016822564
 20
9.819999999997783
 30
0.0
 11
-613.6571016822563
 21
9.819999999997783
 31
0.0
 12
-613.6271016822564
 22
9.999999999997783
 32
0.0
 13
-613.6271016822564
 23
9.999999999997783
 33
0.0
  0
SOLID
  5
90A208D
  8
SIZE
 62
     0
 10
-613.6571016822563
 20
-365.8200000000022
 30
0.0
 11
-613.5971016822564
 21
-365.8200000000022
 31
0.0
 12
-613.6271016822564
 22
-366.0000000000022
 32
0.0
 13
-613.6271016822564
 23
-366.0000000000022
 33
0.0
  0
TEXT
  5
90A208E
  8
SIZE
  6
CONTINUOUS
 62
     0
 10
-628.6271016822564
 20
-328.0000000000022
 30
0.0
 40
60.0
  1
376.0000
 50
90.0
 41
0.7
  7
STANDARD1
  0
POINT
  5
90A208F
  8
DEFPOINTS
 62
     0
 10
-234.5
 20
9.999999999997726
 30
0.0
  0
POINT
  5
90A2090
  8
DEFPOINTS
 62
     0
 10
-47.49580596463181
 20
-366.0000000000023
 30
0.0
  0
POINT
  5
90A2091
  8
DEFPOINTS
 62
     0
 10
-613.6271016822564
 20
-366.0000000000022
 30
0.0
  0
ENDBLK
  5
90A1DAC
  8
0
  0
BLOCK
  8
0
  2
*D8
 70
     1
 10
0.0
 20
0.0
 30
0.0
  3
*D8
  1

  0
LINE
  5
90A1DDE
  8
SIZE
 62
     0
 10
-234.5625
 20
9.999999999997726
 30
0.0
 11
-499.8242472160508
 21
9.999999999997783
 31
0.0
  0
LINE
  5
90A1DDF
  8
SIZE
 62
     0
 10
90.44169403536955
 20
-353.0000000000011
 30
0.0
 11
-499.8242472160508
 21
-353.0000000000011
 31
0.0
  0
LINE
  5
90A1DE0
  8
SIZE
 62
     0
 10
-499.6442472160508
 20
9.819999999997783
 30
0.0
 11
-499.6442472160508
 21
-352.8200000000011
 31
0.0
  0
SOLID
  5
90A1DE1
  8
SIZE
 62
     0
 10
-499.6142472160508
 20
9.819999999997783
 30
0.0
 11
-499.6742472160507
 21
9.819999999997783
 31
0.0
 12
-499.6442472160508
 22
9.999999999997783
 32
0.0
 13
-499.6442472160508
 23
9.999999999997783
 33
0.0
  0
SOLID
  5
90A1DE2
  8
SIZE
 62
     0
 10
-499.6742472160507
 20
-352.8200000000011
 30
0.0
 11
-499.6142472160508
 21
-352.8200000000011
 31
0.0
 12
-499.6442472160508
 22
-353.0000000000011
 32
0.0
 13
-499.6442472160508
 23
-353.0000000000011
 33
0.0
  0
TEXT
  5
90A1DE3
  8
SIZE
  6
CONTINUOUS
 62
     0
 10
-514.6442472160509
 20
-321.5000000000016
 30
0.0
 40
60.0
  1
363.0000
 50
90.0
 41
0.7
  7
STANDARD1
  0
POINT
  5
90A1DE4
  8
DEFPOINTS
 62
     0
 10
-234.5
 20
9.999999999997726
 30
0.0
  0
POINT
  5
90A1DE5
  8
DEFPOINTS
 62
     0
 10
90.50419403536955
 20
-353.0000000000011
 30
0.0
  0
POINT
  5
90A1DE6
  8
DEFPOINTS
 62
     0
 10
-499.6442472160508
 20
-353.0000000000011
 30
0.0
  0
ENDBLK
  5
90A1DB8
  8
0
  0
BLOCK
  8
0
  2
*U9
 70
     1
 10
0.0
 20
0.0
 30
0.0
  3
*U9
  1

  0
TEXT
  5
90A2255
  8
SIZE
 62
     0
 10
650.2880084355583
 20
1367.602619868844
 30
0.0
 40
64.0
  1
291
 41
0.9
  0
ENDBLK
  5
90A2257
  8
0
  0
BLOCK
  8
0
  2
*U10
 70
     1
 10
0.0
 20
0.0
 30
0.0
  3
*U10
  1

  0
TEXT
  5
90A2259
  8
SIZE
 62
     0
 10
232.3586870020672
 20
2102.695061089212
 30
0.0
 40
64.0
  1
363
 50
90.0
 41
0.9
  0
ENDBLK
  5
90A225B
  8
0
  0
BLOCK
  8
0
  2
*U11
 70
     1
 10
0.0
 20
0.0
 30
0.0
  3
*U11
  1

  0
TEXT
  5
90A225D
  8
SIZE
 62
     0
 10
389.3594370069861
 20
1633.655723255641
 30
0.0
 40
64.0
  1
153
 41
0.9
  0
ENDBLK
  5
90A225F
  8
0
  0
BLOCK
  8
0
  2
*U12
 70
     1
 10
0.0
 20
0.0
 30
0.0
  3
*U12
  1

  0
TEXT
  5
90A2261
  8
SIZE
 62
     0
 10
118.3758325358616
 20
2097.56648966064
 30
0.0
 40
64.0
  1
376
 50
90.0
 41
0.9
  0
ENDBLK
  5
90A2263
  8
0
  0
ENDSEC
  0
SECTION
  2
ENTITIES
  0
TEXT
  5
90A1C22
  8
NOTE
  6
CONTINUOUS
 62
     4
 10
-840.7430514576668
 20
-561.1972238690203
 30
0.0
 40
64.0
  1
RG %%C22.22
 50
359.9999969216753
 41
0.7
  7
STANDARD1
  0
LINE
  5
90A1C23
  8
NOTE
  6
CONTINUOUS
 62
     4
 10
-890.6699469118098
 20
185.9117052917836
 30
0.0
 11
-324.6355615832901
 21
185.9117052917836
 31
0.0
  0
LINE
  5
90A1C24
  8
NOTE
  6
CONTINUOUS
 62
     4
 10
-224.6009747729042
 20
19.40283258630689
 30
0.0
 11
-214.4999999999987
 21
9.999999999997726
 31
0.0
  0
LINE
  5
90A1C25
  8
NOTE
  6
CONTINUOUS
 62
     4
 10
-214.4999999999987
 20
9.999999999997726
 30
0.0
 11
-218.5462845230186
 21
23.19357925536997
 31
0.0
  0
LINE
  5
90A1C26
  8
NOTE
  6
CONTINUOUS
 62
     4
 10
-214.4999999999987
 20
9.999999999997726
 30
0.0
 11
-324.6355615832901
 21
185.9117052917836
 31
0.0
  0
TEXT
  5
90A1C27
  8
NOTE
  6
CONTINUOUS
 62
     4
 10
-876.4683291994966
 20
201.1654928857679
 30
0.0
 40
64.0
  1
AH 2-切欠き(M10)
 50
359.9999969216753
 41
0.7
  7
STANDARD1
  0
LINE
  5
90A1C28
  8
NOTE
  6
CONTINUOUS
 62
     4
 10
905.6722334869116
 20
221.2605420613259
 30
0.0
 11
346.7669142552015
 21
221.2605420613259
 31
0.0
  0
LINE
  5
90A1C29
  8
NOTE
  6
CONTINUOUS
 62
     4
 10
224.6009747729039
 20
19.40283258630689
 30
0.0
 11
214.5000000000014
 21
9.999999999997726
 31
0.0
  0
LINE
  5
90A1C2A
  8
NOTE
  6
CONTINUOUS
 62
     4
 10
214.5000000000014
 20
9.999999999997726
 30
0.0
 11
218.5462845230199
 21
23.19357925536997
 31
0.0
  0
LINE
  5
90A1C2B
  8
NOTE
  6
CONTINUOUS
 62
     4
 10
214.5000000000014
 20
9.999999999997726
 30
0.0
 11
346.7669142552015
 21
221.2605420613259
 31
0.0
  0
TEXT
  5
90A1C2C
  8
NOTE
  6
CONTINUOUS
 62
     4
 10
356.7960394205415
 20
241.164538466342
 30
0.0
 40
64.0
  1
AH 2-%%C12(M10)
 50
359.9999969216753
 41
0.7
  7
STANDARD1
  0
LINE
  5
90A1C2D
  8
DETAIL
  6
CONTINUOUS
 62
     5
 10
-234.5
 20
-380.0000000000032
 30
0.0
 11
-231.8000000000004
 21
-380.9000000000021
 31
0.0
  0
LINE
  5
90A1C2E
  8
DETAIL
  6
CONTINUOUS
 62
     5
 10
-244.5000000000002
 20
-380.0000000000032
 30
0.0
 11
-244.5000000000002
 21
-404.0000000000023
 31
0.0
  0
LINE
  5
90A1C2F
  8
DETAIL
  6
CONTINUOUS
 62
     5
 10
-234.5
 20
-380.0000000000032
 30
0.0
 11
-234.5
 21
-404.0000000000023
 31
0.0
  0
LINE
  5
90A1C30
  8
DETAIL
  6
CONTINUOUS
 62
     5
 10
-231.8000000000004
 20
-380.9000000000021
 30
0.0
 11
-231.8000000000004
 21
-403.1000000000022
 31
0.0
  0
LINE
  5
90A1C31
  8
DETAIL
  6
CONTINUOUS
 62
     5
 10
-185.4999999999986
 20
-351.1246446127602
 30
0.0
 11
-185.4999999999986
 21
-23.32918067705123
 31
0.0
  0
LINE
  5
90A1C32
  8
DETAIL
  6
CONTINUOUS
 62
     5
 10
-185.0000000000003
 20
-411.8634967569881
 30
0.0
 11
-185.0000000000003
 21
-453.0000368679332
 31
0.0
  0
LINE
  5
90A1C33
  8
DETAIL
  6
CONTINUOUS
 62
     5
 10
244.5384040964348
 20
-64.0410090249643
 30
0.0
 11
262.9999999999997
 21
-64.0410090249643
 31
0.0
  0
LINE
  5
90A1C34
  8
DETAIL
  6
CONTINUOUS
 62
     5
 10
-234.5
 20
-404.0000000000023
 30
0.0
 11
-231.8000000000004
 21
-403.1000000000022
 31
0.0
  0
LINE
  5
90A1C35
  8
DETAIL
  6
CONTINUOUS
 62
     5
 10
184.4999999999998
 20
-411.8634967569881
 30
0.0
 11
184.4999999999998
 21
3.996159590356001
 31
0.0
  0
LINE
  5
90A1C36
  8
DETAIL
  6
CONTINUOUS
 62
     5
 10
188.9999999999998
 20
-411.8634967569881
 30
0.0
 11
188.9999999999998
 21
-453.0000368679332
 31
0.0
  0
LINE
  5
90A1C37
  8
DETAIL
  6
CONTINUOUS
 62
     5
 10
-244.5000000000002
 20
-380.0000000000032
 30
0.0
 11
-234.5
 21
-380.0000000000032
 31
0.0
  0
LINE
  5
90A1C38
  8
DETAIL
  6
CONTINUOUS
 62
     5
 10
262.9999999999997
 20
-321.2055065713691
 30
0.0
 11
262.9999999999997
 21
-64.0410090249643
 31
0.0
  0
LINE
  5
90A1C39
  8
DETAIL
  6
CONTINUOUS
 62
     5
 10
-244.5000000000002
 20
-404.0000000000023
 30
0.0
 11
-234.5
 21
-404.0000000000023
 31
0.0
  0
LINE
  5
90A1C3A
  8
DETAIL
  6
CONTINUOUS
 62
     5
 10
-185.0000000000003
 20
-411.8634967569881
 30
0.0
 11
188.9999999999998
 21
-411.8634967569881
 31
0.0
  0
LINE
  5
90A1C3B
  8
DETAIL
  6
CONTINUOUS
 62
     5
 10
188.9999999999998
 20
-453.0000368679332
 30
0.0
 11
-185.0000000000003
 21
-453.0000368679332
 31
0.0
  0
LINE
  5
90A1C3C
  8
DETAIL
  6
CONTINUOUS
 62
     5
 10
91.52851369035034
 20
-456.8695320247512
 30
0.0
 11
19.36238532110247
 21
-464.4460238129623
 31
0.0
  0
LINE
  5
90A1C3D
  8
DETAIL
  6
CONTINUOUS
 62
     5
 10
127.7562604224468
 20
-453.0000368679332
 30
0.0
 11
91.52851369035034
 21
-456.8695320247512
 31
0.0
  0
LINE
  5
90A1C3E
  8
DETAIL
  6
CONTINUOUS
 62
     5
 10
-86.82551204039521
 20
-456.8695320247512
 30
0.0
 11
-123.0532521015571
 21
-453.0000368679332
 31
0.0
  0
LINE
  5
90A1C3F
  8
DETAIL
  6
CONTINUOUS
 62
     5
 10
-15.38215728747093
 20
-464.4460225069722
 30
0.0
 11
-86.82551204039521
 21
-456.8695320247512
 31
0.0
  0
ARC
  5
90A1C40
  8
DETAIL
  6
CONTINUOUS
 62
     5
 10
-190.5038404096432
 20
3.996159590354637
 30
0.0
 40
3.001920204821846
 50
0.0
 51
90.0
  0
ARC
  5
90A1C41
  8
DETAIL
  6
CONTINUOUS
 62
     5
 10
-190.5038404096432
 20
3.996159590354637
 30
0.0
 40
6.003840409643695
 50
0.0
 51
90.0
  0
ARC
  5
90A1C42
  8
DETAIL
  6
CONTINUOUS
 62
     5
 10
190.5038404096429
 20
3.996159590354637
 30
0.0
 40
3.001920204821846
 50
90.0
 51
180.0
  0
ARC
  5
90A1C43
  8
DETAIL
  6
CONTINUOUS
 62
     5
 10
190.5038404096429
 20
3.996159590354637
 30
0.0
 40
6.003840409643695
 50
90.0
 51
180.0
  0
LINE
  5
90A1C44
  8
DETAIL
  6
CONTINUOUS
 62
     5
 10
-234.5
 20
7.0
 30
0.0
 11
-234.5
 21
9.999999999997726
 31
0.0
  0
LINE
  5
90A1C45
  8
DETAIL
  6
CONTINUOUS
 62
     5
 10
-187.5019202048203
 20
-55.04160443780802
 30
0.0
 11
-187.5019202048203
 21
3.996159590354637
 31
0.0
  0
LINE
  5
90A1C46
  8
DETAIL
  6
CONTINUOUS
 62
     5
 10
-190.5038404096432
 20
9.999999999997726
 30
0.0
 11
-234.5
 21
9.999999999997726
 31
0.0
  0
LINE
  5
90A1C47
  8
DETAIL
  6
CONTINUOUS
 62
     5
 10
234.4999999999998
 20
9.999999999997726
 30
0.0
 11
190.5038404096429
 21
9.999999999997726
 31
0.0
  0
LINE
  5
90A1C48
  8
DETAIL
  6
CONTINUOUS
 62
     5
 10
-190.5038404096432
 20
7.0
 30
0.0
 11
-234.5
 21
7.0
 31
0.0
  0
LINE
  5
90A1C49
  8
DETAIL
  6
CONTINUOUS
 62
     5
 10
234.4999999999998
 20
7.0
 30
0.0
 11
190.5038404096429
 21
7.0
 31
0.0
  0
LINE
  5
90A1C4A
  8
DETAIL
  6
CONTINUOUS
 62
     5
 10
184.4999999999998
 20
-55.04160443780802
 30
0.0
 11
187.5019202048222
 21
-55.04160443780802
 31
0.0
  0
LINE
  5
90A1C4B
  8
DETAIL
  6
CONTINUOUS
 62
     5
 10
-187.5019202048203
 20
-55.04160443780802
 30
0.0
 11
-185.500640068273
 21
-55.04160443780802
 31
0.0
  0
LINE
  5
90A1C4C
  8
DETAIL
  6
CONTINUOUS
 62
     5
 10
-15.00000000000023
 20
-464.4460225069722
 30
0.0
 11
-15.00000000000023
 21
-503.0000000000023
 31
0.0
  0
LINE
  5
90A1C4D
  8
DETAIL
  6
CONTINUOUS
 62
     5
 10
19.00000000000216
 20
-464.4460238129623
 30
0.0
 11
19.00000000000216
 21
-503.0000000000023
 31
0.0
  0
LINE
  5
90A1C4E
  8
DETAIL
  6
CONTINUOUS
 62
     5
 10
187.5019202048222
 20
-55.04160443780802
 30
0.0
 11
187.5019202048222
 21
3.996159590354637
 31
0.0
  0
LINE
  5
90A1C4F
  8
DETAIL
  6
CONTINUOUS
 62
     5
 10
234.4999999999998
 20
9.999999999997726
 30
0.0
 11
234.4999999999998
 21
7.0
 31
0.0
  0
LINE
  5
90A1C50
  8
DETAIL
  6
CONTINUOUS
 62
     5
 10
-231.8000000000004
 20
-380.9000000000021
 30
0.0
 11
-184.5
 21
-380.8980437796181
 31
0.0
  0
LINE
  5
90A1C51
  8
DETAIL
  6
CONTINUOUS
 62
     5
 10
-231.8000000000004
 20
-403.1000000000022
 30
0.0
 11
-184.5
 21
-403.0980437814533
 31
0.0
  0
LINE
  5
90A1C52
  8
DETAIL
  6
CONTINUOUS
 62
     5
 10
-15.00000000000023
 20
-503.0000000000023
 30
0.0
 11
19.00000000000216
 21
-503.0000000000023
 31
0.0
  0
LINE
  5
90A1C53
  8
DETAIL
  6
CONTINUOUS
 62
     5
 10
-184.4999999999986
 20
-411.8634967569881
 30
0.0
 11
-184.4999999999986
 21
3.996159590354637
 31
0.0
  0
LINE
  5
90A1C54
  8
DETAIL
  6
CONTINUOUS
 62
     5
 10
-184.5
 20
0.0
 30
0.0
 11
184.4999999999998
 21
0.0
 31
0.0
  0
LINE
  5
90A1C55
  8
DETAIL
  6
CONTINUOUS
 62
     5
 10
-184.4999999999986
 20
-23.32918067705123
 30
0.0
 11
-185.4999999999986
 21
-23.32918067705123
 31
0.0
  0
LINE
  5
90A1C56
  8
DETAIL
  6
CONTINUOUS
 62
     5
 10
244.5384040964348
 20
-321.2055065713691
 30
0.0
 11
262.9999999999997
 21
-321.2055065713691
 31
0.0
  0
LINE
  5
90A1C57
  8
DETAIL
  6
CONTINUOUS
 62
     5
 10
-185.4999999999986
 20
-351.1246446127602
 30
0.0
 11
-184.5
 21
-351.1246446127602
 31
0.0
  0
LINE
  5
90A1C58
  8
DETAIL
  6
CONTINUOUS
 62
     5
 10
19.36238532110247
 20
-464.4460238129623
 30
0.0
 11
-15.38215728747093
 21
-464.4460225069722
 31
0.0
  0
LINE
  5
90A1C59
  8
SIZE
  6
CONTINUOUS
 62
    30
 10
-254.5
 20
9.999999999997726
 30
0.0
 11
-755.206211213068
 21
9.999999999997726
 31
0.0
  0
LINE
  5
90A1C5A
  8
SIZE
  6
CONTINUOUS
 62
    30
 10
-279.4638146339209
 20
-392.0498238603252
 30
0.0
 11
-755.206211213068
 21
-392.0498238603252
 31
0.0
  0
LINE
  5
90A1C5B
  8
SIZE
  6
CONTINUOUS
 62
    30
 10
-735.2062112130666
 20
9.999999999997726
 30
0.0
 11
-735.2062112130666
 21
-392.0498238603252
 31
0.0
  0
CIRCLE
  5
90A1C5C
  8
SIZE
  6
CONTINUOUS
 62
    30
 10
-735.2062112130666
 20
9.999999999997726
 30
0.0
 40
7.5
  0
CIRCLE
  5
90A1C5D
  8
SIZE
  6
CONTINUOUS
 62
    30
 10
-735.2062112130666
 20
-392.0498238603252
 30
0.0
 40
7.5
  0
TEXT
  5
90A1C5E
  8
SIZE
  6
CONTINUOUS
 62
    30
 10
-758.0323916844877
 20
-271.9817119301629
 30
0.0
 40
64.0
  1
402
 50
90.0
 41
0.9
 72
     1
 11
-758.0323916844877
 21
-191.0249119301629
 31
0.0
  0
POINT
  5
90A1C5F
  8
DEFPOINTS
  6
CONTINUOUS
 62
     7
 10
-735.2062112130666
 20
-392.0498238603252
 30
0.0
 50
180.0
  0
LINE
  5
90A1C60
  8
SIZE
  6
CONTINUOUS
 62
    30
 10
254.4999999999997
 20
9.999999999997726
 30
0.0
 11
498.6856508918227
 21
9.999999999997726
 31
0.0
  0
LINE
  5
90A1C61
  8
SIZE
  6
CONTINUOUS
 62
    30
 10
203.2672285043749
 20
-0.0000446554313385
 30
0.0
 11
498.6856508918227
 21
-0.0000446554313385
 31
0.0
  0
LINE
  5
90A1C62
  8
SIZE
  6
CONTINUOUS
 62
    30
 10
478.6856508918215
 20
9.999999999997726
 30
0.0
 11
478.6856508918215
 21
187.1428571428569
 31
0.0
  0
LINE
  5
90A1C63
  8
SIZE
  6
CONTINUOUS
 62
    30
 10
478.6856508918215
 20
-0.0000446554313385
 30
0.0
 11
478.6856508918215
 21
9.999999999997726
 31
0.0
  0
CIRCLE
  5
90A1C64
  8
SIZE
  6
CONTINUOUS
 62
    30
 10
478.6856508918215
 20
-0.0000446554313385
 30
0.0
 40
7.5
  0
CIRCLE
  5
90A1C65
  8
SIZE
  6
CONTINUOUS
 62
    30
 10
478.6856508918215
 20
9.999999999997726
 30
0.0
 40
7.5
  0
TEXT
  5
90A1C66
  8
SIZE
  6
CONTINUOUS
 62
    30
 10
455.8594704204027
 20
80.01462857142889
 30
0.0
 40
64.0
  1
10
 50
90.0
 41
0.9
 72
     1
 11
455.8594704204027
 21
128.5714285714289
 31
0.0
  0
POINT
  5
90A1C67
  8
DEFPOINTS
  6
CONTINUOUS
 62
     7
 10
478.6856508918215
 20
-0.0000446554313385
 30
0.0
 50
180.0
  0
LINE
  5
90A1C68
  8
SIZE
  6
CONTINUOUS
 62
    30
 10
203.2672285043749
 20
-0.0000446554313385
 30
0.0
 11
498.6856508918247
 21
-0.0000446554313385
 31
0.0
  0
LINE
  5
90A1C69
  8
SIZE
  6
CONTINUOUS
 62
    30
 10
209.3387969276722
 20
-453.0000368679332
 30
0.0
 11
498.6856508918247
 21
-453.0000368679332
 31
0.0
  0
LINE
  5
90A1C6A
  8
SIZE
  6
CONTINUOUS
 62
    30
 10
478.6856508918247
 20
-0.0000446554313385
 30
0.0
 11
478.6856508918247
 21
-453.0000368679332
 31
0.0
  0
CIRCLE
  5
90A1C6B
  8
SIZE
  6
CONTINUOUS
 62
    30
 10
478.6856508918247
 20
-0.0000446554313385
 30
0.0
 40
7.5
  0
CIRCLE
  5
90A1C6C
  8
SIZE
  6
CONTINUOUS
 62
    30
 10
478.6856508918247
 20
-453.0000368679332
 30
0.0
 40
7.5
  0
TEXT
  5
90A1C6D
  8
SIZE
  6
CONTINUOUS
 62
    30
 10
455.8594704204036
 20
-307.4568407616812
 30
0.0
 40
64.0
  1
453
 50
90.0
 41
0.9
 72
     1
 11
455.8594704204036
 21
-226.5000407616812
 31
0.0
  0
POINT
  5
90A1C6E
  8
DEFPOINTS
  6
CONTINUOUS
 62
     7
 10
478.6856508918247
 20
-453.0000368679332
 30
0.0
 50
180.0
  0
LINE
  5
90A1C6F
  8
SIZE
  6
CONTINUOUS
 62
    30
 10
234.4999999999998
 20
29.99999999999773
 30
0.0
 11
234.4999999999998
 21
495.1257032323488
 31
0.0
  0
LINE
  5
90A1C70
  8
SIZE
  6
CONTINUOUS
 62
    30
 10
184.4679965863044
 20
23.99615959035464
 30
0.0
 11
184.4679965863044
 21
495.1257032323488
 31
0.0
  0
LINE
  5
90A1C71
  8
SIZE
  6
CONTINUOUS
 62
    30
 10
184.4679965863044
 20
475.125703232347
 30
0.0
 11
234.4999999999998
 21
475.125703232347
 31
0.0
  0
LINE
  5
90A1C72
  8
SIZE
  6
CONTINUOUS
 62
    30
 10
234.4999999999998
 20
475.125703232347
 30
0.0
 11
413.2854658357587
 21
475.125703232347
 31
0.0
  0
CIRCLE
  5
90A1C73
  8
SIZE
  6
CONTINUOUS
 62
    30
 10
184.4679965863044
 20
475.125703232347
 30
0.0
 40
7.5
  0
CIRCLE
  5
90A1C74
  8
SIZE
  6
CONTINUOUS
 62
    30
 10
234.4999999999998
 20
475.125703232347
 30
0.0
 40
7.5
  0
TEXT
  5
90A1C75
  8
SIZE
  6
CONTINUOUS
 62
    30
 10
295.5999801214736
 20
495.1257032323488
 30
0.0
 40
64.0
  1
50
 41
0.9
 72
     1
 11
349.5711801214736
 21
495.1257032323488
 31
0.0
  0
POINT
  5
90A1C76
  8
DEFPOINTS
  6
CONTINUOUS
 62
     7
 10
184.4999999999998
 20
3.996159590354637
 30
0.0
 50
180.0
  0
POINT
  5
90A1C77
  8
DEFPOINTS
  6
CONTINUOUS
 62
     7
 10
184.4679965863044
 20
475.125703232347
 30
0.0
 50
180.0
  0
LINE
  5
90A1C78
  8
SIZE
  6
CONTINUOUS
 62
    30
 10
-234.5
 20
29.99999999999773
 30
0.0
 11
-234.5
 21
495.1257032323488
 31
0.0
  0
LINE
  5
90A1C79
  8
SIZE
  6
CONTINUOUS
 62
    30
 10
-184.4679965863021
 20
23.99615959035464
 30
0.0
 11
-184.4679965863021
 21
495.1257032323488
 31
0.0
  0
LINE
  5
90A1C7A
  8
SIZE
  6
CONTINUOUS
 62
    30
 10
-184.4679965863021
 20
475.125703232347
 30
0.0
 11
-234.5
 21
475.125703232347
 31
0.0
  0
LINE
  5
90A1C7B
  8
SIZE
  6
CONTINUOUS
 62
    30
 10
-234.5
 20
475.125703232347
 30
0.0
 11
-391.9285714285706
 21
475.125703232347
 31
0.0
  0
CIRCLE
  5
90A1C7C
  8
SIZE
  6
CONTINUOUS
 62
    30
 10
-184.4679965863021
 20
475.125703232347
 30
0.0
 40
7.5
  0
CIRCLE
  5
90A1C7D
  8
SIZE
  6
CONTINUOUS
 62
    30
 10
-234.5
 20
475.125703232347
 30
0.0
 40
7.5
  0
TEXT
  5
90A1C7E
  8
SIZE
  6
CONTINUOUS
 62
    30
 10
-382.185485714285
 20
495.1257032323488
 30
0.0
 40
64.0
  1
50
 41
0.9
 72
     1
 11
-328.214285714285
 21
495.1257032323488
 31
0.0
  0
POINT
  5
90A1C7F
  8
DEFPOINTS
  6
CONTINUOUS
 62
     7
 10
-184.4679965863021
 20
3.996159590354637
 30
0.0
 50
180.0
  0
POINT
  5
90A1C80
  8
DEFPOINTS
  6
CONTINUOUS
 62
     7
 10
-184.4679965863021
 20
475.125703232347
 30
0.0
 50
180.0
  0
LINE
  5
90A1C81
  8
NOTE
  6
CONTINUOUS
 62
     4
 10
229.4951658963589
 20
9.999999999997726
 30
0.0
 11
199.5048341036418
 21
9.999999999997726
 31
0.0
  0
LINE
  5
90A1C82
  8
NOTE
  6
CONTINUOUS
 62
     4
 10
214.5000000000014
 20
25.19516589635577
 30
0.0
 11
214.5000000000014
 21
-5.195165896358958
 31
0.0
  0
CIRCLE
  5
90A1C83
  8
FIX
  6
CONTINUOUS
 62
    11
 10
214.5000000000014
 20
9.999999999997726
 30
0.0
 40
12.42149793872491
  0
LINE
  5
90A1C84
  8
NOTE
  6
CONTINUOUS
 62
     4
 10
-199.50483410364
 20
9.999999999997726
 30
0.0
 11
-229.4951658963583
 21
9.999999999997726
 31
0.0
  0
LINE
  5
90A1C85
  8
NOTE
  6
CONTINUOUS
 62
     4
 10
-214.4999999999987
 20
25.19516589635577
 30
0.0
 11
-214.4999999999987
 21
-5.195165896358958
 31
0.0
  0
CIRCLE
  5
90A1C86
  8
FIX
  6
CONTINUOUS
 62
    11
 10
-214.4999999999987
 20
9.999999999997726
 30
0.0
 40
12.42149793872491
  0
LINE
  5
90A1C87
  8
SIZE
  6
CONTINUOUS
 62
    30
 10
214.5000000000014
 20
44.99516589635596
 30
0.0
 11
214.5000000000014
 21
364.0273793970259
 31
0.0
  0
LINE
  5
90A1C88
  8
SIZE
  6
CONTINUOUS
 62
    30
 10
-214.4999999999987
 20
44.99516589635596
 30
0.0
 11
-214.4999999999987
 21
364.0273793970259
 31
0.0
  0
LINE
  5
90A1C89
  8
SIZE
  6
CONTINUOUS
 62
    30
 10
214.5000000000014
 20
344.0273793970259
 30
0.0
 11
-214.4999999999987
 21
344.0273793970259
 31
0.0
  0
CIRCLE
  5
90A1C8A
  8
SIZE
  6
CONTINUOUS
 62
    30
 10
214.5000000000014
 20
344.0273793970259
 30
0.0
 40
7.5
  0
CIRCLE
  5
90A1C8B
  8
SIZE
  6
CONTINUOUS
 62
    30
 10
-214.4999999999987
 20
344.0273793970259
 30
0.0
 40
7.5
  0
TEXT
  5
90A1C8C
  8
SIZE
  6
CONTINUOUS
 62
    30
 10
-80.9568
 20
364.0273793970259
 30
0.0
 40
64.0
  1
429
 41
0.9
 72
     1
 11
0.0
 21
364.0273793970259
 31
0.0
  0
POINT
  5
90A1C8D
  8
DEFPOINTS
  6
CONTINUOUS
 62
     7
 10
214.5000000000014
 20
24.99516589635687
 30
0.0
 50
180.0
  0
POINT
  5
90A1C8E
  8
DEFPOINTS
  6
CONTINUOUS
 62
     7
 10
-214.5320034136973
 20
24.99516589635687
 30
0.0
 50
180.0
  0
POINT
  5
90A1C8F
  8
DEFPOINTS
  6
CONTINUOUS
 62
     7
 10
-214.4999999999987
 20
344.0273793970259
 30
0.0
 50
180.0
  0
LINE
  5
90A1C90
  8
SIZE
  6
CONTINUOUS
 62
    30
 10
234.4999999999998
 20
29.99999999999773
 30
0.0
 11
234.4999999999998
 21
615.1166314217398
 31
0.0
  0
LINE
  5
90A1C91
  8
SIZE
  6
CONTINUOUS
 62
    30
 10
-234.5
 20
29.99999999999773
 30
0.0
 11
-234.5
 21
615.1166314217398
 31
0.0
  0
LINE
  5
90A1C92
  8
SIZE
  6
CONTINUOUS
 62
    30
 10
234.4999999999998
 20
595.1166314217398
 30
0.0
 11
-234.5
 21
595.1166314217398
 31
0.0
  0
CIRCLE
  5
90A1C93
  8
SIZE
  6
CONTINUOUS
 62
    30
 10
234.4999999999998
 20
595.1166314217398
 30
0.0
 40
7.5
  0
CIRCLE
  5
90A1C94
  8
SIZE
  6
CONTINUOUS
 62
    30
 10
-234.5
 20
595.1166314217398
 30
0.0
 40
7.5
  0
TEXT
  5
90A1C95
  8
SIZE
  6
CONTINUOUS
 62
    30
 10
-80.9568
 20
615.1166314217398
 30
0.0
 40
64.0
  1
469
 41
0.9
 72
     1
 11
0.0
 21
615.1166314217398
 31
0.0
  0
POINT
  5
90A1C96
  8
DEFPOINTS
  6
CONTINUOUS
 62
     7
 10
-234.5
 20
595.1166314217398
 30
0.0
 50
180.0
  0
LINE
  5
90A1C97
  8
SIZE
  6
CONTINUOUS
 62
    30
 10
189.3387969276743
 20
-473.0000368679332
 30
0.0
 11
189.3387969276743
 21
-1201.458180112347
 31
0.0
  0
LINE
  5
90A1C98
  8
SIZE
  6
CONTINUOUS
 62
    30
 10
-184.6612186067811
 20
-473.0000368679332
 30
0.0
 11
-184.6612186067811
 21
-1201.458180112347
 31
0.0
  0
LINE
  5
90A1C99
  8
SIZE
  6
CONTINUOUS
 62
    30
 10
189.3387969276743
 20
-1181.458180112347
 30
0.0
 11
-184.6612186067811
 21
-1181.458180112347
 31
0.0
  0
CIRCLE
  5
90A1C9A
  8
SIZE
  6
CONTINUOUS
 62
    30
 10
189.3387969276743
 20
-1181.458180112347
 30
0.0
 40
7.5
  0
CIRCLE
  5
90A1C9B
  8
SIZE
  6
CONTINUOUS
 62
    30
 10
-184.6612186067811
 20
-1181.458180112347
 30
0.0
 40
7.5
  0
TEXT
  5
90A1C9C
  8
SIZE
  6
CONTINUOUS
 62
    30
 10
-78.61801083955534
 20
-1161.458180112346
 30
0.0
 40
64.0
  1
374
 41
0.9
 72
     1
 11
2.338789160444662
 21
-1161.458180112346
 31
0.0
  0
POINT
  5
90A1C9D
  8
DEFPOINTS
  6
CONTINUOUS
 62
     7
 10
-184.6612186067811
 20
-1181.458180112347
 30
0.0
 50
180.0
  0
LINE
  5
90A1C9E
  8
SIZE
  6
CONTINUOUS
 62
    30
 10
263.3184339662896
 20
-341.2055065713682
 30
0.0
 11
263.3184339662896
 21
-1201.458180112347
 31
0.0
  0
LINE
  5
90A1C9F
  8
SIZE
  6
CONTINUOUS
 62
    30
 10
189.3387969276743
 20
-473.0000368679332
 30
0.0
 11
189.3387969276743
 21
-1201.458180112347
 31
0.0
  0
LINE
  5
90A1CA0
  8
SIZE
  6
CONTINUOUS
 62
    30
 10
189.3387969276743
 20
-1181.458180112347
 30
0.0
 11
263.3184339662896
 21
-1181.458180112347
 31
0.0
  0
LINE
  5
90A1CA1
  8
SIZE
  6
CONTINUOUS
 62
    30
 10
263.3184339662896
 20
-1181.458180112347
 30
0.0
 11
460.6041482520045
 21
-1181.458180112347
 31
0.0
  0
CIRCLE
  5
90A1CA2
  8
SIZE
  6
CONTINUOUS
 62
    30
 10
189.3387969276743
 20
-1181.458180112347
 30
0.0
 40
7.5
  0
CIRCLE
  5
90A1CA3
  8
SIZE
  6
CONTINUOUS
 62
    30
 10
263.3184339662896
 20
-1181.458180112347
 30
0.0
 40
7.5
  0
TEXT
  5
90A1CA4
  8
SIZE
  6
CONTINUOUS
 62
    30
 10
341.6329482520045
 20
-1161.458180112346
 30
0.0
 40
64.0
  1
74
 41
0.9
 72
     1
 11
395.6041482520045
 21
-1161.458180112346
 31
0.0
  0
POINT
  5
90A1CA5
  8
DEFPOINTS
  6
CONTINUOUS
 62
     7
 10
189.3387969276743
 20
-1181.458180112347
 30
0.0
 50
180.0
  0
LINE
  5
90A1CA6
  8
NOTE
  6
CONTINUOUS
 62
     4
 10
-229.5048341036411
 20
-392.0000000000011
 30
0.0
 11
-259.4951658963588
 21
-392.0000000000011
 31
0.0
  0
LINE
  5
90A1CA7
  8
NOTE
  6
CONTINUOUS
 62
     4
 10
-244.5000000000002
 20
-376.8048341036431
 30
0.0
 11
-244.5000000000002
 21
-407.1951658963601
 31
0.0
  0
LINE
  5
90A1CA8
  8
SIZE
  6
CONTINUOUS
 62
    30
 10
-185.500640068273
 20
-331.1246446127602
 30
0.0
 11
-185.500640068273
 21
-204.313193944728
 31
0.0
  0
POINT
  5
90A1CA9
  8
DEFPOINTS
  6
CONTINUOUS
 62
     7
 10
-185.4686366545748
 20
-351.1246446127602
 30
0.0
 50
180.0
  0
LINE
  5
90A1CAA
  8
SIZE
  6
CONTINUOUS
 62
    30
 10
-185.500640068273
 20
-331.1246446127602
 30
0.0
 11
-185.500640068273
 21
-106.2581464255832
 31
0.0
  0
LINE
  5
90A1CAB
  8
SIZE
  6
CONTINUOUS
 62
    30
 10
-244.5006521512587
 20
-357.0546579639672
 30
0.0
 11
-244.5006521512587
 21
-106.2581464255832
 31
0.0
  0
LINE
  5
90A1CAC
  8
SIZE
  6
CONTINUOUS
 62
    30
 10
-185.500640068273
 20
-126.2581464255813
 30
0.0
 11
-244.5006521512587
 21
-126.2581464255813
 31
0.0
  0
LINE
  5
90A1CAD
  8
SIZE
  6
CONTINUOUS
 62
    30
 10
-244.5006521512587
 20
-126.2581464255813
 30
0.0
 11
-399.3577950084023
 21
-126.2581464255813
 31
0.0
  0
CIRCLE
  5
90A1CAE
  8
SIZE
  6
CONTINUOUS
 62
    30
 10
-185.500640068273
 20
-126.2581464255813
 30
0.0
 40
7.5
  0
CIRCLE
  5
90A1CAF
  8
SIZE
  6
CONTINUOUS
 62
    30
 10
-244.5006521512587
 20
-126.2581464255813
 30
0.0
 40
7.5
  0
TEXT
  5
90A1CB0
  8
SIZE
  6
CONTINUOUS
 62
    30
 10
-390.9004235798313
 20
-106.2581464255832
 30
0.0
 40
64.0
  1
59
 41
0.9
 72
     1
 11
-336.9292235798313
 21
-106.2581464255832
 31
0.0
  0
POINT
  5
90A1CB1
  8
DEFPOINTS
  6
CONTINUOUS
 62
     7
 10
-185.4686366545748
 20
-351.1246446127602
 30
0.0
 50
180.0
  0
POINT
  5
90A1CB2
  8
DEFPOINTS
  6
CONTINUOUS
 62
     7
 10
-244.5006521512587
 20
-126.2581464255813
 30
0.0
 50
180.0
  0
LINE
  5
90A1CB3
  8
BASIS
  6
DASHDOT
 62
     6
 10
0.0
 20
-571.7537147642493
 30
0.0
 11
0.0
 21
80.98214017050168
 31
0.0
  0
LINE
  5
90A1CB4
  8
NOTE
  6
CONTINUOUS
 62
     4
 10
16.99516589636005
 20
-503.0000000000023
 30
0.0
 11
-12.99516589635698
 21
-503.0000000000023
 31
0.0
  0
LINE
  5
90A1CB5
  8
NOTE
  6
CONTINUOUS
 62
     4
 10
2.000000000001364
 20
-487.8048341036431
 30
0.0
 11
2.000000000001364
 21
-518.1951658963601
 31
0.0
  0
CIRCLE
  5
90A1CB6
  8
ARRANGE
  6
CONTINUOUS
 62
     1
 10
0.0
 20
0.0
 30
0.0
 40
50.0
  0
LINE
  5
90A1CB7
  8
ARRANGE
  6
CONTINUOUS
 62
     1
 10
-50.03735003132817
 20
-49.52235315032613
 30
0.0
 11
50.03735003132977
 21
49.52235315032476
 31
0.0
  0
LINE
  5
90A1CB8
  8
ARRANGE
  6
CONTINUOUS
 62
     1
 10
-49.96376331050124
 20
49.59659479798484
 30
0.0
 11
49.96376331050215
 21
-49.59659479798302
 31
0.0
  0
LINE
  5
90A1CB9
  8
SIZE
  6
CONTINUOUS
 62
    30
 10
-214.4999999999987
 20
44.99516589635596
 30
0.0
 11
-214.4999999999987
 21
364.0273793970259
 31
0.0
  0
LINE
  5
90A1CBA
  8
SIZE
  6
CONTINUOUS
 62
    30
 10
-234.5
 20
29.99999999999773
 30
0.0
 11
-234.5
 21
364.0273793970259
 31
0.0
  0
LINE
  5
90A1CBB
  8
SIZE
  6
CONTINUOUS
 62
    30
 10
-214.4999999999987
 20
344.0273793970259
 30
0.0
 11
-184.5
 21
344.0273793970259
 31
0.0
  0
LINE
  5
90A1CBC
  8
SIZE
  6
CONTINUOUS
 62
    30
 10
-234.5
 20
344.0273793970259
 30
0.0
 11
-421.9285714285707
 21
344.0273793970259
 31
0.0
  0
LINE
  5
90A1CBD
  8
SIZE
  6
CONTINUOUS
 62
    30
 10
-214.4999999999987
 20
344.0273793970259
 30
0.0
 11
-234.5
 21
344.0273793970259
 31
0.0
  0
CIRCLE
  5
90A1CBE
  8
SIZE
  6
CONTINUOUS
 62
    30
 10
-214.4999999999987
 20
344.0273793970259
 30
0.0
 40
7.5
  0
CIRCLE
  5
90A1CBF
  8
SIZE
  6
CONTINUOUS
 62
    30
 10
-234.5
 20
344.0273793970259
 30
0.0
 40
7.5
  0
TEXT
  5
90A1CC0
  8
SIZE
  6
CONTINUOUS
 62
    30
 10
-412.185485714284
 20
364.0273793970259
 30
0.0
 40
64.0
  1
20
 41
0.9
 72
     1
 11
-358.214285714284
 21
364.0273793970259
 31
0.0
  0
POINT
  5
90A1CC1
  8
DEFPOINTS
  6
CONTINUOUS
 62
     7
 10
-214.5320034136973
 20
24.99516589635687
 30
0.0
 50
180.0
  0
POINT
  5
90A1CC2
  8
DEFPOINTS
  6
CONTINUOUS
 62
     7
 10
-234.5
 20
344.0273793970259
 30
0.0
 50
180.0
  0
LINE
  5
90A1CC3
  8
SIZE
  6
CONTINUOUS
 62
    30
 10
214.5000000000014
 20
44.99516589635596
 30
0.0
 11
214.5000000000014
 21
364.0273793970259
 31
0.0
  0
LINE
  5
90A1CC4
  8
SIZE
  6
CONTINUOUS
 62
    30
 10
234.4999999999998
 20
29.99999999999773
 30
0.0
 11
234.4999999999998
 21
364.0273793970259
 31
0.0
  0
LINE
  5
90A1CC5
  8
SIZE
  6
CONTINUOUS
 62
    30
 10
214.5000000000014
 20
344.0273793970259
 30
0.0
 11
184.4999999999998
 21
344.0273793970259
 31
0.0
  0
LINE
  5
90A1CC6
  8
SIZE
  6
CONTINUOUS
 62
    30
 10
234.4999999999998
 20
344.0273793970259
 30
0.0
 11
421.9285714285706
 21
344.0273793970259
 31
0.0
  0
LINE
  5
90A1CC7
  8
SIZE
  6
CONTINUOUS
 62
    30
 10
214.5000000000014
 20
344.0273793970259
 30
0.0
 11
234.4999999999998
 21
344.0273793970259
 31
0.0
  0
CIRCLE
  5
90A1CC8
  8
SIZE
  6
CONTINUOUS
 62
    30
 10
214.5000000000014
 20
344.0273793970259
 30
0.0
 40
7.5
  0
CIRCLE
  5
90A1CC9
  8
SIZE
  6
CONTINUOUS
 62
    30
 10
234.4999999999998
 20
344.0273793970259
 30
0.0
 40
7.5
  0
TEXT
  5
90A1CCA
  8
SIZE
  6
CONTINUOUS
 62
    30
 10
304.2430857142855
 20
364.0273793970259
 30
0.0
 40
64.0
  1
20
 41
0.9
 72
     1
 11
358.2142857142856
 21
364.0273793970259
 31
0.0
  0
POINT
  5
90A1CCB
  8
DEFPOINTS
  6
CONTINUOUS
 62
     7
 10
214.5000000000014
 20
24.99516589635687
 30
0.0
 50
180.0
  0
POINT
  5
90A1CCC
  8
DEFPOINTS
  6
CONTINUOUS
 62
     7
 10
234.4999999999998
 20
344.0273793970259
 30
0.0
 50
180.0
  0
LINE
  5
90A1CCD
  8
SIZE
  6
CONTINUOUS
 62
    30
 10
2.351504160444165
 20
-538.3620592372422
 30
0.0
 11
2.351504160444165
 21
-906.1998018507402
 31
0.0
  0
LINE
  5
90A1CCE
  8
SIZE
  6
CONTINUOUS
 62
    30
 10
-184.6612186067811
 20
-473.0000368679332
 30
0.0
 11
-184.6612186067811
 21
-906.1998018507402
 31
0.0
  0
LINE
  5
90A1CCF
  8
SIZE
  6
CONTINUOUS
 62
    30
 10
2.351504160444165
 20
-886.1998018507402
 30
0.0
 11
-184.6612186067811
 21
-886.1998018507402
 31
0.0
  0
CIRCLE
  5
90A1CD0
  8
SIZE
  6
CONTINUOUS
 62
    30
 10
2.351504160444165
 20
-886.1998018507402
 30
0.0
 40
7.5
  0
CIRCLE
  5
90A1CD1
  8
SIZE
  6
CONTINUOUS
 62
    30
 10
-184.6612186067811
 20
-886.1998018507402
 30
0.0
 40
7.5
  0
TEXT
  5
90A1CD2
  8
SIZE
  6
CONTINUOUS
 62
    30
 10
-166.6972572231692
 20
-866.1998018507411
 30
0.0
 40
64.0
  1
187
 41
0.9
 72
     1
 11
-91.15485722316919
 21
-866.1998018507411
 31
0.0
  0
POINT
  5
90A1CD3
  8
DEFPOINTS
  6
CONTINUOUS
 62
     7
 10
-184.6612186067811
 20
-886.1998018507402
 30
0.0
 50
180.0
  0
LINE
  5
90A1CD4
  8
NOTE
  6
CONTINUOUS
 62
     4
 10
506.0353021218646
 20
-663.1451404613142
 30
0.0
 11
296.4523359828027
 21
-663.1451404613142
 31
0.0
  0
LINE
  5
90A1CD5
  8
NOTE
  6
CONTINUOUS
 62
     4
 10
15.49665277377426
 20
-505.8780750360552
 30
0.0
 11
2.000000000001364
 21
-503.0000000000023
 31
0.0
  0
LINE
  5
90A1CD6
  8
NOTE
  6
CONTINUOUS
 62
     4
 10
2.000000000001364
 20
-503.0000000000023
 30
0.0
 11
12.24940669204057
 21
-512.2408124356123
 31
0.0
  0
LINE
  5
90A1CD7
  8
NOTE
  6
CONTINUOUS
 62
     4
 10
2.000000000001364
 20
-503.0000000000023
 30
0.0
 11
296.4523359828027
 21
-663.1451404613142
 31
0.0
  0
TEXT
  5
90A1CD8
  8
NOTE
  6
CONTINUOUS
 62
     4
 10
311.9296904931596
 20
-651.8350806289252
 30
0.0
 40
64.0
  1
D %%C34
 50
359.9999969216753
 41
0.7
  7
STANDARD1
  0
LINE
  5
90A1CD9
  8
OUTLINE
  6
CONTINUOUS
 62
     3
 10
-185.0000000000003
 20
-411.8634967569901
 30
0.0
 11
-185.0000000000003
 21
-453.0000368679341
 31
0.0
  0
LINE
  5
90A1CDA
  8
OUTLINE
  6
CONTINUOUS
 62
     3
 10
184.4999999999983
 20
-411.8634967569901
 30
0.0
 11
184.4999999999998
 21
0.0
 31
0.0
  0
LINE
  5
90A1CDB
  8
OUTLINE
  6
CONTINUOUS
 62
     3
 10
188.9999999999998
 20
-411.8634967569901
 30
0.0
 11
188.9999999999998
 21
-453.0000368679341
 31
0.0
  0
LINE
  5
90A1CDC
  8
OUTLINE
  6
CONTINUOUS
 62
     3
 10
-184.5000000000019
 20
-411.8634967569881
 30
0.0
 11
-184.5
 21
0.0
 31
0.0
  0
LINE
  5
90A1CDD
  8
OUTLINE
  6
CONTINUOUS
 62
     3
 10
-184.5
 20
0.0
 30
0.0
 11
184.4999999999998
 21
0.0
 31
0.0
  0
LINE
  5
90A1CDE
  8
OUTLINE
  6
CONTINUOUS
 62
     3
 10
-185.0000000000003
 20
-411.8634967569901
 30
0.0
 11
188.9999999999998
 21
-411.8634967569901
 31
0.0
  0
LINE
  5
90A1CDF
  8
OUTLINE
  6
CONTINUOUS
 62
     3
 10
188.9999999999998
 20
-453.0000368679341
 30
0.0
 11
-185.0000000000003
 21
-453.0000368679341
 31
0.0
  0
ARC
  5
90A1CE0
  8
DETAIL
  6
CONTINUOUS
 62
     5
 10
194.5064006827373
 20
-27.06735850224095
 30
0.0
 40
10.00640068273948
 50
225.5497689999699
 51
270.0
  0
ARC
  5
90A1CE1
  8
DETAIL
  6
CONTINUOUS
 62
     5
 10
240.0355237892026
 20
-37.27388719863529
 30
0.0
 40
2.50160017068487
 50
0.0
 51
85.0000000000238
  0
ARC
  5
90A1CE2
  8
DETAIL
  6
CONTINUOUS
 62
     5
 10
240.0355237892026
 20
-37.27388719863529
 30
0.0
 40
4.502880307232768
 50
0.0
 51
85.00000000002525
  0
ARC
  5
90A1CE3
  8
DETAIL
  6
CONTINUOUS
 62
     5
 10
186.0009601024084
 20
-348.4729484318341
 30
0.0
 40
1.500960102410919
 50
185.7111579999866
 51
351.5370460000049
  0
ARC
  5
90A1CE4
  8
DETAIL
  6
CONTINUOUS
 62
     5
 10
186.0009601024084
 20
-338.4665477490942
 30
0.0
 40
1.500960102410919
 50
0.0
 51
174.2888420000134
  0
ARC
  5
90A1CE5
  8
DETAIL
  6
CONTINUOUS
 62
     5
 10
194.5064006827373
 20
-389.6993192447212
 30
0.0
 40
10.00640068273948
 50
90.0
 51
180.0
  0
ARC
  5
90A1CE6
  8
DETAIL
  6
CONTINUOUS
 62
     5
 10
240.0355237892026
 20
-379.4927905483262
 30
0.0
 40
2.50160017068487
 50
274.9999999999758
 51
0.0
  0
ARC
  5
90A1CE7
  8
DETAIL
  6
CONTINUOUS
 62
     5
 10
240.0355237892026
 20
-379.4927905483262
 30
0.0
 40
4.502880307232768
 50
274.9999999999748
 51
0.0
  0
ARC
  5
90A1CE8
  8
DETAIL
  6
CONTINUOUS
 62
     5
 10
241.0361638574763
 20
-348.4729484318341
 30
0.0
 40
1.500960102410919
 50
270.0
 51
90.0
  0
LINE
  5
90A1CE9
  8
DETAIL
  6
CONTINUOUS
 62
     5
 10
240.4279748239784
 20
-32.78814452030429
 30
0.0
 11
197.5641832871049
 21
-29.03804573643538
 31
0.0
  0
LINE
  5
90A1CEA
  8
DETAIL
  6
CONTINUOUS
 62
     5
 10
240.2535499182109
 20
-34.78180645046723
 30
0.0
 11
197.3897650522698
 21
-31.03171433753096
 31
0.0
  0
LINE
  5
90A1CEB
  8
DETAIL
  6
CONTINUOUS
 62
     5
 10
191.1889186259849
 20
-345.9137380769512
 30
0.0
 11
191.204108342221
 21
-345.9213162577353
 31
0.0
  0
LINE
  5
90A1CEC
  8
DETAIL
  6
CONTINUOUS
 62
     5
 10
191.4008275087103
 20
-343.9897140246082
 30
0.0
 11
191.4425608704912
 21
-344.0106407439032
 31
0.0
  0
LINE
  5
90A1CED
  8
DETAIL
  6
CONTINUOUS
 62
     5
 10
191.4535612403082
 20
-344.8825651447282
 30
0.0
 11
191.4008275087103
 21
-345.1512370030591
 31
0.0
  0
LINE
  5
90A1CEE
  8
DETAIL
  6
CONTINUOUS
 62
     5
 10
191.486702439369
 20
-344.6496094659001
 30
0.0
 11
191.4535612403082
 21
-344.8825651447282
 31
0.0
  0
LINE
  5
90A1CEF
  8
DETAIL
  6
CONTINUOUS
 62
     5
 10
191.5029461631439
 20
-344.4620961880391
 30
0.0
 11
191.486702439369
 21
-344.6496094659001
 31
0.0
  0
LINE
  5
90A1CF0
  8
DETAIL
  6
CONTINUOUS
 62
     5
 10
191.5065217836553
 20
-344.3085112794281
 30
0.0
 11
191.5029461631439
 21
-344.4620961880391
 31
0.0
  0
LINE
  5
90A1CF1
  8
DETAIL
  6
CONTINUOUS
 62
     5
 10
191.4980763814781
 20
-344.1756929876981
 30
0.0
 11
191.5065217836553
 21
-344.3085112794281
 31
0.0
  0
LINE
  5
90A1CF2
  8
DETAIL
  6
CONTINUOUS
 62
     5
 10
191.4764825688062
 20
-344.0734142308531
 30
0.0
 11
191.4980763814781
 21
-344.1756929876981
 31
0.0
  0
LINE
  5
90A1CF3
  8
DETAIL
  6
CONTINUOUS
 62
     5
 10
191.4425608704912
 20
-344.0106407439032
 30
0.0
 11
191.4764825688062
 21
-344.0734142308531
 31
0.0
  0
LINE
  5
90A1CF4
  8
DETAIL
  6
CONTINUOUS
 62
     5
 10
191.2490771068889
 20
-341.2138317402762
 30
0.0
 11
191.1889186259849
 21
-341.0257647749102
 31
0.0
  0
LINE
  5
90A1CF5
  8
DETAIL
  6
CONTINUOUS
 62
     5
 10
191.3046193016122
 20
-341.4041601521951
 30
0.0
 11
191.2490771068889
 21
-341.2138317402762
 31
0.0
  0
LINE
  5
90A1CF6
  8
DETAIL
  6
CONTINUOUS
 62
     5
 10
191.3552717018682
 20
-341.5959161439462
 30
0.0
 11
191.3046193016122
 21
-341.4041601521951
 31
0.0
  0
LINE
  5
90A1CF7
  8
DETAIL
  6
CONTINUOUS
 62
     5
 10
191.4008275087103
 20
-341.7882658488022
 30
0.0
 11
191.3552717018682
 21
-341.5959161439462
 31
0.0
  0
LINE
  5
90A1CF8
  8
DETAIL
  6
CONTINUOUS
 62
     5
 10
191.4008275087103
 20
-341.7882658488022
 30
0.0
 11
191.4535078728362
 21
-342.0566842116502
 31
0.0
  0
LINE
  5
90A1CF9
  8
DETAIL
  6
CONTINUOUS
 62
     5
 10
191.4765692909459
 20
-342.8658351255262
 30
0.0
 11
191.4425675414238
 21
-342.9288554370253
 31
0.0
  0
LINE
  5
90A1CFA
  8
DETAIL
  6
CONTINUOUS
 62
     5
 10
191.4981631036169
 20
-342.7631027451832
 30
0.0
 11
191.4765692909459
 21
-342.8658351255262
 31
0.0
  0
LINE
  5
90A1CFB
  8
DETAIL
  6
CONTINUOUS
 62
     5
 10
191.5065351255219
 20
-342.6299375648962
 30
0.0
 11
191.4981631036169
 21
-342.7631027451832
 31
0.0
  0
LINE
  5
90A1CFC
  8
DETAIL
  6
CONTINUOUS
 62
     5
 10
191.5028861247403
 20
-342.4763993528211
 30
0.0
 11
191.5065351255219
 21
-342.6299375648962
 31
0.0
  0
LINE
  5
90A1CFD
  8
DETAIL
  6
CONTINUOUS
 62
     5
 10
191.486609046297
 20
-342.2890261645703
 30
0.0
 11
191.5028861247403
 21
-342.4763993528211
 31
0.0
  0
LINE
  5
90A1CFE
  8
DETAIL
  6
CONTINUOUS
 62
     5
 10
191.4535078728362
 20
-342.0566842116502
 30
0.0
 11
191.486609046297
 21
-342.2890261645703
 31
0.0
  0
LINE
  5
90A1CFF
  8
DETAIL
  6
CONTINUOUS
 62
     5
 10
197.5641832871049
 20
-387.7286320105272
 30
0.0
 11
197.3897650522698
 21
-385.7349700803652
 31
0.0
  0
LINE
  5
90A1D00
  8
DETAIL
  6
CONTINUOUS
 62
     5
 10
191.202420595973
 20
-343.2997393428652
 30
0.0
 11
191.2041150131563
 21
-343.4697480904642
 31
0.0
  0
LINE
  5
90A1D01
  8
DETAIL
  6
CONTINUOUS
 62
     5
 10
191.1973440153613
 20
-343.1300508000861
 30
0.0
 11
191.202420595973
 21
-343.2997393428652
 31
0.0
  0
LINE
  5
90A1D02
  8
DETAIL
  6
CONTINUOUS
 62
     5
 10
191.1889186259849
 20
-342.9608959320121
 30
0.0
 11
191.1973440153613
 21
-343.1300508000861
 31
0.0
  0
LINE
  5
90A1D03
  8
DETAIL
  6
CONTINUOUS
 62
     5
 10
191.4008275087103
 20
-343.9897140246082
 30
0.0
 11
191.1889186259849
 21
-343.9786069198501
 31
0.0
  0
LINE
  5
90A1D04
  8
DETAIL
  6
CONTINUOUS
 62
     5
 10
194.5064006827373
 20
-349.9739085342451
 30
0.0
 11
194.5064006827373
 21
-379.6929185619811
 31
0.0
  0
LINE
  5
90A1D05
  8
DETAIL
  6
CONTINUOUS
 62
     5
 10
194.5064006827373
 20
-69.7946894175384
 30
0.0
 11
194.5064006827373
 21
-206.8823787710703
 31
0.0
  0
LINE
  5
90A1D06
  8
DETAIL
  6
CONTINUOUS
 62
     5
 10
194.5064006827373
 20
-37.07375918498019
 30
0.0
 11
194.5064006827373
 21
-66.7927692127164
 31
0.0
  0
LINE
  5
90A1D07
  8
DETAIL
  6
CONTINUOUS
 62
     5
 10
191.1973440153613
 20
-343.8094720645761
 30
0.0
 11
191.1889186259849
 21
-343.9786069198501
 31
0.0
  0
LINE
  5
90A1D08
  8
DETAIL
  6
CONTINUOUS
 62
     5
 10
191.202420595973
 20
-343.6397768508662
 30
0.0
 11
191.1973440153613
 21
-343.8094720645761
 31
0.0
  0
LINE
  5
90A1D09
  8
DETAIL
  6
CONTINUOUS
 62
     5
 10
191.2041150131563
 20
-343.4697480904642
 30
0.0
 11
191.202420595973
 21
-343.6397768508662
 31
0.0
  0
LINE
  5
90A1D0A
  8
DETAIL
  6
CONTINUOUS
 62
     5
 10
197.5641832871049
 20
-29.03804573643538
 30
0.0
 11
197.3897650522698
 21
-31.03171433753096
 31
0.0
  0
LINE
  5
90A1D0B
  8
DETAIL
  6
CONTINUOUS
 62
     5
 10
191.3553450821402
 20
-345.3432931868301
 30
0.0
 11
191.4008275087103
 21
-345.1512370030591
 31
0.0
  0
LINE
  5
90A1D0C
  8
DETAIL
  6
CONTINUOUS
 62
     5
 10
191.304645985346
 20
-345.5352559775281
 30
0.0
 11
191.3553450821402
 21
-345.3432931868301
 31
0.0
  0
LINE
  5
90A1D0D
  8
DETAIL
  6
CONTINUOUS
 62
     5
 10
191.4008275087103
 20
-342.9497888272531
 30
0.0
 11
191.1889186259849
 21
-342.9608959320121
 31
0.0
  0
LINE
  5
90A1D0E
  8
DETAIL
  6
CONTINUOUS
 62
     5
 10
241.0361638574763
 20
-346.9719883294222
 30
0.0
 11
237.0336035843792
 21
-346.9719883294222
 31
0.0
  0
LINE
  5
90A1D0F
  8
DETAIL
  6
CONTINUOUS
 62
     5
 10
225.0259227650938
 20
-346.9719883294222
 30
0.0
 11
235.0323234478319
 21
-346.9719883294222
 31
0.0
  0
LINE
  5
90A1D10
  8
DETAIL
  6
CONTINUOUS
 62
     5
 10
213.0182419458058
 20
-346.9719883294222
 30
0.0
 11
223.0246426285449
 21
-346.9719883294222
 31
0.0
  0
LINE
  5
90A1D11
  8
DETAIL
  6
CONTINUOUS
 62
     5
 10
201.0105611265172
 20
-346.9719883294222
 30
0.0
 11
211.0169618092571
 21
-346.9719883294222
 31
0.0
  0
LINE
  5
90A1D12
  8
DETAIL
  6
CONTINUOUS
 62
     5
 10
190.7087114572189
 20
-346.9719883294222
 30
0.0
 11
199.0092809899688
 21
-346.9719883294222
 31
0.0
  0
LINE
  5
90A1D13
  8
DETAIL
  6
CONTINUOUS
 62
     5
 10
199.0092809899688
 20
-349.9739085342451
 30
0.0
 11
186.0009601024084
 21
-349.9739085342451
 31
0.0
  0
LINE
  5
90A1D14
  8
DETAIL
  6
CONTINUOUS
 62
     5
 10
241.0361638574763
 20
-349.9739085342451
 30
0.0
 11
237.0336035843792
 21
-349.9739085342451
 31
0.0
  0
LINE
  5
90A1D15
  8
DETAIL
  6
CONTINUOUS
 62
     5
 10
225.0259227650938
 20
-349.9739085342451
 30
0.0
 11
235.0323234478319
 21
-349.9739085342451
 31
0.0
  0
LINE
  5
90A1D16
  8
DETAIL
  6
CONTINUOUS
 62
     5
 10
213.0182419458058
 20
-349.9739085342451
 30
0.0
 11
223.0246426285449
 21
-349.9739085342451
 31
0.0
  0
LINE
  5
90A1D17
  8
DETAIL
  6
CONTINUOUS
 62
     5
 10
201.0105611265172
 20
-349.9739085342451
 30
0.0
 11
211.0169618092571
 21
-349.9739085342451
 31
0.0
  0
LINE
  5
90A1D18
  8
DETAIL
  6
CONTINUOUS
 62
     5
 10
191.2490570940893
 20
-345.7257378209231
 30
0.0
 11
191.304645985346
 21
-345.5352559775281
 31
0.0
  0
LINE
  5
90A1D19
  8
DETAIL
  6
CONTINUOUS
 62
     5
 10
191.1889186259849
 20
-345.9137380769512
 30
0.0
 11
191.2490570940893
 21
-345.7257378209231
 31
0.0
  0
LINE
  5
90A1D1A
  8
DETAIL
  6
CONTINUOUS
 62
     5
 10
197.3897650522698
 20
-385.7349700803652
 30
0.0
 11
240.2535499182109
 21
-381.9848712964952
 31
0.0
  0
LINE
  5
90A1D1B
  8
DETAIL
  6
CONTINUOUS
 62
     5
 10
242.5371239598869
 20
-379.4927905483262
 30
0.0
 11
242.5371239598859
 21
-37.27388719863529
 31
0.0
  0
LINE
  5
90A1D1C
  8
DETAIL
  6
CONTINUOUS
 62
     5
 10
244.5384040964348
 20
-379.4927905483262
 30
0.0
 11
244.5384040964348
 21
-37.27388719863529
 31
0.0
  0
LINE
  5
90A1D1D
  8
DETAIL
  6
CONTINUOUS
 62
     5
 10
191.4425541995569
 20
-342.9288621079593
 30
0.0
 11
191.4008275087103
 21
-342.9497888272531
 31
0.0
  0
LINE
  5
90A1D1E
  8
DETAIL
  6
CONTINUOUS
 62
     5
 10
191.204108342221
 20
-341.0181865941261
 30
0.0
 11
191.1889186259849
 21
-341.0257647749102
 31
0.0
  0
LINE
  5
90A1D1F
  8
DETAIL
  6
CONTINUOUS
 62
     5
 10
197.5641832871049
 20
-387.7286320105272
 30
0.0
 11
240.4279748239784
 21
-383.9785398975912
 31
0.0
  0
ARC
  5
90A1D20
  8
DETAIL
  6
CONTINUOUS
 62
     5
 10
183.8996159590341
 20
-343.4697480904642
 30
0.0
 40
7.704928525709407
 50
18.5925650000139
 51
50.01687899993532
  0
ARC
  5
90A1D21
  8
DETAIL
  6
CONTINUOUS
 62
     5
 10
183.8996159590341
 20
-343.4697480904642
 30
0.0
 40
7.704928525709407
 50
309.9831210000647
 51
341.4074349999861
  0
LINE
  5
90A1D22
  8
DETAIL
  6
CONTINUOUS
 62
     5
 10
235.0323234478319
 20
-35.77292709622498
 30
0.0
 11
237.0336035843792
 21
-35.77292709622498
 31
0.0
  0
LINE
  5
90A1D23
  8
DETAIL
  6
CONTINUOUS
 62
     5
 10
223.0246426285449
 20
-35.77292709622498
 30
0.0
 11
225.0259227650938
 21
-35.77292709622498
 31
0.0
  0
LINE
  5
90A1D24
  8
DETAIL
  6
CONTINUOUS
 62
     5
 10
211.0169618092571
 20
-35.77292709622498
 30
0.0
 11
213.0182419458058
 21
-35.77292709622498
 31
0.0
  0
LINE
  5
90A1D25
  8
DETAIL
  6
CONTINUOUS
 62
     5
 10
199.0092809899688
 20
-35.77292709622498
 30
0.0
 11
201.0105611265172
 21
-35.77292709622498
 31
0.0
  0
LINE
  5
90A1D26
  8
DETAIL
  6
CONTINUOUS
 62
     5
 10
188.5025602730938
 20
-337.4659076808211
 30
0.0
 11
187.50192020482
 21
-337.4659076808211
 31
0.0
  0
LINE
  5
90A1D27
  8
DETAIL
  6
CONTINUOUS
 62
     5
 10
188.850509508567
 20
-337.5659716876471
 30
0.0
 11
188.5525922765069
 21
-337.5659716876471
 31
0.0
  0
LINE
  5
90A1D28
  8
DETAIL
  6
CONTINUOUS
 62
     5
 10
187.50192020482
 20
-337.4659076808211
 30
0.0
 11
187.50192020482
 21
-349.4735885001082
 31
0.0
  0
LINE
  5
90A1D29
  8
DETAIL
  6
CONTINUOUS
 62
     5
 10
188.5025602730938
 20
-337.4659076808211
 30
0.0
 11
188.5025602730938
 21
-349.4735885001082
 31
0.0
  0
LINE
  5
90A1D2A
  8
DETAIL
  6
CONTINUOUS
 62
     5
 10
188.850509508567
 20
-337.5659716876471
 30
0.0
 11
188.850509508567
 21
-349.3735244932791
 31
0.0
  0
LINE
  5
90A1D2B
  8
DETAIL
  6
CONTINUOUS
 62
     5
 10
199.0092809899688
 20
-35.77292709622498
 30
0.0
 11
199.0092809899688
 21
-380.9937506507372
 31
0.0
  0
LINE
  5
90A1D2C
  8
DETAIL
  6
CONTINUOUS
 62
     5
 10
201.0105611265234
 20
-35.77292709622498
 30
0.0
 11
201.0105611265172
 21
-380.9937506507372
 31
0.0
  0
LINE
  5
90A1D2D
  8
DETAIL
  6
CONTINUOUS
 62
     5
 10
188.850509508567
 20
-349.3735244932791
 30
0.0
 11
188.5525922765069
 21
-349.3735244932791
 31
0.0
  0
LINE
  5
90A1D2E
  8
DETAIL
  6
CONTINUOUS
 62
     5
 10
188.5025602730938
 20
-349.4735885001082
 30
0.0
 11
187.50192020482
 21
-349.4735885001082
 31
0.0
  0
LINE
  5
90A1D2F
  8
DETAIL
  6
CONTINUOUS
 62
     5
 10
211.0169618092571
 20
-35.77292709622407
 30
0.0
 11
211.0169618092571
 21
-380.9937506507372
 31
0.0
  0
LINE
  5
90A1D30
  8
DETAIL
  6
CONTINUOUS
 62
     5
 10
213.0182419458058
 20
-35.77292709622407
 30
0.0
 11
213.0182419458058
 21
-380.9937506507372
 31
0.0
  0
LINE
  5
90A1D31
  8
DETAIL
  6
CONTINUOUS
 62
     5
 10
223.0246426285449
 20
-35.77292709622407
 30
0.0
 11
223.0246426285449
 21
-380.9937506507372
 31
0.0
  0
LINE
  5
90A1D32
  8
DETAIL
  6
CONTINUOUS
 62
     5
 10
225.0259227650874
 20
-35.77292709622407
 30
0.0
 11
225.0259227650938
 21
-380.9937506507372
 31
0.0
  0
LINE
  5
90A1D33
  8
DETAIL
  6
CONTINUOUS
 62
     5
 10
235.0323234478319
 20
-35.77292709622498
 30
0.0
 11
235.0323234478319
 21
-380.9937506507372
 31
0.0
  0
LINE
  5
90A1D34
  8
DETAIL
  6
CONTINUOUS
 62
     5
 10
237.0336035843792
 20
-35.77292709622498
 30
0.0
 11
237.0336035843792
 21
-380.9937506507372
 31
0.0
  0
LINE
  5
90A1D35
  8
DETAIL
  6
CONTINUOUS
 62
     5
 10
235.0323234478319
 20
-380.9937506507372
 30
0.0
 11
237.0336035843792
 21
-380.9937506507372
 31
0.0
  0
LINE
  5
90A1D36
  8
DETAIL
  6
CONTINUOUS
 62
     5
 10
223.0246426285449
 20
-380.9937506507372
 30
0.0
 11
225.0259227650938
 21
-380.9937506507372
 31
0.0
  0
LINE
  5
90A1D37
  8
DETAIL
  6
CONTINUOUS
 62
     5
 10
211.0169618092571
 20
-380.9937506507372
 30
0.0
 11
213.0182419458058
 21
-380.9937506507372
 31
0.0
  0
LINE
  5
90A1D38
  8
DETAIL
  6
CONTINUOUS
 62
     5
 10
199.0092809899688
 20
-380.9937506507372
 30
0.0
 11
201.0105611265172
 21
-380.9937506507372
 31
0.0
  0
LINE
  5
90A1D39
  8
DETAIL
  6
CONTINUOUS
 62
     5
 10
188.5525922765069
 20
-349.3735244932791
 30
0.0
 11
188.5025602730938
 21
-349.3234924898682
 31
0.0
  0
LINE
  5
90A1D3A
  8
DETAIL
  6
CONTINUOUS
 62
     5
 10
188.5525922765069
 20
-337.5659716876471
 30
0.0
 11
188.5525922765069
 21
-349.3735244932791
 31
0.0
  0
LINE
  5
90A1D3B
  8
DETAIL
  6
CONTINUOUS
 62
     5
 10
188.5525922765069
 20
-337.5659716876471
 30
0.0
 11
188.5025602730938
 21
-337.6160036910612
 31
0.0
  0
ARC
  5
90A1D3C
  8
DETAIL
  6
CONTINUOUS
 62
     5
 10
186.0009601024084
 20
-68.29372931512808
 30
0.0
 40
1.500960102410919
 50
8.462954000047928
 51
174.288842000022
  0
ARC
  5
90A1D3D
  8
DETAIL
  6
CONTINUOUS
 62
     5
 10
186.0009601024084
 20
-78.30012999786732
 30
0.0
 40
1.500960102410919
 50
185.711157999978
 51
0.0
  0
ARC
  5
90A1D3E
  8
DETAIL
  6
CONTINUOUS
 62
     5
 10
241.0361638574763
 20
-68.29372931512808
 30
0.0
 40
1.500960102410919
 50
270.0
 51
90.0
  0
LINE
  5
90A1D3F
  8
DETAIL
  6
CONTINUOUS
 62
     5
 10
191.1889186259849
 20
-70.85293967001235
 30
0.0
 11
191.204108342221
 21
-70.84536148922734
 31
0.0
  0
LINE
  5
90A1D40
  8
DETAIL
  6
CONTINUOUS
 62
     5
 10
191.4008275087103
 20
-72.77696372235323
 30
0.0
 11
191.4425608704912
 21
-72.75603700305828
 31
0.0
  0
LINE
  5
90A1D41
  8
DETAIL
  6
CONTINUOUS
 62
     5
 10
191.4535612403082
 20
-71.88411260223438
 30
0.0
 11
191.4008275087103
 21
-71.61544074390304
 31
0.0
  0
LINE
  5
90A1D42
  8
DETAIL
  6
CONTINUOUS
 62
     5
 10
191.486702439369
 20
-72.11706828106117
 30
0.0
 11
191.4535612403082
 21
-71.88411260223438
 31
0.0
  0
LINE
  5
90A1D43
  8
DETAIL
  6
CONTINUOUS
 62
     5
 10
191.5029461631439
 20
-72.30458155892302
 30
0.0
 11
191.486702439369
 21
-72.11706828106117
 31
0.0
  0
LINE
  5
90A1D44
  8
DETAIL
  6
CONTINUOUS
 62
     5
 10
191.5065217836553
 20
-72.4581664675352
 30
0.0
 11
191.5029461631439
 21
-72.30458155892302
 31
0.0
  0
LINE
  5
90A1D45
  8
DETAIL
  6
CONTINUOUS
 62
     5
 10
191.4980763814781
 20
-72.5909847592643
 30
0.0
 11
191.5065217836553
 21
-72.4581664675352
 31
0.0
  0
LINE
  5
90A1D46
  8
DETAIL
  6
CONTINUOUS
 62
     5
 10
191.4764825688062
 20
-72.69326351610925
 30
0.0
 11
191.4980763814781
 21
-72.5909847592643
 31
0.0
  0
LINE
  5
90A1D47
  8
DETAIL
  6
CONTINUOUS
 62
     5
 10
191.4425608704912
 20
-72.75603700305828
 30
0.0
 11
191.4764825688062
 21
-72.69326351610925
 31
0.0
  0
LINE
  5
90A1D48
  8
DETAIL
  6
CONTINUOUS
 62
     5
 10
191.2490771068889
 20
-75.5528460066862
 30
0.0
 11
191.1889186259849
 21
-75.74091297205132
 31
0.0
  0
LINE
  5
90A1D49
  8
DETAIL
  6
CONTINUOUS
 62
     5
 10
191.3046193016122
 20
-75.36251759476636
 30
0.0
 11
191.2490771068889
 21
-75.5528460066862
 31
0.0
  0
LINE
  5
90A1D4A
  8
DETAIL
  6
CONTINUOUS
 62
     5
 10
191.3552717018682
 20
-75.17076160301622
 30
0.0
 11
191.3046193016122
 21
-75.36251759476636
 31
0.0
  0
LINE
  5
90A1D4B
  8
DETAIL
  6
CONTINUOUS
 62
     5
 10
191.4008275087103
 20
-74.97841189815836
 30
0.0
 11
191.3552717018682
 21
-75.17076160301622
 31
0.0
  0
LINE
  5
90A1D4C
  8
DETAIL
  6
CONTINUOUS
 62
     5
 10
191.4008275087103
 20
-74.97841189815836
 30
0.0
 11
191.4535078728362
 21
-74.70999353531215
 31
0.0
  0
LINE
  5
90A1D4D
  8
DETAIL
  6
CONTINUOUS
 62
     5
 10
191.4765692909459
 20
-73.90084262143637
 30
0.0
 11
191.4425675414238
 21
-73.8378223099362
 31
0.0
  0
LINE
  5
90A1D4E
  8
DETAIL
  6
CONTINUOUS
 62
     5
 10
191.4981631036169
 20
-74.00357500177915
 30
0.0
 11
191.4765692909459
 21
-73.90084262143637
 31
0.0
  0
LINE
  5
90A1D4F
  8
DETAIL
  6
CONTINUOUS
 62
     5
 10
191.5065351255219
 20
-74.1367401820653
 30
0.0
 11
191.4981631036169
 21
-74.00357500177915
 31
0.0
  0
LINE
  5
90A1D50
  8
DETAIL
  6
CONTINUOUS
 62
     5
 10
191.5028861247403
 20
-74.2902783941413
 30
0.0
 11
191.5065351255219
 21
-74.1367401820653
 31
0.0
  0
LINE
  5
90A1D51
  8
DETAIL
  6
CONTINUOUS
 62
     5
 10
191.486609046297
 20
-74.47765158239235
 30
0.0
 11
191.5028861247403
 21
-74.2902783941413
 31
0.0
  0
LINE
  5
90A1D52
  8
DETAIL
  6
CONTINUOUS
 62
     5
 10
191.4535078728362
 20
-74.70999353531215
 30
0.0
 11
191.486609046297
 21
-74.47765158239235
 31
0.0
  0
LINE
  5
90A1D53
  8
DETAIL
  6
CONTINUOUS
 62
     5
 10
191.202420595973
 20
-73.46693840409716
 30
0.0
 11
191.2041150131563
 21
-73.29692965649838
 31
0.0
  0
LINE
  5
90A1D54
  8
DETAIL
  6
CONTINUOUS
 62
     5
 10
191.1973440153613
 20
-73.63662694687537
 30
0.0
 11
191.202420595973
 21
-73.46693840409716
 31
0.0
  0
LINE
  5
90A1D55
  8
DETAIL
  6
CONTINUOUS
 62
     5
 10
191.1889186259849
 20
-73.80578181495139
 30
0.0
 11
191.1973440153613
 21
-73.63662694687537
 31
0.0
  0
LINE
  5
90A1D56
  8
DETAIL
  6
CONTINUOUS
 62
     5
 10
191.4008275087103
 20
-72.77696372235323
 30
0.0
 11
191.1889186259849
 21
-72.78807082711
 31
0.0
  0
LINE
  5
90A1D57
  8
DETAIL
  6
CONTINUOUS
 62
     5
 10
191.1973440153613
 20
-72.95720568238312
 30
0.0
 11
191.1889186259849
 21
-72.78807082711
 31
0.0
  0
LINE
  5
90A1D58
  8
DETAIL
  6
CONTINUOUS
 62
     5
 10
191.202420595973
 20
-73.12690089609623
 30
0.0
 11
191.1973440153613
 21
-72.95720568238312
 31
0.0
  0
LINE
  5
90A1D59
  8
DETAIL
  6
CONTINUOUS
 62
     5
 10
191.2041150131563
 20
-73.29692965649838
 30
0.0
 11
191.202420595973
 21
-73.12690089609623
 31
0.0
  0
LINE
  5
90A1D5A
  8
DETAIL
  6
CONTINUOUS
 62
     5
 10
191.3553450821402
 20
-71.42338456013204
 30
0.0
 11
191.4008275087103
 21
-71.61544074390304
 31
0.0
  0
LINE
  5
90A1D5B
  8
DETAIL
  6
CONTINUOUS
 62
     5
 10
191.304645985346
 20
-71.23142176943338
 30
0.0
 11
191.3553450821402
 21
-71.42338456013204
 31
0.0
  0
LINE
  5
90A1D5C
  8
DETAIL
  6
CONTINUOUS
 62
     5
 10
191.4008275087103
 20
-73.81688891970816
 30
0.0
 11
191.1889186259849
 21
-73.80578181495139
 31
0.0
  0
LINE
  5
90A1D5D
  8
DETAIL
  6
CONTINUOUS
 62
     5
 10
241.0361638574763
 20
-69.7946894175393
 30
0.0
 11
237.0336035843792
 21
-69.7946894175393
 31
0.0
  0
LINE
  5
90A1D5E
  8
DETAIL
  6
CONTINUOUS
 62
     5
 10
225.0259227650938
 20
-69.7946894175393
 30
0.0
 11
235.0323234478319
 21
-69.7946894175393
 31
0.0
  0
LINE
  5
90A1D5F
  8
DETAIL
  6
CONTINUOUS
 62
     5
 10
213.0182419458058
 20
-69.7946894175393
 30
0.0
 11
223.0246426285449
 21
-69.7946894175393
 31
0.0
  0
LINE
  5
90A1D60
  8
DETAIL
  6
CONTINUOUS
 62
     5
 10
201.0105611265172
 20
-69.7946894175393
 30
0.0
 11
211.0169618092571
 21
-69.7946894175393
 31
0.0
  0
LINE
  5
90A1D61
  8
DETAIL
  6
CONTINUOUS
 62
     5
 10
190.7087114572189
 20
-69.7946894175393
 30
0.0
 11
199.0092809899688
 21
-69.7946894175393
 31
0.0
  0
LINE
  5
90A1D62
  8
DETAIL
  6
CONTINUOUS
 62
     5
 10
199.0092809899688
 20
-66.7927692127164
 30
0.0
 11
186.0009601024084
 21
-66.7927692127164
 31
0.0
  0
LINE
  5
90A1D63
  8
DETAIL
  6
CONTINUOUS
 62
     5
 10
241.0361638574763
 20
-66.7927692127164
 30
0.0
 11
237.0336035843792
 21
-66.7927692127164
 31
0.0
  0
LINE
  5
90A1D64
  8
DETAIL
  6
CONTINUOUS
 62
     5
 10
225.0259227650938
 20
-66.7927692127164
 30
0.0
 11
235.0323234478319
 21
-66.7927692127164
 31
0.0
  0
LINE
  5
90A1D65
  8
DETAIL
  6
CONTINUOUS
 62
     5
 10
213.0182419458058
 20
-66.7927692127164
 30
0.0
 11
223.0246426285449
 21
-66.7927692127164
 31
0.0
  0
LINE
  5
90A1D66
  8
DETAIL
  6
CONTINUOUS
 62
     5
 10
201.0105611265172
 20
-66.7927692127164
 30
0.0
 11
211.0169618092571
 21
-66.7927692127164
 31
0.0
  0
LINE
  5
90A1D67
  8
DETAIL
  6
CONTINUOUS
 62
     5
 10
191.2490570940893
 20
-71.04093992603839
 30
0.0
 11
191.304645985346
 21
-71.23142176943338
 31
0.0
  0
LINE
  5
90A1D68
  8
DETAIL
  6
CONTINUOUS
 62
     5
 10
191.1889186259849
 20
-70.85293967001235
 30
0.0
 11
191.2490570940893
 21
-71.04093992603839
 31
0.0
  0
LINE
  5
90A1D69
  8
DETAIL
  6
CONTINUOUS
 62
     5
 10
191.4425541995569
 20
-73.83781563900311
 30
0.0
 11
191.4008275087103
 21
-73.81688891970816
 31
0.0
  0
LINE
  5
90A1D6A
  8
DETAIL
  6
CONTINUOUS
 62
     5
 10
191.204108342221
 20
-75.74849115283496
 30
0.0
 11
191.1889186259849
 21
-75.74091297205132
 31
0.0
  0
ARC
  5
90A1D6B
  8
DETAIL
  6
CONTINUOUS
 62
     5
 10
183.8996159590341
 20
-73.29692965649838
 30
0.0
 40
7.704928525709407
 50
309.9831210000647
 51
341.4074349999861
  0
ARC
  5
90A1D6C
  8
DETAIL
  6
CONTINUOUS
 62
     5
 10
183.8996159590341
 20
-73.29692965649838
 30
0.0
 40
7.704928525709407
 50
18.5925650000139
 51
50.01687899993532
  0
LINE
  5
90A1D6D
  8
DETAIL
  6
CONTINUOUS
 62
     5
 10
188.5025602730938
 20
-79.30077006614101
 30
0.0
 11
187.50192020482
 21
-79.30077006614101
 31
0.0
  0
LINE
  5
90A1D6E
  8
DETAIL
  6
CONTINUOUS
 62
     5
 10
188.850509508567
 20
-79.20070605931414
 30
0.0
 11
188.5525922765069
 21
-79.20070605931414
 31
0.0
  0
LINE
  5
90A1D6F
  8
DETAIL
  6
CONTINUOUS
 62
     5
 10
187.50192020482
 20
-79.30077006614101
 30
0.0
 11
187.50192020482
 21
-67.2930892468521
 31
0.0
  0
LINE
  5
90A1D70
  8
DETAIL
  6
CONTINUOUS
 62
     5
 10
188.5025602730938
 20
-79.30077006614101
 30
0.0
 11
188.5025602730938
 21
-67.2930892468521
 31
0.0
  0
LINE
  5
90A1D71
  8
DETAIL
  6
CONTINUOUS
 62
     5
 10
188.850509508567
 20
-79.20070605931414
 30
0.0
 11
188.850509508567
 21
-67.39315325368216
 31
0.0
  0
LINE
  5
90A1D72
  8
DETAIL
  6
CONTINUOUS
 62
     5
 10
188.850509508567
 20
-67.39315325368216
 30
0.0
 11
188.5525922765069
 21
-67.39315325368216
 31
0.0
  0
LINE
  5
90A1D73
  8
DETAIL
  6
CONTINUOUS
 62
     5
 10
188.5025602730938
 20
-67.2930892468521
 30
0.0
 11
187.50192020482
 21
-67.2930892468521
 31
0.0
  0
LINE
  5
90A1D74
  8
DETAIL
  6
CONTINUOUS
 62
     5
 10
188.5525922765069
 20
-67.39315325368216
 30
0.0
 11
188.5025602730938
 21
-67.44318525709423
 31
0.0
  0
LINE
  5
90A1D75
  8
DETAIL
  6
CONTINUOUS
 62
     5
 10
188.5525922765069
 20
-79.20070605931414
 30
0.0
 11
188.5525922765069
 21
-67.39315325368216
 31
0.0
  0
LINE
  5
90A1D76
  8
DETAIL
  6
CONTINUOUS
 62
     5
 10
188.5525922765069
 20
-79.20070605931414
 30
0.0
 11
188.5025602730938
 21
-79.15067405590116
 31
0.0
  0
ARC
  5
90A1D77
  8
DETAIL
  6
CONTINUOUS
 62
     5
 10
241.0361638574763
 20
-208.383338873482
 30
0.0
 40
1.500960102410919
 50
270.0
 51
90.0
  0
LINE
  5
90A1D78
  8
DETAIL
  6
CONTINUOUS
 62
     5
 10
241.0361638574763
 20
-206.8823787710703
 30
0.0
 11
237.0336035843792
 21
-206.8823787710703
 31
0.0
  0
LINE
  5
90A1D79
  8
DETAIL
  6
CONTINUOUS
 62
     5
 10
225.0259227650938
 20
-206.8823787710703
 30
0.0
 11
235.0323234478319
 21
-206.8823787710703
 31
0.0
  0
LINE
  5
90A1D7A
  8
DETAIL
  6
CONTINUOUS
 62
     5
 10
213.0182419458058
 20
-206.8823787710703
 30
0.0
 11
223.0246426285449
 21
-206.8823787710703
 31
0.0
  0
LINE
  5
90A1D7B
  8
DETAIL
  6
CONTINUOUS
 62
     5
 10
201.0105611265172
 20
-206.8823787710703
 30
0.0
 11
211.0169618092571
 21
-206.8823787710703
 31
0.0
  0
LINE
  5
90A1D7C
  8
DETAIL
  6
CONTINUOUS
 62
     5
 10
184.4999999999998
 20
-206.8823787710703
 30
0.0
 11
199.0092809899688
 21
-206.8823787710703
 31
0.0
  0
LINE
  5
90A1D7D
  8
DETAIL
  6
CONTINUOUS
 62
     5
 10
199.0092809899688
 20
-209.8842989758932
 30
0.0
 11
184.4999999999983
 21
-209.8842989758932
 31
0.0
  0
LINE
  5
90A1D7E
  8
DETAIL
  6
CONTINUOUS
 62
     5
 10
241.0361638574763
 20
-209.8842989758932
 30
0.0
 11
237.0336035843792
 21
-209.8842989758932
 31
0.0
  0
LINE
  5
90A1D7F
  8
DETAIL
  6
CONTINUOUS
 62
     5
 10
225.0259227650938
 20
-209.8842989758932
 30
0.0
 11
235.0323234478319
 21
-209.8842989758932
 31
0.0
  0
LINE
  5
90A1D80
  8
DETAIL
  6
CONTINUOUS
 62
     5
 10
213.0182419458058
 20
-209.8842989758932
 30
0.0
 11
223.0246426285449
 21
-209.8842989758932
 31
0.0
  0
LINE
  5
90A1D81
  8
DETAIL
  6
CONTINUOUS
 62
     5
 10
201.0105611265172
 20
-209.8842989758932
 30
0.0
 11
211.0169618092571
 21
-209.8842989758932
 31
0.0
  0
LINE
  5
90A1D82
  8
DETAIL
  6
CONTINUOUS
 62
     5
 10
194.5064006827373
 20
-209.8842989758932
 30
0.0
 11
194.5064006827373
 21
-346.9719883294222
 31
0.0
  0
LINE
  5
90A1D83
  8
NOTE
  6
CONTINUOUS
 62
     4
 10
120.4945258280854
 20
-353.0000000000011
 30
0.0
 11
90.50419403536955
 21
-353.0000000000011
 31
0.0
  0
LINE
  5
90A1D84
  8
NOTE
  6
CONTINUOUS
 62
     4
 10
105.4993599317273
 20
-337.8048341036431
 30
0.0
 11
105.4993599317273
 21
-368.1951658963592
 31
0.0
  0
LINE
  5
90A1D85
  8
NOTE
  6
CONTINUOUS
 62
     4
 10
-17.50547417191603
 20
-366.0000000000023
 30
0.0
 11
-47.49580596463181
 21
-366.0000000000023
 31
0.0
  0
LINE
  5
90A1D86
  8
NOTE
  6
CONTINUOUS
 62
     4
 10
-32.50064006827517
 20
-350.8048341036442
 30
0.0
 11
-32.50064006827517
 21
-381.1951658963601
 31
0.0
  0
DIMENSION
  5
90A1D87
  8
SIZE
  2
*D5
 10
-185.5006400682741
 20
-734.5964806907141
 30
0.0
 11
-341.6806400682741
 21
-689.5964806907141
 31
0.0
 70
    32
  3
STANDARD
 13
-32.50064006827517
 23
-381.1951658963601
 33
0.0
 14
-185.5006400682742
 24
-106.2581464255832
 34
0.0
 50
180.0
 52
-270.0
1001
ACAD
1000
DSTYLE
1002
{
1070
   345
1005
13
1070
   346
1005
13
1070
   347
1005
13
1002
}
  0
DIMENSION
  5
90A1D88
  8
SIZE
  2
*D6
 10
105.4993599317274
 20
-1000.649584077511
 30
0.0
 11
264.6793599317274
 21
-955.6495840775112
 31
0.0
 70
    32
  3
STANDARD
 13
-185.5006400682742
 23
-106.2581464255832
 33
0.0
 14
105.4993599317273
 24
-368.1951658963592
 34
0.0
 50
180.0
 52
-270.0
1001
ACAD
1000
DSTYLE
1002
{
1070
   345
1005
13
1070
   346
1005
13
1070
   347
1005
13
1002
}
  0
DIMENSION
  5
90A1D89
  8
SIZE
  2
*D7
 10
-613.6271016822564
 20
-366.0000000000022
 30
0.0
 11
-658.6271016822564
 21
-178.0000000000022
 31
0.0
 70
    32
  3
STANDARD
 13
-234.5
 23
9.999999999997726
 33
0.0
 14
-47.49580596463181
 24
-366.0000000000023
 34
0.0
 50
90.0
1001
ACAD
1000
DSTYLE
1002
{
1070
   345
1005
13
1070
   346
1005
13
1070
   347
1005
13
1002
}
  0
DIMENSION
  5
90A1D8A
  8
SIZE
  2
*D8
 10
-499.6442472160508
 20
-353.0000000000011
 30
0.0
 11
-544.6442472160508
 21
-171.5000000000016
 31
0.0
 70
    32
  3
STANDARD
 13
-234.5
 23
9.999999999997726
 33
0.0
 14
90.50419403536955
 24
-353.0000000000011
 34
0.0
 50
90.0
1001
ACAD
1000
DSTYLE
1002
{
1070
   345
1005
13
1070
   346
1005
13
1070
   347
1005
13
1002
}
  0
TEXT
  5
90A1D8B
  8
NOTE
  6
CONTINUOUS
 62
     4
 10
307.4498704315856
 20
-537.6259876952922
 30
0.0
 40
64.0
  1
RL %%C12.7
 50
0.0000030783246592
 41
0.7
  7
STANDARD1
  0
TEXT
  5
90A1D8D
  8
NOTE
  6
CONTINUOUS
 62
     4
 10
-855.3269003729529
 20
-697.8662089459092
 30
0.0
 40
64.0
  1
均圧管 %%C6.35
 50
0.0000030783246592
 41
0.7
  7
STANDARD1
  0
TEXT
  5
90A1D8F
  8
ETC
  6
CONTINUOUS
 62
    61
 10
-1248.474392067335
 20
623.8950864640128
 30
0.0
 40
79.99999999999999
  1
UCL-A4_5VHA_5
 50
0.0000029575586669
 41
0.8000000000000002
  7
STANDARD_MODELNAME
  0
TEXT
  5
90A1D90
  8
ETC
  6
CONTINUOUS
 62
    61
 10
-1248.474392067335
 20
751.616381236503
 30
0.0
 40
79.99999999999999
  1
UCH-A4_5VNA_5
 50
0.0000029575586669
 41
0.8000000000000002
  7
STANDARD_MODELNAME
  0
LINE
  5
90A21F2
  8
NOTE
 10
-51.51729886839939
 20
-374.1905674680302
 30
0.0
 11
-32.50064006827517
 21
-366.0000000000023
 31
0.0
  0
LINE
  5
90A21F3
  8
NOTE
 10
-32.50064006827517
 20
-366.0000000000023
 30
0.0
 11
-44.8742660255831
 21
-382.6015688426533
 31
0.0
  0
LINE
  5
90A21F4
  8
NOTE
 10
-32.50064006827517
 20
-366.0000000000023
 30
0.0
 11
-48.1957824469913
 21
-378.3960681553422
 31
0.0
  0
LINE
  5
90A21F5
  8
NOTE
 10
-48.1957824469913
 20
-378.3960681553422
 30
0.0
 11
-467.671791826042
 21
-709.6994151606002
 31
0.0
1001
ACAD
1000
DSTYLE
1002
{
1070
   147
1040
20.0
1070
    77
1070
     0
1070
   345
1005
13
1070
   346
1005
13
1070
   347
1005
13
1002
}
  0
LINE
  5
90A21F6
  8
NOTE
 10
-467.671791826042
 20
-709.6994151606002
 30
0.0
 11
-860.1915140853121
 21
-709.6994151606002
 31
0.0
1001
ACAD
1000
DSTYLE
1002
{
1070
   147
1040
20.0
1070
    77
1070
     0
1070
   345
1005
13
1070
   346
1005
13
1070
   347
1005
13
1002
}
  0
LINE
  5
90A21FB
  8
NOTE
 10
-259.7755643456133
 20
-404.9095752805081
 30
0.0
 11
-464.7927018394075
 21
-578.1721867551503
 31
0.0
1001
ACAD
1000
DSTYLE
1002
{
1070
   147
1040
20.0
1070
    77
1070
     0
1070
   345
1005
13
1070
   346
1005
13
1070
   347
1005
13
1002
}
  0
LINE
  5
90A21FC
  8
NOTE
 10
-464.7927018394075
 20
-578.1721867551503
 30
0.0
 11
-845.4286910507785
 21
-578.1721867551503
 31
0.0
1001
ACAD
1000
DSTYLE
1002
{
1070
   147
1040
20.0
1070
    77
1070
     0
1070
   345
1005
13
1070
   346
1005
13
1070
   347
1005
13
1002
}
  0
LINE
  5
90A21FD
  8
NOTE
 10
-263.2346745852687
 20
-400.8165001873081
 30
0.0
 11
-244.5000000000002
 21
-392.0000000000023
 31
0.0
  0
LINE
  5
90A21FE
  8
NOTE
 10
-244.5000000000002
 20
-392.0000000000023
 30
0.0
 11
-256.3164541059578
 21
-409.0026503737072
 31
0.0
  0
LINE
  5
90A21FF
  8
NOTE
 10
-244.5000000000002
 20
-392.0000000000023
 30
0.0
 11
-259.7755643456133
 21
-404.9095752805081
 31
0.0
  0
LINE
  5
90A2200
  8
NOTE
 10
119.4067743103149
 20
-367.3730242225602
 30
0.0
 11
300.2334440148666
 21
-554.2536357436861
 31
0.0
1001
ACAD
1000
DSTYLE
1002
{
1070
   147
1040
20.0
1070
    77
1070
     0
1070
   345
1005
13
1070
   346
1005
13
1070
   347
1005
13
1002
}
  0
LINE
  5
90A2201
  8
NOTE
 10
300.2334440148666
 20
-554.2536357436861
 30
0.0
 11
630.7937069715706
 21
-554.2536357436861
 31
0.0
1001
ACAD
1000
DSTYLE
1002
{
1070
   147
1040
20.0
1070
    77
1070
     0
1070
   345
1005
13
1070
   346
1005
13
1070
   347
1005
13
1002
}
  0
LINE
  5
90A2202
  8
NOTE
 10
115.5555341120298
 20
-371.0995046402973
 30
0.0
 11
105.4993599317273
 21
-353.0000000000011
 31
0.0
  0
LINE
  5
90A2203
  8
NOTE
 10
105.4993599317273
 20
-353.0000000000011
 30
0.0
 11
123.2580145085998
 21
-363.6465438048231
 31
0.0
  0
LINE
  5
90A2204
  8
NOTE
 10
105.4993599317273
 20
-353.0000000000011
 30
0.0
 11
119.4067743103149
 21
-367.3730242225602
 31
0.0
  0
ENDSEC
  0
EOF
